  0
SECTION
  2
HEADER
  9
$ACADVER
  1
AC1014
  9
$ACADMAINTVER
 70
     9
  9
$DWGCODEPAGE
  3
ANSI_932
  9
$INSBASE
 10
0.0
 20
0.0
 30
0.0
  9
$EXTMIN
 10
-213.5423701798512
 20
-327.0197350359527
 30
0.0
  9
$EXTMAX
 10
299.4540509999997
 20
263.9085399999994
 30
0.0
  9
$LIMMIN
 10
-268.3338899999998
 20
-309.84985
  9
$LIMMAX
 10
258.8222999999999
 20
297.20996
  9
$ORTHOMODE
 70
     0
  9
$REGENMODE
 70
     1
  9
$FILLMODE
 70
     1
  9
$QTEXTMODE
 70
     0
  9
$MIRRTEXT
 70
     1
  9
$DRAGMODE
 70
     2
  9
$LTSCALE
 40
1.0
  9
$OSMODE
 70
    37
  9
$ATTMODE
 70
     1
  9
$TEXTSIZE
 40
0.2
  9
$TRACEWID
 40
0.05
  9
$TEXTSTYLE
  7
STANDARD
  9
$CLAYER
  8
0
  9
$CELTYPE
  6
CONTINUOUS
  9
$CECOLOR
 62
   256
  9
$CELTSCALE
 40
1.0
  9
$DELOBJ
 70
     1
  9
$DISPSILH
 70
     0
  9
$DIMSCALE
 40
1.0
  9
$DIMASZ
 40
1.0
  9
$DIMEXO
 40
2.54
  9
$DIMDLI
 40
0.38
  9
$DIMRND
 40
0.0
  9
$DIMDLE
 40
0.0
  9
$DIMEXE
 40
2.54
  9
$DIMTP
 40
0.0
  9
$DIMTM
 40
0.0
  9
$DIMTXT
 40
3.2
  9
$DIMCEN
 40
0.09
  9
$DIMTSZ
 40
0.0
  9
$DIMTOL
 70
     0
  9
$DIMLIM
 70
     0
  9
$DIMTIH
 70
     0
  9
$DIMTOH
 70
     0
  9
$DIMSE1
 70
     0
  9
$DIMSE2
 70
     0
  9
$DIMTAD
 70
     1
  9
$DIMZIN
 70
     0
  9
$DIMBLK
  1

  9
$DIMASO
 70
     1
  9
$DIMSHO
 70
     0
  9
$DIMPOST
  1

  9
$DIMAPOST
  1

  9
$DIMALT
 70
     0
  9
$DIMALTD
 70
     2
  9
$DIMALTF
 40
25.4
  9
$DIMLFAC
 40
1.0
  9
$DIMTOFL
 70
     0
  9
$DIMTVP
 40
1.0
  9
$DIMTIX
 70
     0
  9
$DIMSOXD
 70
     0
  9
$DIMSAH
 70
     1
  9
$DIMBLK1
  1

  9
$DIMBLK2
  1

  9
$DIMSTYLE
  2
DIMSTYLE
  9
$DIMCLRD
 70
     0
  9
$DIMCLRE
 70
     0
  9
$DIMCLRT
 70
     0
  9
$DIMTFAC
 40
1.0
  9
$DIMGAP
 40
1.6
  9
$DIMJUST
 70
     0
  9
$DIMSD1
 70
     0
  9
$DIMSD2
 70
     0
  9
$DIMTOLJ
 70
     1
  9
$DIMTZIN
 70
     0
  9
$DIMALTZ
 70
     0
  9
$DIMALTTZ
 70
     0
  9
$DIMFIT
 70
     3
  9
$DIMUPT
 70
     0
  9
$DIMUNIT
 70
     2
  9
$DIMDEC
 70
     2
  9
$DIMTDEC
 70
     4
  9
$DIMALTU
 70
     2
  9
$DIMALTTD
 70
     2
  9
$DIMTXSTY
  7
STANDARD
  9
$DIMAUNIT
 70
     1
  9
$LUNITS
 70
     2
  9
$LUPREC
 70
     4
  9
$SKETCHINC
 40
0.1
  9
$FILLETRAD
 40
0.0
  9
$AUNITS
 70
     0
  9
$AUPREC
 70
     0
  9
$MENU
  1
.
  9
$ELEVATION
 40
0.0
  9
$PELEVATION
 40
0.0
  9
$THICKNESS
 40
0.0
  9
$LIMCHECK
 70
     0
  9
$BLIPMODE
 70
     0
  9
$CHAMFERA
 40
0.0
  9
$CHAMFERB
 40
0.0
  9
$CHAMFERC
 40
0.0
  9
$CHAMFERD
 40
0.0
  9
$SKPOLY
 70
     0
  9
$TDCREATE
 40
2452886.477205937
  9
$TDUPDATE
 40
2454531.446833576
  9
$TDINDWG
 40
0.0017105787
  9
$TDUSRTIMER
 40
0.0017105787
  9
$USRTIMER
 70
     1
  9
$ANGBASE
 50
0.0
  9
$ANGDIR
 70
     0
  9
$PDMODE
 70
     0
  9
$PDSIZE
 40
0.0
  9
$PLINEWID
 40
0.0
  9
$COORDS
 70
     1
  9
$SPLFRAME
 70
     0
  9
$SPLINETYPE
 70
     6
  9
$SPLINESEGS
 70
     8
  9
$ATTDIA
 70
     0
  9
$ATTREQ
 70
     1
  9
$HANDLING
 70
     1
  9
$HANDSEED
  5
1D2
  9
$SURFTAB1
 70
     6
  9
$SURFTAB2
 70
     6
  9
$SURFTYPE
 70
     6
  9
$SURFU
 70
     6
  9
$SURFV
 70
     6
  9
$UCSNAME
  2

  9
$UCSORG
 10
0.0
 20
0.0
 30
0.0
  9
$UCSXDIR
 10
1.0
 20
0.0
 30
0.0
  9
$UCSYDIR
 10
0.0
 20
1.0
 30
0.0
  9
$PUCSNAME
  2

  9
$PUCSORG
 10
0.0
 20
0.0
 30
0.0
  9
$PUCSXDIR
 10
1.0
 20
0.0
 30
0.0
  9
$PUCSYDIR
 10
0.0
 20
1.0
 30
0.0
  9
$USERI1
 70
     0
  9
$USERI2
 70
     0
  9
$USERI3
 70
     0
  9
$USERI4
 70
     0
  9
$USERI5
 70
     0
  9
$USERR1
 40
0.0
  9
$USERR2
 40
0.0
  9
$USERR3
 40
0.0
  9
$USERR4
 40
0.0
  9
$USERR5
 40
0.0
  9
$WORLDVIEW
 70
     1
  9
$SHADEDGE
 70
     3
  9
$SHADEDIF
 70
    70
  9
$TILEMODE
 70
     1
  9
$MAXACTVP
 70
    64
  9
$PINSBASE
 10
0.0
 20
0.0
 30
0.0
  9
$PLIMCHECK
 70
     0
  9
$PEXTMIN
 10
1.000000000000000E+20
 20
1.000000000000000E+20
 30
1.000000000000000E+20
  9
$PEXTMAX
 10
-1.000000000000000E+20
 20
-1.000000000000000E+20
 30
-1.000000000000000E+20
  9
$PLIMMIN
 10
-268.3338899999998
 20
-309.84985
  9
$PLIMMAX
 10
258.8222999999999
 20
297.20996
  9
$UNITMODE
 70
     0
  9
$VISRETAIN
 70
     1
  9
$PLINEGEN
 70
     0
  9
$PSLTSCALE
 70
     1
  9
$TREEDEPTH
 70
  3020
  9
$PICKSTYLE
 70
     1
  9
$CMLSTYLE
  2
STANDARD
  9
$CMLJUST
 70
     0
  9
$CMLSCALE
 40
1.0
  9
$PROXYGRAPHICS
 70
     1
  9
$MEASUREMENT
 70
     0
  0
ENDSEC
  0
SECTION
  2
CLASSES
  0
CLASS
  1
ACDBDICTIONARYWDFLT
  2
AcDbDictionaryWithDefault
  3
AutoCAD 2000
 90
        0
280
     0
281
     0
  0
CLASS
  1
ACDBPLACEHOLDER
  2
AcDbPlaceHolder
  3
AutoCAD 2000
 90
        0
280
     0
281
     0
  0
CLASS
  1
LAYOUT
  2
AcDbLayout
  3
AutoCAD 2000
 90
        0
280
     0
281
     0
  0
CLASS
  1
DICTIONARYVAR
  2
AcDbDictionaryVar
  3
AutoCAD 2000
 90
        0
280
     0
281
     0
  0
CLASS
  1
LONG_TRANSACTION
  2
AcDbLongTransaction
  3
AutoCAD 2000
 90
        0
280
     0
281
     0
  0
CLASS
  1
LWPOLYLINE
  2
AcDbPolyline
  3
AutoCAD 2000
 90
        0
280
     0
281
     1
  0
CLASS
  1
HATCH
  2
AcDbHatch
  3
AutoCAD 2000
 90
        0
280
     0
281
     1
  0
CLASS
  1
XRECORD
  2
AcDbXrecord
  3
AutoCAD 2000
 90
        0
280
     0
281
     0
  0
CLASS
  1
LONG_TRANSACTION
  2
AcDbLongTransaction
  3
AutoCAD 2000
 90
        0
280
     0
281
     0
  0
CLASS
  1
LWPOLYLINE
  2
AcDbPolyline
  3
AutoCAD 2000
 90
        0
280
     0
281
     1
  0
CLASS
  1
HATCH
  2
AcDbHatch
  3
AutoCAD 2000
 90
        0
280
     0
281
     1
  0
CLASS
  1
XRECORD
  2
AcDbXrecord
  3
AutoCAD 2000
 90
        0
280
     0
281
     0
  0
CLASS
  1
LONG_TRANSACTION
  2
AcDbLongTransaction
  3
AutoCAD 2000
 90
        0
280
     0
281
     0
  0
CLASS
  1
LWPOLYLINE
  2
AcDbPolyline
  3
AutoCAD 2000
 90
        0
280
     0
281
     1
  0
CLASS
  1
HATCH
  2
AcDbHatch
  3
AutoCAD 2000
 90
        0
280
     0
281
     1
  0
CLASS
  1
XRECORD
  2
AcDbXrecord
  3
AutoCAD 2000
 90
        0
280
     0
281
     0
  0
CLASS
  1
LONG_TRANSACTION
  2
AcDbLongTransaction
  3
AutoCAD 2000
 90
        0
280
     0
281
     0
  0
CLASS
  1
LWPOLYLINE
  2
AcDbPolyline
  3
AutoCAD 2000
 90
        0
280
     0
281
     1
  0
CLASS
  1
HATCH
  2
AcDbHatch
  3
AutoCAD 2000
 90
        0
280
     0
281
     1
  0
CLASS
  1
XRECORD
  2
AcDbXrecord
  3
AutoCAD 2000
 90
        0
280
     0
281
     0
  0
CLASS
  1
LONG_TRANSACTION
  2
AcDbLongTransaction
  3
AutoCAD 2000
 90
        0
280
     0
281
     0
  0
CLASS
  1
LWPOLYLINE
  2
AcDbPolyline
  3
AutoCAD 2000
 90
        0
280
     0
281
     1
  0
CLASS
  1
HATCH
  2
AcDbHatch
  3
AutoCAD 2000
 90
        0
280
     0
281
     1
  0
CLASS
  1
XRECORD
  2
AcDbXrecord
  3
AutoCAD 2000
 90
        0
280
     0
281
     0
  0
CLASS
  1
LONG_TRANSACTION
  2
AcDbLongTransaction
  3
AutoCAD 2000
 90
        0
280
     0
281
     0
  0
CLASS
  1
LWPOLYLINE
  2
AcDbPolyline
  3
AutoCAD 2000
 90
        0
280
     0
281
     1
  0
CLASS
  1
HATCH
  2
AcDbHatch
  3
AutoCAD 2000
 90
        0
280
     0
281
     1
  0
CLASS
  1
XRECORD
  2
AcDbXrecord
  3
AutoCAD 2000
 90
        0
280
     0
281
     0
  0
ENDSEC
  0
SECTION
  2
TABLES
  0
TABLE
  2
VPORT
  5
42
330
0
100
AcDbSymbolTable
 70
     2
  0
VPORT
  5
1AF
330
42
100
AcDbSymbolTableRecord
100
AcDbViewportTableRecord
  2
*ACTIVE
 70
     0
 10
0.0
 20
0.0
 11
1.0
 21
1.0
 12
42.95921154462362
 22
-9.55416502417373
 13
0.0
 23
0.0
 14
1.0
 24
1.0
 15
0.0
 25
0.0
 16
0.0
 26
0.0
 36
1.0
 17
0.0
 27
0.0
 37
0.0
 40
640.1108436408329
 41
1.621593291404612
 42
50.0
 43
0.0
 44
0.0
 50
0.0
 51
0.0
 71
     0
 72
   100
 73
     1
 74
     3
 75
     0
 76
     0
 77
     0
 78
     0
  0
ENDTAB
  0
TABLE
  2
LTYPE
  5
23
330
0
100
AcDbSymbolTable
 70
     6
  0
LTYPE
  5
24
330
23
100
AcDbSymbolTableRecord
100
AcDbLinetypeTableRecord
  2
BYBLOCK
 70
     0
  3

 72
    65
 73
     0
 40
0.0
  0
LTYPE
  5
25
330
23
100
AcDbSymbolTableRecord
100
AcDbLinetypeTableRecord
  2
BYLAYER
 70
     0
  3

 72
    65
 73
     0
 40
0.0
  0
LTYPE
  5
26
330
23
100
AcDbSymbolTableRecord
100
AcDbLinetypeTableRecord
  2
CONTINUOUS
 70
     0
  3
Solid line
 72
    65
 73
     0
 40
0.0
  0
LTYPE
  5
27
330
23
100
AcDbSymbolTableRecord
100
AcDbLinetypeTableRecord
  2
DASHED
 70
     0
  3
__ __ __ __ __ __ __ __ __ __ __ __ __ __ __
 72
    65
 73
     2
 40
3.5
 49
2.0
 74
     0
 49
-1.5
 74
     0
  0
LTYPE
  5
28
330
23
100
AcDbSymbolTableRecord
100
AcDbLinetypeTableRecord
  2
CENTER
 70
     0
  3
____ _ ____ _ ____ _ ____ _ ____ _ ____ _ ____
 72
    65
 73
     4
 40
17.5
 49
13.0
 74
     0
 49
-1.5
 74
     0
 49
1.5
 74
     0
 49
-1.5
 74
     0
  0
LTYPE
  5
29
330
23
100
AcDbSymbolTableRecord
100
AcDbLinetypeTableRecord
  2
PHANTOM
 70
     0
  3
_____ _ _ _____ _ _ _____ _ _ _____ _ _ ____  
 72
    65
 73
     6
 40
15.5
 49
8.0
 74
     0
 49
-1.5
 74
     0
 49
1.5
 74
     0
 49
-1.5
 74
     0
 49
1.5
 74
     0
 49
-1.5
 74
     0
  0
LTYPE
  5
2A
330
23
100
AcDbSymbolTableRecord
100
AcDbLinetypeTableRecord
  2
DOT
 70
     0
  3
. . . . . . . . . . . . . . . . . . . . . . . .
 72
    65
 73
     2
 40
0.25
 49
0.0
 74
     0
 49
-0.25
 74
     0
  0
LTYPE
  5
2B
330
23
100
AcDbSymbolTableRecord
100
AcDbLinetypeTableRecord
  2
HIDDEN
 70
     0
  3
__ __ __ __ __ __ __ __ __ __ __ __ __ __ __
 72
    65
 73
     2
 40
3.5
 49
2.0
 74
     0
 49
-1.5
 74
     0
  0
ENDTAB
  0
TABLE
  2
LAYER
  5
2C
330
0
100
AcDbSymbolTable
 70
     2
  0
LAYER
  5
2D
330
2C
100
AcDbSymbolTableRecord
100
AcDbLayerTableRecord
  2
0
 70
     0
 62
     7
  6
CONTINUOUS
  0
LAYER
  5
2E
330
2C
100
AcDbSymbolTableRecord
100
AcDbLayerTableRecord
  2
DEFPOINTS
 70
     0
 62
     7
  6
CONTINUOUS
  0
ENDTAB
  0
TABLE
  2
STYLE
  5
2F
330
0
100
AcDbSymbolTable
 70
     1
  0
STYLE
  5
30
330
2F
100
AcDbSymbolTableRecord
100
AcDbTextStyleTableRecord
  2
STANDARD
 70
     0
 40
0.0
 41
1.0
 50
0.0
 71
     0
 42
0.2
  3
txt
  4
BIGFONT
  0
ENDTAB
  0
TABLE
  2
VIEW
  5
35
330
0
100
AcDbSymbolTable
 70
     0
  0
ENDTAB
  0
TABLE
  2
UCS
  5
36
330
0
100
AcDbSymbolTable
 70
     0
  0
ENDTAB
  0
TABLE
  2
APPID
  5
33
330
0
100
AcDbSymbolTable
 70
     1
  0
APPID
  5
34
330
33
100
AcDbSymbolTableRecord
100
AcDbRegAppTableRecord
  2
ACAD
 70
     0
  0
ENDTAB
  0
TABLE
  2
DIMSTYLE
  5
31
330
0
100
AcDbSymbolTable
 70
     2
  0
DIMSTYLE
105
32
102
{ACAD_REACTORS
330
D8
330
D9
330
DA
330
DB
330
DC
330
DD
102
}
330
31
100
AcDbSymbolTableRecord
100
AcDbDimStyleTableRecord
  2
DIMSTYLE
 70
     0
  3

  4

  5
OPEN30
  6
OPEN30
  7
OPEN30
 40
1.0
 41
1.0
 42
2.54
 43
0.38
 44
2.54
 45
0.0
 46
0.0
 47
0.0
 48
0.0
140
3.2
141
0.09
142
0.0
143
25.4
144
1.0
145
0.0
146
1.0
147
1.6
 71
     0
 72
     0
 73
     0
 74
     0
 75
     0
 76
     0
 77
     0
 78
     0
170
     0
171
     2
172
     0
173
     1
174
     0
175
     0
176
     0
177
     0
178
     0
270
     2
271
     2
272
     4
273
     2
274
     2
340
30
275
     1
280
     0
281
     0
282
     0
283
     1
284
     0
285
     0
286
     0
287
     3
288
     0
  0
DIMSTYLE
105
17E
330
31
100
AcDbSymbolTableRecord
100
AcDbDimStyleTableRecord
  2
STANDARD
 70
     0
  3

  4

  5

  6

  7

 40
1.0
 41
0.18
 42
0.0625
 43
0.38
 44
0.18
 45
0.0
 46
0.0
 47
0.0
 48
0.0
140
0.18
141
0.09
142
0.0
143
25.4
144
1.0
145
0.0
146
1.0
147
0.09
 71
     0
 72
     0
 73
     1
 74
     1
 75
     0
 76
     0
 77
     0
 78
     0
170
     0
171
     2
172
     0
173
     0
174
     0
175
     0
176
     0
177
     0
178
     0
270
     2
271
     4
272
     4
273
     2
274
     2
340
30
275
     0
280
     0
281
     0
282
     0
283
     1
284
     0
285
     0
286
     0
287
     3
288
     0
  0
ENDTAB
  0
TABLE
  2
BLOCK_RECORD
  5
37
330
0
100
AcDbSymbolTable
 70
     8
  0
BLOCK_RECORD
  5
38
102
{ACAD_XDICTIONARY
360
F1
102
}
330
37
100
AcDbSymbolTableRecord
100
AcDbBlockTableRecord
  2
*MODEL_SPACE
  0
BLOCK_RECORD
  5
39
102
{ACAD_XDICTIONARY
360
F3
102
}
330
37
100
AcDbSymbolTableRecord
100
AcDbBlockTableRecord
  2
*PAPER_SPACE
  0
BLOCK_RECORD
  5
3A
330
37
100
AcDbSymbolTableRecord
100
AcDbBlockTableRecord
  2
_NONE
  0
BLOCK_RECORD
  5
3B
330
37
100
AcDbSymbolTableRecord
100
AcDbBlockTableRecord
  2
_OPEN30
  0
BLOCK_RECORD
  5
3C
330
37
100
AcDbSymbolTableRecord
100
AcDbBlockTableRecord
  2
*D2
  0
BLOCK_RECORD
  5
3D
330
37
100
AcDbSymbolTableRecord
100
AcDbBlockTableRecord
  2
*D3
  0
BLOCK_RECORD
  5
3E
330
37
100
AcDbSymbolTableRecord
100
AcDbBlockTableRecord
  2
*D4
  0
BLOCK_RECORD
  5
3F
330
37
100
AcDbSymbolTableRecord
100
AcDbBlockTableRecord
  2
*D5
  0
BLOCK_RECORD
  5
40
330
37
100
AcDbSymbolTableRecord
100
AcDbBlockTableRecord
  2
*D6
  0
BLOCK_RECORD
  5
41
330
37
100
AcDbSymbolTableRecord
100
AcDbBlockTableRecord
  2
*D7
  0
ENDTAB
  0
ENDSEC
  0
SECTION
  2
BLOCKS
  0
BLOCK
  5
43
330
38
100
AcDbEntity
  8
0
100
AcDbBlockBegin
  2
*MODEL_SPACE
 70
     0
 10
0.0
 20
0.0
 30
0.0
  3
*MODEL_SPACE
  1

  0
ENDBLK
  5
44
330
38
100
AcDbEntity
  8
0
100
AcDbBlockEnd
  0
BLOCK
  5
45
330
39
100
AcDbEntity
 67
     1
  8
0
100
AcDbBlockBegin
  2
*PAPER_SPACE
 70
     0
 10
0.0
 20
0.0
 30
0.0
  3
*PAPER_SPACE
  1

  0
ENDBLK
  5
46
330
39
100
AcDbEntity
 67
     1
  8
0
100
AcDbBlockEnd
  0
BLOCK
  5
47
330
3A
100
AcDbEntity
  8
0
100
AcDbBlockBegin
  2
_NONE
 70
     0
 10
0.0
 20
0.0
 30
0.0
  3
_NONE
  1

  0
CIRCLE
  5
48
330
3A
100
AcDbEntity
  8
0
  6
BYBLOCK
 62
     0
100
AcDbCircle
 10
0.0
 20
0.0
 30
0.0
 40
0.001
  0
ENDBLK
  5
49
330
3A
100
AcDbEntity
  8
0
100
AcDbBlockEnd
  0
BLOCK
  5
4A
330
3B
100
AcDbEntity
  8
0
100
AcDbBlockBegin
  2
_OPEN30
 70
     0
 10
0.0
 20
0.0
 30
0.0
  3
_OPEN30
  1

  0
LINE
  5
4B
330
3B
100
AcDbEntity
  8
0
  6
BYBLOCK
 62
     0
100
AcDbLine
 10
0.0
 20
0.0
 30
0.0
 11
-3.0
 21
-0.9999999799999999
 31
0.0
  0
LINE
  5
4C
330
3B
100
AcDbEntity
  8
0
  6
BYBLOCK
 62
     0
100
AcDbLine
 10
0.0
 20
0.0
 30
0.0
 11
-3.0
 21
0.9999999799999999
 31
0.0
  0
LINE
  5
4D
330
3B
100
AcDbEntity
  8
0
  6
BYBLOCK
 62
     0
100
AcDbLine
 10
0.0
 20
0.0
 30
0.0
 11
-3.0
 21
0.0
 31
0.0
  0
ENDBLK
  5
4E
330
3B
100
AcDbEntity
  8
0
100
AcDbBlockEnd
  0
BLOCK
  5
4F
330
3C
100
AcDbEntity
  8
0
100
AcDbBlockBegin
  2
*D2
 70
     1
 10
0.0
 20
0.0
 30
0.0
  3
*D2
  1

  0
LINE
  5
50
330
3C
100
AcDbEntity
  8
0
  6
CONTINUOUS
 62
     1
100
AcDbLine
 10
-207.5423699999999
 20
-233.46523
 30
0.0
 11
-207.5423699999999
 21
-201.4652299999998
 31
0.0
  0
INSERT
  5
51
330
3C
100
AcDbEntity
  8
0
  6
CONTINUOUS
 62
     1
100
AcDbBlockReference
  2
_OPEN30
 10
-207.5423699999999
 20
-236.4652299999999
 30
0.0
 50
270.0
  0
INSERT
  5
52
330
3C
100
AcDbEntity
  8
0
  6
CONTINUOUS
 62
     1
100
AcDbBlockReference
  2
_OPEN30
 10
-207.5423699999999
 20
-198.46523
 30
0.0
 50
90.0
  0
LINE
  5
53
330
3C
100
AcDbEntity
  8
0
  6
CONTINUOUS
 62
     1
100
AcDbLine
 10
-169.5
 20
-236.4652299999999
 30
0.0
 11
-209.54237
 21
-236.4652299999999
 31
0.0
  0
LINE
  5
54
330
3C
100
AcDbEntity
  8
0
  6
CONTINUOUS
 62
     1
100
AcDbLine
 10
-122.0
 20
-198.46523
 30
0.0
 11
-209.54237
 21
-198.46523
 31
0.0
  0
MTEXT
  5
55
330
3C
100
AcDbEntity
  8
0
  6
CONTINUOUS
 62
     1
100
AcDbMText
 10
-207.5423699999999
 20
-217.4652299999999
 30
0.0
 40
6.0
 41
20.5725
 71
     8
 72
     5
  1
{\W1.02863;38}
 11
-0.00000004371139
 21
0.9999999999999989
 31
0.0
1001
ACAD
1000
MTEXTBEGIN
1070
    73
1070
     1
1070
    44
1040
1.0
1070
    74
1070
     0
1000
MTEXTEND
1000
MTEXTBEGIN
1070
    73
1070
     1
1070
    44
1040
1.0
1070
    74
1070
     0
1000
MTEXTEND
1000
MTEXTBEGIN
1070
    73
1070
     1
1070
    44
1040
1.0
1070
    74
1070
     0
1000
MTEXTEND
1000
MTEXTBEGIN
1070
    73
1070
     1
1070
    44
1040
1.0
1070
    74
1070
     0
1000
MTEXTEND
1000
MTEXTBEGIN
1070
    73
1070
     1
1070
    44
1040
1.0
1070
    74
1070
     0
1000
MTEXTEND
1000
MTEXTBEGIN
1070
    73
1070
     1
1070
    44
1040
1.0
1070
    74
1070
     0
1000
MTEXTEND
  0
POINT
  5
56
330
3C
100
AcDbEntity
  8
DEFPOINTS
  6
CONTINUOUS
 62
     1
100
AcDbPoint
 10
-169.5
 20
-236.4652299999999
 30
0.0
  0
POINT
  5
57
330
3C
100
AcDbEntity
  8
DEFPOINTS
  6
CONTINUOUS
 62
     1
100
AcDbPoint
 10
-122.0
 20
-198.46523
 30
0.0
  0
POINT
  5
58
330
3C
100
AcDbEntity
  8
DEFPOINTS
  6
CONTINUOUS
 62
     1
100
AcDbPoint
 10
-207.5423699999999
 20
-198.46523
 30
0.0
  0
ENDBLK
  5
59
330
3C
100
AcDbEntity
  8
0
100
AcDbBlockEnd
  0
BLOCK
  5
5A
330
3D
100
AcDbEntity
  8
0
100
AcDbBlockBegin
  2
*D3
 70
     1
 10
0.0
 20
0.0
 30
0.0
  3
*D3
  1

  0
LINE
  5
5B
330
3D
100
AcDbEntity
  8
0
  6
CONTINUOUS
 62
     1
100
AcDbLine
 10
-192.3330399999999
 20
-201.4652299999998
 30
0.0
 11
-192.3330399999999
 21
-226.4652299999998
 31
0.0
  0
INSERT
  5
5C
330
3D
100
AcDbEntity
  8
0
  6
CONTINUOUS
 62
     1
100
AcDbBlockReference
  2
_OPEN30
 10
-192.3330399999999
 20
-198.46523
 30
0.0
 50
90.0
  0
INSERT
  5
5D
330
3D
100
AcDbEntity
  8
0
  6
CONTINUOUS
 62
     1
100
AcDbBlockReference
  2
_OPEN30
 10
-192.3330399999999
 20
-229.46523
 30
0.0
 50
270.0
  0
LINE
  5
5E
330
3D
100
AcDbEntity
  8
0
  6
CONTINUOUS
 62
     1
100
AcDbLine
 10
-169.5
 20
-229.46523
 30
0.0
 11
-194.3330399999999
 21
-229.46523
 31
0.0
  0
MTEXT
  5
5F
330
3D
100
AcDbEntity
  8
0
  6
CONTINUOUS
 62
     1
100
AcDbMText
 10
-192.3330399999999
 20
-213.9652299999998
 30
0.0
 40
6.0
 41
20.5725
 71
     8
 72
     5
  1
{\W1.18688;31}
 11
-0.00000004371139
 21
0.9999999999999989
 31
0.0
1001
ACAD
1000
MTEXTBEGIN
1070
    73
1070
     1
1070
    44
1040
1.0
1070
    74
1070
     0
1000
MTEXTEND
1000
MTEXTBEGIN
1070
    73
1070
     1
1070
    44
1040
1.0
1070
    74
1070
     0
1000
MTEXTEND
1000
MTEXTBEGIN
1070
    73
1070
     1
1070
    44
1040
1.0
1070
    74
1070
     0
1000
MTEXTEND
1000
MTEXTBEGIN
1070
    73
1070
     1
1070
    44
1040
1.0
1070
    74
1070
     0
1000
MTEXTEND
1000
MTEXTBEGIN
1070
    73
1070
     1
1070
    44
1040
1.0
1070
    74
1070
     0
1000
MTEXTEND
1000
MTEXTBEGIN
1070
    73
1070
     1
1070
    44
1040
1.0
1070
    74
1070
     0
1000
MTEXTEND
  0
POINT
  5
60
330
3D
100
AcDbEntity
  8
DEFPOINTS
  6
CONTINUOUS
 62
     1
100
AcDbPoint
 10
-209.54237
 20
-198.46523
 30
0.0
  0
POINT
  5
61
330
3D
100
AcDbEntity
  8
DEFPOINTS
  6
CONTINUOUS
 62
     1
100
AcDbPoint
 10
-169.5
 20
-229.46523
 30
0.0
  0
POINT
  5
62
330
3D
100
AcDbEntity
  8
DEFPOINTS
  6
CONTINUOUS
 62
     1
100
AcDbPoint
 10
-192.3330399999999
 20
-229.46523
 30
0.0
  0
ENDBLK
  5
63
330
3D
100
AcDbEntity
  8
0
100
AcDbBlockEnd
  0
BLOCK
  5
64
330
3E
100
AcDbEntity
  8
0
100
AcDbBlockBegin
  2
*D4
 70
     1
 10
0.0
 20
0.0
 30
0.0
  3
*D4
  1

  0
LINE
  5
65
330
3E
100
AcDbEntity
  8
0
  6
CONTINUOUS
 62
     1
100
AcDbLine
 10
-192.3330399999999
 20
-236.4652299999999
 30
0.0
 11
-192.3330399999999
 21
-247.29895
 31
0.0
  0
LINE
  5
66
330
3E
100
AcDbEntity
  8
0
  6
CONTINUOUS
 62
     1
100
AcDbLine
 10
-192.3330399999999
 20
-229.46523
 30
0.0
 11
-192.3330399999999
 21
-236.4652299999999
 31
0.0
  0
INSERT
  5
67
330
3E
100
AcDbEntity
  8
0
  6
CONTINUOUS
 62
     1
100
AcDbBlockReference
  2
_OPEN30
 10
-192.3330399999999
 20
-236.4652299999999
 30
0.0
 50
90.0
  0
LINE
  5
68
330
3E
100
AcDbEntity
  8
0
  6
CONTINUOUS
 62
     1
100
AcDbLine
 10
-192.3330399999999
 20
-239.46523
 30
0.0
 11
-192.3330399999999
 21
-242.8152299999998
 31
0.0
  0
MTEXT
  5
69
330
3E
100
AcDbEntity
  8
0
  6
CONTINUOUS
 62
     1
100
AcDbMText
 10
-192.3330399999999
 20
-245.15582
 30
0.0
 40
6.0
 41
8.572500199999996
 71
     8
 72
     5
  1
{\W1;7}
 11
-0.00000004371139
 21
0.9999999999999989
 31
0.0
1001
ACAD
1000
MTEXTBEGIN
1070
    73
1070
     1
1070
    44
1040
1.0
1070
    74
1070
     0
1000
MTEXTEND
1000
MTEXTBEGIN
1070
    73
1070
     1
1070
    44
1040
1.0
1070
    74
1070
     0
1000
MTEXTEND
1000
MTEXTBEGIN
1070
    73
1070
     1
1070
    44
1040
1.0
1070
    74
1070
     0
1000
MTEXTEND
1000
MTEXTBEGIN
1070
    73
1070
     1
1070
    44
1040
1.0
1070
    74
1070
     0
1000
MTEXTEND
1000
MTEXTBEGIN
1070
    73
1070
     1
1070
    44
1040
1.0
1070
    74
1070
     0
1000
MTEXTEND
1000
MTEXTBEGIN
1070
    73
1070
     1
1070
    44
1040
1.0
1070
    74
1070
     0
1000
MTEXTEND
  0
POINT
  5
6A
330
3E
100
AcDbEntity
  8
DEFPOINTS
  6
CONTINUOUS
 62
     1
100
AcDbPoint
 10
-194.3330399999999
 20
-229.46523
 30
0.0
  0
POINT
  5
6B
330
3E
100
AcDbEntity
  8
DEFPOINTS
  6
CONTINUOUS
 62
     1
100
AcDbPoint
 10
-209.54237
 20
-236.4652299999999
 30
0.0
  0
POINT
  5
6C
330
3E
100
AcDbEntity
  8
DEFPOINTS
  6
CONTINUOUS
 62
     1
100
AcDbPoint
 10
-192.3330399999999
 20
-236.4652299999999
 30
0.0
  0
ENDBLK
  5
6D
330
3E
100
AcDbEntity
  8
0
100
AcDbBlockEnd
  0
BLOCK
  5
6E
330
3F
100
AcDbEntity
  8
0
100
AcDbBlockBegin
  2
*D5
 70
     1
 10
0.0
 20
0.0
 30
0.0
  3
*D5
  1

  0
LINE
  5
6F
330
3F
100
AcDbEntity
  8
0
  6
CONTINUOUS
 62
     1
100
AcDbLine
 10
10.0
 20
-259.5137899999999
 30
0.0
 11
34.66834999999999
 21
-259.5137899999999
 31
0.0
  0
LINE
  5
70
330
3F
100
AcDbEntity
  8
0
  6
CONTINUOUS
 62
     1
100
AcDbLine
 10
-7.0
 20
-259.5137899999999
 30
0.0
 11
7.0
 21
-259.5137899999999
 31
0.0
  0
INSERT
  5
71
330
3F
100
AcDbEntity
  8
0
  6
CONTINUOUS
 62
     1
100
AcDbBlockReference
  2
_OPEN30
 10
-10.0
 20
-259.5137899999999
 30
0.0
 50
180.0
  0
INSERT
  5
72
330
3F
100
AcDbEntity
  8
0
  6
CONTINUOUS
 62
     1
100
AcDbBlockReference
  2
_OPEN30
 10
10.0
 20
-259.5137899999999
 30
0.0
  0
LINE
  5
73
330
3F
100
AcDbEntity
  8
0
  6
CONTINUOUS
 62
     1
100
AcDbLine
 10
-10.0
 20
-235.46523
 30
0.0
 11
-10.0
 21
-261.5137899999999
 31
0.0
  0
LINE
  5
74
330
3F
100
AcDbEntity
  8
0
  6
CONTINUOUS
 62
     1
100
AcDbLine
 10
10.0
 20
-235.46523
 30
0.0
 11
10.0
 21
-261.5137899999999
 31
0.0
  0
MTEXT
  5
75
330
3F
100
AcDbEntity
  8
0
  6
CONTINUOUS
 62
     1
100
AcDbMText
 10
26.52522499999999
 20
-259.5137899999999
 30
0.0
 40
6.0
 41
108.0
 71
     8
 72
     5
  1
{\W0.988643;\U+220520}
1001
ACAD
1000
MTEXTBEGIN
1070
    73
1070
     1
1070
    44
1040
1.0
1070
    74
1070
     0
1000
MTEXTEND
1000
MTEXTBEGIN
1070
    73
1070
     1
1070
    44
1040
1.0
1070
    74
1070
     0
1000
MTEXTEND
1000
MTEXTBEGIN
1070
    73
1070
     1
1070
    44
1040
1.0
1070
    74
1070
     0
1000
MTEXTEND
1000
MTEXTBEGIN
1070
    73
1070
     1
1070
    44
1040
1.0
1070
    74
1070
     0
1000
MTEXTEND
1000
MTEXTBEGIN
1070
    73
1070
     1
1070
    44
1040
1.0
1070
    74
1070
     0
1000
MTEXTEND
1000
MTEXTBEGIN
1070
    73
1070
     1
1070
    44
1040
1.0
1070
    74
1070
     0
1000
MTEXTEND
  0
POINT
  5
76
330
3F
100
AcDbEntity
  8
DEFPOINTS
  6
CONTINUOUS
 62
     1
100
AcDbPoint
 10
-10.0
 20
-235.46523
 30
0.0
  0
POINT
  5
77
330
3F
100
AcDbEntity
  8
DEFPOINTS
  6
CONTINUOUS
 62
     1
100
AcDbPoint
 10
10.0
 20
-235.46523
 30
0.0
  0
POINT
  5
78
330
3F
100
AcDbEntity
  8
DEFPOINTS
  6
CONTINUOUS
 62
     1
100
AcDbPoint
 10
10.0
 20
-259.5137899999999
 30
0.0
  0
ENDBLK
  5
79
330
3F
100
AcDbEntity
  8
0
100
AcDbBlockEnd
  0
BLOCK
  5
7A
330
40
100
AcDbEntity
  8
0
100
AcDbBlockBegin
  2
*D6
 70
     1
 10
0.0
 20
0.0
 30
0.0
  3
*D6
  1

  0
LINE
  5
7B
330
40
100
AcDbEntity
  8
0
  6
CONTINUOUS
 62
     1
100
AcDbLine
 10
-167.0
 20
-281.06326
 30
0.0
 11
167.0
 21
-281.06326
 31
0.0
  0
INSERT
  5
7C
330
40
100
AcDbEntity
  8
0
  6
CONTINUOUS
 62
     1
100
AcDbBlockReference
  2
_OPEN30
 10
-170.0
 20
-281.06326
 30
0.0
 50
180.0
  0
INSERT
  5
7D
330
40
100
AcDbEntity
  8
0
  6
CONTINUOUS
 62
     1
100
AcDbBlockReference
  2
_OPEN30
 10
170.0
 20
-281.06326
 30
0.0
  0
LINE
  5
7E
330
40
100
AcDbEntity
  8
0
  6
CONTINUOUS
 62
     1
100
AcDbLine
 10
-170.0
 20
-235.96523
 30
0.0
 11
-170.0
 21
-283.06326
 31
0.0
  0
LINE
  5
7F
330
40
100
AcDbEntity
  8
0
  6
CONTINUOUS
 62
     1
100
AcDbLine
 10
170.0
 20
-235.96523
 30
0.0
 11
170.0
 21
-283.06326
 31
0.0
  0
MTEXT
  5
80
330
40
100
AcDbEntity
  8
0
  6
CONTINUOUS
 62
     1
100
AcDbMText
 10
0.89449108
 20
-281.06326
 30
0.0
 40
6.0
 41
120.0
 71
     8
 72
     5
  1
{\W0.991675;\U+2205340}
1001
ACAD
1000
MTEXTBEGIN
1070
    73
1070
     1
1070
    44
1040
1.0
1070
    74
1070
     0
1000
MTEXTEND
1000
MTEXTBEGIN
1070
    73
1070
     1
1070
    44
1040
1.0
1070
    74
1070
     0
1000
MTEXTEND
1000
MTEXTBEGIN
1070
    73
1070
     1
1070
    44
1040
1.0
1070
    74
1070
     0
1000
MTEXTEND
1000
MTEXTBEGIN
1070
    73
1070
     1
1070
    44
1040
1.0
1070
    74
1070
     0
1000
MTEXTEND
1000
MTEXTBEGIN
1070
    73
1070
     1
1070
    44
1040
1.0
1070
    74
1070
     0
1000
MTEXTEND
1000
MTEXTBEGIN
1070
    73
1070
     1
1070
    44
1040
1.0
1070
    74
1070
     0
1000
MTEXTEND
  0
POINT
  5
81
330
40
100
AcDbEntity
  8
DEFPOINTS
  6
CONTINUOUS
 62
     1
100
AcDbPoint
 10
-170.0
 20
-235.96523
 30
0.0
  0
POINT
  5
82
330
40
100
AcDbEntity
  8
DEFPOINTS
  6
CONTINUOUS
 62
     1
100
AcDbPoint
 10
170.0
 20
-235.96523
 30
0.0
  0
POINT
  5
83
330
40
100
AcDbEntity
  8
DEFPOINTS
  6
CONTINUOUS
 62
     1
100
AcDbPoint
 10
170.0
 20
-281.06326
 30
0.0
  0
ENDBLK
  5
84
330
40
100
AcDbEntity
  8
0
100
AcDbBlockEnd
  0
BLOCK
  5
85
330
41
100
AcDbEntity
  8
0
100
AcDbBlockBegin
  2
*D7
 70
     1
 10
0.0
 20
0.0
 30
0.0
  3
*D7
  1

  0
LINE
  5
86
330
41
100
AcDbEntity
  8
0
  6
CONTINUOUS
 62
     1
100
AcDbLine
 10
-119.0
 20
-168.6858499999999
 30
0.0
 11
119.0
 21
-168.6858499999999
 31
0.0
  0
INSERT
  5
87
330
41
100
AcDbEntity
  8
0
  6
CONTINUOUS
 62
     1
100
AcDbBlockReference
  2
_OPEN30
 10
-122.0
 20
-168.6858499999999
 30
0.0
 50
180.0
  0
INSERT
  5
88
330
41
100
AcDbEntity
  8
0
  6
CONTINUOUS
 62
     1
100
AcDbBlockReference
  2
_OPEN30
 10
122.0
 20
-168.6858499999999
 30
0.0
  0
LINE
  5
89
330
41
100
AcDbEntity
  8
0
  6
CONTINUOUS
 62
     1
100
AcDbLine
 10
-122.0
 20
-198.9652299999999
 30
0.0
 11
-122.0
 21
-166.68585
 31
0.0
  0
LINE
  5
8A
330
41
100
AcDbEntity
  8
0
  6
CONTINUOUS
 62
     1
100
AcDbLine
 10
122.0
 20
-198.9652299999999
 30
0.0
 11
122.0
 21
-166.68585
 31
0.0
  0
MTEXT
  5
8B
330
41
100
AcDbEntity
  8
0
  6
CONTINUOUS
 62
     1
100
AcDbMText
 10
0.0
 20
-168.6858499999999
 30
0.0
 40
6.0
 41
120.0
 71
     8
 72
     5
  1
{\W0.963105;\U+2205244}
1001
ACAD
1000
MTEXTBEGIN
1070
    73
1070
     1
1070
    44
1040
1.0
1070
    74
1070
     0
1000
MTEXTEND
1000
MTEXTBEGIN
1070
    73
1070
     1
1070
    44
1040
1.0
1070
    74
1070
     0
1000
MTEXTEND
1000
MTEXTBEGIN
1070
    73
1070
     1
1070
    44
1040
1.0
1070
    74
1070
     0
1000
MTEXTEND
1000
MTEXTBEGIN
1070
    73
1070
     1
1070
    44
1040
1.0
1070
    74
1070
     0
1000
MTEXTEND
1000
MTEXTBEGIN
1070
    73
1070
     1
1070
    44
1040
1.0
1070
    74
1070
     0
1000
MTEXTEND
1000
MTEXTBEGIN
1070
    73
1070
     1
1070
    44
1040
1.0
1070
    74
1070
     0
1000
MTEXTEND
  0
POINT
  5
8C
330
41
100
AcDbEntity
  8
DEFPOINTS
  6
CONTINUOUS
 62
     1
100
AcDbPoint
 10
-122.0
 20
-198.9652299999999
 30
0.0
  0
POINT
  5
8D
330
41
100
AcDbEntity
  8
DEFPOINTS
  6
CONTINUOUS
 62
     1
100
AcDbPoint
 10
122.0
 20
-198.9652299999999
 30
0.0
  0
POINT
  5
8E
330
41
100
AcDbEntity
  8
DEFPOINTS
  6
CONTINUOUS
 62
     1
100
AcDbPoint
 10
122.0
 20
-168.6858499999999
 30
0.0
  0
ENDBLK
  5
8F
330
41
100
AcDbEntity
  8
0
100
AcDbBlockEnd
  0
ENDSEC
  0
SECTION
  2
ENTITIES
  0
LINE
  5
90
330
38
100
AcDbEntity
  8
0
  6
CENTER
 62
     6
100
AcDbLine
 10
0.0
 20
-252.11847
 30
0.0
 11
0.0
 21
-186.86562
 31
0.0
  0
LINE
  5
91
330
38
100
AcDbEntity
  8
0
  6
CENTER
 62
     6
100
AcDbLine
 10
-194.9116999999999
 20
50.0
 30
0.0
 11
193.1926399999998
 21
50.0
 31
0.0
  0
LINE
  5
92
330
38
100
AcDbEntity
  8
0
  6
CONTINUOUS
 62
     4
100
AcDbLine
 10
-110.19098
 20
-198.46524
 30
0.0
 11
-72.19097099999998
 21
-236.46524
 31
0.0
  0
LINE
  5
93
330
38
100
AcDbEntity
  8
0
  6
CONTINUOUS
 62
     4
100
AcDbLine
 10
-120.0904699999999
 20
-198.46524
 30
0.0
 11
-82.090469
 21
-236.46524
 31
0.0
  0
LINE
  5
94
330
38
100
AcDbEntity
  8
0
  6
CONTINUOUS
 62
     4
100
AcDbLine
 10
-122.0
 20
-206.4551999999999
 30
0.0
 11
-91.98995999999999
 21
-236.46524
 31
0.0
  0
LINE
  5
95
330
38
100
AcDbEntity
  8
0
  6
CONTINUOUS
 62
     4
100
AcDbLine
 10
-122.0
 20
-216.3546899999999
 30
0.0
 11
-101.88946
 21
-236.46524
 31
0.0
  0
LINE
  5
96
330
38
100
AcDbEntity
  8
0
  6
CONTINUOUS
 62
     4
100
AcDbLine
 10
-122.0
 20
-226.25418
 30
0.0
 11
-111.78896
 21
-236.46524
 31
0.0
  0
LINE
  5
97
330
38
100
AcDbEntity
  8
0
  6
CENTER
 62
     6
100
AcDbLine
 10
0.0
 20
-136.8252699999999
 30
0.0
 11
0.0
 21
233.78705
 31
0.0
  0
LINE
  5
98
330
38
100
AcDbEntity
  8
0
  6
CONTINUOUS
 62
     7
100
AcDbLine
 10
-121.5
 20
-198.46523
 30
0.0
 11
121.5
 21
-198.46523
 31
0.0
  0
LINE
  5
99
330
38
100
AcDbEntity
  8
0
  6
CONTINUOUS
 62
     7
100
AcDbLine
 10
-169.5
 20
-236.4652299999999
 30
0.0
 11
169.5
 21
-236.4652299999999
 31
0.0
  0
LINE
  5
9A
330
38
100
AcDbEntity
  8
0
  6
CONTINUOUS
 62
     7
100
AcDbLine
 10
-169.5
 20
-229.46523
 30
0.0
 11
-123.0
 21
-229.46523
 31
0.0
  0
LINE
  5
9B
330
38
100
AcDbEntity
  8
0
  6
CONTINUOUS
 62
     7
100
AcDbLine
 10
170.0
 20
-229.9652299999999
 30
0.0
 11
170.0
 21
-235.96523
 31
0.0
  0
LINE
  5
9C
330
38
100
AcDbEntity
  8
0
  6
CONTINUOUS
 62
     7
100
AcDbLine
 10
-170.0
 20
-229.9652299999999
 30
0.0
 11
-170.0
 21
-235.96523
 31
0.0
  0
LINE
  5
9D
330
38
100
AcDbEntity
  8
0
  6
CONTINUOUS
 62
     7
100
AcDbLine
 10
123.0
 20
-229.46523
 30
0.0
 11
169.5
 21
-229.46523
 31
0.0
  0
LINE
  5
9E
330
38
100
AcDbEntity
  8
0
  6
CONTINUOUS
 62
     4
100
AcDbLine
 10
-70.592995
 20
-198.46524
 30
0.0
 11
-32.592999
 21
-236.4652299999999
 31
0.0
  0
LINE
  5
9F
330
38
100
AcDbEntity
  8
0
  6
CONTINUOUS
 62
     4
100
AcDbLine
 10
-80.49249300000003
 20
-198.46524
 30
0.0
 11
-42.49249299999998
 21
-236.4652299999999
 31
0.0
  0
LINE
  5
A0
330
38
100
AcDbEntity
  8
0
  6
CONTINUOUS
 62
     4
100
AcDbLine
 10
-90.391983
 20
-198.46524
 30
0.0
 11
-52.391987
 21
-236.4652299999999
 31
0.0
  0
LINE
  5
A1
330
38
100
AcDbEntity
  8
0
  6
CONTINUOUS
 62
     4
100
AcDbLine
 10
-100.29148
 20
-198.46524
 30
0.0
 11
-62.291477
 21
-236.46524
 31
0.0
  0
LINE
  5
A2
330
38
100
AcDbEntity
  8
0
  6
CONTINUOUS
 62
     4
100
AcDbLine
 10
-60.693501
 20
-198.46524
 30
0.0
 11
-22.69350199999999
 21
-236.4652299999999
 31
0.0
  0
LINE
  5
A3
330
38
100
AcDbEntity
  8
0
  6
CONTINUOUS
 62
     4
100
AcDbLine
 10
-50.794006
 20
-198.46524
 30
0.0
 11
-12.794008
 21
-236.4652299999999
 31
0.0
  0
LINE
  5
A4
330
38
100
AcDbEntity
  8
0
  6
CONTINUOUS
 62
     4
100
AcDbLine
 10
-40.894512
 20
-198.46524
 30
0.0
 11
-10.0
 21
-229.3597399999999
 31
0.0
  0
LINE
  5
A5
330
38
100
AcDbEntity
  8
0
  6
CONTINUOUS
 62
     4
100
AcDbLine
 10
-30.99501599999999
 20
-198.46524
 30
0.0
 11
-10.0
 21
-219.46025
 31
0.0
  0
LINE
  5
A6
330
38
100
AcDbEntity
  8
0
  6
CONTINUOUS
 62
     4
100
AcDbLine
 10
10.0
 20
-199.86227
 30
0.0
 11
46.602962
 21
-236.4652299999999
 31
0.0
  0
LINE
  5
A7
330
38
100
AcDbEntity
  8
0
  6
CONTINUOUS
 62
     4
100
AcDbLine
 10
10.0
 20
-209.7617599999999
 30
0.0
 11
36.703465
 21
-236.4652299999999
 31
0.0
  0
LINE
  5
A8
330
38
100
AcDbEntity
  8
0
  6
CONTINUOUS
 62
     4
100
AcDbLine
 10
10.0
 20
-219.66125
 30
0.0
 11
26.80397199999999
 21
-236.4652299999999
 31
0.0
  0
LINE
  5
A9
330
38
100
AcDbEntity
  8
0
  6
CONTINUOUS
 62
     4
100
AcDbLine
 10
-21.09552199999999
 20
-198.46524
 30
0.0
 11
-10.0
 21
-209.56076
 31
0.0
  0
LINE
  5
AA
330
38
100
AcDbEntity
  8
0
  6
CONTINUOUS
 62
     4
100
AcDbLine
 10
48.200943
 20
-198.46524
 30
0.0
 11
86.20094300000003
 21
-236.4652299999999
 31
0.0
  0
LINE
  5
AB
330
38
100
AcDbEntity
  8
0
  6
CONTINUOUS
 62
     4
100
AcDbLine
 10
18.50245899999998
 20
-198.46524
 30
0.0
 11
56.50245699999999
 21
-236.4652299999999
 31
0.0
  0
LINE
  5
AC
330
38
100
AcDbEntity
  8
0
  6
CONTINUOUS
 62
     4
100
AcDbLine
 10
28.40195299999999
 20
-198.46524
 30
0.0
 11
66.401955
 21
-236.4652299999999
 31
0.0
  0
LINE
  5
AD
330
38
100
AcDbEntity
  8
0
  6
CONTINUOUS
 62
     4
100
AcDbLine
 10
38.301449
 20
-198.46524
 30
0.0
 11
76.301445
 21
-236.4652299999999
 31
0.0
  0
LINE
  5
AE
330
38
100
AcDbEntity
  8
0
  6
CONTINUOUS
 62
     4
100
AcDbLine
 10
77.89942899999998
 20
-198.46524
 30
0.0
 11
115.89943
 21
-236.4652299999999
 31
0.0
  0
LINE
  5
AF
330
38
100
AcDbEntity
  8
0
  6
CONTINUOUS
 62
     4
100
AcDbLine
 10
67.999931
 20
-198.46524
 30
0.0
 11
105.99993
 21
-236.4652299999999
 31
0.0
  0
LINE
  5
B0
330
38
100
AcDbEntity
  8
0
  6
CONTINUOUS
 62
     4
100
AcDbLine
 10
58.100437
 20
-198.46524
 30
0.0
 11
96.100433
 21
-236.4652299999999
 31
0.0
  0
LINE
  5
B1
330
38
100
AcDbEntity
  8
0
  6
CONTINUOUS
 62
     4
100
AcDbLine
 10
87.79892
 20
-198.46524
 30
0.0
 11
125.7989299999999
 21
-236.46524
 31
0.0
  0
LINE
  5
B2
330
38
100
AcDbEntity
  8
0
  6
CONTINUOUS
 62
     4
100
AcDbLine
 10
158.39691
 20
-229.46523
 30
0.0
 11
165.3969099999999
 21
-236.46524
 31
0.0
  0
LINE
  5
B3
330
38
100
AcDbEntity
  8
0
  6
CONTINUOUS
 62
     4
100
AcDbLine
 10
97.69841800000001
 20
-198.46524
 30
0.0
 11
122.0
 21
-222.76682
 31
0.0
  0
LINE
  5
B4
330
38
100
AcDbEntity
  8
0
  6
CONTINUOUS
 62
     4
100
AcDbLine
 10
107.59792
 20
-198.46524
 30
0.0
 11
122.0
 21
-212.86732
 31
0.0
  0
LINE
  5
B5
330
38
100
AcDbEntity
  8
0
  6
CONTINUOUS
 62
     4
100
AcDbLine
 10
117.49741
 20
-198.46523
 30
0.0
 11
122.00001
 21
-202.9678199999997
 31
0.0
  0
LINE
  5
B6
330
38
100
AcDbEntity
  8
0
  6
CONTINUOUS
 62
     4
100
AcDbLine
 10
168.2964
 20
-229.46523
 30
0.0
 11
169.99998
 21
-231.16882
 31
0.0
  0
LINE
  5
B7
330
38
100
AcDbEntity
  8
0
  6
CONTINUOUS
 62
     4
100
AcDbLine
 10
-128.6884499999999
 20
-229.4652399999999
 30
0.0
 11
-121.68845
 21
-236.46524
 31
0.0
  0
LINE
  5
B8
330
38
100
AcDbEntity
  8
0
  6
CONTINUOUS
 62
     4
100
AcDbLine
 10
-138.58795
 20
-229.4652399999999
 30
0.0
 11
-131.58794
 21
-236.46524
 31
0.0
  0
LINE
  5
B9
330
38
100
AcDbEntity
  8
0
  6
CONTINUOUS
 62
     4
100
AcDbLine
 10
-148.4874399999999
 20
-229.4652399999999
 30
0.0
 11
-141.4874399999999
 21
-236.46524
 31
0.0
  0
LINE
  5
BA
330
38
100
AcDbEntity
  8
0
  6
CONTINUOUS
 62
     4
100
AcDbLine
 10
-158.38693
 20
-229.4652399999999
 30
0.0
 11
-151.38693
 21
-236.46524
 31
0.0
  0
LINE
  5
BB
330
38
100
AcDbEntity
  8
0
  6
CONTINUOUS
 62
     4
100
AcDbLine
 10
-168.28642
 20
-229.4652399999999
 30
0.0
 11
-161.2864199999999
 21
-236.46524
 31
0.0
  0
LINE
  5
BC
330
38
100
AcDbEntity
  8
0
  6
CONTINUOUS
 62
     4
100
AcDbLine
 10
128.69843
 20
-229.4652399999999
 30
0.0
 11
135.69843
 21
-236.46524
 31
0.0
  0
LINE
  5
BD
330
38
100
AcDbEntity
  8
0
  6
CONTINUOUS
 62
     4
100
AcDbLine
 10
138.5979199999999
 20
-229.4652399999999
 30
0.0
 11
145.5979199999999
 21
-236.46524
 31
0.0
  0
LINE
  5
BE
330
38
100
AcDbEntity
  8
0
  6
CONTINUOUS
 62
     4
100
AcDbLine
 10
148.49741
 20
-229.46523
 30
0.0
 11
155.49742
 21
-236.46524
 31
0.0
  0
LINE
  5
BF
330
38
100
AcDbEntity
  8
0
  6
CONTINUOUS
 62
     7
100
AcDbLine
 10
169.5
 20
-229.4652399999999
 30
0.0
 11
169.99998
 21
-229.9652299999999
 31
0.0
  0
LINE
  5
C0
330
38
100
AcDbEntity
  8
0
  6
CONTINUOUS
 62
     7
100
AcDbLine
 10
170.0
 20
-235.96523
 30
0.0
 11
169.4999799999999
 21
-236.4652299999999
 31
0.0
  0
LINE
  5
C1
330
38
100
AcDbEntity
  8
0
  6
CONTINUOUS
 62
     7
100
AcDbLine
 10
-170.0
 20
-235.96523
 30
0.0
 11
-169.4999799999999
 21
-236.4652299999999
 31
0.0
  0
LINE
  5
C2
330
38
100
AcDbEntity
  8
0
  6
CONTINUOUS
 62
     7
100
AcDbLine
 10
-170.0
 20
-229.9652299999999
 30
0.0
 11
-169.5
 21
-229.4652399999999
 31
0.0
  0
LINE
  5
C3
330
38
100
AcDbEntity
  8
0
  6
CONTINUOUS
 62
     7
100
AcDbLine
 10
-10.0
 20
-235.46523
 30
0.0
 11
-10.0
 21
-199.46523
 31
0.0
  0
LINE
  5
C4
330
38
100
AcDbEntity
  8
0
  6
CONTINUOUS
 62
     7
100
AcDbLine
 10
10.0
 20
-235.46523
 30
0.0
 11
10.0
 21
-199.46523
 31
0.0
  0
LINE
  5
C5
330
38
100
AcDbEntity
  8
0
  6
CONTINUOUS
 62
     4
100
AcDbLine
 10
-10.0
 20
-199.46523
 30
0.0
 11
10.0
 21
-199.46523
 31
0.0
  0
LINE
  5
C6
330
38
100
AcDbEntity
  8
0
  6
CONTINUOUS
 62
     4
100
AcDbLine
 10
-10.0
 20
-235.46523
 30
0.0
 11
10.0
 21
-235.46523
 31
0.0
  0
LINE
  5
C7
330
38
100
AcDbEntity
  8
0
  6
CONTINUOUS
 62
     4
100
AcDbLine
 10
10.0
 20
-229.5607599999998
 30
0.0
 11
16.90447599999998
 21
-236.4652299999999
 31
0.0
  0
LINE
  5
C8
330
38
100
AcDbEntity
  8
0
  6
CONTINUOUS
 62
     7
100
AcDbLine
 10
10.0
 20
-199.4652399999999
 30
0.0
 11
11.00000099999999
 21
-198.46524
 31
0.0
  0
LINE
  5
C9
330
38
100
AcDbEntity
  8
0
  6
CONTINUOUS
 62
     7
100
AcDbLine
 10
-11.00000099999999
 20
-236.4652299999999
 30
0.0
 11
-10.0
 21
-235.46523
 31
0.0
  0
LINE
  5
CA
330
38
100
AcDbEntity
  8
0
  6
CONTINUOUS
 62
     7
100
AcDbLine
 10
10.0
 20
-235.46523
 30
0.0
 11
11.00000099999999
 21
-236.4652299999999
 31
0.0
  0
LINE
  5
CB
330
38
100
AcDbEntity
  8
0
  6
CONTINUOUS
 62
     7
100
AcDbLine
 10
-11.00000099999999
 20
-198.46524
 30
0.0
 11
-10.0
 21
-199.4652399999999
 31
0.0
  0
LINE
  5
CC
330
38
100
AcDbEntity
  8
0
  6
CONTINUOUS
 62
     7
100
AcDbLine
 10
122.0
 20
-198.9652299999999
 30
0.0
 11
122.0
 21
-228.4652299999998
 31
0.0
  0
LINE
  5
CD
330
38
100
AcDbEntity
  8
0
  6
CONTINUOUS
 62
     7
100
AcDbLine
 10
-122.0
 20
-198.9652299999999
 30
0.0
 11
-122.0
 21
-228.4652299999998
 31
0.0
  0
LINE
  5
CE
330
38
100
AcDbEntity
  8
0
  6
CONTINUOUS
 62
     7
100
AcDbLine
 10
-122.00001
 20
-198.9652399999999
 30
0.0
 11
-121.50001
 21
-198.46524
 31
0.0
  0
LINE
  5
CF
330
38
100
AcDbEntity
  8
0
  6
CONTINUOUS
 62
     7
100
AcDbLine
 10
122.00001
 20
-198.9652399999999
 30
0.0
 11
121.50001
 21
-198.46524
 31
0.0
  0
CIRCLE
  5
D0
330
38
100
AcDbEntity
  8
0
  6
CONTINUOUS
 62
     7
100
AcDbCircle
 10
0.0
 20
50.0
 30
0.0
 40
170.0
  0
CIRCLE
  5
D1
330
38
100
AcDbEntity
  8
0
  6
CONTINUOUS
 62
     7
100
AcDbCircle
 10
0.0
 20
50.0
 30
0.0
 40
10.0
  0
CIRCLE
  5
D2
330
38
100
AcDbEntity
  8
0
  6
CONTINUOUS
 62
     4
100
AcDbCircle
 10
0.0
 20
50.0
 30
0.0
 40
11.0
  0
CIRCLE
  5
D3
330
38
100
AcDbEntity
  8
0
  6
CONTINUOUS
 62
     7
100
AcDbCircle
 10
0.0
 20
50.0
 30
0.0
 40
122.0
  0
ARC
  5
D4
330
38
100
AcDbEntity
  8
0
  6
CONTINUOUS
 62
     7
100
AcDbCircle
 10
-123.0
 20
-228.4652299999998
 30
0.0
 40
1.0
100
AcDbArc
 50
270.0
 51
360.0
  0
ARC
  5
D5
330
38
100
AcDbEntity
  8
0
  6
CONTINUOUS
 62
     7
100
AcDbCircle
 10
123.0
 20
-228.4652299999998
 30
0.0
 40
1.0
100
AcDbArc
 50
180.0
 51
270.0
  0
MTEXT
  5
D7
330
38
100
AcDbEntity
  8
0
  6
CONTINUOUS
 62
     7
100
AcDbMText
 10
-68.12446899999999
 20
253.9085399999998
 30
0.0
 40
10.0
 41
600.0
 71
     7
 72
     5
  1

1001
ACAD
1000
MTEXTBEGIN
1070
    73
1070
     1
1070
    44
1040
1.0
1070
    74
1070
     0
1000
MTEXTEND
1000
MTEXTBEGIN
1070
    73
1070
     1
1070
    44
1040
1.0
1070
    74
1070
     0
1000
MTEXTEND
1000
MTEXTBEGIN
1070
    73
1070
     1
1070
    44
1040
1.0
1070
    74
1070
     0
1000
MTEXTEND
1000
MTEXTBEGIN
1070
    73
1070
     1
1070
    44
1040
1.0
1070
    74
1070
     0
1000
MTEXTEND
1000
MTEXTBEGIN
1070
    73
1070
     1
1070
    44
1040
1.0
1070
    74
1070
     0
1000
MTEXTEND
1000
MTEXTBEGIN
1070
    73
1070
     1
1070
    44
1040
1.0
1070
    74
1070
     0
1000
MTEXTEND
  0
DIMENSION
  5
D8
330
38
100
AcDbEntity
  8
0
  6
CONTINUOUS
 62
     1
100
AcDbDimension
  2
*D2
 10
-207.5423699999999
 20
-198.46523
 30
0.0
 11
-207.5423699999999
 21
-217.4652299999999
 31
0.0
  3
DIMSTYLE
100
AcDbAlignedDimension
 13
-169.5
 23
-236.4652299999999
 33
0.0
 14
-122.0
 24
-198.46523
 34
0.0
 50
90.0
100
AcDbRotatedDimension
1001
ACAD
1000
DSTYLE
1002
{
1070
    77
1070
     1
1070
   172
1070
     1
1070
    42
1040
0.0
1002
}
  0
DIMENSION
  5
D9
330
38
100
AcDbEntity
  8
0
  6
CONTINUOUS
 62
     1
100
AcDbDimension
  2
*D3
 10
-192.3330399999999
 20
-229.46523
 30
0.0
 11
-192.3330399999999
 21
-213.9652299999998
 31
0.0
  3
DIMSTYLE
100
AcDbAlignedDimension
 13
-209.54237
 23
-198.46523
 33
0.0
 14
-169.5
 24
-229.46523
 34
0.0
 50
90.0
100
AcDbRotatedDimension
1001
ACAD
1000
DSTYLE
1002
{
1070
    77
1070
     1
1070
   172
1070
     1
1070
    75
1070
     1
1002
}
  0
DIMENSION
  5
DA
330
38
100
AcDbEntity
  8
0
  6
CONTINUOUS
 62
     1
100
AcDbDimension
  2
*D4
 10
-192.3330399999999
 20
-236.4652299999999
 30
0.0
 11
-192.3330399999999
 21
-245.15582
 31
0.0
  3
DIMSTYLE
100
AcDbAlignedDimension
 13
-194.3330399999999
 23
-229.46523
 33
0.0
 14
-209.54237
 24
-236.4652299999999
 34
0.0
 50
90.0
100
AcDbRotatedDimension
1001
ACAD
1000
DSTYLE
1002
{
1070
     6
1000
_NONE
1070
    77
1070
     1
1070
   172
1070
     1
1070
    75
1070
     1
1070
    76
1070
     1
1002
}
  0
DIMENSION
  5
DB
330
38
100
AcDbEntity
  8
0
  6
CONTINUOUS
 62
     1
100
AcDbDimension
  2
*D5
 10
10.0
 20
-259.5137899999999
 30
0.0
 11
26.52522499999999
 21
-259.5137899999999
 31
0.0
  3
DIMSTYLE
100
AcDbAlignedDimension
 13
-10.0
 23
-235.46523
 33
0.0
 14
10.0
 24
-235.46523
 34
0.0
100
AcDbRotatedDimension
1001
ACAD
1000
DSTYLE
1002
{
1070
    77
1070
     1
1070
   172
1070
     1
1070
    42
1040
0.0
1002
}
  0
DIMENSION
  5
DC
330
38
100
AcDbEntity
  8
0
  6
CONTINUOUS
 62
     1
100
AcDbDimension
  2
*D6
 10
170.0
 20
-281.06326
 30
0.0
 11
0.89449108
 21
-281.06326
 31
0.0
  3
DIMSTYLE
100
AcDbAlignedDimension
 13
-170.0
 23
-235.96523
 33
0.0
 14
170.0
 24
-235.96523
 34
0.0
100
AcDbRotatedDimension
1001
ACAD
1000
DSTYLE
1002
{
1070
    77
1070
     1
1070
   172
1070
     1
1070
    42
1040
0.0
1002
}
  0
DIMENSION
  5
DD
330
38
100
AcDbEntity
  8
0
  6
CONTINUOUS
 62
     1
100
AcDbDimension
  2
*D7
 10
122.0
 20
-168.6858499999999
 30
0.0
 11
0.0
 21
-168.6858499999999
 31
0.0
  3
DIMSTYLE
100
AcDbAlignedDimension
 13
-122.0
 23
-198.9652299999999
 33
0.0
 14
122.0
 24
-198.9652299999999
 34
0.0
100
AcDbRotatedDimension
1001
ACAD
1000
DSTYLE
1002
{
1070
    77
1070
     1
1070
   172
1070
     1
1070
    42
1040
0.0
1002
}
  0
TEXT
  5
184
330
38
100
AcDbEntity
  8
0
  6
CONTINUOUS
100
AcDbText
 10
87.62432379240776
 20
-327.0197350359524
 30
0.0
 40
6.499999999999999
  1
DATE2020.5.1
100
AcDbText
  0
ENDSEC
  0
SECTION
  2
OBJECTS
  0
DICTIONARY
  5
DE
330
0
100
AcDbDictionary
  3
ACAD_GROUP
350
DF
  3
ACAD_LAYOUT
350
E6
  3
ACAD_MLINESTYLE
350
E0
  3
ACAD_PLOTSETTINGS
350
E7
  3
ACAD_PLOTSTYLENAME
350
F7
  3
ACDBHEADERROUNDTRIPXREC
350
1B0
  3
ACDBVARIABLEDICTIONARY
350
FE
1001
ACAD
1000
TREAT_AS_HARD
1070
     0
  0
DICTIONARY
  5
F1
330
38
100
AcDbDictionary
  3
ACAD_LAYOUTSELFREF
350
1D0
  0
DICTIONARY
  5
F3
330
39
100
AcDbDictionary
  3
ACAD_LAYOUTSELFREF
350
1D1
  0
DICTIONARY
  5
DF
102
{ACAD_REACTORS
330
DE
102
}
330
DE
100
AcDbDictionary
1001
ACAD
1000
TREAT_AS_HARD
1070
     0
  0
DICTIONARY
  5
E6
102
{ACAD_REACTORS
330
DE
102
}
330
DE
100
AcDbDictionary
1001
ACAD
1000
TREAT_AS_HARD
1070
     0
  0
DICTIONARY
  5
E0
102
{ACAD_REACTORS
330
DE
102
}
330
DE
100
AcDbDictionary
  3
STANDARD
350
E1
1001
ACAD
1000
TREAT_AS_HARD
1070
     0
  0
DICTIONARY
  5
E7
102
{ACAD_REACTORS
330
DE
102
}
330
DE
100
AcDbDictionary
1001
ACAD
1000
TREAT_AS_HARD
1070
     0
  0
ACDBDICTIONARYWDFLT
  5
F7
102
{ACAD_REACTORS
330
DE
102
}
330
DE
100
AcDbDictionary
281
     1
  3
Normal
350
F8
100
AcDbDictionaryWithDefault
340
F8
  0
DICTIONARY
  5
1B0
102
{ACAD_REACTORS
330
DE
102
}
330
DE
100
AcDbDictionary
  3
CEPSNTYPE
350
1BA
  3
FINGERPRINTGUID
350
1BB
  3
HYPERLINKBASE
350
1B3
  3
INSUNITS
350
1B9
  3
LAYOUTDICT
350
1B5
  3
LWETCUNION
350
1B8
  3
PLOTSETDICT
350
1B6
  3
PLOTSTYLNAMDICT
350
1B7
  3
PSVPSCALE
350
1BD
  3
PUCSBASE
350
1C0
  3
PUCSORGBACK
350
1C6
  3
PUCSORGBOTTOM
350
1C2
  3
PUCSORGFRONT
350
1C5
  3
PUCSORGLEFT
350
1C3
  3
PUCSORGRIGHT
350
1C4
  3
PUCSORGTOP
350
1C1
  3
PUCSORTHOREF
350
1BE
  3
PUCSORTHOVIEW
350
1BF
  3
STYLESHEET
350
1B4
  3
TSTACKALIGN
350
1B1
  3
TSTACKSIZE
350
1B2
  3
UCSBASE
350
1C9
  3
UCSORGBACK
350
1CF
  3
UCSORGBOTTOM
350
1CB
  3
UCSORGFRONT
350
1CE
  3
UCSORGLEFT
350
1CC
  3
UCSORGRIGHT
350
1CD
  3
UCSORGTOP
350
1CA
  3
UCSORTHOREF
350
1C7
  3
UCSORTHOVIEW
350
1C8
  3
VERSIONGUID
350
1BC
  0
DICTIONARY
  5
FE
102
{ACAD_REACTORS
330
DE
102
}
330
DE
100
AcDbDictionary
  3
DIMASSOC
350
FF
  0
XRECORD
  5
1D0
102
{ACAD_REACTORS
330
F1
102
}
330
F1
100
AcDbXrecord
340
38
  0
XRECORD
  5
1D1
102
{ACAD_REACTORS
330
F3
102
}
330
F3
100
AcDbXrecord
340
39
  0
MLINESTYLE
  5
E1
102
{ACAD_REACTORS
330
E0
102
}
330
E0
100
AcDbMlineStyle
  2
STANDARD
 70
     0
  3

 62
     0
 51
90.0
 52
90.0
 71
     2
 49
0.5
 62
   256
  6
BYLAYER
 49
-0.5
 62
   256
  6
BYLAYER
  0
ACDBPLACEHOLDER
  5
F8
102
{ACAD_REACTORS
330
F7
102
}
330
F7
100
AcDbPlaceHolder
280
     0
  0
XRECORD
  5
1BA
102
{ACAD_REACTORS
330
1B0
102
}
330
1B0
100
AcDbXrecord
 90
        0
  0
XRECORD
  5
1BB
102
{ACAD_REACTORS
330
1B0
102
}
330
1B0
100
AcDbXrecord
  1
{22F08FA2-0A03-11D8-97F2-00104B1A3E5F}
  0
XRECORD
  5
1B3
102
{ACAD_REACTORS
330
1B0
102
}
330
1B0
100
AcDbXrecord
  1

  0
XRECORD
  5
1B9
102
{ACAD_REACTORS
330
1B0
102
}
330
1B0
100
AcDbXrecord
 90
        0
  0
XRECORD
  5
1B5
102
{ACAD_REACTORS
330
1B0
102
}
330
1B0
100
AcDbXrecord
340
E6
  0
XRECORD
  5
1B8
102
{ACAD_REACTORS
330
1B0
102
}
330
1B0
100
AcDbXrecord
 90
    10781
  0
XRECORD
  5
1B6
102
{ACAD_REACTORS
330
1B0
102
}
330
1B0
100
AcDbXrecord
340
E7
  0
XRECORD
  5
1B7
102
{ACAD_REACTORS
330
1B0
102
}
330
1B0
100
AcDbXrecord
340
F7
  0
XRECORD
  5
1BD
102
{ACAD_REACTORS
330
1B0
102
}
330
1B0
100
AcDbXrecord
 40
0.0
  0
XRECORD
  5
1C0
102
{ACAD_REACTORS
330
1B0
102
}
330
1B0
100
AcDbXrecord
340
0
  0
XRECORD
  5
1C6
102
{ACAD_REACTORS
330
1B0
102
}
330
1B0
100
AcDbXrecord
 10
0.0
 20
0.0
 30
0.0
  0
XRECORD
  5
1C2
102
{ACAD_REACTORS
330
1B0
102
}
330
1B0
100
AcDbXrecord
 10
0.0
 20
0.0
 30
0.0
  0
XRECORD
  5
1C5
102
{ACAD_REACTORS
330
1B0
102
}
330
1B0
100
AcDbXrecord
 10
0.0
 20
0.0
 30
0.0
  0
XRECORD
  5
1C3
102
{ACAD_REACTORS
330
1B0
102
}
330
1B0
100
AcDbXrecord
 10
0.0
 20
0.0
 30
0.0
  0
XRECORD
  5
1C4
102
{ACAD_REACTORS
330
1B0
102
}
330
1B0
100
AcDbXrecord
 10
0.0
 20
0.0
 30
0.0
  0
XRECORD
  5
1C1
102
{ACAD_REACTORS
330
1B0
102
}
330
1B0
100
AcDbXrecord
 10
0.0
 20
0.0
 30
0.0
  0
XRECORD
  5
1BE
102
{ACAD_REACTORS
330
1B0
102
}
330
1B0
100
AcDbXrecord
340
0
  0
XRECORD
  5
1BF
102
{ACAD_REACTORS
330
1B0
102
}
330
1B0
100
AcDbXrecord
 70
     0
  0
XRECORD
  5
1B4
102
{ACAD_REACTORS
330
1B0
102
}
330
1B0
100
AcDbXrecord
  1
monochrome.ctb
  0
XRECORD
  5
1B1
102
{ACAD_REACTORS
330
1B0
102
}
330
1B0
100
AcDbXrecord
 90
        1
  0
XRECORD
  5
1B2
102
{ACAD_REACTORS
330
1B0
102
}
330
1B0
100
AcDbXrecord
 90
       70
  0
XRECORD
  5
1C9
102
{ACAD_REACTORS
330
1B0
102
}
330
1B0
100
AcDbXrecord
340
0
  0
XRECORD
  5
1CF
102
{ACAD_REACTORS
330
1B0
102
}
330
1B0
100
AcDbXrecord
 10
0.0
 20
0.0
 30
0.0
  0
XRECORD
  5
1CB
102
{ACAD_REACTORS
330
1B0
102
}
330
1B0
100
AcDbXrecord
 10
0.0
 20
0.0
 30
0.0
  0
XRECORD
  5
1CE
102
{ACAD_REACTORS
330
1B0
102
}
330
1B0
100
AcDbXrecord
 10
0.0
 20
0.0
 30
0.0
  0
XRECORD
  5
1CC
102
{ACAD_REACTORS
330
1B0
102
}
330
1B0
100
AcDbXrecord
 10
0.0
 20
0.0
 30
0.0
  0
XRECORD
  5
1CD
102
{ACAD_REACTORS
330
1B0
102
}
330
1B0
100
AcDbXrecord
 10
0.0
 20
0.0
 30
0.0
  0
XRECORD
  5
1CA
102
{ACAD_REACTORS
330
1B0
102
}
330
1B0
100
AcDbXrecord
 10
0.0
 20
0.0
 30
0.0
  0
XRECORD
  5
1C7
102
{ACAD_REACTORS
330
1B0
102
}
330
1B0
100
AcDbXrecord
340
0
  0
XRECORD
  5
1C8
102
{ACAD_REACTORS
330
1B0
102
}
330
1B0
100
AcDbXrecord
 70
     0
  0
XRECORD
  5
1BC
102
{ACAD_REACTORS
330
1B0
102
}
330
1B0
100
AcDbXrecord
  1
{076FC342-46EA-4C5F-9182-A0F3F4B3632E}
  0
DICTIONARYVAR
  5
FF
102
{ACAD_REACTORS
330
FE
102
}
330
FE
100
DictionaryVariables
280
     0
  1
1
  0
ENDSEC
  0
EOF
