  0
SECTION
  2
HEADER
  9
$ACADVER
  1
AC1014
999
I-DEAS 13 NX Not Encoded
  9
$EXTMIN
 10
0.0
 20
0.0
  9
$EXTMAX
 10
2.97E+002
 20
2.1E+002
  9
$TEXTSIZE
 40
1.25E-001
  9
$LTSCALE
 40
1.0
  9
$CLAYER
  8
1
  9
$CECOLOR
 62
1
  9
$DIMASZ
 40
1.25E-001
  9
$DIMEXO
 40
6.25E-002
  9
$DIMDLI
 40
2.5E-001
  9
$DIMEXE
 40
1.25E-001
  9
$DIMTP
 40
5.0E-003
  9
$DIMTM
 40
-5.0E-003
  9
$DIMTXT
 40
3.0
  9
$DIMLIM
 70
0
  9
$DIMTIH
 70
1
  9
$DIMTOH
 70
1
  9
$DIMSE1
 70
0
  9
$DIMSE2
 70
0
  9
$DIMTAD
 70
0
  9
$DIMASO
 70
1
  9
$DIMALT
 70
0
  9
$DIMALTD
 70
0
  9
$DIMTOFL
 70
1
  9
$DIMTIX
 70
0
  9
$DIMSAH
 70
0
  9
$DIMSTYLE
  2
DSTYLE1
  9
$DIMTFAC
 40
1.0
  9
$DIMGAP
 40
6.25E-002
  9
$LUNITS
 70
2
  9
$LUPREC
 70
3
  9
$FILLETRAD
 40
7.0E-001
  9
$AUNITS
 70
0
  9
$AUPREC
 70
1
  9
$CHAMFERA
 40
1.0
  9
$CHAMFERB
 40
1.0
  9
$ANGBASE
 50
0.0
  9
$ANGDIR
 70
0
  9
$PEXTMIN
 10
0.0
 20
0.0
 30
0.0
  9
$PEXTMAX
 10
2.97E+002
 20
2.1E+002
 30
0.0
  9
$PLIMMIN
 10
0.0
 20
0.0
  9
$PLIMMAX
 10
2.97E+002
 20
2.1E+002
  9
$PDMODE
 70
2
  9
$PDSIZE
 40
-1.0E-002
  9
$SPLINETYPE
 70
6
  9
$TILEMODE
 70
0
  9
$HANDLING
 70
1
  9
$HANDSEED
  5
f4240
  0
ENDSEC
  0
SECTION
  2
TABLES
  0
TABLE
  2
VPORT
  5
64
100
AcDbSymbolTable
 70
2
  0
VPORT
  5
65
100
AcDbSymbolTableRecord
100
AcDbViewportTableRecord
  2
*Active
 70
0
 10
0.0
 20
0.0
 11
2.97E+002
 21
2.1E+002
 12
1.485E+002
 22
1.05E+002
 13
0.0
 23
0.0
 14
1.0
 24
1.0
 15
0.0
 25
0.0
 16
0.0
 26
0.0
 36
1.0
 17
0.0
 27
0.0
 37
0.0
 40
2.1E+002
 41
1.4142857
 42
5.0E+001
 43
0.0
 44
0.0
 50
0.0
 51
0.0
 71
0
 72
1000
 73
1
 74
3
 75
0
 76
0
 77
0
 78
0
  0
ENDTAB
  0
TABLE
  2
LTYPE
  5
66
100
AcDbSymbolTable
 70
9
  0
LTYPE
  5
67
100
AcDbSymbolTableRecord
100
AcDbLinetypeTableRecord
  2
BYBLOCK
 70
0
  3

 72
65
 73
0
 40
0.0
  0
LTYPE
  5
68
100
AcDbSymbolTableRecord
100
AcDbLinetypeTableRecord
  2
BYLAYER
 70
0
  3

 72
65
 73
0
 40
0.0
  0
LTYPE
  5
69
100
AcDbSymbolTableRecord
100
AcDbLinetypeTableRecord
  2
CONTINUOUS
 70
0
  3

 72
65
 73
0
 40
0.0
  0
LTYPE
  5
6a
100
AcDbSymbolTableRecord
100
AcDbLinetypeTableRecord
  2
HIDDENNEW0
  3
_ 
 70
64
 72
65
 73
3
 40
4.5
 49
1.5
 74
0
 49
-1.5
 74
0
 49
1.5
 74
0
  0
LTYPE
  5
6b
100
AcDbSymbolTableRecord
100
AcDbLinetypeTableRecord
  2
HIDDENNEW1
  3
_ 
 70
64
 72
65
 73
3
 40
4.5
 49
1.5
 74
0
 49
-1.5
 74
0
 49
1.5
 74
0
  0
LTYPE
  5
6c
100
AcDbSymbolTableRecord
100
AcDbLinetypeTableRecord
  2
HIDDEN
  3
_ 
 70
64
 72
65
 73
3
 40
4.5
 49
1.5
 74
0
 49
-1.5
 74
0
 49
1.5
 74
0
  0
LTYPE
  5
6d
100
AcDbSymbolTableRecord
100
AcDbLinetypeTableRecord
  2
CENTERLINE
  3
_ 
 70
64
 72
65
 73
5
 40
3.0E+001
 49
1.2E+001
 74
0
 49
-1.5
 74
0
 49
3.0
 74
0
 49
-1.5
 74
0
 49
1.2E+001
 74
0
  0
LTYPE
  5
6e
100
AcDbSymbolTableRecord
100
AcDbLinetypeTableRecord
  2
PHANTOM
  3
_ 
 70
64
 72
65
 73
7
 40
2.95E+001
 49
9.5
 74
0
 49
-1.5
 74
0
 49
3.0
 74
0
 49
-1.5
 74
0
 49
3.0
 74
0
 49
-1.5
 74
0
 49
9.5
 74
0
  0
LTYPE
  5
6f
100
AcDbSymbolTableRecord
100
AcDbLinetypeTableRecord
  2
SHORT_DASH
  3
_ 
 70
64
 72
65
 73
3
 40
3.0
 49
7.5E-001
 74
0
 49
-1.5
 74
0
 49
7.5E-001
 74
0
  0
LTYPE
  5
70
100
AcDbSymbolTableRecord
100
AcDbLinetypeTableRecord
  2
LONG_DASH
  3
_ 
 70
64
 72
65
 73
3
 40
9.0
 49
2.25
 74
0
 49
-4.5
 74
0
 49
2.25
 74
0
  0
LTYPE
  5
71
100
AcDbSymbolTableRecord
100
AcDbLinetypeTableRecord
  2
DASHDOT
  3
_ 
 70
64
 72
65
 73
5
 40
1.85E+001
 49
6.0
 74
0
 49
-3.0
 74
0
 49
5.0E-001
 74
0
 49
-3.0
 74
0
 49
6.0
 74
0
  0
LTYPE
  5
72
100
AcDbSymbolTableRecord
100
AcDbLinetypeTableRecord
  2
DASHED
  3
_ 
 70
64
 72
65
 73
3
 40
1.5E+001
 49
6.0
 74
0
 49
-3.0
 74
0
 49
6.0
 74
0
  0
ENDTAB
  0
TABLE
  2
LAYER
  5
73
100
AcDbSymbolTable
 70
258
  0
LAYER
  5
74
100
AcDbSymbolTableRecord
100
AcDbLayerTableRecord
  2
0
 70
0
 62
7
  6
CONTINUOUS
  0
LAYER
  5
75
100
AcDbSymbolTableRecord
100
AcDbLayerTableRecord
  2
1
 70
0
 62
7
  6
CONTINUOUS
  0
LAYER
  5
76
100
AcDbSymbolTableRecord
100
AcDbLayerTableRecord
  2
AM_VIEWS
 70
0
 62
3
  6
CONTINUOUS
  0
LAYER
  5
77
100
AcDbSymbolTableRecord
100
AcDbLayerTableRecord
  2
Drafting_Hidden_Entities
 70
1
 62
7
  6
CONTINUOUS
  0
ENDTAB
  0
TABLE
  2
STYLE
  5
78
100
AcDbSymbolTable
 70
1
  0
STYLE
  5
79
100
AcDbSymbolTableRecord
100
AcDbTextStyleTableRecord
  2
STANDARD
 70
64
 40
0.0
 41
1.0
 50
0.0
 71
0
 42
1.0
  3
monotxt.shx
  4
bigfont.shx
  0
ENDTAB
  0
TABLE
  2
VIEW
  5
7a
100
AcDbSymbolTable
 70
0
  0
ENDTAB
  0
TABLE
  2
UCS
  5
7b
100
AcDbSymbolTable
 70
0
  0
ENDTAB
  0
TABLE
  2
APPID
  5
7c
100
AcDbSymbolTable
 70
1
  0
APPID
  5
7d
100
AcDbSymbolTableRecord
100
AcDbRegAppTableRecord
  2
ACAD
 70
1
  0
ENDTAB
  0
TABLE
  2
DIMSTYLE
  5
7e
100
AcDbSymbolTable
 70
5
  0
DIMSTYLE
105
7f
100
AcDbSymbolTableRecord
100
AcDbDimStyleTableRecord
  2
DSTYLE1
 70
0
  3

  4

  5

  6

  7

 40
1.0
 41
1.5
 42
5.0E-001
 43
3.8E-001
 44
5.0E-001
 45
1.0E-002
 46
0.0
 47
1.0
 48
1.0
 71
0
 72
0
 73
0
 74
0
 75
0
 76
0
 77
1
 78
11
140
3.0
141
9.0E-002
142
0.0
143
3.9370079E-002
144
1.0
145
0.0
146
1.0
147
5.0E-001
170
0
171
2
172
0
173
0
174
0
175
0
176
0
177
0
178
0
270
2
271
2
272
4
273
2
274
2
275
0
280
0
281
0
282
0
283
1
284
0
285
0
286
0
287
3
288
0
  0
DIMSTYLE
105
80
100
AcDbSymbolTableRecord
100
AcDbDimStyleTableRecord
  2
DSTYLE2
 70
0
  3

  4

  5

  6

  7

 40
1.0
 41
2.0
 42
5.0E-001
 43
3.8E-001
 44
5.0E-001
 45
1.0E-002
 46
0.0
 47
1.0
 48
1.0
 71
0
 72
0
 73
0
 74
0
 75
0
 76
0
 77
1
 78
11
140
3.0
141
9.0E-002
142
0.0
143
3.9370079E-002
144
1.0
145
0.0
146
1.0
147
5.0E-001
170
0
171
2
172
0
173
0
174
0
175
0
176
0
177
0
178
0
270
2
271
2
272
4
273
2
274
2
275
0
280
0
281
0
282
0
283
1
284
0
285
0
286
0
287
3
288
0
  0
DIMSTYLE
105
81
100
AcDbSymbolTableRecord
100
AcDbDimStyleTableRecord
  2
DSTYLE3
 70
0
  3

  4

  5

  6

  7

 40
1.0
 41
2.0
 42
5.0E-001
 43
3.8E-001
 44
5.0E-001
 45
1.0E-002
 46
0.0
 47
1.0
 48
1.0
 71
0
 72
0
 73
0
 74
0
 75
0
 76
1
 77
1
 78
11
140
3.0
141
9.0E-002
142
0.0
143
3.9370079E-002
144
1.0
145
0.0
146
1.0
147
5.0E-001
170
0
171
2
172
0
173
0
174
0
175
0
176
0
177
0
178
0
270
2
271
2
272
4
273
2
274
2
275
0
280
0
281
0
282
0
283
1
284
0
285
0
286
0
287
3
288
0
  0
DIMSTYLE
105
82
100
AcDbSymbolTableRecord
100
AcDbDimStyleTableRecord
  2
DSTYLE4
 70
0
  3

  4

  5

  6

  7

 40
1.0
 41
2.0
 42
5.0E-001
 43
3.8E-001
 44
5.0E-001
 45
1.0E-002
 46
0.0
 47
1.0
 48
1.0
 71
0
 72
0
 73
0
 74
0
 75
1
 76
0
 77
1
 78
3
140
3.0
141
9.0E-002
142
0.0
143
3.9370079E-002
144
1.0
145
0.0
146
1.0
147
5.0E-001
170
0
171
2
172
0
173
0
174
0
175
0
176
0
177
0
178
0
270
2
271
2
272
4
273
2
274
2
275
0
280
0
281
0
282
0
283
1
284
0
285
0
286
0
287
3
288
0
  0
DIMSTYLE
105
83
100
AcDbSymbolTableRecord
100
AcDbDimStyleTableRecord
  2
DSTYLE5
 70
0
  3

  4

  5

  6

  7

 40
1.0
 41
2.0
 42
5.0E-001
 43
3.8E-001
 44
5.0E-001
 45
1.0E-002
 46
0.0
 47
1.0
 48
1.0
 71
0
 72
0
 73
0
 74
0
 75
1
 76
1
 77
1
 78
3
140
3.0
141
9.0E-002
142
0.0
143
3.9370079E-002
144
1.0
145
0.0
146
1.0
147
5.0E-001
170
0
171
2
172
0
173
0
174
0
175
0
176
0
177
0
178
0
270
2
271
2
272
4
273
2
274
2
275
0
280
0
281
0
282
0
283
1
284
0
285
0
286
0
287
3
288
0
  0
ENDTAB
  0
TABLE
  2
BLOCK_RECORD
  5
84
100
AcDbSymbolTable
 70
0
  0
BLOCK_RECORD
  5
85
100
AcDbSymbolTableRecord
100
AcDbBlockTableRecord
  2
*MODEL_SPACE
  0
BLOCK_RECORD
  5
86
100
AcDbSymbolTableRecord
100
AcDbBlockTableRecord
  2
*PAPER_SPACE
  0
BLOCK_RECORD
  5
87
100
AcDbSymbolTableRecord
100
AcDbBlockTableRecord
  2
*D42
  0
BLOCK_RECORD
  5
88
100
AcDbSymbolTableRecord
100
AcDbBlockTableRecord
  2
*D45
  0
BLOCK_RECORD
  5
89
100
AcDbSymbolTableRecord
100
AcDbBlockTableRecord
  2
*D49
  0
BLOCK_RECORD
  5
8a
100
AcDbSymbolTableRecord
100
AcDbBlockTableRecord
  2
*D50
  0
BLOCK_RECORD
  5
8b
100
AcDbSymbolTableRecord
100
AcDbBlockTableRecord
  2
*D51
  0
BLOCK_RECORD
  5
8c
100
AcDbSymbolTableRecord
100
AcDbBlockTableRecord
  2
*D52
  0
BLOCK_RECORD
  5
8d
100
AcDbSymbolTableRecord
100
AcDbBlockTableRecord
  2
_AH1
  0
BLOCK_RECORD
  5
8e
100
AcDbSymbolTableRecord
100
AcDbBlockTableRecord
  2
_AH2
  0
BLOCK_RECORD
  5
8f
100
AcDbSymbolTableRecord
100
AcDbBlockTableRecord
  2
_AH12
  3
_AH
  0
BLOCK_RECORD
  5
90
100
AcDbSymbolTableRecord
100
AcDbBlockTableRecord
  2
_AH13
  3
_AH
  0
BLOCK_RECORD
  5
91
100
AcDbSymbolTableRecord
100
AcDbBlockTableRecord
  2
_AH14
  3
_AH
  0
BLOCK_RECORD
  5
92
100
AcDbSymbolTableRecord
100
AcDbBlockTableRecord
  2
_AH15
  3
_AH
  0
BLOCK_RECORD
  5
93
100
AcDbSymbolTableRecord
100
AcDbBlockTableRecord
  2
_AH16
  3
_AH
  0
BLOCK_RECORD
  5
94
100
AcDbSymbolTableRecord
100
AcDbBlockTableRecord
  2
_AH17
  3
_AH
  0
BLOCK_RECORD
  5
95
100
AcDbSymbolTableRecord
100
AcDbBlockTableRecord
  2
_AH18
  3
_AH
  0
BLOCK_RECORD
  5
96
100
AcDbSymbolTableRecord
100
AcDbBlockTableRecord
  2
_AH19
  3
_AH
  0
BLOCK_RECORD
  5
97
100
AcDbSymbolTableRecord
100
AcDbBlockTableRecord
  2
_AH20
  3
_AH
  0
BLOCK_RECORD
  5
98
100
AcDbSymbolTableRecord
100
AcDbBlockTableRecord
  2
_AH21
  3
_AH
  0
BLOCK_RECORD
  5
99
100
AcDbSymbolTableRecord
100
AcDbBlockTableRecord
  2
*TX466
  3
*TX
  0
ENDTAB
  0
ENDSEC
  0
SECTION
  2
BLOCKS
  0
BLOCK
  5
9a
100
AcDbEntity
100
AcDbBlockBegin
  2
*MODEL_SPACE
 70
0
 10
0.0
 20
0.0
 30
0.0
  3
*MODEL_SPACE
  1

  0
ENDBLK
  5
9b
100
AcDbEntity
100
AcDbBlockEnd
  0
BLOCK
  5
9c
100
AcDbEntity
100
AcDbBlockBegin
  2
*PAPER_SPACE
 70
0
 10
0.0
 20
0.0
 30
0.0
  3
*PAPER_SPACE
  1

  0
ENDBLK
  5
9d
100
AcDbEntity
100
AcDbBlockEnd
  0
BLOCK
  5
9e
100
AcDbEntity
100
AcDbBlockBegin
  2
_AH12
  3
_AH
 10
0.0
 20
0.0
 70
64
  0
LINE
  5
9f
100
AcDbEntity
  8
0
100
AcDbLine
  6
CONTINUOUS
 62
0
 10
0.0
 20
0.0
 11
1.0
 21
0.0
  0
LINE
  5
a0
100
AcDbEntity
  8
0
100
AcDbLine
  6
CONTINUOUS
 62
0
 10
0.0
 20
0.0
 11
-1.0
 21
0.0
  0
ENDBLK
  5
a1
100
AcDbEntity
100
AcDbBlockEnd
  0
BLOCK
  5
a2
100
AcDbEntity
100
AcDbBlockBegin
  2
_AH13
  3
_AH
 10
0.0
 20
0.0
 70
64
  0
SOLID
  5
a3
100
AcDbEntity
  8
0
100
AcDbTrace
  6
CONTINUOUS
 62
0
 10
0.0
 20
0.0
 11
1.0
 21
-1.66667E-001
 12
1.0
 22
1.66667E-001
 13
0.0
 23
0.0
  0
ENDBLK
  5
a4
100
AcDbEntity
100
AcDbBlockEnd
  0
BLOCK
  5
a5
100
AcDbEntity
100
AcDbBlockBegin
  2
_AH14
  3
_AH
 10
0.0
 20
0.0
 70
64
  0
ENDBLK
  5
a6
100
AcDbEntity
100
AcDbBlockEnd
  0
BLOCK
  5
a7
100
AcDbEntity
100
AcDbBlockBegin
  2
_AH15
  3
_AH
 10
0.0
 20
0.0
 70
64
  0
CIRCLE
  5
a8
100
AcDbEntity
  8
0
100
AcDbCircle
  6
CONTINUOUS
 62
0
 10
0.0
 20
0.0
 40
1.66667E-001
  0
LINE
  5
a9
100
AcDbEntity
  8
0
100
AcDbLine
  6
CONTINUOUS
 62
0
 10
0.0
 20
0.0
 11
-1.0
 21
0.0
  0
ENDBLK
  5
aa
100
AcDbEntity
100
AcDbBlockEnd
  0
BLOCK
  5
ab
100
AcDbEntity
100
AcDbBlockBegin
  2
_AH16
  3
_AH
 10
0.0
 20
0.0
 70
64
  0
POLYLINE
  5
ac
100
AcDbEntity
  8
0
100
AcDb2dPolyline
  6
CONTINUOUS
 62
0
 66
1
 40
1.66667E-001
 41
1.66667E-001
 70
0
  0
VERTEX
  5
ad
100
AcDbEntity
  8
0
100
AcDbVertex
100
AcDb2dVertex
 42
1.0
 10
8.3335E-002
 20
0.0
 70
0
  0
VERTEX
  5
ae
100
AcDbEntity
  8
0
100
AcDbVertex
100
AcDb2dVertex
 42
1.0
 10
-8.3335E-002
 20
0.0
 70
0
  0
VERTEX
  5
af
100
AcDbEntity
  8
0
100
AcDbVertex
100
AcDb2dVertex
 42
0.0
 10
8.3335E-002
 20
0.0
 70
0
  0
SEQEND
  5
b0
100
AcDbEntity
  0
LINE
  5
b1
100
AcDbEntity
  8
0
100
AcDbLine
  6
CONTINUOUS
 62
0
 10
0.0
 20
0.0
 11
-1.0
 21
0.0
  0
ENDBLK
  5
b2
100
AcDbEntity
100
AcDbBlockEnd
  0
BLOCK
  5
b3
100
AcDbEntity
100
AcDbBlockBegin
  2
_AH17
  3
_AH
 10
0.0
 20
0.0
 70
64
  0
LINE
  5
b4
100
AcDbEntity
  8
0
100
AcDbLine
  6
CONTINUOUS
 62
0
 10
-1.66667E-001
 20
-1.66667E-001
 11
1.66667E-001
 21
-1.66667E-001
  0
LINE
  5
b5
100
AcDbEntity
  8
0
100
AcDbLine
  6
CONTINUOUS
 62
0
 10
1.66667E-001
 20
-1.66667E-001
 11
1.66667E-001
 21
1.66667E-001
  0
LINE
  5
b6
100
AcDbEntity
  8
0
100
AcDbLine
  6
CONTINUOUS
 62
0
 10
1.66667E-001
 20
1.66667E-001
 11
-1.66667E-001
 21
1.66667E-001
  0
LINE
  5
b7
100
AcDbEntity
  8
0
100
AcDbLine
  6
CONTINUOUS
 62
0
 10
-1.66667E-001
 20
1.66667E-001
 11
-1.66667E-001
 21
-1.66667E-001
  0
LINE
  5
b8
100
AcDbEntity
  8
0
100
AcDbLine
  6
CONTINUOUS
 62
0
 10
0.0
 20
0.0
 11
-1.0
 21
0.0
  0
ENDBLK
  5
b9
100
AcDbEntity
100
AcDbBlockEnd
  0
BLOCK
  5
ba
100
AcDbEntity
100
AcDbBlockBegin
  2
_AH18
  3
_AH
 10
0.0
 20
0.0
 70
64
  0
SOLID
  5
bb
100
AcDbEntity
  8
0
100
AcDbTrace
  6
CONTINUOUS
 62
0
 10
-1.66667E-001
 20
-1.66667E-001
 11
1.66667E-001
 21
-1.66667E-001
 12
-1.66667E-001
 22
1.66667E-001
 13
1.66667E-001
 23
1.66667E-001
  0
LINE
  5
bc
100
AcDbEntity
  8
0
100
AcDbLine
  6
CONTINUOUS
 62
0
 10
0.0
 20
0.0
 11
-1.0
 21
0.0
  0
ENDBLK
  5
bd
100
AcDbEntity
100
AcDbBlockEnd
  0
BLOCK
  5
be
100
AcDbEntity
100
AcDbBlockBegin
  2
_AH19
  3
_AH
 10
0.0
 20
0.0
 70
64
  0
LINE
  5
bf
100
AcDbEntity
  8
0
100
AcDbLine
  6
CONTINUOUS
 62
0
 10
-5.0E-001
 20
-5.0E-001
 11
5.0E-001
 21
5.0E-001
  0
LINE
  5
c0
100
AcDbEntity
  8
0
100
AcDbLine
  6
CONTINUOUS
 62
0
 10
0.0
 20
0.0
 11
-1.0
 21
0.0
  0
ENDBLK
  5
c1
100
AcDbEntity
100
AcDbBlockEnd
  0
BLOCK
  5
c2
100
AcDbEntity
100
AcDbBlockBegin
  2
_AH20
  3
_AH
 10
0.0
 20
0.0
 70
64
  0
POLYLINE
  5
c3
100
AcDbEntity
  8
0
100
AcDb2dPolyline
  6
CONTINUOUS
 62
0
 66
1
 40
5.0E-001
 41
5.0E-001
 70
0
  0
VERTEX
  5
c4
100
AcDbEntity
  8
0
100
AcDbVertex
100
AcDb2dVertex
 42
4.1421356E-001
 10
-1.66667E-001
 20
-1.66667E-001
 70
0
  0
VERTEX
  5
c5
100
AcDbEntity
  8
0
100
AcDbVertex
100
AcDb2dVertex
 42
0.0
 10
0.0
 20
0.0
 70
0
  0
SEQEND
  5
c6
100
AcDbEntity
  0
POLYLINE
  5
c7
100
AcDbEntity
  8
0
100
AcDb2dPolyline
  6
CONTINUOUS
 62
0
 66
1
 40
5.0E-001
 41
5.0E-001
 70
0
  0
VERTEX
  5
c8
100
AcDbEntity
  8
0
100
AcDbVertex
100
AcDb2dVertex
 42
4.1421356E-001
 10
1.66667E-001
 20
1.66667E-001
 70
0
  0
VERTEX
  5
c9
100
AcDbEntity
  8
0
100
AcDbVertex
100
AcDb2dVertex
 42
0.0
 10
0.0
 20
0.0
 70
0
  0
SEQEND
  5
ca
100
AcDbEntity
  0
LINE
  5
cb
100
AcDbEntity
  8
0
100
AcDbLine
  6
CONTINUOUS
 62
0
 10
0.0
 20
0.0
 11
-1.0
 21
0.0
  0
ENDBLK
  5
cc
100
AcDbEntity
100
AcDbBlockEnd
  0
BLOCK
  5
cd
100
AcDbEntity
100
AcDbBlockBegin
  2
_AH21
  3
_AH
 10
0.0
 20
0.0
 70
64
  0
LINE
  5
ce
100
AcDbEntity
  8
0
100
AcDbLine
  6
CONTINUOUS
 62
0
 10
0.0
 20
0.0
 11
-1.0
 21
-1.66667E-001
  0
LINE
  5
cf
100
AcDbEntity
  8
0
100
AcDbLine
  6
CONTINUOUS
 62
0
 10
-1.0
 20
-1.66667E-001
 11
-1.0
 21
1.66667E-001
  0
LINE
  5
d0
100
AcDbEntity
  8
0
100
AcDbLine
  6
CONTINUOUS
 62
0
 10
-1.0
 20
1.66667E-001
 11
0.0
 21
0.0
  0
ENDBLK
  5
d1
100
AcDbEntity
100
AcDbBlockEnd
  0
BLOCK
  5
d2
100
AcDbEntity
100
AcDbBlockBegin
  2
*TX466
  3
*TX
 10
0.0
 20
0.0
 70
65
  0
TEXT
  5
d3
100
AcDbEntity
  8
1
100
AcDbText
  6
CONTINUOUS
 62
7
 10
-2.4
 20
0.0
 40
3.0
  1
Éi
 41
1.3333333
 72
1
 11
0.0
 21
0.0
100
AcDbText
  0
TEXT
  5
d4
100
AcDbEntity
  8
1
100
AcDbText
  6
CONTINUOUS
 62
7
 10
-2.4
 20
-4.5
 40
3.0
  1
ìs
 41
1.3333333
 72
1
 11
0.0
 21
-4.5
100
AcDbText
  0
TEXT
  5
d5
100
AcDbEntity
  8
1
100
AcDbText
  6
CONTINUOUS
 62
7
 10
-2.4
 20
-9.0
 40
3.0
  1
ò¹
 41
1.3333333
 72
1
 11
0.0
 21
-9.0
100
AcDbText
  0
TEXT
  5
d6
100
AcDbEntity
  8
1
100
AcDbText
  6
CONTINUOUS
 62
7
 10
-2.4
 20
-1.35E+001
 40
3.0
  1
î³
 41
1.3333333
 72
1
 11
0.0
 21
-1.35E+001
100
AcDbText
  0
ENDBLK
  5
d7
100
AcDbEntity
100
AcDbBlockEnd
  0
BLOCK
  5
d8
100
AcDbEntity
100
AcDbBlockBegin
  2
_AH1
 70
0
 10
0.0
 20
0.0
  3
_AH1
  0
LINE
  5
d9
100
AcDbEntity
  8
0
100
AcDbLine
  6
CONTINUOUS
 62
0
 10
-1.0
 20
1.66667E-001
 11
0.0
 21
0.0
  0
LINE
  5
da
100
AcDbEntity
  8
0
100
AcDbLine
  6
CONTINUOUS
 62
0
 10
0.0
 20
0.0
 11
-1.0
 21
-1.66667E-001
  0
LINE
  5
db
100
AcDbEntity
  8
0
100
AcDbLine
  6
CONTINUOUS
 62
0
 10
-1.0
 20
1.66667E-001
 11
-1.0
 21
-1.66667E-001
  0
LINE
  5
dc
100
AcDbEntity
  8
0
100
AcDbLine
  6
CONTINUOUS
 62
0
 10
0.0
 20
0.0
 11
-1.0
 21
0.0
  0
ENDBLK
  5
dd
100
AcDbEntity
100
AcDbBlockEnd
  0
BLOCK
  5
de
100
AcDbEntity
100
AcDbBlockBegin
  2
_AH2
 70
0
 10
0.0
 20
0.0
  3
_AH2
  0
LINE
  5
df
100
AcDbEntity
  8
0
100
AcDbLine
  6
CONTINUOUS
 62
0
 10
-1.0
 20
1.66667E-001
 11
0.0
 21
0.0
  0
LINE
  5
e0
100
AcDbEntity
  8
0
100
AcDbLine
  6
CONTINUOUS
 62
0
 10
0.0
 20
0.0
 11
-1.0
 21
-1.66667E-001
  0
LINE
  5
e1
100
AcDbEntity
  8
0
100
AcDbLine
  6
CONTINUOUS
 62
0
 10
0.0
 20
0.0
 11
-1.0
 21
0.0
  0
ENDBLK
  5
e2
100
AcDbEntity
100
AcDbBlockEnd
  0
BLOCK
  5
e3
100
AcDbEntity
100
AcDbBlockBegin
  2
*D42
  3
*D
 10
0.0
 20
0.0
 70
65
  0
LINE
  5
e4
100
AcDbEntity
  8
1
100
AcDbLine
  6
CONTINUOUS
 62
1
 10
1.1494E+002
 20
1.59039E+002
 11
1.1494E+002
 21
1.69107E+002
  0
LINE
  5
e5
100
AcDbEntity
  8
1
100
AcDbLine
  6
CONTINUOUS
 62
1
 10
1.9994E+002
 20
1.5271606E+002
 11
1.9994E+002
 21
1.69107E+002
  0
LINE
  5
e6
100
AcDbEntity
  8
1
100
AcDbLine
  6
CONTINUOUS
 62
1
 10
1.1494E+002
 20
1.68607E+002
 11
1.5744E+002
 21
1.68607E+002
  0
LINE
  5
e7
100
AcDbEntity
  8
1
100
AcDbLine
  6
CONTINUOUS
 62
1
 10
1.9994E+002
 20
1.68607E+002
 11
1.5744E+002
 21
1.68607E+002
  0
TEXT
  5
e8
100
AcDbEntity
  8
1
100
AcDbText
  6
CONTINUOUS
 62
1
 10
1.5504E+002
 20
1.69108E+002
 40
3.0
  1
85
 41
8.0E-001
100
AcDbText
  0
INSERT
  5
e9
100
AcDbEntity
100
AcDbBlockReference
  2
_AH2
  8
1
 62
1
 10
1.1494E+002
 20
1.68607E+002
 41
1.5
 42
1.5
 43
1.5
 50
1.8E+002
  0
INSERT
  5
ea
100
AcDbEntity
100
AcDbBlockReference
  2
_AH2
  8
1
 62
1
 10
1.9994E+002
 20
1.68607E+002
 41
1.5
 42
1.5
 43
1.5
 50
0.0
  0
ENDBLK
  5
eb
100
AcDbEntity
100
AcDbBlockEnd
  0
BLOCK
  5
ec
100
AcDbEntity
100
AcDbBlockBegin
  2
*D45
  3
*D
 10
0.0
 20
0.0
 70
65
  0
LINE
  5
ed
100
AcDbEntity
  8
1
100
AcDbLine
  6
CONTINUOUS
 62
1
 10
4.6496994E+001
 20
7.7739E+001
 11
4.6496994E+001
 21
5.8632E+001
  0
LINE
  5
ee
100
AcDbEntity
  8
1
100
AcDbLine
  6
CONTINUOUS
 62
1
 10
5.5197006E+001
 20
7.7739E+001
 11
5.5197006E+001
 21
5.8632E+001
  0
LINE
  5
ef
100
AcDbEntity
  8
1
100
AcDbLine
  6
CONTINUOUS
 62
1
 10
5.5197006E+001
 20
5.9132E+001
 11
4.6496994E+001
 21
5.9132E+001
  0
LINE
  5
f0
100
AcDbEntity
  8
1
100
AcDbLine
  6
CONTINUOUS
 62
1
 10
5.5197006E+001
 20
5.9132E+001
 11
6.5721E+001
 21
5.9132E+001
  0
TEXT
  5
f1
100
AcDbEntity
  8
1
100
AcDbText
  6
CONTINUOUS
 62
1
 10
5.7021E+001
 20
5.9633E+001
 40
3.0
  1
8.7
 41
8.0E-001
100
AcDbText
  0
INSERT
  5
f2
100
AcDbEntity
100
AcDbBlockReference
  2
_AH2
  8
1
 62
1
 10
4.6496994E+001
 20
5.9132E+001
 41
2.0
 42
2.0
 43
2.0
 50
1.8E+002
  0
INSERT
  5
f3
100
AcDbEntity
100
AcDbBlockReference
  2
_AH2
  8
1
 62
1
 10
5.5197006E+001
 20
5.9132E+001
 41
2.0
 42
2.0
 43
2.0
 50
0.0
  0
ENDBLK
  5
f4
100
AcDbEntity
100
AcDbBlockEnd
  0
BLOCK
  5
f5
100
AcDbEntity
100
AcDbBlockBegin
  2
*D49
  3
*D
 10
0.0
 20
0.0
 70
65
  0
LINE
  5
f6
100
AcDbEntity
  8
1
100
AcDbLine
  6
CONTINUOUS
 62
1
 10
4.3996994E+001
 20
1.03639E+002
 11
3.6916E+001
 21
1.03639E+002
  0
LINE
  5
f7
100
AcDbEntity
  8
1
100
AcDbLine
  6
CONTINUOUS
 62
1
 10
3.7416E+001
 20
1.03639E+002
 11
3.7416E+001
 21
1.16339E+002
  0
LINE
  5
f8
100
AcDbEntity
  8
1
100
AcDbLine
  6
CONTINUOUS
 62
1
 10
3.7416E+001
 20
1.29039E+002
 11
3.7416E+001
 21
1.16339E+002
  0
TEXT
  5
f9
100
AcDbEntity
  8
1
100
AcDbText
  6
CONTINUOUS
 62
1
 10
3.6915E+001
 20
1.11539E+002
 40
3.0
  1
25.4
 41
8.0E-001
 50
9.0E+001
100
AcDbText
  0
INSERT
  5
fa
100
AcDbEntity
100
AcDbBlockReference
  2
_AH2
  8
1
 62
1
 10
3.7416E+001
 20
1.03639E+002
 41
2.0
 42
2.0
 43
2.0
 50
2.7E+002
  0
INSERT
  5
fb
100
AcDbEntity
100
AcDbBlockReference
  2
_AH2
  8
1
 62
1
 10
3.7416E+001
 20
1.29039E+002
 41
2.0
 42
2.0
 43
2.0
 50
9.0E+001
  0
ENDBLK
  5
fc
100
AcDbEntity
100
AcDbBlockEnd
  0
BLOCK
  5
fd
100
AcDbEntity
100
AcDbBlockBegin
  2
*D50
  3
*D
 10
0.0
 20
0.0
 70
65
  0
LINE
  5
fe
100
AcDbEntity
  8
1
100
AcDbLine
  6
CONTINUOUS
 62
1
 10
4.3996994E+001
 20
1.29039E+002
 11
3.6916E+001
 21
1.29039E+002
  0
LINE
  5
ff
100
AcDbEntity
  8
1
100
AcDbLine
  6
CONTINUOUS
 62
1
 10
4.3996994E+001
 20
1.54439E+002
 11
3.6916E+001
 21
1.54439E+002
  0
LINE
  5
100
100
AcDbEntity
  8
1
100
AcDbLine
  6
CONTINUOUS
 62
1
 10
3.7416E+001
 20
1.29039E+002
 11
3.7416E+001
 21
1.41739E+002
  0
LINE
  5
101
100
AcDbEntity
  8
1
100
AcDbLine
  6
CONTINUOUS
 62
1
 10
3.7416E+001
 20
1.54439E+002
 11
3.7416E+001
 21
1.41739E+002
  0
TEXT
  5
102
100
AcDbEntity
  8
1
100
AcDbText
  6
CONTINUOUS
 62
1
 10
3.6915E+001
 20
1.36939E+002
 40
3.0
  1
25.4
 41
8.0E-001
 50
9.0E+001
100
AcDbText
  0
INSERT
  5
103
100
AcDbEntity
100
AcDbBlockReference
  2
_AH2
  8
1
 62
1
 10
3.7416E+001
 20
1.29039E+002
 41
2.0
 42
2.0
 43
2.0
 50
2.7E+002
  0
INSERT
  5
104
100
AcDbEntity
100
AcDbBlockReference
  2
_AH2
  8
1
 62
1
 10
3.7416E+001
 20
1.54439E+002
 41
2.0
 42
2.0
 43
2.0
 50
9.0E+001
  0
ENDBLK
  5
105
100
AcDbEntity
100
AcDbBlockEnd
  0
BLOCK
  5
106
100
AcDbEntity
100
AcDbBlockBegin
  2
*D51
  3
*D
 10
0.0
 20
0.0
 70
65
  0
LINE
  5
107
100
AcDbEntity
  8
1
100
AcDbLine
  6
CONTINUOUS
 62
1
 10
5.0847E+001
 20
7.1389E+001
 11
5.0847E+001
 21
6.5411E+001
  0
LINE
  5
108
100
AcDbEntity
  8
1
100
AcDbLine
  6
CONTINUOUS
 62
1
 10
5.0847E+001
 20
6.5911E+001
 11
4.6496994E+001
 21
6.5911E+001
  0
LINE
  5
109
100
AcDbEntity
  8
1
100
AcDbLine
  6
CONTINUOUS
 62
1
 10
4.6496994E+001
 20
6.5911E+001
 11
3.4372E+001
 21
6.5911E+001
  0
TEXT
  5
10a
100
AcDbEntity
  8
1
100
AcDbText
  6
CONTINUOUS
 62
1
 10
3.5872E+001
 20
6.6412E+001
 40
3.0
  1
4.35
 41
8.0E-001
100
AcDbText
  0
INSERT
  5
10b
100
AcDbEntity
100
AcDbBlockReference
  2
_AH2
  8
1
 62
1
 10
4.6496994E+001
 20
6.5911E+001
 41
2.0
 42
2.0
 43
2.0
 50
1.8E+002
  0
INSERT
  5
10c
100
AcDbEntity
100
AcDbBlockReference
  2
_AH16
  8
1
 62
1
 10
5.0847E+001
 20
6.5911E+001
 41
2.0
 42
2.0
 43
2.0
 50
3.6E+002
  0
ENDBLK
  5
10d
100
AcDbEntity
100
AcDbBlockEnd
  0
BLOCK
  5
10e
100
AcDbEntity
100
AcDbBlockBegin
  2
*D52
  3
*D
 10
0.0
 20
0.0
 70
65
  0
LINE
  5
10f
100
AcDbEntity
  8
1
100
AcDbLine
  6
CONTINUOUS
 62
1
 10
5.5197006E+001
 20
6.5911E+001
 11
5.3197006E+001
 21
6.5577667E+001
  0
LINE
  5
110
100
AcDbEntity
  8
1
100
AcDbLine
  6
CONTINUOUS
 62
1
 10
5.5197006E+001
 20
6.5911E+001
 11
5.3197006E+001
 21
6.6244333E+001
  0
LINE
  5
111
100
AcDbEntity
  8
1
100
AcDbLine
  6
CONTINUOUS
 62
1
 10
5.5197006E+001
 20
6.5911E+001
 11
5.0847E+001
 21
6.5911E+001
  0
LINE
  5
112
100
AcDbEntity
  8
1
100
AcDbLine
  6
CONTINUOUS
 62
1
 10
5.5197006E+001
 20
6.5911E+001
 11
6.7145E+001
 21
6.5911E+001
  0
TEXT
  5
113
100
AcDbEntity
  8
1
100
AcDbText
  6
CONTINUOUS
 62
1
 10
5.6045E+001
 20
6.6412E+001
 40
3.0
  1
4.35
 41
8.0E-001
100
AcDbText
  0
INSERT
  5
114
100
AcDbEntity
100
AcDbBlockReference
  2
_AH2
  8
1
 62
1
 10
5.5197006E+001
 20
6.5911E+001
 41
2.0
 42
2.0
 43
2.0
 50
0.0
  0
ENDBLK
  5
115
100
AcDbEntity
100
AcDbBlockEnd
  0
ENDSEC
  0
SECTION
  2
ENTITIES
  0
DIMENSION
  5
116
100
AcDbEntity
  8
1
100
AcDbDimension
  6
CONTINUOUS
 62
1
  2
*D42
  3
DSTYLE1
 10
1.9994E+002
 20
1.68607E+002
 11
1.5744E+002
 21
1.70608E+002
 70
128
100
AcDbAlignedDimension
 13
1.1494E+002
 23
1.58539E+002
 14
1.9994E+002
 24
1.5221606E+002
 40
0.0
 50
0.0
100
AcDbRotatedDimension
1001
ACAD
1000
DSTYLE
1002
{
1070
173
1070
0
1070
5
1000
_AH2
1002
}
  0
LINE
  5
117
100
AcDbEntity
  8
1
100
AcDbLine
  6
CONTINUOUS
 62
7
 10
1.9429E+002
 20
1.5615212E+002
 11
1.9429E+002
 21
1.5272588E+002
  0
DIMENSION
  5
118
100
AcDbEntity
  8
1
100
AcDbDimension
  6
CONTINUOUS
 62
1
  2
*D45
  3
DSTYLE2
 10
5.5197006E+001
 20
5.9132E+001
 11
6.0621E+001
 21
6.1133E+001
 70
128
100
AcDbAlignedDimension
 13
4.6496994E+001
 23
7.8239E+001
 14
5.5197006E+001
 24
7.8239E+001
 40
0.0
 50
0.0
100
AcDbRotatedDimension
1001
ACAD
1000
DSTYLE
1002
{
1070
173
1070
0
1070
5
1000
_AH2
1002
}
  0
LINE
  5
119
100
AcDbEntity
  8
1
100
AcDbLine
  6
CONTINUOUS
 62
7
 10
1.9349E+002
 20
1.56614E+002
 11
1.9429E+002
 21
1.5615212E+002
  0
LINE
  5
11a
100
AcDbEntity
  8
1
100
AcDbLine
  6
CONTINUOUS
 62
7
 10
1.9383997E+002
 20
1.5246606E+002
 11
1.9429E+002
 21
1.5272588E+002
  0
LINE
  5
11b
100
AcDbEntity
  8
1
100
AcDbLine
  6
CONTINUOUS
 62
7
 10
1.9129E+002
 20
1.56614E+002
 11
1.9349E+002
 21
1.56614E+002
  0
DIMENSION
  5
11c
100
AcDbEntity
  8
1
100
AcDbDimension
  6
CONTINUOUS
 62
1
  2
*D49
  3
DSTYLE3
 10
3.7416E+001
 20
1.29039E+002
 11
3.5415E+001
 21
1.16339E+002
 70
128
100
AcDbAlignedDimension
 13
4.4496994E+001
 23
1.03639E+002
 14
4.4496994E+001
 24
1.29039E+002
 40
0.0
 50
9.0E+001
100
AcDbRotatedDimension
1001
ACAD
1000
DSTYLE
1002
{
1070
173
1070
0
1070
5
1000
_AH2
1002
}
  0
DIMENSION
  5
11d
100
AcDbEntity
  8
1
100
AcDbDimension
  6
CONTINUOUS
 62
1
  2
*D50
  3
DSTYLE2
 10
3.7416E+001
 20
1.54439E+002
 11
3.5415E+001
 21
1.41739E+002
 70
128
100
AcDbAlignedDimension
 13
4.4496994E+001
 23
1.29039E+002
 14
4.4496994E+001
 24
1.54439E+002
 40
0.0
 50
9.0E+001
100
AcDbRotatedDimension
1001
ACAD
1000
DSTYLE
1002
{
1070
173
1070
0
1070
5
1000
_AH2
1002
}
  0
DIMENSION
  5
11e
100
AcDbEntity
  8
1
100
AcDbDimension
  6
CONTINUOUS
 62
1
  2
*D51
  3
DSTYLE4
 10
5.0847E+001
 20
6.5911E+001
 11
4.0672E+001
 21
6.7912E+001
 70
128
100
AcDbAlignedDimension
 13
4.6496994E+001
 23
7.8239E+001
 14
5.0847E+001
 24
7.1889E+001
 40
0.0
 50
0.0
100
AcDbRotatedDimension
1001
ACAD
1000
DSTYLE
1002
{
1070
173
1070
1
1070
7
1000
_AH16
1070
6
1000
_AH2
1002
}
  0
DIMENSION
  5
11f
100
AcDbEntity
  8
1
100
AcDbDimension
  6
CONTINUOUS
 62
1
  2
*D52
  3
DSTYLE5
 10
5.5197006E+001
 20
6.5911E+001
 11
6.0845E+001
 21
6.7912E+001
 70
128
100
AcDbAlignedDimension
 13
5.0847E+001
 23
7.1889E+001
 14
5.5197006E+001
 24
7.8239E+001
 40
0.0
 50
0.0
100
AcDbRotatedDimension
1001
ACAD
1000
DSTYLE
1002
{
1070
173
1070
0
1002
}
  0
LINE
  5
120
100
AcDbEntity
  8
1
100
AcDbLine
  6
CONTINUOUS
 62
7
 10
8.4125E+001
 20
1.2982039E+002
 11
8.4125E+001
 21
1.0243361E+002
  0
LINE
  5
121
100
AcDbEntity
  8
1
100
AcDbLine
  6
CONTINUOUS
 62
7
 10
8.4125E+001
 20
1.0243361E+002
 11
8.3336228E+001
 21
1.0537735E+002
  0
LINE
  5
122
100
AcDbEntity
  8
1
100
AcDbLine
  6
CONTINUOUS
 62
7
 10
8.4125E+001
 20
1.0243361E+002
 11
8.4913772E+001
 21
1.0537735E+002
  0
LINE
  5
123
100
AcDbEntity
  8
1
100
AcDbLine
  6
CONTINUOUS
 62
7
 10
8.4125E+001
 20
1.2982039E+002
 11
8.3336228E+001
 21
1.2687665E+002
  0
LINE
  5
124
100
AcDbEntity
  8
1
100
AcDbLine
  6
CONTINUOUS
 62
7
 10
8.4125E+001
 20
1.2982039E+002
 11
8.4913772E+001
 21
1.2687665E+002
  0
INSERT
  5
125
100
AcDbEntity
100
AcDbBlockReference
  2
*TX466
  8
1
 10
8.0310822E+001
 20
1.221389E+002
  0
TEXT
  5
126
100
AcDbEntity
  8
1
100
AcDbText
  6
CONTINUOUS
 62
7
 10
1.37852E+002
 20
1.85188E+002
 40
4.0
  1

 41
8.0E-001
 72
1
 11
1.57052E+002
 21
1.85188E+002
100
AcDbText
  0
LINE
  5
127
100
AcDbEntity
  8
1
100
AcDbLine
  6
CONTINUOUS
 62
7
 10
5.4947E+001
 20
1.3101194E+002
 11
5.5197E+001
 21
1.3101194E+002
  0
LINE
  5
128
100
AcDbEntity
  8
1
100
AcDbLine
  6
CENTERLINE
 62
6
 10
5.7197006E+001
 20
1.29039E+002
 11
4.4496994E+001
 21
1.29039E+002
  0
LINE
  5
129
100
AcDbEntity
  8
1
100
AcDbLine
  6
CENTERLINE
 62
6
 10
5.7197006E+001
 20
1.54439E+002
 11
4.4496994E+001
 21
1.54439E+002
  0
CIRCLE
  5
12a
100
AcDbEntity
  8
1
100
AcDbCircle
  6
CONTINUOUS
 62
7
 10
5.0847E+001
 20
1.54439E+002
 40
2.35
  0
LINE
  5
12b
100
AcDbEntity
  8
1
100
AcDbLine
  6
CONTINUOUS
 62
7
 10
4.6496994E+001
 20
1.29039E+002
 11
4.6496994E+001
 21
1.54339E+002
  0
LINE
  5
12c
100
AcDbEntity
  8
1
100
AcDbLine
  6
CONTINUOUS
 62
7
 10
4.6497025E+001
 20
1.4962242E+002
 11
4.6496994E+001
 21
1.4963899E+002
  0
ARC
  5
12d
100
AcDbEntity
  8
1
100
AcDbCircle
  6
CONTINUOUS
 62
7
 10
5.0847E+001
 20
1.29039E+002
 40
4.55
100
AcDbArc
 50
2.5697076E+001
 51
9.0E+001
  0
LINE
  5
12e
100
AcDbEntity
  8
1
100
AcDbLine
  6
CONTINUOUS
 62
7
 10
5.0847E+001
 20
1.3358899E+002
 11
4.6746994E+001
 21
1.3358899E+002
  0
ARC
  5
12f
100
AcDbEntity
  8
1
100
AcDbCircle
  6
CONTINUOUS
 62
7
 10
4.6746994E+001
 20
1.3383899E+002
 40
2.5E-001
100
AcDbArc
 50
1.8E+002
 51
2.7E+002
  0
ARC
  5
130
100
AcDbEntity
  8
1
100
AcDbCircle
  6
CONTINUOUS
 62
7
 10
5.0847E+001
 20
1.54339E+002
 40
4.35
100
AcDbArc
 50
0.0
 51
1.8E+002
  0
LINE
  5
131
100
AcDbEntity
  8
1
100
AcDbLine
  6
CONTINUOUS
 62
7
 10
5.5197006E+001
 20
1.29039E+002
 11
5.5197006E+001
 21
1.54339E+002
  0
LINE
  5
132
100
AcDbEntity
  8
1
100
AcDbLine
  6
CONTINUOUS
 62
7
 10
4.6497055E+001
 20
1.4962236E+002
 11
4.6496994E+001
 21
1.4963899E+002
  0
ARC
  5
133
100
AcDbEntity
  8
1
100
AcDbCircle
  6
CONTINUOUS
 62
7
 10
5.1697006E+001
 20
1.3299879E+002
 40
5.0E-001
100
AcDbArc
 50
8.9029297
 51
7.7884886E+001
  0
LINE
  5
134
100
AcDbEntity
  8
1
100
AcDbLine
  6
CONTINUOUS
 62
7
 10
5.1297001E+001
 20
1.0133446E+002
 11
5.1297001E+001
 21
1.03539E+002
  0
LINE
  5
135
100
AcDbEntity
  8
1
100
AcDbLine
  6
CONTINUOUS
 62
7
 10
5.4947E+001
 20
8.0211942E+001
 11
5.5197E+001
 21
8.0211942E+001
  0
LINE
  5
136
100
AcDbEntity
  8
1
100
AcDbLine
  6
CENTERLINE
 62
6
 10
5.7197006E+001
 20
7.8239E+001
 11
4.4496994E+001
 21
7.8239E+001
  0
LINE
  5
137
100
AcDbEntity
  8
1
100
AcDbLine
  6
CENTERLINE
 62
6
 10
5.0847E+001
 20
1.60689E+002
 11
5.0847E+001
 21
7.1889E+001
  0
LINE
  5
138
100
AcDbEntity
  8
1
100
AcDbLine
  6
CENTERLINE
 62
6
 10
5.7197006E+001
 20
1.03639E+002
 11
4.4496994E+001
 21
1.03639E+002
  0
CIRCLE
  5
139
100
AcDbEntity
  8
1
100
AcDbCircle
  6
CONTINUOUS
 62
7
 10
5.0847E+001
 20
1.03539E+002
 40
2.35
  0
CIRCLE
  5
13a
100
AcDbEntity
  8
1
100
AcDbCircle
  6
CONTINUOUS
 62
7
 10
5.0847E+001
 20
7.8239E+001
 40
2.35
  0
ARC
  5
13b
100
AcDbEntity
  8
1
100
AcDbCircle
  6
CONTINUOUS
 62
7
 10
5.0847E+001
 20
7.8239E+001
 40
4.35
100
AcDbArc
 50
1.8E+002
 51
3.6E+002
  0
LINE
  5
13c
100
AcDbEntity
  8
1
100
AcDbLine
  6
CONTINUOUS
 62
7
 10
4.6496994E+001
 20
7.8239E+001
 11
4.6496994E+001
 21
1.03539E+002
  0
ARC
  5
13d
100
AcDbEntity
  8
1
100
AcDbCircle
  6
CONTINUOUS
 62
7
 10
5.0847E+001
 20
7.8239E+001
 40
4.55
100
AcDbArc
 50
2.5697076E+001
 51
9.0E+001
  0
LINE
  5
13e
100
AcDbEntity
  8
1
100
AcDbLine
  6
CONTINUOUS
 62
7
 10
5.0847E+001
 20
8.2788988E+001
 11
4.6746994E+001
 21
8.2788988E+001
  0
ARC
  5
13f
100
AcDbEntity
  8
1
100
AcDbCircle
  6
CONTINUOUS
 62
7
 10
4.6746994E+001
 20
8.3038988E+001
 40
2.5E-001
100
AcDbArc
 50
1.8E+002
 51
2.7E+002
  0
ARC
  5
140
100
AcDbEntity
  8
1
100
AcDbCircle
  6
CONTINUOUS
 62
7
 10
5.0847E+001
 20
1.03539E+002
 40
4.35
100
AcDbArc
 50
0.0
 51
1.8E+002
  0
LINE
  5
141
100
AcDbEntity
  8
1
100
AcDbLine
  6
CONTINUOUS
 62
7
 10
5.5197006E+001
 20
7.8239E+001
 11
5.5197006E+001
 21
1.03539E+002
  0
LINE
  5
142
100
AcDbEntity
  8
1
100
AcDbLine
  6
CONTINUOUS
 62
7
 10
5.2197006E+001
 20
8.0162539E+001
 11
5.2197006E+001
 21
8.2198794E+001
  0
ARC
  5
143
100
AcDbEntity
  8
1
100
AcDbCircle
  6
CONTINUOUS
 62
7
 10
5.1697006E+001
 20
8.2198794E+001
 40
5.0E-001
100
AcDbArc
 50
0.0
 51
7.7884886E+001
  0
LINE
  5
144
100
AcDbEntity
  8
1
100
AcDbLine
  6
CONTINUOUS
 62
7
 10
4.8800827E+001
 20
7.4694903E+001
 11
4.9672013E+001
 21
7.6203829E+001
  0
ARC
  5
145
100
AcDbEntity
  8
1
100
AcDbCircle
  6
CONTINUOUS
 62
7
 10
4.9017319E+001
 20
7.4569903E+001
 40
2.5E-001
100
AcDbArc
 50
1.5E+002
 51
2.4349581E+002
  0
LINE
  5
146
100
AcDbEntity
  8
1
100
AcDbLine
  6
CONTINUOUS
 62
7
 10
5.4947E+001
 20
1.0561194E+002
 11
5.5197E+001
 21
1.0561194E+002
  0
CIRCLE
  5
147
100
AcDbEntity
  8
1
100
AcDbCircle
  6
CONTINUOUS
 62
7
 10
5.0847E+001
 20
1.28939E+002
 40
2.35
  0
LINE
  5
148
100
AcDbEntity
  8
1
100
AcDbLine
  6
CONTINUOUS
 62
7
 10
4.8497E+001
 20
1.03539E+002
 11
5.2047001E+001
 21
1.03539E+002
  0
LINE
  5
149
100
AcDbEntity
  8
1
100
AcDbLine
  6
CONTINUOUS
 62
7
 10
4.6496994E+001
 20
1.03639E+002
 11
4.6496994E+001
 21
1.28939E+002
  0
LINE
  5
14a
100
AcDbEntity
  8
1
100
AcDbLine
  6
CONTINUOUS
 62
7
 10
4.6497025E+001
 20
1.2422242E+002
 11
4.6496994E+001
 21
1.2423899E+002
  0
ARC
  5
14b
100
AcDbEntity
  8
1
100
AcDbCircle
  6
CONTINUOUS
 62
7
 10
5.0847E+001
 20
1.03639E+002
 40
4.55
100
AcDbArc
 50
2.5697076E+001
 51
9.0E+001
  0
LINE
  5
14c
100
AcDbEntity
  8
1
100
AcDbLine
  6
CONTINUOUS
 62
7
 10
5.0847E+001
 20
1.0818899E+002
 11
4.6746994E+001
 21
1.0818899E+002
  0
ARC
  5
14d
100
AcDbEntity
  8
1
100
AcDbCircle
  6
CONTINUOUS
 62
7
 10
4.6746994E+001
 20
1.0843899E+002
 40
2.5E-001
100
AcDbArc
 50
1.8E+002
 51
2.7E+002
  0
ARC
  5
14e
100
AcDbEntity
  8
1
100
AcDbCircle
  6
CONTINUOUS
 62
7
 10
5.0847E+001
 20
1.28939E+002
 40
4.35
100
AcDbArc
 50
0.0
 51
1.8E+002
  0
LINE
  5
14f
100
AcDbEntity
  8
1
100
AcDbLine
  6
CONTINUOUS
 62
7
 10
5.5197006E+001
 20
1.03639E+002
 11
5.5197006E+001
 21
1.28939E+002
  0
LINE
  5
150
100
AcDbEntity
  8
1
100
AcDbLine
  6
CONTINUOUS
 62
7
 10
4.6497055E+001
 20
1.2422236E+002
 11
4.6496994E+001
 21
1.2423899E+002
  0
ARC
  5
151
100
AcDbEntity
  8
1
100
AcDbCircle
  6
CONTINUOUS
 62
7
 10
5.1697006E+001
 20
1.0759879E+002
 40
5.0E-001
100
AcDbArc
 50
8.9029297
 51
7.7884886E+001
  0
LINE
  5
152
100
AcDbEntity
  8
1
100
AcDbLine
  6
CONTINUOUS
 62
7
 10
5.2797001E+001
 20
1.02289E+002
 11
5.2836975E+001
 21
1.02289E+002
  0
LINE
  5
153
100
AcDbEntity
  8
1
100
AcDbLine
  6
CONTINUOUS
 62
7
 10
5.2797001E+001
 20
1.02789E+002
 11
5.2797001E+001
 21
1.02289E+002
  0
ARC
  5
154
100
AcDbEntity
  8
1
100
AcDbCircle
  6
CONTINUOUS
 62
7
 10
5.2047001E+001
 20
1.02789E+002
 40
7.5E-001
100
AcDbArc
 50
0.0
 51
9.0E+001
  0
ARC
  5
155
100
AcDbEntity
  8
1
100
AcDbCircle
  6
CONTINUOUS
 62
7
 10
5.0847E+001
 20
1.03539E+002
 40
2.25
100
AcDbArc
 50
1.8E+002
 51
3.300736E+002
  0
LINE
  5
156
100
AcDbEntity
  8
1
100
AcDbLine
  6
CONTINUOUS
 62
7
 10
5.1297001E+001
 20
1.2673446E+002
 11
5.1297001E+001
 21
1.28939E+002
  0
LINE
  5
157
100
AcDbEntity
  8
1
100
AcDbLine
  6
CONTINUOUS
 62
7
 10
4.8497E+001
 20
1.28939E+002
 11
5.2047001E+001
 21
1.28939E+002
  0
LINE
  5
158
100
AcDbEntity
  8
1
100
AcDbLine
  6
CONTINUOUS
 62
7
 10
5.2797001E+001
 20
1.27689E+002
 11
5.2836975E+001
 21
1.27689E+002
  0
LINE
  5
159
100
AcDbEntity
  8
1
100
AcDbLine
  6
CONTINUOUS
 62
7
 10
5.2797001E+001
 20
1.28189E+002
 11
5.2797001E+001
 21
1.27689E+002
  0
ARC
  5
15a
100
AcDbEntity
  8
1
100
AcDbCircle
  6
CONTINUOUS
 62
7
 10
5.2047001E+001
 20
1.28189E+002
 40
7.5E-001
100
AcDbArc
 50
0.0
 51
9.0E+001
  0
ARC
  5
15b
100
AcDbEntity
  8
1
100
AcDbCircle
  6
CONTINUOUS
 62
7
 10
5.0847E+001
 20
1.28939E+002
 40
2.25
100
AcDbArc
 50
1.8E+002
 51
3.300736E+002
  0
LINE
  5
15c
100
AcDbEntity
  8
1
100
AcDbLine
  6
CONTINUOUS
 62
7
 10
1.1494E+002
 20
4.6867184E+001
 11
1.1494E+002
 21
3.8867184E+001
  0
LINE
  5
15d
100
AcDbEntity
  8
1
100
AcDbLine
  6
CONTINUOUS
 62
7
 10
1.9994E+002
 20
4.6867184E+001
 11
1.9994E+002
 21
3.8867184E+001
  0
LINE
  5
15e
100
AcDbEntity
  8
1
100
AcDbLine
  6
CONTINUOUS
 62
7
 10
1.2359E+002
 20
4.6967184E+001
 11
1.2359E+002
 21
3.9586412E+001
  0
LINE
  5
15f
100
AcDbEntity
  8
1
100
AcDbLine
  6
CONTINUOUS
 62
7
 10
1.3179E+002
 20
4.6967184E+001
 11
1.3179E+002
 21
3.9586412E+001
  0
ARC
  5
160
100
AcDbEntity
  8
1
100
AcDbCircle
  6
CONTINUOUS
 62
7
 10
1.2389E+002
 20
4.6967184E+001
 40
3.0E-001
100
AcDbArc
 50
9.0E+001
 51
1.8E+002
  0
ARC
  5
161
100
AcDbEntity
  8
1
100
AcDbCircle
  6
CONTINUOUS
 62
7
 10
1.3149E+002
 20
4.6967184E+001
 40
3.0E-001
100
AcDbArc
 50
0.0
 51
9.0E+001
  0
ARC
  5
162
100
AcDbEntity
  8
1
100
AcDbCircle
  6
CONTINUOUS
 62
7
 10
1.4089E+002
 20
4.6967184E+001
 40
3.0E-001
100
AcDbArc
 50
9.0E+001
 51
1.8E+002
  0
ARC
  5
163
100
AcDbEntity
  8
1
100
AcDbCircle
  6
CONTINUOUS
 62
7
 10
1.4849E+002
 20
4.6967184E+001
 40
3.0E-001
100
AcDbArc
 50
0.0
 51
9.0E+001
  0
LINE
  5
164
100
AcDbEntity
  8
1
100
AcDbLine
  6
CONTINUOUS
 62
7
 10
1.9954E+002
 20
4.7267184E+001
 11
1.1534E+002
 21
4.7267184E+001
  0
ARC
  5
165
100
AcDbEntity
  8
1
100
AcDbCircle
  6
CONTINUOUS
 62
7
 10
1.5789E+002
 20
4.6967184E+001
 40
3.0E-001
100
AcDbArc
 50
9.0E+001
 51
1.8E+002
  0
ARC
  5
166
100
AcDbEntity
  8
1
100
AcDbCircle
  6
CONTINUOUS
 62
7
 10
1.6549E+002
 20
4.6967184E+001
 40
3.0E-001
100
AcDbArc
 50
0.0
 51
9.0E+001
  0
LINE
  5
167
100
AcDbEntity
  8
1
100
AcDbLine
  6
CONTINUOUS
 62
7
 10
1.9964E+002
 20
3.8567184E+001
 11
1.1524E+002
 21
3.8567184E+001
  0
ARC
  5
168
100
AcDbEntity
  8
1
100
AcDbCircle
  6
CONTINUOUS
 62
7
 10
1.7489E+002
 20
4.6967184E+001
 40
3.0E-001
100
AcDbArc
 50
9.0E+001
 51
1.8E+002
  0
ARC
  5
169
100
AcDbEntity
  8
1
100
AcDbCircle
  6
CONTINUOUS
 62
7
 10
1.8249E+002
 20
4.6967184E+001
 40
3.0E-001
100
AcDbArc
 50
0.0
 51
9.0E+001
  0
ARC
  5
16a
100
AcDbEntity
  8
1
100
AcDbCircle
  6
CONTINUOUS
 62
7
 10
1.1524E+002
 20
3.8867184E+001
 40
3.0E-001
100
AcDbArc
 50
1.8E+002
 51
2.7E+002
  0
ARC
  5
16b
100
AcDbEntity
  8
1
100
AcDbCircle
  6
CONTINUOUS
 62
7
 10
1.9189E+002
 20
4.6967184E+001
 40
3.0E-001
100
AcDbArc
 50
9.0E+001
 51
1.8E+002
  0
ARC
  5
16c
100
AcDbEntity
  8
1
100
AcDbCircle
  6
CONTINUOUS
 62
7
 10
1.9954E+002
 20
4.6867184E+001
 40
4.0E-001
100
AcDbArc
 50
0.0
 51
9.0E+001
  0
ARC
  5
16d
100
AcDbEntity
  8
1
100
AcDbCircle
  6
CONTINUOUS
 62
7
 10
1.1534E+002
 20
4.6867184E+001
 40
4.0E-001
100
AcDbArc
 50
9.0E+001
 51
1.8E+002
  0
LINE
  5
16e
100
AcDbEntity
  8
1
100
AcDbLine
  6
CONTINUOUS
 62
7
 10
1.3009E+002
 20
3.9286412E+001
 11
1.3149E+002
 21
3.9286412E+001
  0
LINE
  5
16f
100
AcDbEntity
  8
1
100
AcDbLine
  6
CONTINUOUS
 62
7
 10
1.2979E+002
 20
3.8567184E+001
 11
1.2979E+002
 21
3.8986412E+001
  0
ARC
  5
170
100
AcDbEntity
  8
1
100
AcDbCircle
  6
CONTINUOUS
 62
7
 10
1.3009E+002
 20
3.8986412E+001
 40
3.0E-001
100
AcDbArc
 50
9.0E+001
 51
1.8E+002
  0
ARC
  5
171
100
AcDbEntity
  8
1
100
AcDbCircle
  6
CONTINUOUS
 62
7
 10
1.3149E+002
 20
3.9586412E+001
 40
3.0E-001
100
AcDbArc
 50
2.7E+002
 51
3.6E+002
  0
LINE
  5
172
100
AcDbEntity
  8
1
100
AcDbLine
  6
CONTINUOUS
 62
7
 10
1.2529E+002
 20
3.9286412E+001
 11
1.2389E+002
 21
3.9286412E+001
  0
LINE
  5
173
100
AcDbEntity
  8
1
100
AcDbLine
  6
CONTINUOUS
 62
7
 10
1.2559E+002
 20
3.8567184E+001
 11
1.2559E+002
 21
3.8986412E+001
  0
ARC
  5
174
100
AcDbEntity
  8
1
100
AcDbCircle
  6
CONTINUOUS
 62
7
 10
1.2529E+002
 20
3.8986412E+001
 40
3.0E-001
100
AcDbArc
 50
0.0
 51
9.0E+001
  0
ARC
  5
175
100
AcDbEntity
  8
1
100
AcDbCircle
  6
CONTINUOUS
 62
7
 10
1.2389E+002
 20
3.9586412E+001
 40
3.0E-001
100
AcDbArc
 50
1.8E+002
 51
2.7E+002
  0
LINE
  5
176
100
AcDbEntity
  8
1
100
AcDbLine
  6
CONTINUOUS
 62
7
 10
1.4709E+002
 20
3.9286412E+001
 11
1.4849E+002
 21
3.9286412E+001
  0
LINE
  5
177
100
AcDbEntity
  8
1
100
AcDbLine
  6
CONTINUOUS
 62
7
 10
1.4679E+002
 20
3.8567184E+001
 11
1.4679E+002
 21
3.8986412E+001
  0
ARC
  5
178
100
AcDbEntity
  8
1
100
AcDbCircle
  6
CONTINUOUS
 62
7
 10
1.4709E+002
 20
3.8986412E+001
 40
3.0E-001
100
AcDbArc
 50
9.0E+001
 51
1.8E+002
  0
ARC
  5
179
100
AcDbEntity
  8
1
100
AcDbCircle
  6
CONTINUOUS
 62
7
 10
1.4849E+002
 20
3.9586412E+001
 40
3.0E-001
100
AcDbArc
 50
2.7E+002
 51
3.6E+002
  0
LINE
  5
17a
100
AcDbEntity
  8
1
100
AcDbLine
  6
CONTINUOUS
 62
7
 10
1.4229E+002
 20
3.9286412E+001
 11
1.4089E+002
 21
3.9286412E+001
  0
LINE
  5
17b
100
AcDbEntity
  8
1
100
AcDbLine
  6
CONTINUOUS
 62
7
 10
1.4259E+002
 20
3.8567184E+001
 11
1.4259E+002
 21
3.8986412E+001
  0
ARC
  5
17c
100
AcDbEntity
  8
1
100
AcDbCircle
  6
CONTINUOUS
 62
7
 10
1.4229E+002
 20
3.8986412E+001
 40
3.0E-001
100
AcDbArc
 50
0.0
 51
9.0E+001
  0
ARC
  5
17d
100
AcDbEntity
  8
1
100
AcDbCircle
  6
CONTINUOUS
 62
7
 10
1.4089E+002
 20
3.9586412E+001
 40
3.0E-001
100
AcDbArc
 50
1.8E+002
 51
2.7E+002
  0
LINE
  5
17e
100
AcDbEntity
  8
1
100
AcDbLine
  6
CONTINUOUS
 62
7
 10
1.4879E+002
 20
4.6967184E+001
 11
1.4879E+002
 21
3.9586412E+001
  0
LINE
  5
17f
100
AcDbEntity
  8
1
100
AcDbLine
  6
CONTINUOUS
 62
7
 10
1.4059E+002
 20
4.6967184E+001
 11
1.4059E+002
 21
3.9586412E+001
  0
LINE
  5
180
100
AcDbEntity
  8
1
100
AcDbLine
  6
CONTINUOUS
 62
7
 10
1.6409E+002
 20
3.9286412E+001
 11
1.6549E+002
 21
3.9286412E+001
  0
LINE
  5
181
100
AcDbEntity
  8
1
100
AcDbLine
  6
CONTINUOUS
 62
7
 10
1.6379E+002
 20
3.8567184E+001
 11
1.6379E+002
 21
3.8986412E+001
  0
ARC
  5
182
100
AcDbEntity
  8
1
100
AcDbCircle
  6
CONTINUOUS
 62
7
 10
1.6409E+002
 20
3.8986412E+001
 40
3.0E-001
100
AcDbArc
 50
9.0E+001
 51
1.8E+002
  0
ARC
  5
183
100
AcDbEntity
  8
1
100
AcDbCircle
  6
CONTINUOUS
 62
7
 10
1.6549E+002
 20
3.9586412E+001
 40
3.0E-001
100
AcDbArc
 50
2.7E+002
 51
3.6E+002
  0
LINE
  5
184
100
AcDbEntity
  8
1
100
AcDbLine
  6
CONTINUOUS
 62
7
 10
1.5929E+002
 20
3.9286412E+001
 11
1.5789E+002
 21
3.9286412E+001
  0
LINE
  5
185
100
AcDbEntity
  8
1
100
AcDbLine
  6
CONTINUOUS
 62
7
 10
1.5959E+002
 20
3.8567184E+001
 11
1.5959E+002
 21
3.8986412E+001
  0
ARC
  5
186
100
AcDbEntity
  8
1
100
AcDbCircle
  6
CONTINUOUS
 62
7
 10
1.5929E+002
 20
3.8986412E+001
 40
3.0E-001
100
AcDbArc
 50
0.0
 51
9.0E+001
  0
ARC
  5
187
100
AcDbEntity
  8
1
100
AcDbCircle
  6
CONTINUOUS
 62
7
 10
1.5789E+002
 20
3.9586412E+001
 40
3.0E-001
100
AcDbArc
 50
1.8E+002
 51
2.7E+002
  0
LINE
  5
188
100
AcDbEntity
  8
1
100
AcDbLine
  6
CONTINUOUS
 62
7
 10
1.6579E+002
 20
4.6967184E+001
 11
1.6579E+002
 21
3.9586412E+001
  0
LINE
  5
189
100
AcDbEntity
  8
1
100
AcDbLine
  6
CONTINUOUS
 62
7
 10
1.5759E+002
 20
4.6967184E+001
 11
1.5759E+002
 21
3.9586412E+001
  0
LINE
  5
18a
100
AcDbEntity
  8
1
100
AcDbLine
  6
CONTINUOUS
 62
7
 10
1.8109E+002
 20
3.9286412E+001
 11
1.8249E+002
 21
3.9286412E+001
  0
LINE
  5
18b
100
AcDbEntity
  8
1
100
AcDbLine
  6
CONTINUOUS
 62
7
 10
1.8079E+002
 20
3.8567184E+001
 11
1.8079E+002
 21
3.8986412E+001
  0
ARC
  5
18c
100
AcDbEntity
  8
1
100
AcDbCircle
  6
CONTINUOUS
 62
7
 10
1.8109E+002
 20
3.8986412E+001
 40
3.0E-001
100
AcDbArc
 50
9.0E+001
 51
1.8E+002
  0
ARC
  5
18d
100
AcDbEntity
  8
1
100
AcDbCircle
  6
CONTINUOUS
 62
7
 10
1.8249E+002
 20
3.9586412E+001
 40
3.0E-001
100
AcDbArc
 50
2.7E+002
 51
3.6E+002
  0
LINE
  5
18e
100
AcDbEntity
  8
1
100
AcDbLine
  6
CONTINUOUS
 62
7
 10
1.7629E+002
 20
3.9286412E+001
 11
1.7489E+002
 21
3.9286412E+001
  0
LINE
  5
18f
100
AcDbEntity
  8
1
100
AcDbLine
  6
CONTINUOUS
 62
7
 10
1.7659E+002
 20
3.8567184E+001
 11
1.7659E+002
 21
3.8986412E+001
  0
ARC
  5
190
100
AcDbEntity
  8
1
100
AcDbCircle
  6
CONTINUOUS
 62
7
 10
1.7629E+002
 20
3.8986412E+001
 40
3.0E-001
100
AcDbArc
 50
0.0
 51
9.0E+001
  0
ARC
  5
191
100
AcDbEntity
  8
1
100
AcDbCircle
  6
CONTINUOUS
 62
7
 10
1.7489E+002
 20
3.9586412E+001
 40
3.0E-001
100
AcDbArc
 50
1.8E+002
 51
2.7E+002
  0
LINE
  5
192
100
AcDbEntity
  8
1
100
AcDbLine
  6
CONTINUOUS
 62
7
 10
1.8279E+002
 20
4.6967184E+001
 11
1.8279E+002
 21
3.9586412E+001
  0
LINE
  5
193
100
AcDbEntity
  8
1
100
AcDbLine
  6
CONTINUOUS
 62
7
 10
1.7459E+002
 20
4.6967184E+001
 11
1.7459E+002
 21
3.9586412E+001
  0
LINE
  5
194
100
AcDbEntity
  8
1
100
AcDbLine
  6
CONTINUOUS
 62
7
 10
1.9159E+002
 20
4.6967181E+001
 11
1.9159E+002
 21
3.8867184E+001
  0
ARC
  5
195
100
AcDbEntity
  8
1
100
AcDbCircle
  6
CONTINUOUS
 62
7
 10
1.9189E+002
 20
3.8867184E+001
 40
3.0E-001
100
AcDbArc
 50
1.8E+002
 51
2.7E+002
  0
ARC
  5
196
100
AcDbEntity
  8
1
100
AcDbCircle
  6
CONTINUOUS
 62
7
 10
1.9189E+002
 20
3.8867184E+001
 40
3.0E-001
100
AcDbArc
 50
1.8E+002
 51
2.7E+002
  0
LINE
  5
197
100
AcDbEntity
  8
1
100
AcDbLine
  6
CONTINUOUS
 62
7
 10
1.1494E+002
 20
4.6967181E+001
 11
1.2359E+002
 21
4.6967181E+001
  0
LINE
  5
198
100
AcDbEntity
  8
1
100
AcDbLine
  6
CONTINUOUS
 62
7
 10
1.3179E+002
 20
4.6967181E+001
 11
1.4059E+002
 21
4.6967181E+001
  0
LINE
  5
199
100
AcDbEntity
  8
1
100
AcDbLine
  6
CONTINUOUS
 62
7
 10
1.4879E+002
 20
4.6967181E+001
 11
1.5759E+002
 21
4.6967181E+001
  0
LINE
  5
19a
100
AcDbEntity
  8
1
100
AcDbLine
  6
CONTINUOUS
 62
7
 10
1.6579E+002
 20
4.6967181E+001
 11
1.7459E+002
 21
4.6967181E+001
  0
LINE
  5
19b
100
AcDbEntity
  8
1
100
AcDbLine
  6
CONTINUOUS
 62
7
 10
1.8279E+002
 20
4.6967181E+001
 11
1.9159E+002
 21
4.6967181E+001
  0
ARC
  5
19c
100
AcDbEntity
  8
1
100
AcDbCircle
  6
CONTINUOUS
 62
7
 10
1.9964E+002
 20
3.8867184E+001
 40
3.0E-001
100
AcDbArc
 50
2.7E+002
 51
3.6E+002
  0
LINE
  5
19d
100
AcDbEntity
  8
1
100
AcDbLine
  6
CONTINUOUS
 62
7
 10
1.9129E+002
 20
1.58539E+002
 11
1.9129E+002
 21
1.5296449E+002
  0
LINE
  5
19e
100
AcDbEntity
  8
1
100
AcDbLine
  6
CONTINUOUS
 62
7
 10
1.8309E+002
 20
1.58539E+002
 11
1.8309E+002
 21
1.5296449E+002
  0
LINE
  5
19f
100
AcDbEntity
  8
1
100
AcDbLine
  6
CONTINUOUS
 62
7
 10
1.7429E+002
 20
1.58539E+002
 11
1.7429E+002
 21
1.5296449E+002
  0
LINE
  5
1a0
100
AcDbEntity
  8
1
100
AcDbLine
  6
CONTINUOUS
 62
7
 10
1.6609E+002
 20
1.58539E+002
 11
1.6609E+002
 21
1.5296449E+002
  0
LINE
  5
1a1
100
AcDbEntity
  8
1
100
AcDbLine
  6
CONTINUOUS
 62
7
 10
1.5729E+002
 20
1.58539E+002
 11
1.5729E+002
 21
1.5296449E+002
  0
LINE
  5
1a2
100
AcDbEntity
  8
1
100
AcDbLine
  6
CONTINUOUS
 62
7
 10
1.4909E+002
 20
1.58539E+002
 11
1.4909E+002
 21
1.5296449E+002
  0
LINE
  5
1a3
100
AcDbEntity
  8
1
100
AcDbLine
  6
CONTINUOUS
 62
7
 10
1.4029E+002
 20
1.58539E+002
 11
1.4029E+002
 21
1.5296449E+002
  0
LINE
  5
1a4
100
AcDbEntity
  8
1
100
AcDbLine
  6
CONTINUOUS
 62
7
 10
1.3209E+002
 20
1.58539E+002
 11
1.3209E+002
 21
1.5296449E+002
  0
LINE
  5
1a5
100
AcDbEntity
  8
1
100
AcDbLine
  6
CONTINUOUS
 62
7
 10
1.2329E+002
 20
1.58539E+002
 11
1.2329E+002
 21
1.5296449E+002
  0
LINE
  5
1a6
100
AcDbEntity
  8
1
100
AcDbLine
  6
CONTINUOUS
 62
7
 10
1.8259E+002
 20
1.5246606E+002
 11
1.7479E+002
 21
1.5246606E+002
  0
LINE
  5
1a7
100
AcDbEntity
  8
1
100
AcDbLine
  6
CONTINUOUS
 62
7
 10
1.6559E+002
 20
1.5246606E+002
 11
1.5779E+002
 21
1.5246606E+002
  0
LINE
  5
1a8
100
AcDbEntity
  8
1
100
AcDbLine
  6
CONTINUOUS
 62
7
 10
1.4859E+002
 20
1.5246606E+002
 11
1.4079E+002
 21
1.5246606E+002
  0
LINE
  5
1a9
100
AcDbEntity
  8
1
100
AcDbLine
  6
CONTINUOUS
 62
7
 10
1.3159E+002
 20
1.5246606E+002
 11
1.2379E+002
 21
1.5246606E+002
  0
ARC
  5
1aa
100
AcDbEntity
  8
1
100
AcDbCircle
  6
CONTINUOUS
 62
7
 10
1.9179E+002
 20
1.5296606E+002
 40
5.0E-001
100
AcDbArc
 50
1.8E+002
 51
2.7E+002
  0
ARC
  5
1ab
100
AcDbEntity
  8
1
100
AcDbCircle
  6
CONTINUOUS
 62
7
 10
1.9104E+002
 20
1.58539E+002
 40
2.5E-001
100
AcDbArc
 50
0.0
 51
9.0000002E+001
  0
ARC
  5
1ac
100
AcDbEntity
  8
1
100
AcDbCircle
  6
CONTINUOUS
 62
7
 10
1.8259E+002
 20
1.5296606E+002
 40
5.0E-001
100
AcDbArc
 50
2.7E+002
 51
3.5999999E+002
  0
ARC
  5
1ad
100
AcDbEntity
  8
1
100
AcDbCircle
  6
CONTINUOUS
 62
7
 10
1.7479E+002
 20
1.5296606E+002
 40
5.0E-001
100
AcDbArc
 50
1.8E+002
 51
2.7E+002
  0
LINE
  5
1ae
100
AcDbEntity
  8
1
100
AcDbLine
  6
CONTINUOUS
 62
7
 10
1.8334E+002
 20
1.58789E+002
 11
1.9104E+002
 21
1.58789E+002
  0
ARC
  5
1af
100
AcDbEntity
  8
1
100
AcDbCircle
  6
CONTINUOUS
 62
7
 10
1.7404E+002
 20
1.58539E+002
 40
2.5E-001
100
AcDbArc
 50
0.0
 51
9.0000002E+001
  0
ARC
  5
1b0
100
AcDbEntity
  8
1
100
AcDbCircle
  6
CONTINUOUS
 62
7
 10
1.8334E+002
 20
1.58539E+002
 40
2.5E-001
100
AcDbArc
 50
9.0E+001
 51
1.8E+002
  0
ARC
  5
1b1
100
AcDbEntity
  8
1
100
AcDbCircle
  6
CONTINUOUS
 62
7
 10
1.6559E+002
 20
1.5296606E+002
 40
5.0E-001
100
AcDbArc
 50
2.7E+002
 51
3.6E+002
  0
ARC
  5
1b2
100
AcDbEntity
  8
1
100
AcDbCircle
  6
CONTINUOUS
 62
7
 10
1.5779E+002
 20
1.5296606E+002
 40
5.0E-001
100
AcDbArc
 50
1.8E+002
 51
2.7E+002
  0
LINE
  5
1b3
100
AcDbEntity
  8
1
100
AcDbLine
  6
CONTINUOUS
 62
7
 10
1.6634E+002
 20
1.58789E+002
 11
1.7404E+002
 21
1.58789E+002
  0
ARC
  5
1b4
100
AcDbEntity
  8
1
100
AcDbCircle
  6
CONTINUOUS
 62
7
 10
1.5704E+002
 20
1.58539E+002
 40
2.5E-001
100
AcDbArc
 50
0.0
 51
9.0000002E+001
  0
ARC
  5
1b5
100
AcDbEntity
  8
1
100
AcDbCircle
  6
CONTINUOUS
 62
7
 10
1.6634E+002
 20
1.58539E+002
 40
2.5E-001
100
AcDbArc
 50
9.0E+001
 51
1.8E+002
  0
ARC
  5
1b6
100
AcDbEntity
  8
1
100
AcDbCircle
  6
CONTINUOUS
 62
7
 10
1.4859E+002
 20
1.5296606E+002
 40
5.0E-001
100
AcDbArc
 50
2.7E+002
 51
3.5999999E+002
  0
ARC
  5
1b7
100
AcDbEntity
  8
1
100
AcDbCircle
  6
CONTINUOUS
 62
7
 10
1.4079E+002
 20
1.5296606E+002
 40
5.0E-001
100
AcDbArc
 50
1.8E+002
 51
2.7E+002
  0
LINE
  5
1b8
100
AcDbEntity
  8
1
100
AcDbLine
  6
CONTINUOUS
 62
7
 10
1.4934E+002
 20
1.58789E+002
 11
1.5704E+002
 21
1.58789E+002
  0
ARC
  5
1b9
100
AcDbEntity
  8
1
100
AcDbCircle
  6
CONTINUOUS
 62
7
 10
1.4004E+002
 20
1.58539E+002
 40
2.5E-001
100
AcDbArc
 50
0.0
 51
9.0000002E+001
  0
ARC
  5
1ba
100
AcDbEntity
  8
1
100
AcDbCircle
  6
CONTINUOUS
 62
7
 10
1.4934E+002
 20
1.58539E+002
 40
2.5E-001
100
AcDbArc
 50
9.0E+001
 51
1.8E+002
  0
ARC
  5
1bb
100
AcDbEntity
  8
1
100
AcDbCircle
  6
CONTINUOUS
 62
7
 10
1.3159E+002
 20
1.5296606E+002
 40
5.0E-001
100
AcDbArc
 50
2.7E+002
 51
3.5999999E+002
  0
ARC
  5
1bc
100
AcDbEntity
  8
1
100
AcDbCircle
  6
CONTINUOUS
 62
7
 10
1.2379E+002
 20
1.5296606E+002
 40
5.0E-001
100
AcDbArc
 50
1.8E+002
 51
2.7E+002
  0
LINE
  5
1bd
100
AcDbEntity
  8
1
100
AcDbLine
  6
CONTINUOUS
 62
7
 10
1.3234E+002
 20
1.58789E+002
 11
1.4004E+002
 21
1.58789E+002
  0
ARC
  5
1be
100
AcDbEntity
  8
1
100
AcDbCircle
  6
CONTINUOUS
 62
7
 10
1.2304E+002
 20
1.58539E+002
 40
2.5E-001
100
AcDbArc
 50
0.0
 51
8.9999992E+001
  0
ARC
  5
1bf
100
AcDbEntity
  8
1
100
AcDbCircle
  6
CONTINUOUS
 62
7
 10
1.3234E+002
 20
1.58539E+002
 40
2.5E-001
100
AcDbArc
 50
9.0E+001
 51
1.8E+002
  0
LINE
  5
1c0
100
AcDbEntity
  8
1
100
AcDbLine
  6
CONTINUOUS
 62
7
 10
1.1519E+002
 20
1.58789E+002
 11
1.2304E+002
 21
1.58789E+002
  0
ARC
  5
1c1
100
AcDbEntity
  8
1
100
AcDbCircle
  6
CONTINUOUS
 62
7
 10
1.1519E+002
 20
1.58539E+002
 40
2.5E-001
100
AcDbArc
 50
9.0E+001
 51
1.8E+002
  0
LINE
  5
1c2
100
AcDbEntity
  8
1
100
AcDbLine
  6
CONTINUOUS
 62
7
 10
1.9969E+002
 20
1.5246606E+002
 11
1.9179E+002
 21
1.5246606E+002
  0
LINE
  5
1c3
100
AcDbEntity
  8
1
100
AcDbLine
  6
CENTERLINE
 62
6
 10
1.1174E+002
 20
1.54439E+002
 11
2.0294E+002
 21
1.54439E+002
  0
LINE
  5
1c4
100
AcDbEntity
  8
1
100
AcDbLine
  6
CENTERLINE
 62
6
 10
1.1174E+002
 20
1.29039E+002
 11
2.0294E+002
 21
1.29039E+002
  0
ARC
  5
1c5
100
AcDbEntity
  8
1
100
AcDbCircle
  6
CONTINUOUS
 62
7
 10
1.86915E+002
 20
1.45739E+002
 40
5.0E-001
100
AcDbArc
 50
9.0E+001
 51
1.8E+002
  0
LINE
  5
1c6
100
AcDbEntity
  8
1
100
AcDbLine
  6
CONTINUOUS
 62
7
 10
1.86915E+002
 20
1.46239E+002
 11
1.9109E+002
 21
1.46239E+002
  0
ARC
  5
1c7
100
AcDbEntity
  8
1
100
AcDbCircle
  6
CONTINUOUS
 62
7
 10
1.9109E+002
 20
1.45739E+002
 40
5.0E-001
100
AcDbArc
 50
0.0
 51
9.0000003E+001
  0
ARC
  5
1c8
100
AcDbEntity
  8
1
100
AcDbCircle
  6
CONTINUOUS
 62
7
 10
1.9109E+002
 20
1.37839E+002
 40
5.0E-001
100
AcDbArc
 50
2.7E+002
 51
3.6E+002
  0
LINE
  5
1c9
100
AcDbEntity
  8
1
100
AcDbLine
  6
CONTINUOUS
 62
7
 10
1.9109E+002
 20
1.37339E+002
 11
1.86915E+002
 21
1.37339E+002
  0
ARC
  5
1ca
100
AcDbEntity
  8
1
100
AcDbCircle
  6
CONTINUOUS
 62
7
 10
1.86915E+002
 20
1.37839E+002
 40
5.0E-001
100
AcDbArc
 50
1.8E+002
 51
2.6999999E+002
  0
ARC
  5
1cb
100
AcDbEntity
  8
1
100
AcDbCircle
  6
CONTINUOUS
 62
7
 10
1.7974E+002
 20
1.45739E+002
 40
5.0E-001
100
AcDbArc
 50
9.0E+001
 51
1.8E+002
  0
LINE
  5
1cc
100
AcDbEntity
  8
1
100
AcDbLine
  6
CONTINUOUS
 62
7
 10
1.7974E+002
 20
1.46239E+002
 11
1.83915E+002
 21
1.46239E+002
  0
ARC
  5
1cd
100
AcDbEntity
  8
1
100
AcDbCircle
  6
CONTINUOUS
 62
7
 10
1.83915E+002
 20
1.45739E+002
 40
5.0E-001
100
AcDbArc
 50
0.0
 51
9.0000003E+001
  0
ARC
  5
1ce
100
AcDbEntity
  8
1
100
AcDbCircle
  6
CONTINUOUS
 62
7
 10
1.83915E+002
 20
1.37839E+002
 40
5.0E-001
100
AcDbArc
 50
2.7E+002
 51
3.6E+002
  0
LINE
  5
1cf
100
AcDbEntity
  8
1
100
AcDbLine
  6
CONTINUOUS
 62
7
 10
1.83915E+002
 20
1.37339E+002
 11
1.7974E+002
 21
1.37339E+002
  0
ARC
  5
1d0
100
AcDbEntity
  8
1
100
AcDbCircle
  6
CONTINUOUS
 62
7
 10
1.7974E+002
 20
1.37839E+002
 40
5.0E-001
100
AcDbArc
 50
1.8E+002
 51
2.7E+002
  0
ARC
  5
1d1
100
AcDbEntity
  8
1
100
AcDbCircle
  6
CONTINUOUS
 62
7
 10
1.97365E+002
 20
1.45739E+002
 40
5.0E-001
100
AcDbArc
 50
0.0
 51
9.0000003E+001
  0
LINE
  5
1d2
100
AcDbEntity
  8
1
100
AcDbLine
  6
CONTINUOUS
 62
7
 10
1.97865E+002
 20
1.38939E+002
 11
1.97865E+002
 21
1.48439E+002
  0
ARC
  5
1d3
100
AcDbEntity
  8
1
100
AcDbCircle
  6
CONTINUOUS
 62
7
 10
1.97115E+002
 20
1.38939E+002
 40
7.5E-001
100
AcDbArc
 50
2.7E+002
 51
3.6E+002
  0
LINE
  5
1d4
100
AcDbEntity
  8
1
100
AcDbLine
  6
CONTINUOUS
 62
7
 10
1.94415E+002
 20
1.38189E+002
 11
1.97115E+002
 21
1.38189E+002
  0
ARC
  5
1d5
100
AcDbEntity
  8
1
100
AcDbCircle
  6
CONTINUOUS
 62
7
 10
1.94415E+002
 20
1.38939E+002
 40
7.5E-001
100
AcDbArc
 50
1.8E+002
 51
2.6999999E+002
  0
LINE
  5
1d6
100
AcDbEntity
  8
1
100
AcDbLine
  6
CONTINUOUS
 62
7
 10
1.93665E+002
 20
1.38939E+002
 11
1.93665E+002
 21
1.48439E+002
  0
ARC
  5
1d7
100
AcDbEntity
  8
1
100
AcDbCircle
  6
CONTINUOUS
 62
7
 10
1.94165E+002
 20
1.45739E+002
 40
5.0E-001
100
AcDbArc
 50
9.0E+001
 51
1.8E+002
  0
LINE
  5
1d8
100
AcDbEntity
  8
1
100
AcDbLine
  6
CONTINUOUS
 62
7
 10
1.94165E+002
 20
1.46239E+002
 11
1.97365E+002
 21
1.46239E+002
  0
ARC
  5
1d9
100
AcDbEntity
  8
1
100
AcDbCircle
  6
CONTINUOUS
 62
7
 10
1.97115E+002
 20
1.48439E+002
 40
7.5E-001
100
AcDbArc
 50
0.0
 51
9.0000003E+001
  0
ARC
  5
1da
100
AcDbEntity
  8
1
100
AcDbCircle
  6
CONTINUOUS
 62
7
 10
1.94415E+002
 20
1.48439E+002
 40
7.5E-001
100
AcDbArc
 50
9.0E+001
 51
1.8E+002
  0
LINE
  5
1db
100
AcDbEntity
  8
1
100
AcDbLine
  6
CONTINUOUS
 62
7
 10
1.94415E+002
 20
1.49189E+002
 11
1.97115E+002
 21
1.49189E+002
  0
LINE
  5
1dc
100
AcDbEntity
  8
1
100
AcDbLine
  6
CONTINUOUS
 62
7
 10
1.2359E+002
 20
1.271078E+002
 11
1.2359E+002
 21
1.3051351E+002
  0
LINE
  5
1dd
100
AcDbEntity
  8
1
100
AcDbLine
  6
CONTINUOUS
 62
7
 10
1.3179E+002
 20
1.271078E+002
 11
1.3179E+002
 21
1.3051351E+002
  0
LINE
  5
1de
100
AcDbEntity
  8
1
100
AcDbLine
  6
CONTINUOUS
 62
7
 10
1.4059E+002
 20
1.271078E+002
 11
1.4059E+002
 21
1.3051351E+002
  0
LINE
  5
1df
100
AcDbEntity
  8
1
100
AcDbLine
  6
CONTINUOUS
 62
7
 10
1.4879E+002
 20
1.271078E+002
 11
1.4879E+002
 21
1.3051351E+002
  0
LINE
  5
1e0
100
AcDbEntity
  8
1
100
AcDbLine
  6
CONTINUOUS
 62
7
 10
1.5759E+002
 20
1.271078E+002
 11
1.5759E+002
 21
1.3051351E+002
  0
LINE
  5
1e1
100
AcDbEntity
  8
1
100
AcDbLine
  6
CONTINUOUS
 62
7
 10
1.6579E+002
 20
1.3051351E+002
 11
1.6579E+002
 21
1.271078E+002
  0
LINE
  5
1e2
100
AcDbEntity
  8
1
100
AcDbLine
  6
CONTINUOUS
 62
7
 10
1.7459E+002
 20
1.271078E+002
 11
1.7459E+002
 21
1.3051351E+002
  0
LINE
  5
1e3
100
AcDbEntity
  8
1
100
AcDbLine
  6
CONTINUOUS
 62
7
 10
1.8279E+002
 20
1.271078E+002
 11
1.8279E+002
 21
1.3051351E+002
  0
LINE
  5
1e4
100
AcDbEntity
  8
1
100
AcDbLine
  6
CONTINUOUS
 62
7
 10
1.9159E+002
 20
1.271078E+002
 11
1.9159E+002
 21
1.3051351E+002
  0
LINE
  5
1e5
100
AcDbEntity
  8
1
100
AcDbLine
  6
CONTINUOUS
 62
7
 10
1.9994E+002
 20
1.2682193E+002
 11
1.9994E+002
 21
1.5221606E+002
  0
LINE
  5
1e6
100
AcDbEntity
  8
1
100
AcDbLine
  6
CONTINUOUS
 62
7
 10
1.1494E+002
 20
1.3126194E+002
 11
1.1494E+002
 21
1.58539E+002
  0
LINE
  5
1e7
100
AcDbEntity
  8
1
100
AcDbLine
  6
CONTINUOUS
 62
7
 10
1.84415E+002
 20
1.35039E+002
 11
1.84415E+002
 21
1.48439E+002
  0
LINE
  5
1e8
100
AcDbEntity
  8
1
100
AcDbLine
  6
CONTINUOUS
 62
7
 10
1.7924E+002
 20
1.48439E+002
 11
1.7924E+002
 21
1.35039E+002
  0
ARC
  5
1e9
100
AcDbEntity
  8
1
100
AcDbCircle
  6
CONTINUOUS
 62
7
 10
1.83665E+002
 20
1.35039E+002
 40
7.5E-001
100
AcDbArc
 50
2.7E+002
 51
3.6E+002
  0
ARC
  5
1ea
100
AcDbEntity
  8
1
100
AcDbCircle
  6
CONTINUOUS
 62
7
 10
1.83665E+002
 20
1.48439E+002
 40
7.5E-001
100
AcDbArc
 50
0.0
 51
9.0000003E+001
  0
ARC
  5
1eb
100
AcDbEntity
  8
1
100
AcDbCircle
  6
CONTINUOUS
 62
7
 10
1.7999E+002
 20
1.48439E+002
 40
7.5E-001
100
AcDbArc
 50
9.0E+001
 51
1.8E+002
  0
ARC
  5
1ec
100
AcDbEntity
  8
1
100
AcDbCircle
  6
CONTINUOUS
 62
7
 10
1.7999E+002
 20
1.35039E+002
 40
7.5E-001
100
AcDbArc
 50
1.8E+002
 51
2.7E+002
  0
LINE
  5
1ed
100
AcDbEntity
  8
1
100
AcDbLine
  6
CONTINUOUS
 62
7
 10
1.83665E+002
 20
1.34289E+002
 11
1.7999E+002
 21
1.34289E+002
  0
LINE
  5
1ee
100
AcDbEntity
  8
1
100
AcDbLine
  6
CONTINUOUS
 62
7
 10
1.83665E+002
 20
1.49189E+002
 11
1.7999E+002
 21
1.49189E+002
  0
LINE
  5
1ef
100
AcDbEntity
  8
1
100
AcDbLine
  6
CONTINUOUS
 62
7
 10
1.9159E+002
 20
1.35039E+002
 11
1.9159E+002
 21
1.48439E+002
  0
LINE
  5
1f0
100
AcDbEntity
  8
1
100
AcDbLine
  6
CONTINUOUS
 62
7
 10
1.86415E+002
 20
1.48439E+002
 11
1.86415E+002
 21
1.35039E+002
  0
ARC
  5
1f1
100
AcDbEntity
  8
1
100
AcDbCircle
  6
CONTINUOUS
 62
7
 10
1.9084E+002
 20
1.48439E+002
 40
7.5E-001
100
AcDbArc
 50
0.0
 51
9.0000003E+001
  0
ARC
  5
1f2
100
AcDbEntity
  8
1
100
AcDbCircle
  6
CONTINUOUS
 62
7
 10
1.9084E+002
 20
1.35039E+002
 40
7.5E-001
100
AcDbArc
 50
2.7E+002
 51
3.6E+002
  0
ARC
  5
1f3
100
AcDbEntity
  8
1
100
AcDbCircle
  6
CONTINUOUS
 62
7
 10
1.87165E+002
 20
1.48439E+002
 40
7.5E-001
100
AcDbArc
 50
9.0E+001
 51
1.8E+002
  0
ARC
  5
1f4
100
AcDbEntity
  8
1
100
AcDbCircle
  6
CONTINUOUS
 62
7
 10
1.87165E+002
 20
1.35039E+002
 40
7.5E-001
100
AcDbArc
 50
1.8E+002
 51
2.6999999E+002
  0
LINE
  5
1f5
100
AcDbEntity
  8
1
100
AcDbLine
  6
CONTINUOUS
 62
7
 10
1.9084E+002
 20
1.34289E+002
 11
1.87165E+002
 21
1.34289E+002
  0
LINE
  5
1f6
100
AcDbEntity
  8
1
100
AcDbLine
  6
CONTINUOUS
 62
7
 10
1.9084E+002
 20
1.49189E+002
 11
1.87165E+002
 21
1.49189E+002
  0
LINE
  5
1f7
100
AcDbEntity
  8
1
100
AcDbLine
  6
CONTINUOUS
 62
7
 10
1.3229E+002
 20
1.3101194E+002
 11
1.4009E+002
 21
1.3101194E+002
  0
LINE
  5
1f8
100
AcDbEntity
  8
1
100
AcDbLine
  6
CONTINUOUS
 62
7
 10
1.4929E+002
 20
1.3101194E+002
 11
1.5709E+002
 21
1.3101194E+002
  0
LINE
  5
1f9
100
AcDbEntity
  8
1
100
AcDbLine
  6
CONTINUOUS
 62
7
 10
1.6629E+002
 20
1.3101194E+002
 11
1.7409E+002
 21
1.3101194E+002
  0
LINE
  5
1fa
100
AcDbEntity
  8
1
100
AcDbLine
  6
CONTINUOUS
 62
7
 10
1.8311E+002
 20
1.3101194E+002
 11
1.9109E+002
 21
1.3101194E+002
  0
ARC
  5
1fb
100
AcDbEntity
  8
1
100
AcDbCircle
  6
CONTINUOUS
 62
7
 10
1.2309E+002
 20
1.3051194E+002
 40
5.0E-001
100
AcDbArc
 50
0.0
 51
9.0000003E+001
  0
ARC
  5
1fc
100
AcDbEntity
  8
1
100
AcDbCircle
  6
CONTINUOUS
 62
7
 10
1.3229E+002
 20
1.3051194E+002
 40
5.0E-001
100
AcDbArc
 50
9.0E+001
 51
1.8E+002
  0
ARC
  5
1fd
100
AcDbEntity
  8
1
100
AcDbCircle
  6
CONTINUOUS
 62
7
 10
1.4009E+002
 20
1.3051194E+002
 40
5.0E-001
100
AcDbArc
 50
0.0
 51
9.0000003E+001
  0
LINE
  5
1fe
100
AcDbEntity
  8
1
100
AcDbLine
  6
CONTINUOUS
 62
7
 10
2.0
 20
2.0
 11
2.95E+002
 21
2.0
  0
ARC
  5
1ff
100
AcDbEntity
  8
1
100
AcDbCircle
  6
CONTINUOUS
 62
7
 10
1.4929E+002
 20
1.3051194E+002
 40
5.0E-001
100
AcDbArc
 50
9.0E+001
 51
1.7999999E+002
  0
ARC
  5
200
100
AcDbEntity
  8
1
100
AcDbCircle
  6
CONTINUOUS
 62
7
 10
1.5709E+002
 20
1.3051194E+002
 40
5.0E-001
100
AcDbArc
 50
0.0
 51
9.0000003E+001
  0
LINE
  5
201
100
AcDbEntity
  8
1
100
AcDbLine
  6
CONTINUOUS
 62
7
 10
2.95E+002
 20
2.0
 11
2.95E+002
 21
2.08E+002
  0
LINE
  5
202
100
AcDbEntity
  8
1
100
AcDbLine
  6
CONTINUOUS
 62
7
 10
2.95E+002
 20
2.08E+002
 11
2.0
 21
2.08E+002
  0
LINE
  5
203
100
AcDbEntity
  8
1
100
AcDbLine
  6
CONTINUOUS
 62
7
 10
2.0
 20
2.08E+002
 11
2.0
 21
2.0
  0
ARC
  5
204
100
AcDbEntity
  8
1
100
AcDbCircle
  6
CONTINUOUS
 62
7
 10
1.6629E+002
 20
1.3051194E+002
 40
5.0E-001
100
AcDbArc
 50
9.0E+001
 51
1.8E+002
  0
ARC
  5
205
100
AcDbEntity
  8
1
100
AcDbCircle
  6
CONTINUOUS
 62
7
 10
1.7409E+002
 20
1.3051194E+002
 40
5.0E-001
100
AcDbArc
 50
0.0
 51
9.0000003E+001
  0
TEXT
  5
206
100
AcDbEntity
  8
1
100
AcDbText
  6
CONTINUOUS
 62
7
 10
2.618E+002
 20
4.0
 40
3.0
  1
DATE2020.5.1
 41
8.0E-001
 72
2
 11
2.93E+002
 21
4.0
100
AcDbText
  0
ARC
  5
207
100
AcDbEntity
  8
1
100
AcDbCircle
  6
CONTINUOUS
 62
7
 10
1.8329E+002
 20
1.3051194E+002
 40
5.0E-001
100
AcDbArc
 50
9.0E+001
 51
1.7999999E+002
  0
ARC
  5
208
100
AcDbEntity
  8
1
100
AcDbCircle
  6
CONTINUOUS
 62
7
 10
1.9109E+002
 20
1.3051194E+002
 40
5.0E-001
100
AcDbArc
 50
0.0
 51
9.0000003E+001
  0
LINE
  5
209
100
AcDbEntity
  8
1
100
AcDbLine
  6
CONTINUOUS
 62
7
 10
1.1519E+002
 20
1.3101194E+002
 11
1.2309E+002
 21
1.3101194E+002
  0
ARC
  5
20a
100
AcDbEntity
  8
1
100
AcDbCircle
  6
CONTINUOUS
 62
7
 10
1.1519E+002
 20
1.3126194E+002
 40
2.5E-001
100
AcDbArc
 50
1.8E+002
 51
2.7E+002
  0
ARC
  5
20b
100
AcDbEntity
  8
1
100
AcDbCircle
  6
CONTINUOUS
 62
7
 10
1.27965E+002
 20
1.45739E+002
 40
5.0E-001
100
AcDbArc
 50
0.0
 51
9.0000002E+001
  0
LINE
  5
20c
100
AcDbEntity
  8
1
100
AcDbLine
  6
CONTINUOUS
 62
7
 10
1.27965E+002
 20
1.46239E+002
 11
1.2379E+002
 21
1.46239E+002
  0
ARC
  5
20d
100
AcDbEntity
  8
1
100
AcDbCircle
  6
CONTINUOUS
 62
7
 10
1.2379E+002
 20
1.45739E+002
 40
5.0E-001
100
AcDbArc
 50
9.0E+001
 51
1.8E+002
  0
ARC
  5
20e
100
AcDbEntity
  8
1
100
AcDbCircle
  6
CONTINUOUS
 62
7
 10
1.2379E+002
 20
1.37839E+002
 40
5.0E-001
100
AcDbArc
 50
1.8E+002
 51
2.7E+002
  0
LINE
  5
20f
100
AcDbEntity
  8
1
100
AcDbLine
  6
CONTINUOUS
 62
7
 10
1.2379E+002
 20
1.37339E+002
 11
1.27965E+002
 21
1.37339E+002
  0
ARC
  5
210
100
AcDbEntity
  8
1
100
AcDbCircle
  6
CONTINUOUS
 62
7
 10
1.27965E+002
 20
1.37839E+002
 40
5.0E-001
100
AcDbArc
 50
2.7000001E+002
 51
3.6E+002
  0
ARC
  5
211
100
AcDbEntity
  8
1
100
AcDbCircle
  6
CONTINUOUS
 62
7
 10
1.3514E+002
 20
1.45739E+002
 40
5.0E-001
100
AcDbArc
 50
0.0
 51
9.0000002E+001
  0
LINE
  5
212
100
AcDbEntity
  8
1
100
AcDbLine
  6
CONTINUOUS
 62
7
 10
1.3514E+002
 20
1.46239E+002
 11
1.30965E+002
 21
1.46239E+002
  0
ARC
  5
213
100
AcDbEntity
  8
1
100
AcDbCircle
  6
CONTINUOUS
 62
7
 10
1.30965E+002
 20
1.45739E+002
 40
5.0E-001
100
AcDbArc
 50
9.0E+001
 51
1.8E+002
  0
ARC
  5
214
100
AcDbEntity
  8
1
100
AcDbCircle
  6
CONTINUOUS
 62
7
 10
1.30965E+002
 20
1.37839E+002
 40
5.0E-001
100
AcDbArc
 50
1.8E+002
 51
2.7E+002
  0
LINE
  5
215
100
AcDbEntity
  8
1
100
AcDbLine
  6
CONTINUOUS
 62
7
 10
1.30965E+002
 20
1.37339E+002
 11
1.3514E+002
 21
1.37339E+002
  0
ARC
  5
216
100
AcDbEntity
  8
1
100
AcDbCircle
  6
CONTINUOUS
 62
7
 10
1.3514E+002
 20
1.37839E+002
 40
5.0E-001
100
AcDbArc
 50
2.7E+002
 51
3.6E+002
  0
ARC
  5
217
100
AcDbEntity
  8
1
100
AcDbCircle
  6
CONTINUOUS
 62
7
 10
1.17515E+002
 20
1.37739E+002
 40
5.0E-001
100
AcDbArc
 50
1.8E+002
 51
2.7E+002
  0
LINE
  5
218
100
AcDbEntity
  8
1
100
AcDbLine
  6
CONTINUOUS
 62
7
 10
1.17015E+002
 20
1.44539E+002
 11
1.17015E+002
 21
1.35039E+002
  0
ARC
  5
219
100
AcDbEntity
  8
1
100
AcDbCircle
  6
CONTINUOUS
 62
7
 10
1.17765E+002
 20
1.44539E+002
 40
7.5E-001
100
AcDbArc
 50
9.0E+001
 51
1.8E+002
  0
LINE
  5
21a
100
AcDbEntity
  8
1
100
AcDbLine
  6
CONTINUOUS
 62
7
 10
1.20465E+002
 20
1.45289E+002
 11
1.17765E+002
 21
1.45289E+002
  0
ARC
  5
21b
100
AcDbEntity
  8
1
100
AcDbCircle
  6
CONTINUOUS
 62
7
 10
1.20465E+002
 20
1.44539E+002
 40
7.5E-001
100
AcDbArc
 50
0.0
 51
8.9999992E+001
  0
LINE
  5
21c
100
AcDbEntity
  8
1
100
AcDbLine
  6
CONTINUOUS
 62
7
 10
1.21215E+002
 20
1.44539E+002
 11
1.21215E+002
 21
1.35039E+002
  0
ARC
  5
21d
100
AcDbEntity
  8
1
100
AcDbCircle
  6
CONTINUOUS
 62
7
 10
1.20715E+002
 20
1.37739E+002
 40
5.0E-001
100
AcDbArc
 50
2.7E+002
 51
3.6E+002
  0
LINE
  5
21e
100
AcDbEntity
  8
1
100
AcDbLine
  6
CONTINUOUS
 62
7
 10
1.20715E+002
 20
1.37239E+002
 11
1.17515E+002
 21
1.37239E+002
  0
ARC
  5
21f
100
AcDbEntity
  8
1
100
AcDbCircle
  6
CONTINUOUS
 62
7
 10
1.17765E+002
 20
1.35039E+002
 40
7.5E-001
100
AcDbArc
 50
1.8E+002
 51
2.7E+002
  0
ARC
  5
220
100
AcDbEntity
  8
1
100
AcDbCircle
  6
CONTINUOUS
 62
7
 10
1.20465E+002
 20
1.35039E+002
 40
7.5E-001
100
AcDbArc
 50
2.7E+002
 51
3.6E+002
  0
LINE
  5
221
100
AcDbEntity
  8
1
100
AcDbLine
  6
CONTINUOUS
 62
7
 10
1.20465E+002
 20
1.34289E+002
 11
1.17765E+002
 21
1.34289E+002
  0
LINE
  5
222
100
AcDbEntity
  8
1
100
AcDbLine
  6
CONTINUOUS
 62
7
 10
1.30465E+002
 20
1.35039E+002
 11
1.30465E+002
 21
1.48439E+002
  0
LINE
  5
223
100
AcDbEntity
  8
1
100
AcDbLine
  6
CONTINUOUS
 62
7
 10
1.3564E+002
 20
1.48439E+002
 11
1.3564E+002
 21
1.35039E+002
  0
ARC
  5
224
100
AcDbEntity
  8
1
100
AcDbCircle
  6
CONTINUOUS
 62
7
 10
1.31215E+002
 20
1.35039E+002
 40
7.5E-001
100
AcDbArc
 50
1.8E+002
 51
2.7E+002
  0
ARC
  5
225
100
AcDbEntity
  8
1
100
AcDbCircle
  6
CONTINUOUS
 62
7
 10
1.31215E+002
 20
1.48439E+002
 40
7.5E-001
100
AcDbArc
 50
9.0E+001
 51
1.8E+002
  0
ARC
  5
226
100
AcDbEntity
  8
1
100
AcDbCircle
  6
CONTINUOUS
 62
7
 10
1.3489E+002
 20
1.48439E+002
 40
7.5E-001
100
AcDbArc
 50
0.0
 51
9.0000002E+001
  0
ARC
  5
227
100
AcDbEntity
  8
1
100
AcDbCircle
  6
CONTINUOUS
 62
7
 10
1.3489E+002
 20
1.35039E+002
 40
7.5E-001
100
AcDbArc
 50
2.7E+002
 51
3.6E+002
  0
LINE
  5
228
100
AcDbEntity
  8
1
100
AcDbLine
  6
CONTINUOUS
 62
7
 10
1.31215E+002
 20
1.34289E+002
 11
1.3489E+002
 21
1.34289E+002
  0
LINE
  5
229
100
AcDbEntity
  8
1
100
AcDbLine
  6
CONTINUOUS
 62
7
 10
1.31215E+002
 20
1.49189E+002
 11
1.3489E+002
 21
1.49189E+002
  0
LINE
  5
22a
100
AcDbEntity
  8
1
100
AcDbLine
  6
CONTINUOUS
 62
7
 10
1.2329E+002
 20
1.35039E+002
 11
1.2329E+002
 21
1.48439E+002
  0
LINE
  5
22b
100
AcDbEntity
  8
1
100
AcDbLine
  6
CONTINUOUS
 62
7
 10
1.28465E+002
 20
1.48439E+002
 11
1.28465E+002
 21
1.35039E+002
  0
ARC
  5
22c
100
AcDbEntity
  8
1
100
AcDbCircle
  6
CONTINUOUS
 62
7
 10
1.2404E+002
 20
1.48439E+002
 40
7.5E-001
100
AcDbArc
 50
9.0E+001
 51
1.8E+002
  0
ARC
  5
22d
100
AcDbEntity
  8
1
100
AcDbCircle
  6
CONTINUOUS
 62
7
 10
1.2404E+002
 20
1.35039E+002
 40
7.5E-001
100
AcDbArc
 50
1.8E+002
 51
2.7E+002
  0
ARC
  5
22e
100
AcDbEntity
  8
1
100
AcDbCircle
  6
CONTINUOUS
 62
7
 10
1.27715E+002
 20
1.48439E+002
 40
7.5E-001
100
AcDbArc
 50
0.0
 51
9.0000002E+001
  0
ARC
  5
22f
100
AcDbEntity
  8
1
100
AcDbCircle
  6
CONTINUOUS
 62
7
 10
1.27715E+002
 20
1.35039E+002
 40
7.5E-001
100
AcDbArc
 50
2.7000001E+002
 51
3.6E+002
  0
LINE
  5
230
100
AcDbEntity
  8
1
100
AcDbLine
  6
CONTINUOUS
 62
7
 10
1.2404E+002
 20
1.34289E+002
 11
1.27715E+002
 21
1.34289E+002
  0
LINE
  5
231
100
AcDbEntity
  8
1
100
AcDbLine
  6
CONTINUOUS
 62
7
 10
1.2404E+002
 20
1.49189E+002
 11
1.27715E+002
 21
1.49189E+002
  0
LINE
  5
232
100
AcDbEntity
  8
1
100
AcDbLine
  6
CONTINUOUS
 62
7
 10
1.6694E+002
 20
1.37339E+002
 11
1.7344E+002
 21
1.37339E+002
  0
LINE
  5
233
100
AcDbEntity
  8
1
100
AcDbLine
  6
CONTINUOUS
 62
7
 10
1.7344E+002
 20
1.46239E+002
 11
1.6694E+002
 21
1.46239E+002
  0
ARC
  5
234
100
AcDbEntity
  8
1
100
AcDbCircle
  6
CONTINUOUS
 62
7
 10
1.6769E+002
 20
1.35039E+002
 40
7.5E-001
100
AcDbArc
 50
1.8E+002
 51
2.7E+002
  0
LINE
  5
235
100
AcDbEntity
  8
1
100
AcDbLine
  6
CONTINUOUS
 62
7
 10
1.6769E+002
 20
1.34289E+002
 11
1.7269E+002
 21
1.34289E+002
  0
ARC
  5
236
100
AcDbEntity
  8
1
100
AcDbCircle
  6
CONTINUOUS
 62
7
 10
1.7269E+002
 20
1.35039E+002
 40
7.5E-001
100
AcDbArc
 50
2.7000001E+002
 51
3.6E+002
  0
LINE
  5
237
100
AcDbEntity
  8
1
100
AcDbLine
  6
CONTINUOUS
 62
7
 10
1.7344E+002
 20
1.48439E+002
 11
1.7344E+002
 21
1.35039E+002
  0
ARC
  5
238
100
AcDbEntity
  8
1
100
AcDbCircle
  6
CONTINUOUS
 62
7
 10
1.7269E+002
 20
1.48439E+002
 40
7.5E-001
100
AcDbArc
 50
0.0
 51
9.0000002E+001
  0
LINE
  5
239
100
AcDbEntity
  8
1
100
AcDbLine
  6
CONTINUOUS
 62
7
 10
1.6769E+002
 20
1.49189E+002
 11
1.7269E+002
 21
1.49189E+002
  0
ARC
  5
23a
100
AcDbEntity
  8
1
100
AcDbCircle
  6
CONTINUOUS
 62
7
 10
1.6769E+002
 20
1.48439E+002
 40
7.5E-001
100
AcDbArc
 50
9.0E+001
 51
1.8E+002
  0
LINE
  5
23b
100
AcDbEntity
  8
1
100
AcDbLine
  6
CONTINUOUS
 62
7
 10
1.6694E+002
 20
1.35039E+002
 11
1.6694E+002
 21
1.48439E+002
  0
ARC
  5
23c
100
AcDbEntity
  8
1
100
AcDbCircle
  6
CONTINUOUS
 62
7
 10
1.4194E+002
 20
1.45739E+002
 40
5.0E-001
100
AcDbArc
 50
9.0E+001
 51
1.8E+002
  0
LINE
  5
23d
100
AcDbEntity
  8
1
100
AcDbLine
  6
CONTINUOUS
 62
7
 10
1.4794E+002
 20
1.46239E+002
 11
1.4194E+002
 21
1.46239E+002
  0
ARC
  5
23e
100
AcDbEntity
  8
1
100
AcDbCircle
  6
CONTINUOUS
 62
7
 10
1.4194E+002
 20
1.37839E+002
 40
5.0E-001
100
AcDbArc
 50
1.8E+002
 51
2.7E+002
  0
LINE
  5
23f
100
AcDbEntity
  8
1
100
AcDbLine
  6
CONTINUOUS
 62
7
 10
1.4194E+002
 20
1.37339E+002
 11
1.4794E+002
 21
1.37339E+002
  0
LINE
  5
240
100
AcDbEntity
  8
1
100
AcDbLine
  6
CONTINUOUS
 62
7
 10
1.4994E+002
 20
1.37339E+002
 11
1.5644E+002
 21
1.37339E+002
  0
LINE
  5
241
100
AcDbEntity
  8
1
100
AcDbLine
  6
CONTINUOUS
 62
7
 10
1.5844E+002
 20
1.37339E+002
 11
1.6494E+002
 21
1.37339E+002
  0
LINE
  5
242
100
AcDbEntity
  8
1
100
AcDbLine
  6
CONTINUOUS
 62
7
 10
1.6494E+002
 20
1.46239E+002
 11
1.5844E+002
 21
1.46239E+002
  0
LINE
  5
243
100
AcDbEntity
  8
1
100
AcDbLine
  6
CONTINUOUS
 62
7
 10
1.5644E+002
 20
1.46239E+002
 11
1.4994E+002
 21
1.46239E+002
  0
ARC
  5
244
100
AcDbEntity
  8
1
100
AcDbCircle
  6
CONTINUOUS
 62
7
 10
1.5919E+002
 20
1.35039E+002
 40
7.5E-001
100
AcDbArc
 50
1.8E+002
 51
2.7E+002
  0
LINE
  5
245
100
AcDbEntity
  8
1
100
AcDbLine
  6
CONTINUOUS
 62
7
 10
1.5919E+002
 20
1.34289E+002
 11
1.6419E+002
 21
1.34289E+002
  0
ARC
  5
246
100
AcDbEntity
  8
1
100
AcDbCircle
  6
CONTINUOUS
 62
7
 10
1.6419E+002
 20
1.35039E+002
 40
7.5E-001
100
AcDbArc
 50
2.7E+002
 51
3.6E+002
  0
LINE
  5
247
100
AcDbEntity
  8
1
100
AcDbLine
  6
CONTINUOUS
 62
7
 10
1.6494E+002
 20
1.48439E+002
 11
1.6494E+002
 21
1.35039E+002
  0
ARC
  5
248
100
AcDbEntity
  8
1
100
AcDbCircle
  6
CONTINUOUS
 62
7
 10
1.6419E+002
 20
1.48439E+002
 40
7.5E-001
100
AcDbArc
 50
0.0
 51
9.0000002E+001
  0
LINE
  5
249
100
AcDbEntity
  8
1
100
AcDbLine
  6
CONTINUOUS
 62
7
 10
1.5919E+002
 20
1.49189E+002
 11
1.6419E+002
 21
1.49189E+002
  0
ARC
  5
24a
100
AcDbEntity
  8
1
100
AcDbCircle
  6
CONTINUOUS
 62
7
 10
1.5919E+002
 20
1.48439E+002
 40
7.5E-001
100
AcDbArc
 50
9.0E+001
 51
1.8E+002
  0
LINE
  5
24b
100
AcDbEntity
  8
1
100
AcDbLine
  6
CONTINUOUS
 62
7
 10
1.5844E+002
 20
1.35039E+002
 11
1.5844E+002
 21
1.48439E+002
  0
ARC
  5
24c
100
AcDbEntity
  8
1
100
AcDbCircle
  6
CONTINUOUS
 62
7
 10
1.5069E+002
 20
1.35039E+002
 40
7.5E-001
100
AcDbArc
 50
1.8E+002
 51
2.7E+002
  0
LINE
  5
24d
100
AcDbEntity
  8
1
100
AcDbLine
  6
CONTINUOUS
 62
7
 10
1.5069E+002
 20
1.34289E+002
 11
1.5569E+002
 21
1.34289E+002
  0
ARC
  5
24e
100
AcDbEntity
  8
1
100
AcDbCircle
  6
CONTINUOUS
 62
7
 10
1.5569E+002
 20
1.35039E+002
 40
7.5E-001
100
AcDbArc
 50
2.7000001E+002
 51
3.6E+002
  0
LINE
  5
24f
100
AcDbEntity
  8
1
100
AcDbLine
  6
CONTINUOUS
 62
7
 10
1.5644E+002
 20
1.48439E+002
 11
1.5644E+002
 21
1.35039E+002
  0
ARC
  5
250
100
AcDbEntity
  8
1
100
AcDbCircle
  6
CONTINUOUS
 62
7
 10
1.5569E+002
 20
1.48439E+002
 40
7.5E-001
100
AcDbArc
 50
0.0
 51
9.0000002E+001
  0
LINE
  5
251
100
AcDbEntity
  8
1
100
AcDbLine
  6
CONTINUOUS
 62
7
 10
1.5069E+002
 20
1.49189E+002
 11
1.5569E+002
 21
1.49189E+002
  0
ARC
  5
252
100
AcDbEntity
  8
1
100
AcDbCircle
  6
CONTINUOUS
 62
7
 10
1.5069E+002
 20
1.48439E+002
 40
7.5E-001
100
AcDbArc
 50
9.0E+001
 51
1.8E+002
  0
LINE
  5
253
100
AcDbEntity
  8
1
100
AcDbLine
  6
CONTINUOUS
 62
7
 10
1.4994E+002
 20
1.35039E+002
 11
1.4994E+002
 21
1.48439E+002
  0
LINE
  5
254
100
AcDbEntity
  8
1
100
AcDbLine
  6
CONTINUOUS
 62
7
 10
1.4144E+002
 20
1.48439E+002
 11
1.4144E+002
 21
1.35039E+002
  0
ARC
  5
255
100
AcDbEntity
  8
1
100
AcDbCircle
  6
CONTINUOUS
 62
7
 10
1.4219E+002
 20
1.48439E+002
 40
7.5E-001
100
AcDbArc
 50
9.0E+001
 51
1.8E+002
  0
ARC
  5
256
100
AcDbEntity
  8
1
100
AcDbCircle
  6
CONTINUOUS
 62
7
 10
1.4219E+002
 20
1.35039E+002
 40
7.5E-001
100
AcDbArc
 50
1.8E+002
 51
2.7E+002
  0
LINE
  5
257
100
AcDbEntity
  8
1
100
AcDbLine
  6
CONTINUOUS
 62
7
 10
1.4219E+002
 20
1.34289E+002
 11
1.4719E+002
 21
1.34289E+002
  0
ARC
  5
258
100
AcDbEntity
  8
1
100
AcDbCircle
  6
CONTINUOUS
 62
7
 10
1.4719E+002
 20
1.35039E+002
 40
7.5E-001
100
AcDbArc
 50
2.7000001E+002
 51
3.6E+002
  0
LINE
  5
259
100
AcDbEntity
  8
1
100
AcDbLine
  6
CONTINUOUS
 62
7
 10
1.4794E+002
 20
1.48439E+002
 11
1.4794E+002
 21
1.35039E+002
  0
ARC
  5
25a
100
AcDbEntity
  8
1
100
AcDbCircle
  6
CONTINUOUS
 62
7
 10
1.4719E+002
 20
1.48439E+002
 40
7.5E-001
100
AcDbArc
 50
0.0
 51
9.0000002E+001
  0
LINE
  5
25b
100
AcDbEntity
  8
1
100
AcDbLine
  6
CONTINUOUS
 62
7
 10
1.4219E+002
 20
1.49189E+002
 11
1.4719E+002
 21
1.49189E+002
  0
LINE
  5
25c
100
AcDbEntity
  8
1
100
AcDbLine
  6
CONTINUOUS
 62
7
 10
1.9129E+002
 20
1.309702E+002
 11
1.9129E+002
 21
1.2756449E+002
  0
LINE
  5
25d
100
AcDbEntity
  8
1
100
AcDbLine
  6
CONTINUOUS
 62
7
 10
1.8309E+002
 20
1.309702E+002
 11
1.8309E+002
 21
1.2756449E+002
  0
LINE
  5
25e
100
AcDbEntity
  8
1
100
AcDbLine
  6
CONTINUOUS
 62
7
 10
1.7429E+002
 20
1.309702E+002
 11
1.7429E+002
 21
1.2756449E+002
  0
LINE
  5
25f
100
AcDbEntity
  8
1
100
AcDbLine
  6
CONTINUOUS
 62
7
 10
1.6609E+002
 20
1.309702E+002
 11
1.6609E+002
 21
1.2756449E+002
  0
LINE
  5
260
100
AcDbEntity
  8
1
100
AcDbLine
  6
CONTINUOUS
 62
7
 10
1.5729E+002
 20
1.309702E+002
 11
1.5729E+002
 21
1.2756449E+002
  0
LINE
  5
261
100
AcDbEntity
  8
1
100
AcDbLine
  6
CONTINUOUS
 62
7
 10
1.4909E+002
 20
1.309702E+002
 11
1.4909E+002
 21
1.2756449E+002
  0
LINE
  5
262
100
AcDbEntity
  8
1
100
AcDbLine
  6
CONTINUOUS
 62
7
 10
1.4029E+002
 20
1.309702E+002
 11
1.4029E+002
 21
1.2756449E+002
  0
LINE
  5
263
100
AcDbEntity
  8
1
100
AcDbLine
  6
CONTINUOUS
 62
7
 10
1.3209E+002
 20
1.309702E+002
 11
1.3209E+002
 21
1.2756449E+002
  0
LINE
  5
264
100
AcDbEntity
  8
1
100
AcDbLine
  6
CONTINUOUS
 62
7
 10
1.2329E+002
 20
1.309702E+002
 11
1.2329E+002
 21
1.2756449E+002
  0
LINE
  5
265
100
AcDbEntity
  8
1
100
AcDbLine
  6
CONTINUOUS
 62
7
 10
1.8259E+002
 20
1.2706606E+002
 11
1.7479E+002
 21
1.2706606E+002
  0
LINE
  5
266
100
AcDbEntity
  8
1
100
AcDbLine
  6
CONTINUOUS
 62
7
 10
1.6559E+002
 20
1.2706606E+002
 11
1.5779E+002
 21
1.2706606E+002
  0
LINE
  5
267
100
AcDbEntity
  8
1
100
AcDbLine
  6
CONTINUOUS
 62
7
 10
1.4859E+002
 20
1.2706606E+002
 11
1.4079E+002
 21
1.2706606E+002
  0
LINE
  5
268
100
AcDbEntity
  8
1
100
AcDbLine
  6
CONTINUOUS
 62
7
 10
1.3159E+002
 20
1.2706606E+002
 11
1.2379E+002
 21
1.2706606E+002
  0
ARC
  5
269
100
AcDbEntity
  8
1
100
AcDbCircle
  6
CONTINUOUS
 62
7
 10
1.9179E+002
 20
1.2756606E+002
 40
5.0E-001
100
AcDbArc
 50
1.8E+002
 51
2.7E+002
  0
ARC
  5
26a
100
AcDbEntity
  8
1
100
AcDbCircle
  6
CONTINUOUS
 62
7
 10
1.8259E+002
 20
1.2756606E+002
 40
5.0E-001
100
AcDbArc
 50
2.7E+002
 51
3.6E+002
  0
ARC
  5
26b
100
AcDbEntity
  8
1
100
AcDbCircle
  6
CONTINUOUS
 62
7
 10
1.7479E+002
 20
1.2756606E+002
 40
5.0E-001
100
AcDbArc
 50
1.8E+002
 51
2.7E+002
  0
ARC
  5
26c
100
AcDbEntity
  8
1
100
AcDbCircle
  6
CONTINUOUS
 62
7
 10
1.6559E+002
 20
1.2756606E+002
 40
5.0E-001
100
AcDbArc
 50
2.7E+002
 51
3.6E+002
  0
ARC
  5
26d
100
AcDbEntity
  8
1
100
AcDbCircle
  6
CONTINUOUS
 62
7
 10
1.5779E+002
 20
1.2756606E+002
 40
5.0E-001
100
AcDbArc
 50
1.8E+002
 51
2.7E+002
  0
ARC
  5
26e
100
AcDbEntity
  8
1
100
AcDbCircle
  6
CONTINUOUS
 62
7
 10
1.4859E+002
 20
1.2756606E+002
 40
5.0E-001
100
AcDbArc
 50
2.7E+002
 51
3.5999999E+002
  0
ARC
  5
26f
100
AcDbEntity
  8
1
100
AcDbCircle
  6
CONTINUOUS
 62
7
 10
1.4079E+002
 20
1.2756606E+002
 40
5.0E-001
100
AcDbArc
 50
1.8E+002
 51
2.7E+002
  0
ARC
  5
270
100
AcDbEntity
  8
1
100
AcDbCircle
  6
CONTINUOUS
 62
7
 10
1.3159E+002
 20
1.2756606E+002
 40
5.0E-001
100
AcDbArc
 50
2.7E+002
 51
3.5999999E+002
  0
ARC
  5
271
100
AcDbEntity
  8
1
100
AcDbCircle
  6
CONTINUOUS
 62
7
 10
1.2379E+002
 20
1.2756606E+002
 40
5.0E-001
100
AcDbArc
 50
1.8E+002
 51
2.7E+002
  0
LINE
  5
272
100
AcDbEntity
  8
1
100
AcDbLine
  6
CONTINUOUS
 62
7
 10
1.9969E+002
 20
1.2706606E+002
 11
1.9179E+002
 21
1.2706606E+002
  0
ARC
  5
273
100
AcDbEntity
  8
1
100
AcDbCircle
  6
CONTINUOUS
 62
7
 10
1.9969E+002
 20
1.2681606E+002
 40
2.5E-001
100
AcDbArc
 50
0.0
 51
9.0000002E+001
  0
ARC
  5
274
100
AcDbEntity
  8
1
100
AcDbCircle
  6
CONTINUOUS
 62
7
 10
1.86915E+002
 20
1.20339E+002
 40
5.0E-001
100
AcDbArc
 50
9.0E+001
 51
1.8E+002
  0
LINE
  5
275
100
AcDbEntity
  8
1
100
AcDbLine
  6
CONTINUOUS
 62
7
 10
1.86915E+002
 20
1.20839E+002
 11
1.9109E+002
 21
1.20839E+002
  0
ARC
  5
276
100
AcDbEntity
  8
1
100
AcDbCircle
  6
CONTINUOUS
 62
7
 10
1.9109E+002
 20
1.20339E+002
 40
5.0E-001
100
AcDbArc
 50
0.0
 51
9.0000003E+001
  0
ARC
  5
277
100
AcDbEntity
  8
1
100
AcDbCircle
  6
CONTINUOUS
 62
7
 10
1.9109E+002
 20
1.12439E+002
 40
5.0E-001
100
AcDbArc
 50
2.7E+002
 51
3.6E+002
  0
LINE
  5
278
100
AcDbEntity
  8
1
100
AcDbLine
  6
CONTINUOUS
 62
7
 10
1.9109E+002
 20
1.11939E+002
 11
1.86915E+002
 21
1.11939E+002
  0
ARC
  5
279
100
AcDbEntity
  8
1
100
AcDbCircle
  6
CONTINUOUS
 62
7
 10
1.86915E+002
 20
1.12439E+002
 40
5.0E-001
100
AcDbArc
 50
1.8E+002
 51
2.6999999E+002
  0
ARC
  5
27a
100
AcDbEntity
  8
1
100
AcDbCircle
  6
CONTINUOUS
 62
7
 10
1.7974E+002
 20
1.20339E+002
 40
5.0E-001
100
AcDbArc
 50
9.0E+001
 51
1.8E+002
  0
LINE
  5
27b
100
AcDbEntity
  8
1
100
AcDbLine
  6
CONTINUOUS
 62
7
 10
1.7974E+002
 20
1.20839E+002
 11
1.83915E+002
 21
1.20839E+002
  0
ARC
  5
27c
100
AcDbEntity
  8
1
100
AcDbCircle
  6
CONTINUOUS
 62
7
 10
1.83915E+002
 20
1.20339E+002
 40
5.0E-001
100
AcDbArc
 50
0.0
 51
9.0000003E+001
  0
ARC
  5
27d
100
AcDbEntity
  8
1
100
AcDbCircle
  6
CONTINUOUS
 62
7
 10
1.83915E+002
 20
1.12439E+002
 40
5.0E-001
100
AcDbArc
 50
2.7E+002
 51
3.6E+002
  0
LINE
  5
27e
100
AcDbEntity
  8
1
100
AcDbLine
  6
CONTINUOUS
 62
7
 10
1.83915E+002
 20
1.11939E+002
 11
1.7974E+002
 21
1.11939E+002
  0
ARC
  5
27f
100
AcDbEntity
  8
1
100
AcDbCircle
  6
CONTINUOUS
 62
7
 10
1.7974E+002
 20
1.12439E+002
 40
5.0E-001
100
AcDbArc
 50
1.8E+002
 51
2.7E+002
  0
ARC
  5
280
100
AcDbEntity
  8
1
100
AcDbCircle
  6
CONTINUOUS
 62
7
 10
1.97365E+002
 20
1.20339E+002
 40
5.0E-001
100
AcDbArc
 50
0.0
 51
9.0000003E+001
  0
LINE
  5
281
100
AcDbEntity
  8
1
100
AcDbLine
  6
CONTINUOUS
 62
7
 10
1.97865E+002
 20
1.13539E+002
 11
1.97865E+002
 21
1.23039E+002
  0
ARC
  5
282
100
AcDbEntity
  8
1
100
AcDbCircle
  6
CONTINUOUS
 62
7
 10
1.97115E+002
 20
1.13539E+002
 40
7.5E-001
100
AcDbArc
 50
2.7E+002
 51
3.6E+002
  0
LINE
  5
283
100
AcDbEntity
  8
1
100
AcDbLine
  6
CONTINUOUS
 62
7
 10
1.94415E+002
 20
1.12789E+002
 11
1.97115E+002
 21
1.12789E+002
  0
ARC
  5
284
100
AcDbEntity
  8
1
100
AcDbCircle
  6
CONTINUOUS
 62
7
 10
1.94415E+002
 20
1.13539E+002
 40
7.5E-001
100
AcDbArc
 50
1.8E+002
 51
2.6999999E+002
  0
LINE
  5
285
100
AcDbEntity
  8
1
100
AcDbLine
  6
CONTINUOUS
 62
7
 10
1.93665E+002
 20
1.13539E+002
 11
1.93665E+002
 21
1.23039E+002
  0
ARC
  5
286
100
AcDbEntity
  8
1
100
AcDbCircle
  6
CONTINUOUS
 62
7
 10
1.94165E+002
 20
1.20339E+002
 40
5.0E-001
100
AcDbArc
 50
9.0E+001
 51
1.8E+002
  0
LINE
  5
287
100
AcDbEntity
  8
1
100
AcDbLine
  6
CONTINUOUS
 62
7
 10
1.94165E+002
 20
1.20839E+002
 11
1.97365E+002
 21
1.20839E+002
  0
ARC
  5
288
100
AcDbEntity
  8
1
100
AcDbCircle
  6
CONTINUOUS
 62
7
 10
1.97115E+002
 20
1.23039E+002
 40
7.5E-001
100
AcDbArc
 50
0.0
 51
9.0000003E+001
  0
ARC
  5
289
100
AcDbEntity
  8
1
100
AcDbCircle
  6
CONTINUOUS
 62
7
 10
1.94415E+002
 20
1.23039E+002
 40
7.5E-001
100
AcDbArc
 50
9.0E+001
 51
1.8E+002
  0
LINE
  5
28a
100
AcDbEntity
  8
1
100
AcDbLine
  6
CONTINUOUS
 62
7
 10
1.94415E+002
 20
1.23789E+002
 11
1.97115E+002
 21
1.23789E+002
  0
LINE
  5
28b
100
AcDbEntity
  8
1
100
AcDbLine
  6
CONTINUOUS
 62
7
 10
1.2359E+002
 20
1.017078E+002
 11
1.2359E+002
 21
1.0511351E+002
  0
LINE
  5
28c
100
AcDbEntity
  8
1
100
AcDbLine
  6
CONTINUOUS
 62
7
 10
1.3179E+002
 20
1.017078E+002
 11
1.3179E+002
 21
1.0511351E+002
  0
LINE
  5
28d
100
AcDbEntity
  8
1
100
AcDbLine
  6
CONTINUOUS
 62
7
 10
1.4059E+002
 20
1.017078E+002
 11
1.4059E+002
 21
1.0511351E+002
  0
LINE
  5
28e
100
AcDbEntity
  8
1
100
AcDbLine
  6
CONTINUOUS
 62
7
 10
1.4879E+002
 20
1.017078E+002
 11
1.4879E+002
 21
1.0511351E+002
  0
LINE
  5
28f
100
AcDbEntity
  8
1
100
AcDbLine
  6
CONTINUOUS
 62
7
 10
1.5759E+002
 20
1.017078E+002
 11
1.5759E+002
 21
1.0511351E+002
  0
LINE
  5
290
100
AcDbEntity
  8
1
100
AcDbLine
  6
CONTINUOUS
 62
7
 10
1.6579E+002
 20
1.0511351E+002
 11
1.6579E+002
 21
1.017078E+002
  0
LINE
  5
291
100
AcDbEntity
  8
1
100
AcDbLine
  6
CONTINUOUS
 62
7
 10
1.7459E+002
 20
1.017078E+002
 11
1.7459E+002
 21
1.0511351E+002
  0
LINE
  5
292
100
AcDbEntity
  8
1
100
AcDbLine
  6
CONTINUOUS
 62
7
 10
1.8279E+002
 20
1.017078E+002
 11
1.8279E+002
 21
1.0511351E+002
  0
LINE
  5
293
100
AcDbEntity
  8
1
100
AcDbLine
  6
CONTINUOUS
 62
7
 10
1.9159E+002
 20
1.017078E+002
 11
1.9159E+002
 21
1.0511351E+002
  0
LINE
  5
294
100
AcDbEntity
  8
1
100
AcDbLine
  6
CONTINUOUS
 62
7
 10
1.9994E+002
 20
1.0141606E+002
 11
1.9994E+002
 21
1.2681606E+002
  0
LINE
  5
295
100
AcDbEntity
  8
1
100
AcDbLine
  6
CONTINUOUS
 62
7
 10
1.1494E+002
 20
1.0586194E+002
 11
1.1494E+002
 21
1.3126194E+002
  0
LINE
  5
296
100
AcDbEntity
  8
1
100
AcDbLine
  6
CONTINUOUS
 62
7
 10
1.84415E+002
 20
1.09639E+002
 11
1.84415E+002
 21
1.23039E+002
  0
LINE
  5
297
100
AcDbEntity
  8
1
100
AcDbLine
  6
CONTINUOUS
 62
7
 10
1.7924E+002
 20
1.23039E+002
 11
1.7924E+002
 21
1.09639E+002
  0
ARC
  5
298
100
AcDbEntity
  8
1
100
AcDbCircle
  6
CONTINUOUS
 62
7
 10
1.83665E+002
 20
1.09639E+002
 40
7.5E-001
100
AcDbArc
 50
2.7E+002
 51
3.6E+002
  0
ARC
  5
299
100
AcDbEntity
  8
1
100
AcDbCircle
  6
CONTINUOUS
 62
7
 10
1.83665E+002
 20
1.23039E+002
 40
7.5E-001
100
AcDbArc
 50
0.0
 51
9.0000003E+001
  0
ARC
  5
29a
100
AcDbEntity
  8
1
100
AcDbCircle
  6
CONTINUOUS
 62
7
 10
1.7999E+002
 20
1.23039E+002
 40
7.5E-001
100
AcDbArc
 50
9.0E+001
 51
1.8E+002
  0
ARC
  5
29b
100
AcDbEntity
  8
1
100
AcDbCircle
  6
CONTINUOUS
 62
7
 10
1.7999E+002
 20
1.09639E+002
 40
7.5E-001
100
AcDbArc
 50
1.8E+002
 51
2.7E+002
  0
LINE
  5
29c
100
AcDbEntity
  8
1
100
AcDbLine
  6
CONTINUOUS
 62
7
 10
1.83665E+002
 20
1.08889E+002
 11
1.7999E+002
 21
1.08889E+002
  0
LINE
  5
29d
100
AcDbEntity
  8
1
100
AcDbLine
  6
CONTINUOUS
 62
7
 10
1.83665E+002
 20
1.23789E+002
 11
1.7999E+002
 21
1.23789E+002
  0
LINE
  5
29e
100
AcDbEntity
  8
1
100
AcDbLine
  6
CONTINUOUS
 62
7
 10
1.9159E+002
 20
1.09639E+002
 11
1.9159E+002
 21
1.23039E+002
  0
LINE
  5
29f
100
AcDbEntity
  8
1
100
AcDbLine
  6
CONTINUOUS
 62
7
 10
1.86415E+002
 20
1.23039E+002
 11
1.86415E+002
 21
1.09639E+002
  0
ARC
  5
2a0
100
AcDbEntity
  8
1
100
AcDbCircle
  6
CONTINUOUS
 62
7
 10
1.9084E+002
 20
1.23039E+002
 40
7.5E-001
100
AcDbArc
 50
0.0
 51
9.0000003E+001
  0
ARC
  5
2a1
100
AcDbEntity
  8
1
100
AcDbCircle
  6
CONTINUOUS
 62
7
 10
1.9084E+002
 20
1.09639E+002
 40
7.5E-001
100
AcDbArc
 50
2.7E+002
 51
3.6E+002
  0
ARC
  5
2a2
100
AcDbEntity
  8
1
100
AcDbCircle
  6
CONTINUOUS
 62
7
 10
1.87165E+002
 20
1.23039E+002
 40
7.5E-001
100
AcDbArc
 50
9.0E+001
 51
1.8E+002
  0
ARC
  5
2a3
100
AcDbEntity
  8
1
100
AcDbCircle
  6
CONTINUOUS
 62
7
 10
1.87165E+002
 20
1.09639E+002
 40
7.5E-001
100
AcDbArc
 50
1.8E+002
 51
2.6999999E+002
  0
LINE
  5
2a4
100
AcDbEntity
  8
1
100
AcDbLine
  6
CONTINUOUS
 62
7
 10
1.9084E+002
 20
1.08889E+002
 11
1.87165E+002
 21
1.08889E+002
  0
LINE
  5
2a5
100
AcDbEntity
  8
1
100
AcDbLine
  6
CONTINUOUS
 62
7
 10
1.9084E+002
 20
1.23789E+002
 11
1.87165E+002
 21
1.23789E+002
  0
LINE
  5
2a6
100
AcDbEntity
  8
1
100
AcDbLine
  6
CONTINUOUS
 62
7
 10
1.3229E+002
 20
1.0561194E+002
 11
1.4009E+002
 21
1.0561194E+002
  0
LINE
  5
2a7
100
AcDbEntity
  8
1
100
AcDbLine
  6
CONTINUOUS
 62
7
 10
1.4929E+002
 20
1.0561194E+002
 11
1.5709E+002
 21
1.0561194E+002
  0
LINE
  5
2a8
100
AcDbEntity
  8
1
100
AcDbLine
  6
CONTINUOUS
 62
7
 10
1.6629E+002
 20
1.0561194E+002
 11
1.7409E+002
 21
1.0561194E+002
  0
LINE
  5
2a9
100
AcDbEntity
  8
1
100
AcDbLine
  6
CONTINUOUS
 62
7
 10
1.8329E+002
 20
1.0561194E+002
 11
1.9109E+002
 21
1.0561194E+002
  0
ARC
  5
2aa
100
AcDbEntity
  8
1
100
AcDbCircle
  6
CONTINUOUS
 62
7
 10
1.2309E+002
 20
1.0511194E+002
 40
5.0E-001
100
AcDbArc
 50
0.0
 51
9.0000003E+001
  0
ARC
  5
2ab
100
AcDbEntity
  8
1
100
AcDbCircle
  6
CONTINUOUS
 62
7
 10
1.3229E+002
 20
1.0511194E+002
 40
5.0E-001
100
AcDbArc
 50
9.0E+001
 51
1.8E+002
  0
ARC
  5
2ac
100
AcDbEntity
  8
1
100
AcDbCircle
  6
CONTINUOUS
 62
7
 10
1.4009E+002
 20
1.0511194E+002
 40
5.0E-001
100
AcDbArc
 50
0.0
 51
9.0000003E+001
  0
ARC
  5
2ad
100
AcDbEntity
  8
1
100
AcDbCircle
  6
CONTINUOUS
 62
7
 10
1.4929E+002
 20
1.0511194E+002
 40
5.0E-001
100
AcDbArc
 50
9.0E+001
 51
1.7999999E+002
  0
ARC
  5
2ae
100
AcDbEntity
  8
1
100
AcDbCircle
  6
CONTINUOUS
 62
7
 10
1.5709E+002
 20
1.0511194E+002
 40
5.0E-001
100
AcDbArc
 50
0.0
 51
9.0000003E+001
  0
ARC
  5
2af
100
AcDbEntity
  8
1
100
AcDbCircle
  6
CONTINUOUS
 62
7
 10
1.6629E+002
 20
1.0511194E+002
 40
5.0E-001
100
AcDbArc
 50
9.0E+001
 51
1.8E+002
  0
ARC
  5
2b0
100
AcDbEntity
  8
1
100
AcDbCircle
  6
CONTINUOUS
 62
7
 10
1.7409E+002
 20
1.0511194E+002
 40
5.0E-001
100
AcDbArc
 50
0.0
 51
9.0000003E+001
  0
ARC
  5
2b1
100
AcDbEntity
  8
1
100
AcDbCircle
  6
CONTINUOUS
 62
7
 10
1.8329E+002
 20
1.0511194E+002
 40
5.0E-001
100
AcDbArc
 50
9.0E+001
 51
1.7999999E+002
  0
ARC
  5
2b2
100
AcDbEntity
  8
1
100
AcDbCircle
  6
CONTINUOUS
 62
7
 10
1.9109E+002
 20
1.0511194E+002
 40
5.0E-001
100
AcDbArc
 50
0.0
 51
9.0000003E+001
  0
LINE
  5
2b3
100
AcDbEntity
  8
1
100
AcDbLine
  6
CONTINUOUS
 62
7
 10
1.1519E+002
 20
1.0561194E+002
 11
1.2309E+002
 21
1.0561194E+002
  0
ARC
  5
2b4
100
AcDbEntity
  8
1
100
AcDbCircle
  6
CONTINUOUS
 62
7
 10
1.1519E+002
 20
1.0586194E+002
 40
2.5E-001
100
AcDbArc
 50
1.8E+002
 51
2.7E+002
  0
ARC
  5
2b5
100
AcDbEntity
  8
1
100
AcDbCircle
  6
CONTINUOUS
 62
7
 10
1.27965E+002
 20
1.20339E+002
 40
5.0E-001
100
AcDbArc
 50
0.0
 51
9.0000002E+001
  0
LINE
  5
2b6
100
AcDbEntity
  8
1
100
AcDbLine
  6
CONTINUOUS
 62
7
 10
1.27965E+002
 20
1.20839E+002
 11
1.2379E+002
 21
1.20839E+002
  0
ARC
  5
2b7
100
AcDbEntity
  8
1
100
AcDbCircle
  6
CONTINUOUS
 62
7
 10
1.2379E+002
 20
1.20339E+002
 40
5.0E-001
100
AcDbArc
 50
9.0E+001
 51
1.8E+002
  0
ARC
  5
2b8
100
AcDbEntity
  8
1
100
AcDbCircle
  6
CONTINUOUS
 62
7
 10
1.2379E+002
 20
1.12439E+002
 40
5.0E-001
100
AcDbArc
 50
1.8E+002
 51
2.7E+002
  0
LINE
  5
2b9
100
AcDbEntity
  8
1
100
AcDbLine
  6
CONTINUOUS
 62
7
 10
1.2379E+002
 20
1.11939E+002
 11
1.27965E+002
 21
1.11939E+002
  0
ARC
  5
2ba
100
AcDbEntity
  8
1
100
AcDbCircle
  6
CONTINUOUS
 62
7
 10
1.27965E+002
 20
1.12439E+002
 40
5.0E-001
100
AcDbArc
 50
2.7000001E+002
 51
3.6E+002
  0
ARC
  5
2bb
100
AcDbEntity
  8
1
100
AcDbCircle
  6
CONTINUOUS
 62
7
 10
1.3514E+002
 20
1.20339E+002
 40
5.0E-001
100
AcDbArc
 50
0.0
 51
9.0000002E+001
  0
LINE
  5
2bc
100
AcDbEntity
  8
1
100
AcDbLine
  6
CONTINUOUS
 62
7
 10
1.3514E+002
 20
1.20839E+002
 11
1.30965E+002
 21
1.20839E+002
  0
ARC
  5
2bd
100
AcDbEntity
  8
1
100
AcDbCircle
  6
CONTINUOUS
 62
7
 10
1.30965E+002
 20
1.20339E+002
 40
5.0E-001
100
AcDbArc
 50
9.0E+001
 51
1.8E+002
  0
ARC
  5
2be
100
AcDbEntity
  8
1
100
AcDbCircle
  6
CONTINUOUS
 62
7
 10
1.30965E+002
 20
1.12439E+002
 40
5.0E-001
100
AcDbArc
 50
1.8E+002
 51
2.7E+002
  0
LINE
  5
2bf
100
AcDbEntity
  8
1
100
AcDbLine
  6
CONTINUOUS
 62
7
 10
1.30965E+002
 20
1.11939E+002
 11
1.3514E+002
 21
1.11939E+002
  0
ARC
  5
2c0
100
AcDbEntity
  8
1
100
AcDbCircle
  6
CONTINUOUS
 62
7
 10
1.3514E+002
 20
1.12439E+002
 40
5.0E-001
100
AcDbArc
 50
2.7E+002
 51
3.6E+002
  0
ARC
  5
2c1
100
AcDbEntity
  8
1
100
AcDbCircle
  6
CONTINUOUS
 62
7
 10
1.17515E+002
 20
1.12339E+002
 40
5.0E-001
100
AcDbArc
 50
1.8E+002
 51
2.7E+002
  0
LINE
  5
2c2
100
AcDbEntity
  8
1
100
AcDbLine
  6
CONTINUOUS
 62
7
 10
1.17015E+002
 20
1.19139E+002
 11
1.17015E+002
 21
1.09639E+002
  0
ARC
  5
2c3
100
AcDbEntity
  8
1
100
AcDbCircle
  6
CONTINUOUS
 62
7
 10
1.17765E+002
 20
1.19139E+002
 40
7.5E-001
100
AcDbArc
 50
9.0E+001
 51
1.8E+002
  0
LINE
  5
2c4
100
AcDbEntity
  8
1
100
AcDbLine
  6
CONTINUOUS
 62
7
 10
1.20465E+002
 20
1.19889E+002
 11
1.17765E+002
 21
1.19889E+002
  0
ARC
  5
2c5
100
AcDbEntity
  8
1
100
AcDbCircle
  6
CONTINUOUS
 62
7
 10
1.20465E+002
 20
1.19139E+002
 40
7.5E-001
100
AcDbArc
 50
0.0
 51
8.9999992E+001
  0
LINE
  5
2c6
100
AcDbEntity
  8
1
100
AcDbLine
  6
CONTINUOUS
 62
7
 10
1.21215E+002
 20
1.19139E+002
 11
1.21215E+002
 21
1.09639E+002
  0
ARC
  5
2c7
100
AcDbEntity
  8
1
100
AcDbCircle
  6
CONTINUOUS
 62
7
 10
1.20715E+002
 20
1.12339E+002
 40
5.0E-001
100
AcDbArc
 50
2.7E+002
 51
3.6E+002
  0
LINE
  5
2c8
100
AcDbEntity
  8
1
100
AcDbLine
  6
CONTINUOUS
 62
7
 10
1.20715E+002
 20
1.11839E+002
 11
1.17515E+002
 21
1.11839E+002
  0
ARC
  5
2c9
100
AcDbEntity
  8
1
100
AcDbCircle
  6
CONTINUOUS
 62
7
 10
1.17765E+002
 20
1.09639E+002
 40
7.5E-001
100
AcDbArc
 50
1.8E+002
 51
2.7E+002
  0
ARC
  5
2ca
100
AcDbEntity
  8
1
100
AcDbCircle
  6
CONTINUOUS
 62
7
 10
1.20465E+002
 20
1.09639E+002
 40
7.5E-001
100
AcDbArc
 50
2.7E+002
 51
3.6E+002
  0
LINE
  5
2cb
100
AcDbEntity
  8
1
100
AcDbLine
  6
CONTINUOUS
 62
7
 10
1.20465E+002
 20
1.08889E+002
 11
1.17765E+002
 21
1.08889E+002
  0
LINE
  5
2cc
100
AcDbEntity
  8
1
100
AcDbLine
  6
CONTINUOUS
 62
7
 10
1.30465E+002
 20
1.09639E+002
 11
1.30465E+002
 21
1.23039E+002
  0
LINE
  5
2cd
100
AcDbEntity
  8
1
100
AcDbLine
  6
CONTINUOUS
 62
7
 10
1.3564E+002
 20
1.23039E+002
 11
1.3564E+002
 21
1.09639E+002
  0
ARC
  5
2ce
100
AcDbEntity
  8
1
100
AcDbCircle
  6
CONTINUOUS
 62
7
 10
1.31215E+002
 20
1.09639E+002
 40
7.5E-001
100
AcDbArc
 50
1.8E+002
 51
2.7E+002
  0
ARC
  5
2cf
100
AcDbEntity
  8
1
100
AcDbCircle
  6
CONTINUOUS
 62
7
 10
1.31215E+002
 20
1.23039E+002
 40
7.5E-001
100
AcDbArc
 50
9.0E+001
 51
1.8E+002
  0
ARC
  5
2d0
100
AcDbEntity
  8
1
100
AcDbCircle
  6
CONTINUOUS
 62
7
 10
1.3489E+002
 20
1.23039E+002
 40
7.5E-001
100
AcDbArc
 50
0.0
 51
9.0000002E+001
  0
ARC
  5
2d1
100
AcDbEntity
  8
1
100
AcDbCircle
  6
CONTINUOUS
 62
7
 10
1.3489E+002
 20
1.09639E+002
 40
7.5E-001
100
AcDbArc
 50
2.7E+002
 51
3.6E+002
  0
LINE
  5
2d2
100
AcDbEntity
  8
1
100
AcDbLine
  6
CONTINUOUS
 62
7
 10
1.31215E+002
 20
1.08889E+002
 11
1.3489E+002
 21
1.08889E+002
  0
LINE
  5
2d3
100
AcDbEntity
  8
1
100
AcDbLine
  6
CONTINUOUS
 62
7
 10
1.31215E+002
 20
1.23789E+002
 11
1.3489E+002
 21
1.23789E+002
  0
LINE
  5
2d4
100
AcDbEntity
  8
1
100
AcDbLine
  6
CONTINUOUS
 62
7
 10
1.2329E+002
 20
1.09639E+002
 11
1.2329E+002
 21
1.23039E+002
  0
LINE
  5
2d5
100
AcDbEntity
  8
1
100
AcDbLine
  6
CONTINUOUS
 62
7
 10
1.28465E+002
 20
1.23039E+002
 11
1.28465E+002
 21
1.09639E+002
  0
ARC
  5
2d6
100
AcDbEntity
  8
1
100
AcDbCircle
  6
CONTINUOUS
 62
7
 10
1.2404E+002
 20
1.23039E+002
 40
7.5E-001
100
AcDbArc
 50
9.0E+001
 51
1.8E+002
  0
ARC
  5
2d7
100
AcDbEntity
  8
1
100
AcDbCircle
  6
CONTINUOUS
 62
7
 10
1.2404E+002
 20
1.09639E+002
 40
7.5E-001
100
AcDbArc
 50
1.8E+002
 51
2.7E+002
  0
ARC
  5
2d8
100
AcDbEntity
  8
1
100
AcDbCircle
  6
CONTINUOUS
 62
7
 10
1.27715E+002
 20
1.23039E+002
 40
7.5E-001
100
AcDbArc
 50
0.0
 51
9.0000002E+001
  0
ARC
  5
2d9
100
AcDbEntity
  8
1
100
AcDbCircle
  6
CONTINUOUS
 62
7
 10
1.27715E+002
 20
1.09639E+002
 40
7.5E-001
100
AcDbArc
 50
2.7000001E+002
 51
3.6E+002
  0
LINE
  5
2da
100
AcDbEntity
  8
1
100
AcDbLine
  6
CONTINUOUS
 62
7
 10
1.2404E+002
 20
1.08889E+002
 11
1.27715E+002
 21
1.08889E+002
  0
LINE
  5
2db
100
AcDbEntity
  8
1
100
AcDbLine
  6
CONTINUOUS
 62
7
 10
1.2404E+002
 20
1.23789E+002
 11
1.27715E+002
 21
1.23789E+002
  0
LINE
  5
2dc
100
AcDbEntity
  8
1
100
AcDbLine
  6
CONTINUOUS
 62
7
 10
1.9969E+002
 20
7.3989E+001
 11
1.9184E+002
 21
7.3989E+001
  0
LINE
  5
2dd
100
AcDbEntity
  8
1
100
AcDbLine
  6
CONTINUOUS
 62
7
 10
1.2329E+002
 20
1.56614E+002
 11
1.3209E+002
 21
1.56614E+002
  0
LINE
  5
2de
100
AcDbEntity
  8
1
100
AcDbLine
  6
CONTINUOUS
 62
7
 10
1.4029E+002
 20
1.56614E+002
 11
1.4909E+002
 21
1.56614E+002
  0
LINE
  5
2df
100
AcDbEntity
  8
1
100
AcDbLine
  6
CONTINUOUS
 62
7
 10
1.5729E+002
 20
1.56614E+002
 11
1.6609E+002
 21
1.56614E+002
  0
LINE
  5
2e0
100
AcDbEntity
  8
1
100
AcDbLine
  6
CONTINUOUS
 62
7
 10
1.6694E+002
 20
1.11939E+002
 11
1.7344E+002
 21
1.11939E+002
  0
LINE
  5
2e1
100
AcDbEntity
  8
1
100
AcDbLine
  6
CONTINUOUS
 62
7
 10
1.7344E+002
 20
1.20839E+002
 11
1.6694E+002
 21
1.20839E+002
  0
ARC
  5
2e2
100
AcDbEntity
  8
1
100
AcDbCircle
  6
CONTINUOUS
 62
7
 10
1.6769E+002
 20
1.09639E+002
 40
7.5E-001
100
AcDbArc
 50
1.8E+002
 51
2.7E+002
  0
LINE
  5
2e3
100
AcDbEntity
  8
1
100
AcDbLine
  6
CONTINUOUS
 62
7
 10
1.6769E+002
 20
1.08889E+002
 11
1.7269E+002
 21
1.08889E+002
  0
ARC
  5
2e4
100
AcDbEntity
  8
1
100
AcDbCircle
  6
CONTINUOUS
 62
7
 10
1.7269E+002
 20
1.09639E+002
 40
7.5E-001
100
AcDbArc
 50
2.7000001E+002
 51
3.6E+002
  0
LINE
  5
2e5
100
AcDbEntity
  8
1
100
AcDbLine
  6
CONTINUOUS
 62
7
 10
1.7344E+002
 20
1.23039E+002
 11
1.7344E+002
 21
1.09639E+002
  0
ARC
  5
2e6
100
AcDbEntity
  8
1
100
AcDbCircle
  6
CONTINUOUS
 62
7
 10
1.7269E+002
 20
1.23039E+002
 40
7.5E-001
100
AcDbArc
 50
0.0
 51
9.0000002E+001
  0
LINE
  5
2e7
100
AcDbEntity
  8
1
100
AcDbLine
  6
CONTINUOUS
 62
7
 10
1.6769E+002
 20
1.23789E+002
 11
1.7269E+002
 21
1.23789E+002
  0
ARC
  5
2e8
100
AcDbEntity
  8
1
100
AcDbCircle
  6
CONTINUOUS
 62
7
 10
1.6769E+002
 20
1.23039E+002
 40
7.5E-001
100
AcDbArc
 50
9.0E+001
 51
1.8E+002
  0
LINE
  5
2e9
100
AcDbEntity
  8
1
100
AcDbLine
  6
CONTINUOUS
 62
7
 10
1.6694E+002
 20
1.09639E+002
 11
1.6694E+002
 21
1.23039E+002
  0
ARC
  5
2ea
100
AcDbEntity
  8
1
100
AcDbCircle
  6
CONTINUOUS
 62
7
 10
1.4194E+002
 20
1.20339E+002
 40
5.0E-001
100
AcDbArc
 50
9.0E+001
 51
1.8E+002
  0
LINE
  5
2eb
100
AcDbEntity
  8
1
100
AcDbLine
  6
CONTINUOUS
 62
7
 10
1.4794E+002
 20
1.20839E+002
 11
1.4194E+002
 21
1.20839E+002
  0
ARC
  5
2ec
100
AcDbEntity
  8
1
100
AcDbCircle
  6
CONTINUOUS
 62
7
 10
1.4194E+002
 20
1.12439E+002
 40
5.0E-001
100
AcDbArc
 50
1.8E+002
 51
2.7E+002
  0
LINE
  5
2ed
100
AcDbEntity
  8
1
100
AcDbLine
  6
CONTINUOUS
 62
7
 10
1.4194E+002
 20
1.11939E+002
 11
1.4794E+002
 21
1.11939E+002
  0
LINE
  5
2ee
100
AcDbEntity
  8
1
100
AcDbLine
  6
CONTINUOUS
 62
7
 10
1.4994E+002
 20
1.11939E+002
 11
1.5644E+002
 21
1.11939E+002
  0
LINE
  5
2ef
100
AcDbEntity
  8
1
100
AcDbLine
  6
CONTINUOUS
 62
7
 10
1.5844E+002
 20
1.11939E+002
 11
1.6494E+002
 21
1.11939E+002
  0
LINE
  5
2f0
100
AcDbEntity
  8
1
100
AcDbLine
  6
CONTINUOUS
 62
7
 10
1.6494E+002
 20
1.20839E+002
 11
1.5844E+002
 21
1.20839E+002
  0
LINE
  5
2f1
100
AcDbEntity
  8
1
100
AcDbLine
  6
CONTINUOUS
 62
7
 10
1.5644E+002
 20
1.20839E+002
 11
1.4994E+002
 21
1.20839E+002
  0
ARC
  5
2f2
100
AcDbEntity
  8
1
100
AcDbCircle
  6
CONTINUOUS
 62
7
 10
1.5919E+002
 20
1.09639E+002
 40
7.5E-001
100
AcDbArc
 50
1.8E+002
 51
2.7E+002
  0
LINE
  5
2f3
100
AcDbEntity
  8
1
100
AcDbLine
  6
CONTINUOUS
 62
7
 10
1.5919E+002
 20
1.08889E+002
 11
1.6419E+002
 21
1.08889E+002
  0
ARC
  5
2f4
100
AcDbEntity
  8
1
100
AcDbCircle
  6
CONTINUOUS
 62
7
 10
1.6419E+002
 20
1.09639E+002
 40
7.5E-001
100
AcDbArc
 50
2.7E+002
 51
3.6E+002
  0
LINE
  5
2f5
100
AcDbEntity
  8
1
100
AcDbLine
  6
CONTINUOUS
 62
7
 10
1.6494E+002
 20
1.23039E+002
 11
1.6494E+002
 21
1.09639E+002
  0
ARC
  5
2f6
100
AcDbEntity
  8
1
100
AcDbCircle
  6
CONTINUOUS
 62
7
 10
1.6419E+002
 20
1.23039E+002
 40
7.5E-001
100
AcDbArc
 50
0.0
 51
9.0000002E+001
  0
LINE
  5
2f7
100
AcDbEntity
  8
1
100
AcDbLine
  6
CONTINUOUS
 62
7
 10
1.5919E+002
 20
1.23789E+002
 11
1.6419E+002
 21
1.23789E+002
  0
ARC
  5
2f8
100
AcDbEntity
  8
1
100
AcDbCircle
  6
CONTINUOUS
 62
7
 10
1.5919E+002
 20
1.23039E+002
 40
7.5E-001
100
AcDbArc
 50
9.0E+001
 51
1.8E+002
  0
LINE
  5
2f9
100
AcDbEntity
  8
1
100
AcDbLine
  6
CONTINUOUS
 62
7
 10
1.5844E+002
 20
1.09639E+002
 11
1.5844E+002
 21
1.23039E+002
  0
ARC
  5
2fa
100
AcDbEntity
  8
1
100
AcDbCircle
  6
CONTINUOUS
 62
7
 10
1.5069E+002
 20
1.09639E+002
 40
7.5E-001
100
AcDbArc
 50
1.8E+002
 51
2.7E+002
  0
LINE
  5
2fb
100
AcDbEntity
  8
1
100
AcDbLine
  6
CONTINUOUS
 62
7
 10
1.5069E+002
 20
1.08889E+002
 11
1.5569E+002
 21
1.08889E+002
  0
ARC
  5
2fc
100
AcDbEntity
  8
1
100
AcDbCircle
  6
CONTINUOUS
 62
7
 10
1.5569E+002
 20
1.09639E+002
 40
7.5E-001
100
AcDbArc
 50
2.7000001E+002
 51
3.6E+002
  0
LINE
  5
2fd
100
AcDbEntity
  8
1
100
AcDbLine
  6
CONTINUOUS
 62
7
 10
1.5644E+002
 20
1.23039E+002
 11
1.5644E+002
 21
1.09639E+002
  0
ARC
  5
2fe
100
AcDbEntity
  8
1
100
AcDbCircle
  6
CONTINUOUS
 62
7
 10
1.5569E+002
 20
1.23039E+002
 40
7.5E-001
100
AcDbArc
 50
0.0
 51
9.0000002E+001
  0
LINE
  5
2ff
100
AcDbEntity
  8
1
100
AcDbLine
  6
CONTINUOUS
 62
7
 10
1.5069E+002
 20
1.23789E+002
 11
1.5569E+002
 21
1.23789E+002
  0
ARC
  5
300
100
AcDbEntity
  8
1
100
AcDbCircle
  6
CONTINUOUS
 62
7
 10
1.5069E+002
 20
1.23039E+002
 40
7.5E-001
100
AcDbArc
 50
9.0E+001
 51
1.8E+002
  0
LINE
  5
301
100
AcDbEntity
  8
1
100
AcDbLine
  6
CONTINUOUS
 62
7
 10
1.4994E+002
 20
1.09639E+002
 11
1.4994E+002
 21
1.23039E+002
  0
LINE
  5
302
100
AcDbEntity
  8
1
100
AcDbLine
  6
CONTINUOUS
 62
7
 10
1.4144E+002
 20
1.23039E+002
 11
1.4144E+002
 21
1.09639E+002
  0
ARC
  5
303
100
AcDbEntity
  8
1
100
AcDbCircle
  6
CONTINUOUS
 62
7
 10
1.4219E+002
 20
1.23039E+002
 40
7.5E-001
100
AcDbArc
 50
9.0E+001
 51
1.8E+002
  0
ARC
  5
304
100
AcDbEntity
  8
1
100
AcDbCircle
  6
CONTINUOUS
 62
7
 10
1.4219E+002
 20
1.09639E+002
 40
7.5E-001
100
AcDbArc
 50
1.8E+002
 51
2.7E+002
  0
LINE
  5
305
100
AcDbEntity
  8
1
100
AcDbLine
  6
CONTINUOUS
 62
7
 10
1.4219E+002
 20
1.08889E+002
 11
1.4719E+002
 21
1.08889E+002
  0
ARC
  5
306
100
AcDbEntity
  8
1
100
AcDbCircle
  6
CONTINUOUS
 62
7
 10
1.4719E+002
 20
1.09639E+002
 40
7.5E-001
100
AcDbArc
 50
2.7000001E+002
 51
3.6E+002
  0
LINE
  5
307
100
AcDbEntity
  8
1
100
AcDbLine
  6
CONTINUOUS
 62
7
 10
1.4794E+002
 20
1.23039E+002
 11
1.4794E+002
 21
1.09639E+002
  0
ARC
  5
308
100
AcDbEntity
  8
1
100
AcDbCircle
  6
CONTINUOUS
 62
7
 10
1.4719E+002
 20
1.23039E+002
 40
7.5E-001
100
AcDbArc
 50
0.0
 51
9.0000002E+001
  0
LINE
  5
309
100
AcDbEntity
  8
1
100
AcDbLine
  6
CONTINUOUS
 62
7
 10
1.4219E+002
 20
1.23789E+002
 11
1.4719E+002
 21
1.23789E+002
  0
LINE
  5
30a
100
AcDbEntity
  8
1
100
AcDbLine
  6
CONTINUOUS
 62
7
 10
1.7429E+002
 20
1.56614E+002
 11
1.8309E+002
 21
1.56614E+002
  0
LINE
  5
30b
100
AcDbEntity
  8
1
100
AcDbLine
  6
CENTERLINE
 62
6
 10
1.1174E+002
 20
1.03639E+002
 11
2.0294E+002
 21
1.03639E+002
  0
LINE
  5
30c
100
AcDbEntity
  8
1
100
AcDbLine
  6
CONTINUOUS
 62
7
 10
1.9129E+002
 20
1.055702E+002
 11
1.9129E+002
 21
1.0216449E+002
  0
LINE
  5
30d
100
AcDbEntity
  8
1
100
AcDbLine
  6
CONTINUOUS
 62
7
 10
1.8309E+002
 20
1.055702E+002
 11
1.8309E+002
 21
1.0216449E+002
  0
LINE
  5
30e
100
AcDbEntity
  8
1
100
AcDbLine
  6
CONTINUOUS
 62
7
 10
1.7429E+002
 20
1.055702E+002
 11
1.7429E+002
 21
1.0216449E+002
  0
LINE
  5
30f
100
AcDbEntity
  8
1
100
AcDbLine
  6
CONTINUOUS
 62
7
 10
1.6609E+002
 20
1.055702E+002
 11
1.6609E+002
 21
1.0216449E+002
  0
LINE
  5
310
100
AcDbEntity
  8
1
100
AcDbLine
  6
CONTINUOUS
 62
7
 10
1.5729E+002
 20
1.055702E+002
 11
1.5729E+002
 21
1.0216449E+002
  0
LINE
  5
311
100
AcDbEntity
  8
1
100
AcDbLine
  6
CONTINUOUS
 62
7
 10
1.4909E+002
 20
1.055702E+002
 11
1.4909E+002
 21
1.0216449E+002
  0
LINE
  5
312
100
AcDbEntity
  8
1
100
AcDbLine
  6
CONTINUOUS
 62
7
 10
1.4029E+002
 20
1.055702E+002
 11
1.4029E+002
 21
1.0216449E+002
  0
LINE
  5
313
100
AcDbEntity
  8
1
100
AcDbLine
  6
CONTINUOUS
 62
7
 10
1.3209E+002
 20
1.055702E+002
 11
1.3209E+002
 21
1.0216449E+002
  0
LINE
  5
314
100
AcDbEntity
  8
1
100
AcDbLine
  6
CONTINUOUS
 62
7
 10
1.2329E+002
 20
1.055702E+002
 11
1.2329E+002
 21
1.0216449E+002
  0
LINE
  5
315
100
AcDbEntity
  8
1
100
AcDbLine
  6
CONTINUOUS
 62
7
 10
1.9969E+002
 20
1.0166606E+002
 11
1.9179E+002
 21
1.0166606E+002
  0
LINE
  5
316
100
AcDbEntity
  8
1
100
AcDbLine
  6
CONTINUOUS
 62
7
 10
1.8259E+002
 20
1.0166606E+002
 11
1.7479E+002
 21
1.0166606E+002
  0
LINE
  5
317
100
AcDbEntity
  8
1
100
AcDbLine
  6
CONTINUOUS
 62
7
 10
1.6559E+002
 20
1.0166606E+002
 11
1.5779E+002
 21
1.0166606E+002
  0
LINE
  5
318
100
AcDbEntity
  8
1
100
AcDbLine
  6
CONTINUOUS
 62
7
 10
1.4859E+002
 20
1.0166606E+002
 11
1.4079E+002
 21
1.0166606E+002
  0
LINE
  5
319
100
AcDbEntity
  8
1
100
AcDbLine
  6
CONTINUOUS
 62
7
 10
1.3159E+002
 20
1.0166606E+002
 11
1.2379E+002
 21
1.0166606E+002
  0
ARC
  5
31a
100
AcDbEntity
  8
1
100
AcDbCircle
  6
CONTINUOUS
 62
7
 10
1.9179E+002
 20
1.0216606E+002
 40
5.0E-001
100
AcDbArc
 50
1.8E+002
 51
2.7E+002
  0
ARC
  5
31b
100
AcDbEntity
  8
1
100
AcDbCircle
  6
CONTINUOUS
 62
7
 10
1.8259E+002
 20
1.0216606E+002
 40
5.0E-001
100
AcDbArc
 50
2.7E+002
 51
3.5999999E+002
  0
ARC
  5
31c
100
AcDbEntity
  8
1
100
AcDbCircle
  6
CONTINUOUS
 62
7
 10
1.7479E+002
 20
1.0216606E+002
 40
5.0E-001
100
AcDbArc
 50
1.8E+002
 51
2.7E+002
  0
ARC
  5
31d
100
AcDbEntity
  8
1
100
AcDbCircle
  6
CONTINUOUS
 62
7
 10
1.6559E+002
 20
1.0216606E+002
 40
5.0E-001
100
AcDbArc
 50
2.7E+002
 51
3.6E+002
  0
ARC
  5
31e
100
AcDbEntity
  8
1
100
AcDbCircle
  6
CONTINUOUS
 62
7
 10
1.5779E+002
 20
1.0216606E+002
 40
5.0E-001
100
AcDbArc
 50
1.8E+002
 51
2.7E+002
  0
ARC
  5
31f
100
AcDbEntity
  8
1
100
AcDbCircle
  6
CONTINUOUS
 62
7
 10
1.4859E+002
 20
1.0216606E+002
 40
5.0E-001
100
AcDbArc
 50
2.7E+002
 51
3.5999999E+002
  0
ARC
  5
320
100
AcDbEntity
  8
1
100
AcDbCircle
  6
CONTINUOUS
 62
7
 10
1.4079E+002
 20
1.0216606E+002
 40
5.0E-001
100
AcDbArc
 50
1.8E+002
 51
2.7E+002
  0
ARC
  5
321
100
AcDbEntity
  8
1
100
AcDbCircle
  6
CONTINUOUS
 62
7
 10
1.3159E+002
 20
1.0216606E+002
 40
5.0E-001
100
AcDbArc
 50
2.7E+002
 51
3.5999999E+002
  0
ARC
  5
322
100
AcDbEntity
  8
1
100
AcDbCircle
  6
CONTINUOUS
 62
7
 10
1.2379E+002
 20
1.0216606E+002
 40
5.0E-001
100
AcDbArc
 50
1.8E+002
 51
2.7E+002
  0
ARC
  5
323
100
AcDbEntity
  8
1
100
AcDbCircle
  6
CONTINUOUS
 62
7
 10
1.9969E+002
 20
1.0141606E+002
 40
2.5E-001
100
AcDbArc
 50
0.0
 51
9.0000002E+001
  0
ARC
  5
324
100
AcDbEntity
  8
1
100
AcDbCircle
  6
CONTINUOUS
 62
7
 10
1.86915E+002
 20
9.4938997E+001
 40
5.0E-001
100
AcDbArc
 50
9.0E+001
 51
1.8E+002
  0
LINE
  5
325
100
AcDbEntity
  8
1
100
AcDbLine
  6
CONTINUOUS
 62
7
 10
1.86915E+002
 20
9.5438997E+001
 11
1.9109E+002
 21
9.5438997E+001
  0
ARC
  5
326
100
AcDbEntity
  8
1
100
AcDbCircle
  6
CONTINUOUS
 62
7
 10
1.9109E+002
 20
9.4938997E+001
 40
5.0E-001
100
AcDbArc
 50
0.0
 51
9.0000003E+001
  0
ARC
  5
327
100
AcDbEntity
  8
1
100
AcDbCircle
  6
CONTINUOUS
 62
7
 10
1.9109E+002
 20
8.7039003E+001
 40
5.0E-001
100
AcDbArc
 50
2.7E+002
 51
3.6E+002
  0
LINE
  5
328
100
AcDbEntity
  8
1
100
AcDbLine
  6
CONTINUOUS
 62
7
 10
1.9109E+002
 20
8.6539003E+001
 11
1.86915E+002
 21
8.6539003E+001
  0
ARC
  5
329
100
AcDbEntity
  8
1
100
AcDbCircle
  6
CONTINUOUS
 62
7
 10
1.86915E+002
 20
8.7039003E+001
 40
5.0E-001
100
AcDbArc
 50
1.8E+002
 51
2.6999999E+002
  0
ARC
  5
32a
100
AcDbEntity
  8
1
100
AcDbCircle
  6
CONTINUOUS
 62
7
 10
1.7974E+002
 20
9.4938997E+001
 40
5.0E-001
100
AcDbArc
 50
9.0E+001
 51
1.8E+002
  0
LINE
  5
32b
100
AcDbEntity
  8
1
100
AcDbLine
  6
CONTINUOUS
 62
7
 10
1.7974E+002
 20
9.5438997E+001
 11
1.83915E+002
 21
9.5438997E+001
  0
ARC
  5
32c
100
AcDbEntity
  8
1
100
AcDbCircle
  6
CONTINUOUS
 62
7
 10
1.83915E+002
 20
9.4938997E+001
 40
5.0E-001
100
AcDbArc
 50
0.0
 51
9.0000003E+001
  0
ARC
  5
32d
100
AcDbEntity
  8
1
100
AcDbCircle
  6
CONTINUOUS
 62
7
 10
1.83915E+002
 20
8.7039003E+001
 40
5.0E-001
100
AcDbArc
 50
2.7E+002
 51
3.6E+002
  0
LINE
  5
32e
100
AcDbEntity
  8
1
100
AcDbLine
  6
CONTINUOUS
 62
7
 10
1.83915E+002
 20
8.6539003E+001
 11
1.7974E+002
 21
8.6539003E+001
  0
ARC
  5
32f
100
AcDbEntity
  8
1
100
AcDbCircle
  6
CONTINUOUS
 62
7
 10
1.7974E+002
 20
8.7039003E+001
 40
5.0E-001
100
AcDbArc
 50
1.8E+002
 51
2.7E+002
  0
ARC
  5
330
100
AcDbEntity
  8
1
100
AcDbCircle
  6
CONTINUOUS
 62
7
 10
1.97365E+002
 20
9.4938997E+001
 40
5.0E-001
100
AcDbArc
 50
0.0
 51
9.0000003E+001
  0
LINE
  5
331
100
AcDbEntity
  8
1
100
AcDbLine
  6
CONTINUOUS
 62
7
 10
1.97865E+002
 20
8.8139E+001
 11
1.97865E+002
 21
9.7639E+001
  0
ARC
  5
332
100
AcDbEntity
  8
1
100
AcDbCircle
  6
CONTINUOUS
 62
7
 10
1.97115E+002
 20
8.8139E+001
 40
7.5E-001
100
AcDbArc
 50
2.7E+002
 51
3.6E+002
  0
LINE
  5
333
100
AcDbEntity
  8
1
100
AcDbLine
  6
CONTINUOUS
 62
7
 10
1.94415E+002
 20
8.7389E+001
 11
1.97115E+002
 21
8.7389E+001
  0
ARC
  5
334
100
AcDbEntity
  8
1
100
AcDbCircle
  6
CONTINUOUS
 62
7
 10
1.94415E+002
 20
8.8139E+001
 40
7.5E-001
100
AcDbArc
 50
1.8E+002
 51
2.6999999E+002
  0
LINE
  5
335
100
AcDbEntity
  8
1
100
AcDbLine
  6
CONTINUOUS
 62
7
 10
1.93665E+002
 20
8.8139E+001
 11
1.93665E+002
 21
9.7639E+001
  0
ARC
  5
336
100
AcDbEntity
  8
1
100
AcDbCircle
  6
CONTINUOUS
 62
7
 10
1.94165E+002
 20
9.4938997E+001
 40
5.0E-001
100
AcDbArc
 50
9.0E+001
 51
1.8E+002
  0
LINE
  5
337
100
AcDbEntity
  8
1
100
AcDbLine
  6
CONTINUOUS
 62
7
 10
1.94165E+002
 20
9.5438997E+001
 11
1.97365E+002
 21
9.5438997E+001
  0
ARC
  5
338
100
AcDbEntity
  8
1
100
AcDbCircle
  6
CONTINUOUS
 62
7
 10
1.97115E+002
 20
9.7639E+001
 40
7.5E-001
100
AcDbArc
 50
0.0
 51
9.0000003E+001
  0
ARC
  5
339
100
AcDbEntity
  8
1
100
AcDbCircle
  6
CONTINUOUS
 62
7
 10
1.94415E+002
 20
9.7639E+001
 40
7.5E-001
100
AcDbArc
 50
9.0E+001
 51
1.8E+002
  0
LINE
  5
33a
100
AcDbEntity
  8
1
100
AcDbLine
  6
CONTINUOUS
 62
7
 10
1.94415E+002
 20
9.8389E+001
 11
1.97115E+002
 21
9.8389E+001
  0
LINE
  5
33b
100
AcDbEntity
  8
1
100
AcDbLine
  6
CONTINUOUS
 62
7
 10
1.2359E+002
 20
7.4239E+001
 11
1.2359E+002
 21
7.9713506E+001
  0
LINE
  5
33c
100
AcDbEntity
  8
1
100
AcDbLine
  6
CONTINUOUS
 62
7
 10
1.3179E+002
 20
7.4239E+001
 11
1.3179E+002
 21
7.9713506E+001
  0
LINE
  5
33d
100
AcDbEntity
  8
1
100
AcDbLine
  6
CONTINUOUS
 62
7
 10
1.4059E+002
 20
7.4239E+001
 11
1.4059E+002
 21
7.9713506E+001
  0
LINE
  5
33e
100
AcDbEntity
  8
1
100
AcDbLine
  6
CONTINUOUS
 62
7
 10
1.4879E+002
 20
7.4239E+001
 11
1.4879E+002
 21
7.9713506E+001
  0
LINE
  5
33f
100
AcDbEntity
  8
1
100
AcDbLine
  6
CONTINUOUS
 62
7
 10
1.5759E+002
 20
7.4239E+001
 11
1.5759E+002
 21
7.9713506E+001
  0
LINE
  5
340
100
AcDbEntity
  8
1
100
AcDbLine
  6
CONTINUOUS
 62
7
 10
1.6579E+002
 20
7.9713506E+001
 11
1.6579E+002
 21
7.4239E+001
  0
LINE
  5
341
100
AcDbEntity
  8
1
100
AcDbLine
  6
CONTINUOUS
 62
7
 10
1.7459E+002
 20
7.4239E+001
 11
1.7459E+002
 21
7.9713506E+001
  0
LINE
  5
342
100
AcDbEntity
  8
1
100
AcDbLine
  6
CONTINUOUS
 62
7
 10
1.8279E+002
 20
7.4239E+001
 11
1.8279E+002
 21
7.9713506E+001
  0
LINE
  5
343
100
AcDbEntity
  8
1
100
AcDbLine
  6
CONTINUOUS
 62
7
 10
1.9159E+002
 20
7.4239E+001
 11
1.9159E+002
 21
7.9713506E+001
  0
LINE
  5
344
100
AcDbEntity
  8
1
100
AcDbLine
  6
CONTINUOUS
 62
7
 10
1.9994E+002
 20
7.4239E+001
 11
1.9994E+002
 21
1.0141606E+002
  0
LINE
  5
345
100
AcDbEntity
  8
1
100
AcDbLine
  6
CONTINUOUS
 62
7
 10
1.1494E+002
 20
8.0461942E+001
 11
1.1494E+002
 21
1.0586194E+002
  0
LINE
  5
346
100
AcDbEntity
  8
1
100
AcDbLine
  6
CONTINUOUS
 62
7
 10
1.84415E+002
 20
8.4239E+001
 11
1.84415E+002
 21
9.7639E+001
  0
LINE
  5
347
100
AcDbEntity
  8
1
100
AcDbLine
  6
CONTINUOUS
 62
7
 10
1.7924E+002
 20
9.7639E+001
 11
1.7924E+002
 21
8.4239E+001
  0
ARC
  5
348
100
AcDbEntity
  8
1
100
AcDbCircle
  6
CONTINUOUS
 62
7
 10
1.83665E+002
 20
8.4239E+001
 40
7.5E-001
100
AcDbArc
 50
2.7E+002
 51
3.6E+002
  0
ARC
  5
349
100
AcDbEntity
  8
1
100
AcDbCircle
  6
CONTINUOUS
 62
7
 10
1.83665E+002
 20
9.7639E+001
 40
7.5E-001
100
AcDbArc
 50
0.0
 51
9.0000003E+001
  0
ARC
  5
34a
100
AcDbEntity
  8
1
100
AcDbCircle
  6
CONTINUOUS
 62
7
 10
1.7999E+002
 20
9.7639E+001
 40
7.5E-001
100
AcDbArc
 50
9.0E+001
 51
1.8E+002
  0
ARC
  5
34b
100
AcDbEntity
  8
1
100
AcDbCircle
  6
CONTINUOUS
 62
7
 10
1.7999E+002
 20
8.4239E+001
 40
7.5E-001
100
AcDbArc
 50
1.8E+002
 51
2.7E+002
  0
LINE
  5
34c
100
AcDbEntity
  8
1
100
AcDbLine
  6
CONTINUOUS
 62
7
 10
1.83665E+002
 20
8.3489E+001
 11
1.7999E+002
 21
8.3489E+001
  0
LINE
  5
34d
100
AcDbEntity
  8
1
100
AcDbLine
  6
CONTINUOUS
 62
7
 10
1.83665E+002
 20
9.8389E+001
 11
1.7999E+002
 21
9.8389E+001
  0
LINE
  5
34e
100
AcDbEntity
  8
1
100
AcDbLine
  6
CONTINUOUS
 62
7
 10
1.9159E+002
 20
8.4239E+001
 11
1.9159E+002
 21
9.7639E+001
  0
LINE
  5
34f
100
AcDbEntity
  8
1
100
AcDbLine
  6
CONTINUOUS
 62
7
 10
1.86415E+002
 20
9.7639E+001
 11
1.86415E+002
 21
8.4239E+001
  0
ARC
  5
350
100
AcDbEntity
  8
1
100
AcDbCircle
  6
CONTINUOUS
 62
7
 10
1.9084E+002
 20
9.7639E+001
 40
7.5E-001
100
AcDbArc
 50
0.0
 51
9.0000003E+001
  0
ARC
  5
351
100
AcDbEntity
  8
1
100
AcDbCircle
  6
CONTINUOUS
 62
7
 10
1.9084E+002
 20
8.4239E+001
 40
7.5E-001
100
AcDbArc
 50
2.7E+002
 51
3.6E+002
  0
ARC
  5
352
100
AcDbEntity
  8
1
100
AcDbCircle
  6
CONTINUOUS
 62
7
 10
1.87165E+002
 20
9.7639E+001
 40
7.5E-001
100
AcDbArc
 50
9.0E+001
 51
1.8E+002
  0
ARC
  5
353
100
AcDbEntity
  8
1
100
AcDbCircle
  6
CONTINUOUS
 62
7
 10
1.87165E+002
 20
8.4239E+001
 40
7.5E-001
100
AcDbArc
 50
1.8E+002
 51
2.6999999E+002
  0
LINE
  5
354
100
AcDbEntity
  8
1
100
AcDbLine
  6
CONTINUOUS
 62
7
 10
1.9084E+002
 20
8.3489E+001
 11
1.87165E+002
 21
8.3489E+001
  0
LINE
  5
355
100
AcDbEntity
  8
1
100
AcDbLine
  6
CONTINUOUS
 62
7
 10
1.9084E+002
 20
9.8389E+001
 11
1.87165E+002
 21
9.8389E+001
  0
LINE
  5
356
100
AcDbEntity
  8
1
100
AcDbLine
  6
CONTINUOUS
 62
7
 10
1.3229E+002
 20
8.0211942E+001
 11
1.4009E+002
 21
8.0211942E+001
  0
LINE
  5
357
100
AcDbEntity
  8
1
100
AcDbLine
  6
CONTINUOUS
 62
7
 10
1.4929E+002
 20
8.0211942E+001
 11
1.5709E+002
 21
8.0211942E+001
  0
LINE
  5
358
100
AcDbEntity
  8
1
100
AcDbLine
  6
CONTINUOUS
 62
7
 10
1.6629E+002
 20
8.0211942E+001
 11
1.7409E+002
 21
8.0211942E+001
  0
LINE
  5
359
100
AcDbEntity
  8
1
100
AcDbLine
  6
CONTINUOUS
 62
7
 10
1.8329E+002
 20
8.0211942E+001
 11
1.9109E+002
 21
8.0211942E+001
  0
ARC
  5
35a
100
AcDbEntity
  8
1
100
AcDbCircle
  6
CONTINUOUS
 62
7
 10
1.2309E+002
 20
7.9711942E+001
 40
5.0E-001
100
AcDbArc
 50
0.0
 51
9.0000003E+001
  0
ARC
  5
35b
100
AcDbEntity
  8
1
100
AcDbCircle
  6
CONTINUOUS
 62
7
 10
1.2384E+002
 20
7.4239E+001
 40
2.5E-001
100
AcDbArc
 50
1.8E+002
 51
2.7E+002
  0
ARC
  5
35c
100
AcDbEntity
  8
1
100
AcDbCircle
  6
CONTINUOUS
 62
7
 10
1.3229E+002
 20
7.9711942E+001
 40
5.0E-001
100
AcDbArc
 50
9.0E+001
 51
1.8E+002
  0
ARC
  5
35d
100
AcDbEntity
  8
1
100
AcDbCircle
  6
CONTINUOUS
 62
7
 10
1.4009E+002
 20
7.9711942E+001
 40
5.0E-001
100
AcDbArc
 50
0.0
 51
9.0000003E+001
  0
LINE
  5
35e
100
AcDbEntity
  8
1
100
AcDbLine
  6
CONTINUOUS
 62
7
 10
1.3154E+002
 20
7.3989E+001
 11
1.2384E+002
 21
7.3989E+001
  0
ARC
  5
35f
100
AcDbEntity
  8
1
100
AcDbCircle
  6
CONTINUOUS
 62
7
 10
1.4084E+002
 20
7.4239E+001
 40
2.5E-001
100
AcDbArc
 50
1.8E+002
 51
2.7E+002
  0
ARC
  5
360
100
AcDbEntity
  8
1
100
AcDbCircle
  6
CONTINUOUS
 62
7
 10
1.3154E+002
 20
7.4239E+001
 40
2.5E-001
100
AcDbArc
 50
2.7E+002
 51
3.6E+002
  0
ARC
  5
361
100
AcDbEntity
  8
1
100
AcDbCircle
  6
CONTINUOUS
 62
7
 10
1.4929E+002
 20
7.9711942E+001
 40
5.0E-001
100
AcDbArc
 50
9.0E+001
 51
1.7999999E+002
  0
ARC
  5
362
100
AcDbEntity
  8
1
100
AcDbCircle
  6
CONTINUOUS
 62
7
 10
1.5709E+002
 20
7.9711942E+001
 40
5.0E-001
100
AcDbArc
 50
0.0
 51
9.0000003E+001
  0
LINE
  5
363
100
AcDbEntity
  8
1
100
AcDbLine
  6
CONTINUOUS
 62
7
 10
1.4854E+002
 20
7.3989E+001
 11
1.4084E+002
 21
7.3989E+001
  0
ARC
  5
364
100
AcDbEntity
  8
1
100
AcDbCircle
  6
CONTINUOUS
 62
7
 10
1.5784E+002
 20
7.4239E+001
 40
2.5E-001
100
AcDbArc
 50
1.8E+002
 51
2.7E+002
  0
ARC
  5
365
100
AcDbEntity
  8
1
100
AcDbCircle
  6
CONTINUOUS
 62
7
 10
1.4854E+002
 20
7.4239E+001
 40
2.5E-001
100
AcDbArc
 50
2.7E+002
 51
3.6E+002
  0
ARC
  5
366
100
AcDbEntity
  8
1
100
AcDbCircle
  6
CONTINUOUS
 62
7
 10
1.6629E+002
 20
7.9711942E+001
 40
5.0E-001
100
AcDbArc
 50
9.0E+001
 51
1.8E+002
  0
ARC
  5
367
100
AcDbEntity
  8
1
100
AcDbCircle
  6
CONTINUOUS
 62
7
 10
1.7409E+002
 20
7.9711942E+001
 40
5.0E-001
100
AcDbArc
 50
0.0
 51
9.0000003E+001
  0
LINE
  5
368
100
AcDbEntity
  8
1
100
AcDbLine
  6
CONTINUOUS
 62
7
 10
1.6554E+002
 20
7.3989E+001
 11
1.5784E+002
 21
7.3989E+001
  0
ARC
  5
369
100
AcDbEntity
  8
1
100
AcDbCircle
  6
CONTINUOUS
 62
7
 10
1.7484E+002
 20
7.4239E+001
 40
2.5E-001
100
AcDbArc
 50
1.8E+002
 51
2.7E+002
  0
ARC
  5
36a
100
AcDbEntity
  8
1
100
AcDbCircle
  6
CONTINUOUS
 62
7
 10
1.6554E+002
 20
7.4239E+001
 40
2.5E-001
100
AcDbArc
 50
2.7E+002
 51
3.6E+002
  0
ARC
  5
36b
100
AcDbEntity
  8
1
100
AcDbCircle
  6
CONTINUOUS
 62
7
 10
1.8329E+002
 20
7.9711942E+001
 40
5.0E-001
100
AcDbArc
 50
9.0E+001
 51
1.7999999E+002
  0
ARC
  5
36c
100
AcDbEntity
  8
1
100
AcDbCircle
  6
CONTINUOUS
 62
7
 10
1.9109E+002
 20
7.9711942E+001
 40
5.0E-001
100
AcDbArc
 50
0.0
 51
9.0000003E+001
  0
LINE
  5
36d
100
AcDbEntity
  8
1
100
AcDbLine
  6
CONTINUOUS
 62
7
 10
1.8254E+002
 20
7.3989E+001
 11
1.7484E+002
 21
7.3989E+001
  0
ARC
  5
36e
100
AcDbEntity
  8
1
100
AcDbCircle
  6
CONTINUOUS
 62
7
 10
1.9184E+002
 20
7.4239E+001
 40
2.5E-001
100
AcDbArc
 50
1.8E+002
 51
2.7E+002
  0
ARC
  5
36f
100
AcDbEntity
  8
1
100
AcDbCircle
  6
CONTINUOUS
 62
7
 10
1.8254E+002
 20
7.4239E+001
 40
2.5E-001
100
AcDbArc
 50
2.7E+002
 51
3.6E+002
  0
ARC
  5
370
100
AcDbEntity
  8
1
100
AcDbCircle
  6
CONTINUOUS
 62
7
 10
1.9969E+002
 20
7.4239E+001
 40
2.5E-001
100
AcDbArc
 50
2.7E+002
 51
3.6E+002
  0
LINE
  5
371
100
AcDbEntity
  8
1
100
AcDbLine
  6
CONTINUOUS
 62
7
 10
1.1519E+002
 20
8.0211942E+001
 11
1.2309E+002
 21
8.0211942E+001
  0
ARC
  5
372
100
AcDbEntity
  8
1
100
AcDbCircle
  6
CONTINUOUS
 62
7
 10
1.1519E+002
 20
8.0461942E+001
 40
2.5E-001
100
AcDbArc
 50
1.8E+002
 51
2.7E+002
  0
ARC
  5
373
100
AcDbEntity
  8
1
100
AcDbCircle
  6
CONTINUOUS
 62
7
 10
1.27965E+002
 20
9.4938997E+001
 40
5.0E-001
100
AcDbArc
 50
0.0
 51
9.0000002E+001
  0
LINE
  5
374
100
AcDbEntity
  8
1
100
AcDbLine
  6
CONTINUOUS
 62
7
 10
1.27965E+002
 20
9.5438997E+001
 11
1.2379E+002
 21
9.5438997E+001
  0
ARC
  5
375
100
AcDbEntity
  8
1
100
AcDbCircle
  6
CONTINUOUS
 62
7
 10
1.2379E+002
 20
9.4938997E+001
 40
5.0E-001
100
AcDbArc
 50
9.0E+001
 51
1.8E+002
  0
ARC
  5
376
100
AcDbEntity
  8
1
100
AcDbCircle
  6
CONTINUOUS
 62
7
 10
1.2379E+002
 20
8.7039003E+001
 40
5.0E-001
100
AcDbArc
 50
1.8E+002
 51
2.7E+002
  0
LINE
  5
377
100
AcDbEntity
  8
1
100
AcDbLine
  6
CONTINUOUS
 62
7
 10
1.2379E+002
 20
8.6539003E+001
 11
1.27965E+002
 21
8.6539003E+001
  0
ARC
  5
378
100
AcDbEntity
  8
1
100
AcDbCircle
  6
CONTINUOUS
 62
7
 10
1.27965E+002
 20
8.7039003E+001
 40
5.0E-001
100
AcDbArc
 50
2.7000001E+002
 51
3.6E+002
  0
ARC
  5
379
100
AcDbEntity
  8
1
100
AcDbCircle
  6
CONTINUOUS
 62
7
 10
1.3514E+002
 20
9.4938997E+001
 40
5.0E-001
100
AcDbArc
 50
0.0
 51
9.0000002E+001
  0
LINE
  5
37a
100
AcDbEntity
  8
1
100
AcDbLine
  6
CONTINUOUS
 62
7
 10
1.3514E+002
 20
9.5438997E+001
 11
1.30965E+002
 21
9.5438997E+001
  0
ARC
  5
37b
100
AcDbEntity
  8
1
100
AcDbCircle
  6
CONTINUOUS
 62
7
 10
1.30965E+002
 20
9.4938997E+001
 40
5.0E-001
100
AcDbArc
 50
9.0E+001
 51
1.8E+002
  0
ARC
  5
37c
100
AcDbEntity
  8
1
100
AcDbCircle
  6
CONTINUOUS
 62
7
 10
1.30965E+002
 20
8.7039003E+001
 40
5.0E-001
100
AcDbArc
 50
1.8E+002
 51
2.7E+002
  0
LINE
  5
37d
100
AcDbEntity
  8
1
100
AcDbLine
  6
CONTINUOUS
 62
7
 10
1.30965E+002
 20
8.6539003E+001
 11
1.3514E+002
 21
8.6539003E+001
  0
ARC
  5
37e
100
AcDbEntity
  8
1
100
AcDbCircle
  6
CONTINUOUS
 62
7
 10
1.3514E+002
 20
8.7039003E+001
 40
5.0E-001
100
AcDbArc
 50
2.7E+002
 51
3.6E+002
  0
ARC
  5
37f
100
AcDbEntity
  8
1
100
AcDbCircle
  6
CONTINUOUS
 62
7
 10
1.17515E+002
 20
8.6939003E+001
 40
5.0E-001
100
AcDbArc
 50
1.8E+002
 51
2.7E+002
  0
LINE
  5
380
100
AcDbEntity
  8
1
100
AcDbLine
  6
CONTINUOUS
 62
7
 10
1.17015E+002
 20
9.3739E+001
 11
1.17015E+002
 21
8.4239E+001
  0
ARC
  5
381
100
AcDbEntity
  8
1
100
AcDbCircle
  6
CONTINUOUS
 62
7
 10
1.17765E+002
 20
9.3739E+001
 40
7.5E-001
100
AcDbArc
 50
9.0E+001
 51
1.8E+002
  0
LINE
  5
382
100
AcDbEntity
  8
1
100
AcDbLine
  6
CONTINUOUS
 62
7
 10
1.20465E+002
 20
9.4489E+001
 11
1.17765E+002
 21
9.4489E+001
  0
ARC
  5
383
100
AcDbEntity
  8
1
100
AcDbCircle
  6
CONTINUOUS
 62
7
 10
1.20465E+002
 20
9.3739E+001
 40
7.5E-001
100
AcDbArc
 50
0.0
 51
8.9999992E+001
  0
LINE
  5
384
100
AcDbEntity
  8
1
100
AcDbLine
  6
CONTINUOUS
 62
7
 10
1.21215E+002
 20
9.3739E+001
 11
1.21215E+002
 21
8.4239E+001
  0
ARC
  5
385
100
AcDbEntity
  8
1
100
AcDbCircle
  6
CONTINUOUS
 62
7
 10
1.20715E+002
 20
8.6939003E+001
 40
5.0E-001
100
AcDbArc
 50
2.7E+002
 51
3.6E+002
  0
LINE
  5
386
100
AcDbEntity
  8
1
100
AcDbLine
  6
CONTINUOUS
 62
7
 10
1.20715E+002
 20
8.6439003E+001
 11
1.17515E+002
 21
8.6439003E+001
  0
ARC
  5
387
100
AcDbEntity
  8
1
100
AcDbCircle
  6
CONTINUOUS
 62
7
 10
1.17765E+002
 20
8.4239E+001
 40
7.5E-001
100
AcDbArc
 50
1.8E+002
 51
2.7E+002
  0
ARC
  5
388
100
AcDbEntity
  8
1
100
AcDbCircle
  6
CONTINUOUS
 62
7
 10
1.20465E+002
 20
8.4239E+001
 40
7.5E-001
100
AcDbArc
 50
2.7E+002
 51
3.6E+002
  0
LINE
  5
389
100
AcDbEntity
  8
1
100
AcDbLine
  6
CONTINUOUS
 62
7
 10
1.20465E+002
 20
8.3489E+001
 11
1.17765E+002
 21
8.3489E+001
  0
LINE
  5
38a
100
AcDbEntity
  8
1
100
AcDbLine
  6
CONTINUOUS
 62
7
 10
1.30465E+002
 20
8.4239E+001
 11
1.30465E+002
 21
9.7639E+001
  0
LINE
  5
38b
100
AcDbEntity
  8
1
100
AcDbLine
  6
CONTINUOUS
 62
7
 10
1.3564E+002
 20
9.7639E+001
 11
1.3564E+002
 21
8.4239E+001
  0
ARC
  5
38c
100
AcDbEntity
  8
1
100
AcDbCircle
  6
CONTINUOUS
 62
7
 10
1.31215E+002
 20
8.4239E+001
 40
7.5E-001
100
AcDbArc
 50
1.8E+002
 51
2.7E+002
  0
ARC
  5
38d
100
AcDbEntity
  8
1
100
AcDbCircle
  6
CONTINUOUS
 62
7
 10
1.31215E+002
 20
9.7639E+001
 40
7.5E-001
100
AcDbArc
 50
9.0E+001
 51
1.8E+002
  0
ARC
  5
38e
100
AcDbEntity
  8
1
100
AcDbCircle
  6
CONTINUOUS
 62
7
 10
1.3489E+002
 20
9.7639E+001
 40
7.5E-001
100
AcDbArc
 50
0.0
 51
9.0000002E+001
  0
ARC
  5
38f
100
AcDbEntity
  8
1
100
AcDbCircle
  6
CONTINUOUS
 62
7
 10
1.3489E+002
 20
8.4239E+001
 40
7.5E-001
100
AcDbArc
 50
2.7E+002
 51
3.6E+002
  0
LINE
  5
390
100
AcDbEntity
  8
1
100
AcDbLine
  6
CONTINUOUS
 62
7
 10
1.31215E+002
 20
8.3489E+001
 11
1.3489E+002
 21
8.3489E+001
  0
LINE
  5
391
100
AcDbEntity
  8
1
100
AcDbLine
  6
CONTINUOUS
 62
7
 10
1.31215E+002
 20
9.8389E+001
 11
1.3489E+002
 21
9.8389E+001
  0
LINE
  5
392
100
AcDbEntity
  8
1
100
AcDbLine
  6
CONTINUOUS
 62
7
 10
1.2329E+002
 20
8.4239E+001
 11
1.2329E+002
 21
9.7639E+001
  0
LINE
  5
393
100
AcDbEntity
  8
1
100
AcDbLine
  6
CONTINUOUS
 62
7
 10
1.28465E+002
 20
9.7639E+001
 11
1.28465E+002
 21
8.4239E+001
  0
ARC
  5
394
100
AcDbEntity
  8
1
100
AcDbCircle
  6
CONTINUOUS
 62
7
 10
1.2404E+002
 20
9.7639E+001
 40
7.5E-001
100
AcDbArc
 50
9.0E+001
 51
1.8E+002
  0
ARC
  5
395
100
AcDbEntity
  8
1
100
AcDbCircle
  6
CONTINUOUS
 62
7
 10
1.2404E+002
 20
8.4239E+001
 40
7.5E-001
100
AcDbArc
 50
1.8E+002
 51
2.7E+002
  0
ARC
  5
396
100
AcDbEntity
  8
1
100
AcDbCircle
  6
CONTINUOUS
 62
7
 10
1.27715E+002
 20
9.7639E+001
 40
7.5E-001
100
AcDbArc
 50
0.0
 51
9.0000002E+001
  0
ARC
  5
397
100
AcDbEntity
  8
1
100
AcDbCircle
  6
CONTINUOUS
 62
7
 10
1.27715E+002
 20
8.4239E+001
 40
7.5E-001
100
AcDbArc
 50
2.7000001E+002
 51
3.6E+002
  0
LINE
  5
398
100
AcDbEntity
  8
1
100
AcDbLine
  6
CONTINUOUS
 62
7
 10
1.2404E+002
 20
8.3489E+001
 11
1.27715E+002
 21
8.3489E+001
  0
LINE
  5
399
100
AcDbEntity
  8
1
100
AcDbLine
  6
CONTINUOUS
 62
7
 10
1.2404E+002
 20
9.8389E+001
 11
1.27715E+002
 21
9.8389E+001
  0
LINE
  5
39a
100
AcDbEntity
  8
1
100
AcDbLine
  6
CONTINUOUS
 62
7
 10
1.6694E+002
 20
8.6539003E+001
 11
1.7344E+002
 21
8.6539003E+001
  0
LINE
  5
39b
100
AcDbEntity
  8
1
100
AcDbLine
  6
CONTINUOUS
 62
7
 10
1.7344E+002
 20
9.5438997E+001
 11
1.6694E+002
 21
9.5438997E+001
  0
ARC
  5
39c
100
AcDbEntity
  8
1
100
AcDbCircle
  6
CONTINUOUS
 62
7
 10
1.6769E+002
 20
8.4239E+001
 40
7.5E-001
100
AcDbArc
 50
1.8E+002
 51
2.7E+002
  0
LINE
  5
39d
100
AcDbEntity
  8
1
100
AcDbLine
  6
CONTINUOUS
 62
7
 10
1.6769E+002
 20
8.3489E+001
 11
1.7269E+002
 21
8.3489E+001
  0
ARC
  5
39e
100
AcDbEntity
  8
1
100
AcDbCircle
  6
CONTINUOUS
 62
7
 10
1.7269E+002
 20
8.4239E+001
 40
7.5E-001
100
AcDbArc
 50
2.7000001E+002
 51
3.6E+002
  0
LINE
  5
39f
100
AcDbEntity
  8
1
100
AcDbLine
  6
CONTINUOUS
 62
7
 10
1.7344E+002
 20
9.7639E+001
 11
1.7344E+002
 21
8.4239E+001
  0
ARC
  5
3a0
100
AcDbEntity
  8
1
100
AcDbCircle
  6
CONTINUOUS
 62
7
 10
1.7269E+002
 20
9.7639E+001
 40
7.5E-001
100
AcDbArc
 50
0.0
 51
9.0000002E+001
  0
LINE
  5
3a1
100
AcDbEntity
  8
1
100
AcDbLine
  6
CONTINUOUS
 62
7
 10
1.6769E+002
 20
9.8389E+001
 11
1.7269E+002
 21
9.8389E+001
  0
ARC
  5
3a2
100
AcDbEntity
  8
1
100
AcDbCircle
  6
CONTINUOUS
 62
7
 10
1.6769E+002
 20
9.7639E+001
 40
7.5E-001
100
AcDbArc
 50
9.0E+001
 51
1.8E+002
  0
LINE
  5
3a3
100
AcDbEntity
  8
1
100
AcDbLine
  6
CONTINUOUS
 62
7
 10
1.6694E+002
 20
8.4239E+001
 11
1.6694E+002
 21
9.7639E+001
  0
ARC
  5
3a4
100
AcDbEntity
  8
1
100
AcDbCircle
  6
CONTINUOUS
 62
7
 10
1.4194E+002
 20
9.4938997E+001
 40
5.0E-001
100
AcDbArc
 50
9.0E+001
 51
1.8E+002
  0
LINE
  5
3a5
100
AcDbEntity
  8
1
100
AcDbLine
  6
CONTINUOUS
 62
7
 10
1.4794E+002
 20
9.5438997E+001
 11
1.4194E+002
 21
9.5438997E+001
  0
ARC
  5
3a6
100
AcDbEntity
  8
1
100
AcDbCircle
  6
CONTINUOUS
 62
7
 10
1.4194E+002
 20
8.7039003E+001
 40
5.0E-001
100
AcDbArc
 50
1.8E+002
 51
2.7E+002
  0
LINE
  5
3a7
100
AcDbEntity
  8
1
100
AcDbLine
  6
CONTINUOUS
 62
7
 10
1.4194E+002
 20
8.6539003E+001
 11
1.4794E+002
 21
8.6539003E+001
  0
LINE
  5
3a8
100
AcDbEntity
  8
1
100
AcDbLine
  6
CONTINUOUS
 62
7
 10
1.4994E+002
 20
8.6539003E+001
 11
1.5644E+002
 21
8.6539003E+001
  0
LINE
  5
3a9
100
AcDbEntity
  8
1
100
AcDbLine
  6
CONTINUOUS
 62
7
 10
1.5844E+002
 20
8.6539003E+001
 11
1.6494E+002
 21
8.6539003E+001
  0
LINE
  5
3aa
100
AcDbEntity
  8
1
100
AcDbLine
  6
CONTINUOUS
 62
7
 10
1.6494E+002
 20
9.5438997E+001
 11
1.5844E+002
 21
9.5438997E+001
  0
LINE
  5
3ab
100
AcDbEntity
  8
1
100
AcDbLine
  6
CONTINUOUS
 62
7
 10
1.5644E+002
 20
9.5438997E+001
 11
1.4994E+002
 21
9.5438997E+001
  0
ARC
  5
3ac
100
AcDbEntity
  8
1
100
AcDbCircle
  6
CONTINUOUS
 62
7
 10
1.5919E+002
 20
8.4239E+001
 40
7.5E-001
100
AcDbArc
 50
1.8E+002
 51
2.7E+002
  0
LINE
  5
3ad
100
AcDbEntity
  8
1
100
AcDbLine
  6
CONTINUOUS
 62
7
 10
1.5919E+002
 20
8.3489E+001
 11
1.6419E+002
 21
8.3489E+001
  0
ARC
  5
3ae
100
AcDbEntity
  8
1
100
AcDbCircle
  6
CONTINUOUS
 62
7
 10
1.6419E+002
 20
8.4239E+001
 40
7.5E-001
100
AcDbArc
 50
2.7E+002
 51
3.6E+002
  0
LINE
  5
3af
100
AcDbEntity
  8
1
100
AcDbLine
  6
CONTINUOUS
 62
7
 10
1.6494E+002
 20
9.7639E+001
 11
1.6494E+002
 21
8.4239E+001
  0
ARC
  5
3b0
100
AcDbEntity
  8
1
100
AcDbCircle
  6
CONTINUOUS
 62
7
 10
1.6419E+002
 20
9.7639E+001
 40
7.5E-001
100
AcDbArc
 50
0.0
 51
9.0000002E+001
  0
LINE
  5
3b1
100
AcDbEntity
  8
1
100
AcDbLine
  6
CONTINUOUS
 62
7
 10
1.5919E+002
 20
9.8389E+001
 11
1.6419E+002
 21
9.8389E+001
  0
ARC
  5
3b2
100
AcDbEntity
  8
1
100
AcDbCircle
  6
CONTINUOUS
 62
7
 10
1.5919E+002
 20
9.7639E+001
 40
7.5E-001
100
AcDbArc
 50
9.0E+001
 51
1.8E+002
  0
LINE
  5
3b3
100
AcDbEntity
  8
1
100
AcDbLine
  6
CONTINUOUS
 62
7
 10
1.5844E+002
 20
8.4239E+001
 11
1.5844E+002
 21
9.7639E+001
  0
ARC
  5
3b4
100
AcDbEntity
  8
1
100
AcDbCircle
  6
CONTINUOUS
 62
7
 10
1.5069E+002
 20
8.4239E+001
 40
7.5E-001
100
AcDbArc
 50
1.8E+002
 51
2.7E+002
  0
LINE
  5
3b5
100
AcDbEntity
  8
1
100
AcDbLine
  6
CONTINUOUS
 62
7
 10
1.5069E+002
 20
8.3489E+001
 11
1.5569E+002
 21
8.3489E+001
  0
ARC
  5
3b6
100
AcDbEntity
  8
1
100
AcDbCircle
  6
CONTINUOUS
 62
7
 10
1.5569E+002
 20
8.4239E+001
 40
7.5E-001
100
AcDbArc
 50
2.7000001E+002
 51
3.6E+002
  0
LINE
  5
3b7
100
AcDbEntity
  8
1
100
AcDbLine
  6
CONTINUOUS
 62
7
 10
1.5644E+002
 20
9.7639E+001
 11
1.5644E+002
 21
8.4239E+001
  0
ARC
  5
3b8
100
AcDbEntity
  8
1
100
AcDbCircle
  6
CONTINUOUS
 62
7
 10
1.5569E+002
 20
9.7639E+001
 40
7.5E-001
100
AcDbArc
 50
0.0
 51
9.0000002E+001
  0
LINE
  5
3b9
100
AcDbEntity
  8
1
100
AcDbLine
  6
CONTINUOUS
 62
7
 10
1.5069E+002
 20
9.8389E+001
 11
1.5569E+002
 21
9.8389E+001
  0
ARC
  5
3ba
100
AcDbEntity
  8
1
100
AcDbCircle
  6
CONTINUOUS
 62
7
 10
1.5069E+002
 20
9.7639E+001
 40
7.5E-001
100
AcDbArc
 50
9.0E+001
 51
1.8E+002
  0
LINE
  5
3bb
100
AcDbEntity
  8
1
100
AcDbLine
  6
CONTINUOUS
 62
7
 10
1.4994E+002
 20
8.4239E+001
 11
1.4994E+002
 21
9.7639E+001
  0
LINE
  5
3bc
100
AcDbEntity
  8
1
100
AcDbLine
  6
CONTINUOUS
 62
7
 10
1.4144E+002
 20
9.7639E+001
 11
1.4144E+002
 21
8.4239E+001
  0
ARC
  5
3bd
100
AcDbEntity
  8
1
100
AcDbCircle
  6
CONTINUOUS
 62
7
 10
1.4219E+002
 20
9.7639E+001
 40
7.5E-001
100
AcDbArc
 50
9.0E+001
 51
1.8E+002
  0
ARC
  5
3be
100
AcDbEntity
  8
1
100
AcDbCircle
  6
CONTINUOUS
 62
7
 10
1.4219E+002
 20
8.4239E+001
 40
7.5E-001
100
AcDbArc
 50
1.8E+002
 51
2.7E+002
  0
LINE
  5
3bf
100
AcDbEntity
  8
1
100
AcDbLine
  6
CONTINUOUS
 62
7
 10
1.4219E+002
 20
8.3489E+001
 11
1.4719E+002
 21
8.3489E+001
  0
ARC
  5
3c0
100
AcDbEntity
  8
1
100
AcDbCircle
  6
CONTINUOUS
 62
7
 10
1.4719E+002
 20
8.4239E+001
 40
7.5E-001
100
AcDbArc
 50
2.7000001E+002
 51
3.6E+002
  0
LINE
  5
3c1
100
AcDbEntity
  8
1
100
AcDbLine
  6
CONTINUOUS
 62
7
 10
1.4794E+002
 20
9.7639E+001
 11
1.4794E+002
 21
8.4239E+001
  0
ARC
  5
3c2
100
AcDbEntity
  8
1
100
AcDbCircle
  6
CONTINUOUS
 62
7
 10
1.4719E+002
 20
9.7639E+001
 40
7.5E-001
100
AcDbArc
 50
0.0
 51
9.0000002E+001
  0
LINE
  5
3c3
100
AcDbEntity
  8
1
100
AcDbLine
  6
CONTINUOUS
 62
7
 10
1.4219E+002
 20
9.8389E+001
 11
1.4719E+002
 21
9.8389E+001
  0
LINE
  5
3c4
100
AcDbEntity
  8
1
100
AcDbLine
  6
CENTERLINE
 62
6
 10
1.1174E+002
 20
7.8239E+001
 11
2.0294E+002
 21
7.8239E+001
  0
VIEWPORT
  5
3c5
100
AcDbEntity
 67
1
  8
0
  6
CONTINUOUS
 62
3
100
AcDbViewport
 10
1.485E+002
 20
1.05E+002
 30
0.0
 40
2.1E+002
 41
2.1E+002
 68
1
 69
1
1001
ACAD
1000
MVIEW
1002
{
1070
16
1010
0.0
1020
0.0
1030
0.0
1010
0.0
1020
0.0
1030
1.0
1040
0.0
1040
2.1E+002
1040
8.1675E+001
1040
1.05E+002
1040
5.0E+001
1040
0.0
1040
0.0
1070
0
1070
1000
1070
1
1070
0
1070
0
1070
0
1070
0
1070
0
1040
0.0
1040
0.0
1040
0.0
1040
5.0E-001
1040
5.0E-001
1040
5.0E-001
1040
5.0E-001
1070
0
1002
{
1002
}
1002
}
  0
VIEWPORT
  5
3c6
100
AcDbEntity
 67
1
  8
Drafting_Hidden_Entities
100
AcDbViewport
 62
3
 10
1.485E+002
 20
1.05E+002
 30
0.0
 40
2.97E+002
 41
2.1E+002
 68
2
 69
2
1001
ACAD
1000
MVIEW
1002
{
1070
16
1010
0.0
1020
0.0
1030
0.0
1010
0.0
1020
0.0
1030
1.0
1040
0.0
1040
2.1E+002
1040
1.485E+002
1040
1.05E+002
1040
5.0E+001
1040
0.0
1040
0.0
1070
0
1070
1000
1070
1
1070
0
1070
0
1070
0
1070
0
1070
0
1040
0.0
1040
0.0
1040
0.0
1040
5.0E-001
1040
5.0E-001
1040
5.0E-001
1040
5.0E-001
1070
0
1002
{
1002
}
1002
}
  0
ENDSEC
  0
SECTION
  2
OBJECTS
  0
DICTIONARY
  5
3c7
100
AcDbDictionary
  3
ACAD_GROUP
350
3c8
  3
ACAD_MLINESTYLE
350
3c9
  0
DICTIONARY
  5
3c8
102
{ACAD_REACTORS
330
3c7
102
}
100
AcDbDictionary
  0
DICTIONARY
  5
3c9
102
{ACAD_REACTORS
330
3c7
102
}
100
AcDbDictionary
  3
STANDARD
350
3ca
  0
MLINESTYLE
  5
3ca
102
{ACAD_REACTORS
330
3c9
102
}
100
AcDbMlineStyle
  2
STANDARD
 70
0
  3

 62
256
 51
9.0E+001
 52
9.0E+001
 71
2
 49
5.0E-001
 62
256
  6
BYLAYER
 49
-5.0E-001
 62
256
  6
BYLAYER
  0
ENDSEC
  0
EOF
