  0
SECTION
  2
HEADER
  9
$ACADVER
  1
AC1015
  9
$ACADMAINTVER
 70
    20
  9
$DWGCODEPAGE
  3
ANSI_932
  9
$INSBASE
 10
0.0
 20
0.0
 30
0.0
  9
$EXTMIN
 10
3.832028825010183
 20
4.205567102652935
 30
-0.0000000349181948
  9
$EXTMAX
 10
466.8093572424176
 20
159.4671025821789
 30
0.0000000814935747
  9
$LIMMIN
 10
0.0
 20
0.0
  9
$LIMMAX
 10
420.0
 20
297.0
  9
$ORTHOMODE
 70
     1
  9
$REGENMODE
 70
     1
  9
$FILLMODE
 70
     1
  9
$QTEXTMODE
 70
     0
  9
$MIRRTEXT
 70
     0
  9
$LTSCALE
 40
1.0
  9
$ATTMODE
 70
     1
  9
$TEXTSIZE
 40
3.5
  9
$TRACEWID
 40
1.0
  9
$TEXTSTYLE
  7
BIGFONT
  9
$CLAYER
  8
1
  9
$CELTYPE
  6
BYLAYER
  9
$CECOLOR
 62
   256
  9
$CELTSCALE
 40
1.0
  9
$DISPSILH
 70
     0
  9
$DIMSCALE
 40
1.0
  9
$DIMASZ
 40
2.5
  9
$DIMEXO
 40
0.0625
  9
$DIMDLI
 40
0.38
  9
$DIMRND
 40
0.0
  9
$DIMDLE
 40
0.0
  9
$DIMEXE
 40
0.18
  9
$DIMTP
 40
0.0
  9
$DIMTM
 40
0.0
  9
$DIMTXT
 40
3.0
  9
$DIMCEN
 40
-1.0
  9
$DIMTSZ
 40
0.0
  9
$DIMTOL
 70
     0
  9
$DIMLIM
 70
     0
  9
$DIMTIH
 70
     0
  9
$DIMTOH
 70
     0
  9
$DIMSE1
 70
     0
  9
$DIMSE2
 70
     0
  9
$DIMTAD
 70
     1
  9
$DIMZIN
 70
    12
  9
$DIMBLK
  1

  9
$DIMASO
 70
     1
  9
$DIMSHO
 70
     1
  9
$DIMPOST
  1

  9
$DIMAPOST
  1

  9
$DIMALT
 70
     0
  9
$DIMALTD
 70
     2
  9
$DIMALTF
 40
25.4
  9
$DIMLFAC
 40
1.0
  9
$DIMTOFL
 70
     1
  9
$DIMTVP
 40
0.0
  9
$DIMTIX
 70
     0
  9
$DIMSOXD
 70
     0
  9
$DIMSAH
 70
     0
  9
$DIMBLK1
  1

  9
$DIMBLK2
  1

  9
$DIMSTYLE
  2
STANDARD
  9
$DIMCLRD
 70
     0
  9
$DIMCLRE
 70
     0
  9
$DIMCLRT
 70
     0
  9
$DIMTFAC
 40
1.0
  9
$DIMGAP
 40
1.0
  9
$DIMJUST
 70
     0
  9
$DIMSD1
 70
     0
  9
$DIMSD2
 70
     0
  9
$DIMTOLJ
 70
     1
  9
$DIMTZIN
 70
    12
  9
$DIMALTZ
 70
     0
  9
$DIMALTTZ
 70
     0
  9
$DIMUPT
 70
     0
  9
$DIMDEC
 70
     2
  9
$DIMTDEC
 70
     2
  9
$DIMALTU
 70
     2
  9
$DIMALTTD
 70
     2
  9
$DIMTXSTY
  7
BIGFONT
  9
$DIMAUNIT
 70
     0
  9
$DIMADEC
 70
     0
  9
$DIMALTRND
 40
0.0
  9
$DIMAZIN
 70
     0
  9
$DIMDSEP
 70
    46
  9
$DIMATFIT
 70
     3
  9
$DIMFRAC
 70
     0
  9
$DIMLDRBLK
  1

  9
$DIMLUNIT
 70
     2
  9
$DIMLWD
 70
    -2
  9
$DIMLWE
 70
    -2
  9
$DIMTMOVE
 70
     0
  9
$LUNITS
 70
     2
  9
$LUPREC
 70
     2
  9
$SKETCHINC
 40
1.0
  9
$FILLETRAD
 40
0.0
  9
$AUNITS
 70
     0
  9
$AUPREC
 70
     0
  9
$MENU
  1
acad
  9
$ELEVATION
 40
0.0
  9
$PELEVATION
 40
0.0
  9
$THICKNESS
 40
0.0
  9
$LIMCHECK
 70
     0
  9
$CHAMFERA
 40
0.25
  9
$CHAMFERB
 40
0.25
  9
$CHAMFERC
 40
0.0
  9
$CHAMFERD
 40
0.0
  9
$SKPOLY
 70
     0
  9
$TDCREATE
 40
2456939.429856644
  9
$TDUCREATE
 40
2456939.054856644
  9
$TDUPDATE
 40
2458145.510383588
  9
$TDUUPDATE
 40
2458145.135383588
  9
$TDINDWG
 40
0.1348815856
  9
$TDUSRTIMER
 40
0.1348754745
  9
$USRTIMER
 70
     1
  9
$ANGBASE
 50
0.0
  9
$ANGDIR
 70
     0
  9
$PDMODE
 70
     0
  9
$PDSIZE
 40
0.0
  9
$PLINEWID
 40
0.0
  9
$SPLFRAME
 70
     0
  9
$SPLINETYPE
 70
     6
  9
$SPLINESEGS
 70
     8
  9
$HANDSEED
  5
67322
  9
$SURFTAB1
 70
     6
  9
$SURFTAB2
 70
     6
  9
$SURFTYPE
 70
     6
  9
$SURFU
 70
     6
  9
$SURFV
 70
     6
  9
$UCSBASE
  2

  9
$UCSNAME
  2

  9
$UCSORG
 10
0.0
 20
0.0
 30
0.0
  9
$UCSXDIR
 10
1.0
 20
0.0
 30
0.0
  9
$UCSYDIR
 10
0.0
 20
1.0
 30
0.0
  9
$UCSORTHOREF
  2

  9
$UCSORTHOVIEW
 70
     0
  9
$UCSORGTOP
 10
0.0
 20
0.0
 30
0.0
  9
$UCSORGBOTTOM
 10
0.0
 20
0.0
 30
0.0
  9
$UCSORGLEFT
 10
0.0
 20
0.0
 30
0.0
  9
$UCSORGRIGHT
 10
0.0
 20
0.0
 30
0.0
  9
$UCSORGFRONT
 10
0.0
 20
0.0
 30
0.0
  9
$UCSORGBACK
 10
0.0
 20
0.0
 30
0.0
  9
$PUCSBASE
  2

  9
$PUCSNAME
  2

  9
$PUCSORG
 10
0.0
 20
0.0
 30
0.0
  9
$PUCSXDIR
 10
1.0
 20
0.0
 30
0.0
  9
$PUCSYDIR
 10
0.0
 20
1.0
 30
0.0
  9
$PUCSORTHOREF
  2

  9
$PUCSORTHOVIEW
 70
     0
  9
$PUCSORGTOP
 10
0.0
 20
0.0
 30
0.0
  9
$PUCSORGBOTTOM
 10
0.0
 20
0.0
 30
0.0
  9
$PUCSORGLEFT
 10
0.0
 20
0.0
 30
0.0
  9
$PUCSORGRIGHT
 10
0.0
 20
0.0
 30
0.0
  9
$PUCSORGFRONT
 10
0.0
 20
0.0
 30
0.0
  9
$PUCSORGBACK
 10
0.0
 20
0.0
 30
0.0
  9
$USERI1
 70
     0
  9
$USERI2
 70
     0
  9
$USERI3
 70
     0
  9
$USERI4
 70
     0
  9
$USERI5
 70
     0
  9
$USERR1
 40
0.0
  9
$USERR2
 40
0.0
  9
$USERR3
 40
0.0
  9
$USERR4
 40
0.0
  9
$USERR5
 40
0.0
  9
$WORLDVIEW
 70
     1
  9
$SHADEDGE
 70
     3
  9
$SHADEDIF
 70
    70
  9
$TILEMODE
 70
     1
  9
$MAXACTVP
 70
    16
  9
$PINSBASE
 10
0.0
 20
0.0
 30
0.0
  9
$PLIMCHECK
 70
     0
  9
$PEXTMIN
 10
1.000000000000000E+20
 20
1.000000000000000E+20
 30
1.000000000000000E+20
  9
$PEXTMAX
 10
-1.000000000000000E+20
 20
-1.000000000000000E+20
 30
-1.000000000000000E+20
  9
$PLIMMIN
 10
0.0
 20
0.0
  9
$PLIMMAX
 10
420.0
 20
297.0
  9
$UNITMODE
 70
     0
  9
$VISRETAIN
 70
     0
  9
$PLINEGEN
 70
     0
  9
$PSLTSCALE
 70
     1
  9
$TREEDEPTH
 70
  3020
  9
$CMLSTYLE
  2
STANDARD
  9
$CMLJUST
 70
     0
  9
$CMLSCALE
 40
1.0
  9
$PROXYGRAPHICS
 70
     1
  9
$MEASUREMENT
 70
     1
  9
$CELWEIGHT
370
    -1
  9
$ENDCAPS
280
     0
  9
$JOINSTYLE
280
     0
  9
$LWDISPLAY
290
     0
  9
$INSUNITS
 70
     0
  9
$HYPERLINKBASE
  1

  9
$STYLESHEET
  1
CANON00.CTB
  9
$XEDIT
290
     1
  9
$CEPSNTYPE
380
     0
  9
$PSTYLEMODE
290
     1
  9
$FINGERPRINTGUID
  2
{3EF4FBEF-4B77-44AA-BACC-5F49084CACFB}
  9
$VERSIONGUID
  2
{32261B89-DB4A-4F0E-B92C-23457ECF4493}
  9
$EXTNAMES
290
     1
  9
$PSVPSCALE
 40
0.0
  9
$OLESTARTUP
290
     0
  0
ENDSEC
  0
SECTION
  2
CLASSES
  0
CLASS
  1
DICTIONARYVAR
  2
AcDbDictionaryVar
  3
ObjectDBX Classes
 90
        0
280
     0
281
     0
  0
CLASS
  1
ACDBDICTIONARYWDFLT
  2
AcDbDictionaryWithDefault
  3
ObjectDBX Classes
 90
        0
280
     0
281
     0
  0
CLASS
  1
ACDBPLACEHOLDER
  2
AcDbPlaceHolder
  3
ObjectDBX Classes
 90
        0
280
     0
281
     0
  0
CLASS
  1
LAYOUT
  2
AcDbLayout
  3
ObjectDBX Classes
 90
        0
280
     0
281
     0
  0
CLASS
  1
MATERIAL
  2
AcDbMaterial
  3
ObjectDBX Classes
 90
     1153
280
     0
281
     0
  0
CLASS
  1
VISUALSTYLE
  2
AcDbVisualStyle
  3
ObjectDBX Classes
 90
     4095
280
     0
281
     0
  0
CLASS
  1
TABLESTYLE
  2
AcDbTableStyle
  3
ObjectDBX Classes
 90
     4095
280
     0
281
     0
  0
CLASS
  1
EXACXREFPANELOBJECT
  2
ExAcXREFPanelObject
  3
EXAC_ESW
 90
     1025
280
     1
281
     0
  0
CLASS
  1
NPOCOLLECTION
  2
AcDbImpNonPersistentObjectsCollection
  3
ObjectDBX Classes
 90
     1153
280
     1
281
     0
  0
CLASS
  1
SORTENTSTABLE
  2
AcDbSortentsTable
  3
ObjectDBX Classes
 90
        0
280
     0
281
     0
  0
CLASS
  1
SCALE
  2
AcDbScale
  3
ObjectDBX Classes
 90
     1153
280
     0
281
     0
  0
CLASS
  1
MLEADERSTYLE
  2
AcDbMLeaderStyle
  3
ACDB_MLEADERSTYLE_CLASS
 90
     4095
280
     0
281
     0
  0
CLASS
  1
CELLSTYLEMAP
  2
AcDbCellStyleMap
  3
ObjectDBX Classes
 90
     1152
280
     0
281
     0
  0
CLASS
  1
RASTERVARIABLES
  2
AcDbRasterVariables
  3
ISM
 90
        0
280
     0
281
     0
  0
CLASS
  1
IMAGEDEF
  2
AcDbRasterImageDef
  3
ISM
 90
        0
280
     0
281
     0
  0
CLASS
  1
IMAGE
  2
AcDbRasterImage
  3
ISM
 90
    34943
280
     0
281
     1
  0
CLASS
  1
IMAGEDEF_REACTOR
  2
AcDbRasterImageDefReactor
  3
ISM
 90
    32769
280
     0
281
     0
  0
CLASS
  1
ACDBSECTIONVIEWSTYLE
  2
AcDbSectionViewStyle
  3
ObjectDBX Classes
 90
     1025
280
     0
281
     0
  0
CLASS
  1
ACDBDETAILVIEWSTYLE
  2
AcDbDetailViewStyle
  3
ObjectDBX Classes
 90
     1025
280
     0
281
     0
  0
ENDSEC
  0
SECTION
  2
TABLES
  0
TABLE
  2
VPORT
  5
8
330
0
100
AcDbSymbolTable
 70
     1
  0
VPORT
  5
8F41
330
8
100
AcDbSymbolTableRecord
100
AcDbViewportTableRecord
  2
*Active
 70
     0
 10
0.0
 20
0.0
 11
1.0
 21
1.0
 12
235.3206930337139
 22
81.83633484241589
 13
0.0
 23
0.0
 14
1.0
 24
1.0
 15
10.0
 25
10.0
 16
0.0
 26
0.0
 36
1.0
 17
0.0
 27
0.0
 37
0.0
 40
231.0185802830151
 41
2.012080536912751
 42
50.0
 43
0.0
 44
0.0
 50
0.0
 51
0.0
 71
    16
 72
   100
 73
     1
 74
     0
 75
     0
 76
     0
 77
     0
 78
     0
281
     0
 65
     1
110
0.0
120
0.0
130
0.0
111
1.0
121
0.0
131
0.0
112
0.0
122
1.0
132
0.0
 79
     0
146
0.0
1001
ACAD_NAV_VCDISPLAY
1070
     3
  0
ENDTAB
  0
TABLE
  2
LTYPE
  5
5
330
0
100
AcDbSymbolTable
 70
     3
  0
LTYPE
  5
12
330
5
100
AcDbSymbolTableRecord
100
AcDbLinetypeTableRecord
  2
BYBLOCK
 70
     0
  3

 72
    65
 73
     0
 40
0.0
  0
LTYPE
  5
13
330
5
100
AcDbSymbolTableRecord
100
AcDbLinetypeTableRecord
  2
BYLAYER
 70
     0
  3

 72
    65
 73
     0
 40
0.0
  0
LTYPE
  5
14
330
5
100
AcDbSymbolTableRecord
100
AcDbLinetypeTableRecord
  2
CONTINUOUS
 70
     0
  3
Solid line
 72
    65
 73
     0
 40
0.0
  0
LTYPE
  5
C0D
330
5
100
AcDbSymbolTableRecord
100
AcDbLinetypeTableRecord
  2
CENTER2
 70
     0
  3
___ _ ___ _ ___ _ ___ _ ___ _ ___ _ ___ _ ___ _
 72
    65
 73
     4
 40
28.575
 49
19.05
 74
     0
 49
-3.174999999999998
 74
     0
 49
3.174999999999998
 74
     0
 49
-3.174999999999998
 74
     0
  0
LTYPE
  5
66C81
330
5
100
AcDbSymbolTableRecord
100
AcDbLinetypeTableRecord
  2
CENTER
 70
     0
  3
Center ____ _ ____ _ ____ _ ____ _ ____ _ ____
 72
    65
 73
     4
 40
10.16
 49
6.349999999999998
 74
     0
 49
-1.27
 74
     0
 49
1.27
 74
     0
 49
-1.27
 74
     0
  0
ENDTAB
  0
TABLE
  2
LAYER
  5
2
102
{ACAD_XDICTIONARY
360
A0A3
102
}
330
0
100
AcDbSymbolTable
 70
     6
  0
LAYER
  5
F
102
{ACAD_XDICTIONARY
360
9FD1
102
}
330
2
100
AcDbSymbolTableRecord
100
AcDbLayerTableRecord
  2
0
 70
     0
 62
     2
  6
CONTINUOUS
370
    -3
390
1C61
  0
LAYER
  5
30
330
2
100
AcDbSymbolTableRecord
100
AcDbLayerTableRecord
  2
DEFPOINTS
 70
     0
 62
     7
  6
CONTINUOUS
290
     0
370
    -3
390
1C61
  0
LAYER
  5
526
102
{ACAD_XDICTIONARY
360
9FD3
102
}
330
2
100
AcDbSymbolTableRecord
100
AcDbLayerTableRecord
  2
2
 70
     0
 62
     1
  6
CONTINUOUS
370
    -3
390
1C61
  0
LAYER
  5
138F
102
{ACAD_XDICTIONARY
360
9FD5
102
}
330
2
100
AcDbSymbolTableRecord
100
AcDbLayerTableRecord
  2
3
 70
     0
 62
     6
  6
CENTER2
370
    -3
390
1C61
  0
LAYER
  5
1390
102
{ACAD_XDICTIONARY
360
9FD7
102
}
330
2
100
AcDbSymbolTableRecord
100
AcDbLayerTableRecord
  2
1
 70
     0
 62
     7
  6
CONTINUOUS
370
    -3
390
1C61
  0
ENDTAB
  0
TABLE
  2
STYLE
  5
3
330
0
100
AcDbSymbolTable
 70
     2
  0
STYLE
  5
10
330
3
100
AcDbSymbolTableRecord
100
AcDbTextStyleTableRecord
  2
STANDARD
 70
     0
 40
0.0
 41
1.0
 50
0.0
 71
     0
 42
3.5
  3
ISOCP.SHX
  4
extfont.shx
  0
STYLE
  5
52A
330
3
100
AcDbSymbolTableRecord
100
AcDbTextStyleTableRecord
  2
BIGFONT
 70
     0
 40
0.0
 41
1.0
 50
0.0
 71
     0
 42
3.5
  3
txt
  4
bigfont
  0
ENDTAB
  0
TABLE
  2
VIEW
  5
6
330
0
100
AcDbSymbolTable
 70
     0
  0
ENDTAB
  0
TABLE
  2
UCS
  5
7
330
0
100
AcDbSymbolTable
 70
     0
  0
ENDTAB
  0
TABLE
  2
APPID
  5
9
330
0
100
AcDbSymbolTable
 70
     9
  0
APPID
  5
11
330
9
100
AcDbSymbolTableRecord
100
AcDbRegAppTableRecord
  2
ACAD
 70
     0
  0
APPID
  5
323
330
9
100
AcDbSymbolTableRecord
100
AcDbRegAppTableRecord
  2
CONTENTTABDATA
 70
     0
  0
APPID
  5
324
330
9
100
AcDbSymbolTableRecord
100
AcDbRegAppTableRecord
  2
CONTENTCURRENTTAB
 70
     0
  0
APPID
  5
9A86
330
9
100
AcDbSymbolTableRecord
100
AcDbRegAppTableRecord
  2
ACAD_EXEMPT_FROM_CAD_STANDARDS
 70
     0
  0
APPID
  5
9FCB
330
9
100
AcDbSymbolTableRecord
100
AcDbRegAppTableRecord
  2
ACAD_MLEADERVER
 70
     0
  0
APPID
  5
ABDB
330
9
100
AcDbSymbolTableRecord
100
AcDbRegAppTableRecord
  2
ACAD_PSEXT
 70
     0
  0
APPID
  5
D477
330
9
100
AcDbSymbolTableRecord
100
AcDbRegAppTableRecord
  2
GENIUS_GENODEF_13
 70
     0
  0
APPID
  5
D478
330
9
100
AcDbSymbolTableRecord
100
AcDbRegAppTableRecord
  2
GENIUS_GENOBJ-N-FIL_13
 70
     0
  0
APPID
  5
650B6
330
9
100
AcDbSymbolTableRecord
100
AcDbRegAppTableRecord
  2
ACAD_NAV_VCDISPLAY
 70
     0
  0
ENDTAB
  0
TABLE
  2
DIMSTYLE
  5
A
330
0
100
AcDbSymbolTable
 70
     1
100
AcDbDimStyleTable
 71
     1
340
117
  0
DIMSTYLE
105
117
102
{ACAD_REACTORS
330
66E3A
330
66E3B
330
66E3C
330
66E3D
330
67180
102
}
330
A
100
AcDbSymbolTableRecord
100
AcDbDimStyleTableRecord
  2
STANDARD
 70
     0
 41
2.5
 73
     0
 74
     0
 77
     1
 78
    12
140
3.0
141
-1.0
147
1.0
172
     1
271
     2
272
     2
284
    12
340
52A
  0
ENDTAB
  0
TABLE
  2
BLOCK_RECORD
  5
1
330
0
100
AcDbSymbolTable
 70
    30
  0
BLOCK_RECORD
  5
18
102
{ACAD_XDICTIONARY
360
9ACC
102
}
330
1
100
AcDbSymbolTableRecord
100
AcDbBlockTableRecord
  2
*MODEL_SPACE
340
1C64
  0
BLOCK_RECORD
  5
15
330
1
100
AcDbSymbolTableRecord
100
AcDbBlockTableRecord
  2
*PAPER_SPACE
340
1C65
  0
BLOCK_RECORD
  5
66E52
330
1
100
AcDbSymbolTableRecord
100
AcDbBlockTableRecord
  2
*D22
340
0
  0
BLOCK_RECORD
  5
66E60
330
1
100
AcDbSymbolTableRecord
100
AcDbBlockTableRecord
  2
*D23
340
0
  0
BLOCK_RECORD
  5
66E6E
330
1
100
AcDbSymbolTableRecord
100
AcDbBlockTableRecord
  2
*D24
340
0
  0
BLOCK_RECORD
  5
66E7C
330
1
100
AcDbSymbolTableRecord
100
AcDbBlockTableRecord
  2
*D25
340
0
  0
BLOCK_RECORD
  5
67272
330
1
100
AcDbSymbolTableRecord
100
AcDbBlockTableRecord
  2
*D29
340
0
  0
ENDTAB
  0
ENDSEC
  0
SECTION
  2
BLOCKS
  0
BLOCK
  5
44
330
18
100
AcDbEntity
  8
0
100
AcDbBlockBegin
  2
*MODEL_SPACE
 70
     2
 10
0.0
 20
0.0
 30
0.0
  3
*MODEL_SPACE
  1

  0
ENDBLK
  5
45
330
18
100
AcDbEntity
  8
0
100
AcDbBlockEnd
  0
BLOCK
  5
42
330
15
100
AcDbEntity
 67
     1
  8
0
100
AcDbBlockBegin
  2
*PAPER_SPACE
 70
     0
 10
0.0
 20
0.0
 30
0.0
  3
*PAPER_SPACE
  1

  0
ENDBLK
  5
43
330
15
100
AcDbEntity
 67
     1
  8
0
100
AcDbBlockEnd
  0
BLOCK
  5
66E53
330
66E52
100
AcDbEntity
  8
0
100
AcDbBlockBegin
  2
*D22
 70
     1
 10
0.0
 20
0.0
 30
0.0
  3
*D22
  1

  0
LINE
  5
66F37
330
66E52
100
AcDbEntity
  8
2
 62
     0
370
    -2
100
AcDbLine
 10
22.5
 20
50.0
 30
0.0
 11
13.24999999999999
 21
50.0
 31
0.0
  0
LINE
  5
66F38
330
66E52
100
AcDbEntity
  8
2
 62
     0
370
    -2
100
AcDbLine
 10
22.5
 20
45.49999999999999
 30
0.0
 11
13.24999999999999
 21
45.49999999999999
 31
0.0
  0
LINE
  5
66F39
330
66E52
100
AcDbEntity
  8
2
 62
     0
370
    -2
100
AcDbLine
 10
13.5
 20
52.5
 30
0.0
 11
13.5
 21
55.0
 31
0.0
  0
LINE
  5
66F3A
330
66E52
100
AcDbEntity
  8
2
 62
     0
370
    -2
100
AcDbLine
 10
13.49999999999999
 20
43.0
 30
0.0
 11
13.49999999999999
 21
40.49999999999999
 31
0.0
  0
MTEXT
  5
66F3B
330
66E52
100
AcDbEntity
  8
2
 62
     0
100
AcDbMText
 10
11.27031796520713
 20
55.44840018357354
 30
0.0
 40
3.0
 41
0.0
 71
     5
 72
     1
  1
\A1;4.5
  7
BIGFONT
 11
0.0000000000000001
 21
1.0
 31
0.0
 73
     1
 44
1.0
1001
ACAD
1000
MTEXTBEGIN
1070
    73
1070
     1
1070
    44
1040
1.0
1070
    74
1070
     0
1000
MTEXTEND
  0
LINE
  5
66F3C
330
66E52
100
AcDbEntity
  8
2
 62
     0
370
    -2
100
AcDbLine
 10
13.49999999999999
 20
50.0
 30
0.0
 11
13.49999999999999
 21
45.49999999999999
 31
0.0
  0
SOLID
  5
66F3D
330
66E52
100
AcDbEntity
  8
2
 62
     0
100
AcDbTrace
 10
13.08333333333333
 20
52.5
 30
0.0
 11
13.91666666666666
 21
52.5
 31
0.0
 12
13.49999999999999
 22
50.0
 32
0.0
 13
13.49999999999999
 23
50.0
 33
0.0
  0
SOLID
  5
66F3E
330
66E52
100
AcDbEntity
  8
2
 62
     0
100
AcDbTrace
 10
13.08333333333333
 20
43.0
 30
0.0
 11
13.91666666666666
 21
43.0
 31
0.0
 12
13.49999999999999
 22
45.49999999999999
 32
0.0
 13
13.49999999999999
 23
45.49999999999999
 33
0.0
  0
POINT
  5
66F3F
330
66E52
100
AcDbEntity
  8
DEFPOINTS
 62
     0
100
AcDbPoint
 10
22.5
 20
50.0
 30
0.0
  0
POINT
  5
66F40
330
66E52
100
AcDbEntity
  8
DEFPOINTS
 62
     0
100
AcDbPoint
 10
22.5
 20
45.49999999999999
 30
0.0
  0
POINT
  5
66F41
330
66E52
100
AcDbEntity
  8
DEFPOINTS
 62
     0
100
AcDbPoint
 10
13.49999999999999
 20
45.49999999999999
 30
0.0
  0
ENDBLK
  5
66E54
330
66E52
100
AcDbEntity
  8
0
100
AcDbBlockEnd
  0
BLOCK
  5
66E61
330
66E60
100
AcDbEntity
  8
0
100
AcDbBlockBegin
  2
*D23
 70
     1
 10
0.0
 20
0.0
 30
0.0
  3
*D23
  1

  0
LINE
  5
66F42
330
66E60
100
AcDbEntity
  8
2
 62
     0
370
    -2
100
AcDbLine
 10
22.5
 20
45.49999999999999
 30
0.0
 11
13.25
 21
45.49999999999999
 31
0.0
  0
LINE
  5
66F43
330
66E60
100
AcDbEntity
  8
2
 62
     0
370
    -2
100
AcDbLine
 10
22.5
 20
41.0
 30
0.0
 11
13.24999999999999
 21
41.0
 31
0.0
  0
LINE
  5
66F44
330
66E60
100
AcDbEntity
  8
2
 62
     0
370
    -2
100
AcDbLine
 10
13.5
 20
48.0
 30
0.0
 11
13.5
 21
50.5
 31
0.0
  0
LINE
  5
66F45
330
66E60
100
AcDbEntity
  8
2
 62
     0
370
    -2
100
AcDbLine
 10
13.49999999999999
 20
38.50000000000001
 30
0.0
 11
13.49999999999999
 21
36.00000000000001
 31
0.0
  0
LINE
  5
66F46
330
66E60
100
AcDbEntity
  8
2
 62
     0
370
    -2
100
AcDbLine
 10
13.5
 20
45.49999999999999
 30
0.0
 11
13.49999999999999
 21
41.0
 31
0.0
  0
SOLID
  5
66F47
330
66E60
100
AcDbEntity
  8
2
 62
     0
100
AcDbTrace
 10
13.08333333333333
 20
48.0
 30
0.0
 11
13.91666666666666
 21
48.0
 31
0.0
 12
13.5
 22
45.49999999999999
 32
0.0
 13
13.5
 23
45.49999999999999
 33
0.0
  0
SOLID
  5
66F48
330
66E60
100
AcDbEntity
  8
2
 62
     0
100
AcDbTrace
 10
13.08333333333333
 20
38.50000000000001
 30
0.0
 11
13.91666666666666
 21
38.50000000000001
 31
0.0
 12
13.49999999999999
 22
41.0
 32
0.0
 13
13.49999999999999
 23
41.0
 33
0.0
  0
MTEXT
  5
66F49
330
66E60
100
AcDbEntity
  8
2
 62
     0
100
AcDbMText
 10
11.36999999999999
 20
43.25000000000001
 30
0.0
 40
3.0
 41
0.0
 71
     5
 72
     1
  1
\A1;4.5
  7
BIGFONT
 11
0.0000000000000001
 21
1.0
 31
0.0
 73
     1
 44
1.0
1001
ACAD
1000
MTEXTBEGIN
1070
    73
1070
     1
1070
    44
1040
1.0
1070
    74
1070
     0
1000
MTEXTEND
  0
POINT
  5
66F4A
330
66E60
100
AcDbEntity
  8
DEFPOINTS
 62
     0
100
AcDbPoint
 10
22.5
 20
45.49999999999999
 30
0.0
  0
POINT
  5
66F4B
330
66E60
100
AcDbEntity
  8
DEFPOINTS
 62
     0
100
AcDbPoint
 10
22.5
 20
41.0
 30
0.0
  0
POINT
  5
66F4C
330
66E60
100
AcDbEntity
  8
DEFPOINTS
 62
     0
100
AcDbPoint
 10
13.49999999999999
 20
41.0
 30
0.0
  0
ENDBLK
  5
66E62
330
66E60
100
AcDbEntity
  8
0
100
AcDbBlockEnd
  0
BLOCK
  5
66E6F
330
66E6E
100
AcDbEntity
  8
0
100
AcDbBlockBegin
  2
*D24
 70
     1
 10
0.0
 20
0.0
 30
0.0
  3
*D24
  1

  0
LINE
  5
66F4D
330
66E6E
100
AcDbEntity
  8
2
 62
     0
370
    -2
100
AcDbLine
 10
25.0
 20
41.0
 30
0.0
 11
25.0
 21
29.09999999999991
 31
0.0
  0
LINE
  5
66F4E
330
66E6E
100
AcDbEntity
  8
2
 62
     0
370
    -2
100
AcDbLine
 10
23.5
 20
41.10000000000035
 30
0.0
 11
23.5
 21
29.09999999999991
 31
0.0
  0
LINE
  5
66F4F
330
66E6E
100
AcDbEntity
  8
2
 62
     0
370
    -2
100
AcDbLine
 10
27.5
 20
29.34999999999991
 30
0.0
 11
30.0
 21
29.34999999999991
 31
0.0
  0
LINE
  5
66F50
330
66E6E
100
AcDbEntity
  8
2
 62
     0
370
    -2
100
AcDbLine
 10
21.0
 20
29.34999999999991
 30
0.0
 11
18.49999999999999
 21
29.34999999999991
 31
0.0
  0
MTEXT
  5
66F51
330
66E6E
100
AcDbEntity
  8
2
 62
     0
100
AcDbMText
 10
17.64513756135238
 20
31.48000000000002
 30
0.0
 40
3.0
 41
0.0
 71
     5
 72
     1
  1
\A1;1.5
  7
BIGFONT
 73
     1
 44
1.0
1001
ACAD
1000
MTEXTBEGIN
1070
    73
1070
     1
1070
    44
1040
1.0
1070
    74
1070
     0
1000
MTEXTEND
  0
LINE
  5
66F52
330
66E6E
100
AcDbEntity
  8
2
 62
     0
370
    -2
100
AcDbLine
 10
25.0
 20
29.34999999999991
 30
0.0
 11
23.5
 21
29.34999999999991
 31
0.0
  0
SOLID
  5
66F53
330
66E6E
100
AcDbEntity
  8
2
 62
     0
100
AcDbTrace
 10
27.5
 20
29.76666666666658
 30
0.0
 11
27.5
 21
28.93333333333324
 31
0.0
 12
25.0
 22
29.34999999999991
 32
0.0
 13
25.0
 23
29.34999999999991
 33
0.0
  0
SOLID
  5
66F54
330
66E6E
100
AcDbEntity
  8
2
 62
     0
100
AcDbTrace
 10
21.0
 20
29.76666666666658
 30
0.0
 11
21.0
 21
28.93333333333324
 31
0.0
 12
23.5
 22
29.34999999999991
 32
0.0
 13
23.5
 23
29.34999999999991
 33
0.0
  0
POINT
  5
66F55
330
66E6E
100
AcDbEntity
  8
DEFPOINTS
 62
     0
100
AcDbPoint
 10
25.0
 20
41.0
 30
0.0
  0
POINT
  5
66F56
330
66E6E
100
AcDbEntity
  8
DEFPOINTS
 62
     0
100
AcDbPoint
 10
23.5
 20
41.10000000000035
 30
0.0
  0
POINT
  5
66F57
330
66E6E
100
AcDbEntity
  8
DEFPOINTS
 62
     0
100
AcDbPoint
 10
23.5
 20
29.34999999999991
 30
0.0
  0
ENDBLK
  5
66E70
330
66E6E
100
AcDbEntity
  8
0
100
AcDbBlockEnd
  0
BLOCK
  5
66E7D
330
66E7C
100
AcDbEntity
  8
0
100
AcDbBlockBegin
  2
*D25
 70
     1
 10
0.0
 20
0.0
 30
0.0
  3
*D25
  1

  0
LINE
  5
66F58
330
66E7C
100
AcDbEntity
  8
2
 62
     0
370
    -2
100
AcDbLine
 10
27.0
 20
41.10000000000035
 30
0.0
 11
27.0
 21
22.09999999999991
 31
0.0
  0
LINE
  5
66F59
330
66E7C
100
AcDbEntity
  8
2
 62
     0
370
    -2
100
AcDbLine
 10
23.5
 20
41.10000000000035
 30
0.0
 11
23.5
 21
22.09999999999991
 31
0.0
  0
LINE
  5
66F5A
330
66E7C
100
AcDbEntity
  8
2
 62
     0
370
    -2
100
AcDbLine
 10
29.5
 20
22.34999999999991
 30
0.0
 11
32.0
 21
22.34999999999991
 31
0.0
  0
LINE
  5
66F5B
330
66E7C
100
AcDbEntity
  8
2
 62
     0
370
    -2
100
AcDbLine
 10
21.0
 20
22.34999999999991
 30
0.0
 11
18.49999999999999
 21
22.34999999999991
 31
0.0
  0
MTEXT
  5
66F5C
330
66E7C
100
AcDbEntity
  8
2
 62
     0
100
AcDbMText
 10
17.11944263308941
 20
24.48000000000002
 30
0.0
 40
3.0
 41
0.0
 71
     5
 72
     1
  1
\A1;3.5
  7
BIGFONT
 73
     1
 44
1.0
1001
ACAD
1000
MTEXTBEGIN
1070
    73
1070
     1
1070
    44
1040
1.0
1070
    74
1070
     0
1000
MTEXTEND
  0
LINE
  5
66F5D
330
66E7C
100
AcDbEntity
  8
2
 62
     0
370
    -2
100
AcDbLine
 10
27.0
 20
22.34999999999991
 30
0.0
 11
23.5
 21
22.34999999999991
 31
0.0
  0
SOLID
  5
66F5E
330
66E7C
100
AcDbEntity
  8
2
 62
     0
100
AcDbTrace
 10
29.5
 20
22.76666666666658
 30
0.0
 11
29.5
 21
21.93333333333324
 31
0.0
 12
27.0
 22
22.34999999999991
 32
0.0
 13
27.0
 23
22.34999999999991
 33
0.0
  0
SOLID
  5
66F5F
330
66E7C
100
AcDbEntity
  8
2
 62
     0
100
AcDbTrace
 10
21.0
 20
22.76666666666658
 30
0.0
 11
21.0
 21
21.93333333333324
 31
0.0
 12
23.5
 22
22.34999999999991
 32
0.0
 13
23.5
 23
22.34999999999991
 33
0.0
  0
POINT
  5
66F60
330
66E7C
100
AcDbEntity
  8
DEFPOINTS
 62
     0
100
AcDbPoint
 10
27.0
 20
41.10000000000035
 30
0.0
  0
POINT
  5
66F61
330
66E7C
100
AcDbEntity
  8
DEFPOINTS
 62
     0
100
AcDbPoint
 10
23.5
 20
41.10000000000035
 30
0.0
  0
POINT
  5
66F62
330
66E7C
100
AcDbEntity
  8
DEFPOINTS
 62
     0
100
AcDbPoint
 10
23.5
 20
22.34999999999991
 30
0.0
  0
ENDBLK
  5
66E7E
330
66E7C
100
AcDbEntity
  8
0
100
AcDbBlockEnd
  0
BLOCK
  5
67273
330
67272
100
AcDbEntity
  8
0
100
AcDbBlockBegin
  2
*D29
 70
     1
 10
0.0
 20
0.0
 30
0.0
  3
*D29
  1

  0
LINE
  5
67287
330
67272
100
AcDbEntity
  8
2
 62
     0
370
    -2
100
AcDbLine
 10
55.0
 20
50.64999999999963
 30
0.0
 11
55.0
 21
61.89999999999872
 31
0.0
  0
LINE
  5
67288
330
67272
100
AcDbEntity
  8
2
 62
     0
370
    -2
100
AcDbLine
 10
189.7000000000011
 20
50.64999999999919
 30
0.0
 11
189.7000000000011
 21
61.89999999999872
 31
0.0
  0
LINE
  5
67289
330
67272
100
AcDbEntity
  8
2
 62
     0
370
    -2
100
AcDbLine
 10
57.5
 20
61.64999999999872
 30
0.0
 11
187.2000000000012
 21
61.64999999999872
 31
0.0
  0
SOLID
  5
6728A
330
67272
100
AcDbEntity
  8
2
 62
     0
100
AcDbTrace
 10
57.5
 20
62.06666666666539
 30
0.0
 11
57.5
 21
61.23333333333206
 31
0.0
 12
55.0
 22
61.64999999999872
 32
0.0
 13
55.0
 23
61.64999999999872
 33
0.0
  0
SOLID
  5
6728B
330
67272
100
AcDbEntity
  8
2
 62
     0
100
AcDbTrace
 10
187.2000000000012
 20
62.06666666666539
 30
0.0
 11
187.2000000000012
 21
61.23333333333206
 31
0.0
 12
189.7000000000011
 22
61.64999999999872
 32
0.0
 13
189.7000000000011
 23
61.64999999999872
 33
0.0
  0
MTEXT
  5
6728C
330
67272
100
AcDbEntity
  8
2
 62
     0
100
AcDbMText
 10
122.3500000000006
 20
63.77999999999872
 30
0.0
 40
3.0
 41
0.0
 71
     5
 72
     1
  1
\A1;134.7
  7
BIGFONT
 73
     1
 44
1.0
1001
ACAD
1000
MTEXTBEGIN
1070
    73
1070
     1
1070
    44
1040
1.0
1070
    74
1070
     0
1000
MTEXTEND
  0
POINT
  5
6728D
330
67272
100
AcDbEntity
  8
DEFPOINTS
 62
     0
100
AcDbPoint
 10
55.0
 20
50.64999999999963
 30
0.0
  0
POINT
  5
6728E
330
67272
100
AcDbEntity
  8
DEFPOINTS
 62
     0
100
AcDbPoint
 10
189.7000000000011
 20
50.64999999999919
 30
0.0
  0
POINT
  5
6728F
330
67272
100
AcDbEntity
  8
DEFPOINTS
 62
     0
100
AcDbPoint
 10
189.7000000000011
 20
61.64999999999872
 30
0.0
  0
ENDBLK
  5
67274
330
67272
100
AcDbEntity
  8
0
100
AcDbBlockEnd
  0
ENDSEC
  0
SECTION
  2
ENTITIES
  0
TEXT
  5
FDF
330
18
100
AcDbEntity
  8
2
100
AcDbText
 10
61.80397887142635
 20
115.9153310921788
 30
0.0
 40
3.5
  1

  7
BIGFONT
100
AcDbText
  0
TEXT
  5
FE2
330
18
100
AcDbEntity
  8
2
100
AcDbText
 10
203.8957585163355
 20
143.31043555714
 30
0.0
 40
3.5
  1

  7
BIGFONT
100
AcDbText
  0
TEXT
  5
218A
330
18
100
AcDbEntity
  8
2
  6
Continuous
 48
3.0
100
AcDbText
 10
345.2872429042694
 20
59.92647845586116
 30
0.0
 40
3.5
  1

 50
359.780436223055
 41
0.6085702442471829
  7
BIGFONT
 72
     5
 11
360.1971044114504
 21
59.8693419344833
 31
0.0
100
AcDbText
  0
TEXT
  5
64F70
330
18
100
AcDbEntity
  8
2
100
AcDbText
 10
4.875711999706311
 20
4.219029092204436
 30
0.0
 40
2.5
  1
DATE2020.5.1
  7
BIGFONT
100
AcDbText
  0
TEXT
  5
64F71
330
18
100
AcDbEntity
  8
2
100
AcDbText
 10
3.839086593823136
 20
86.87888226875331
 30
0.0
 40
4.0
  1

  7
BIGFONT
100
AcDbText
  0
MTEXT
  5
6694B
330
18
100
AcDbEntity
  8
2
100
AcDbMText
 10
207.1165090450959
 20
159.4490876095779
 30
0.0
 40
2.5
 41
272.6499999999997
 71
     1
 72
     1
  3
※ご使用前に必ずお読みください。ダウンロードされる際は「図面データご使用上の注意」に同意いただいたものとさせていただきますのであらかじめご了承ください。\P\P(1)^I図形データの内容は、予告なく変更することがあります。\P\P(2)^Iすべての図形データは、データ量を削減するため簡略化しています。\P\P(3)^I図形データから得られる寸法は、表記寸法以外は参考程度に扱ってください。干渉チェックなどに使用される場合は、弊社までご相談下さい。\P\P(4)^I図形データはツバキ山久チエイン株式会社が著
  1
作権を有します。第三者への貸与、譲渡はご遠慮ください。\P\P(5)^I図形データご使用中のトラブルやその欠陥による損害、図形データの編集・加工によって生ずる結果に対して、弊社は一切責任を負うことはできませんので、あらかじめご了承ください。\P\P(6)^I図面データは、DXFにてご提供いたします。\P\P(7)^I  本デ-タは、実寸法を基にしておりカタログ記載の呼称幅と異なる場合があります。
  7
BIGFONT
 73
     1
 44
1.0
1001
ACAD
1000
MTEXTBEGIN
1070
    73
1070
     1
1070
    44
1040
1.0
1070
    74
1070
     0
1000
MTEXTEND
  0
LINE
  5
66E20
330
18
100
AcDbEntity
  8
3
  6
CENTER2
100
AcDbLine
 10
25.0
 20
38.72124924220225
 30
0.0
 11
25.0
 21
52.63491028660336
 31
0.0
  0
LINE
  5
66E21
330
18
100
AcDbEntity
  8
1
100
AcDbLine
 10
26.00000004749745
 20
47.54999994710124
 30
0.0
 11
26.50000001303852
 21
46.95412323288656
 31
0.0
  0
ARC
  5
66E22
330
18
100
AcDbEntity
  8
1
100
AcDbCircle
 10
26.5
 20
47.45412320370268
 30
0.0
 40
0.5
100
AcDbArc
 50
270.0
 51
0.0
  0
LINE
  5
66E23
330
18
100
AcDbEntity
  8
1
100
AcDbLine
 10
27.0000000949949
 20
49.90000014603174
 30
0.0
 11
27.0
 21
45.60000000000036
 31
0.0
  0
ARC
  5
66E24
330
18
100
AcDbEntity
  8
1
100
AcDbCircle
 10
25.25
 20
49.89999999999962
 30
0.0
 40
1.75
100
AcDbArc
 50
0.0
 51
210.3899424493178
  0
LINE
  5
66E25
330
18
100
AcDbEntity
  8
1
100
AcDbLine
 10
26.00000004749745
 20
48.55773660764135
 30
0.0
 11
26.00000004749745
 21
47.54999994710124
 31
0.0
  0
LINE
  5
66E26
330
18
100
AcDbEntity
  8
1
100
AcDbLine
 10
24.07592660747468
 20
47.54999994710124
 30
0.0
 11
26.00000004749745
 21
47.54999994710124
 31
0.0
  0
ARC
  5
66E27
330
18
100
AcDbEntity
  8
1
100
AcDbCircle
 10
21.58393944403542
 20
47.75
 30
0.0
 40
2.499999999999981
100
AcDbArc
 50
329.610057550682
 51
30.38994244931785
  0
ARC
  5
66E28
330
18
100
AcDbEntity
  8
1
100
AcDbCircle
 10
26.5
 20
47.45412320370268
 30
0.0
 40
0.5000000000019444
100
AcDbArc
 50
269.8529625884105
 51
270.0
  0
LINE
  5
66E29
330
18
100
AcDbEntity
  8
3
  6
CENTER2
100
AcDbLine
 10
22.5
 20
50.0
 30
0.0
 11
28.0
 21
50.0
 31
0.0
  0
ARC
  5
66E2A
330
18
100
AcDbEntity
  8
1
100
AcDbCircle
 10
25.25
 20
45.60000000000036
 30
0.0
 40
1.750000000000011
100
AcDbArc
 50
149.610057550682
 51
183.2758289598028
  0
ARC
  5
66E2B
330
18
100
AcDbEntity
  8
1
100
AcDbCircle
 10
25.25
 20
45.60000000000036
 30
0.0
 40
1.750000000000011
100
AcDbArc
 50
356.7241710401972
 51
0.0
  0
LINE
  5
66E2C
330
18
100
AcDbEntity
  8
1
100
AcDbLine
 10
26.00000004749745
 20
43.04999994710124
 30
0.0
 11
26.50000001303852
 21
42.45412323288656
 31
0.0
  0
ARC
  5
66E2D
330
18
100
AcDbEntity
  8
1
100
AcDbCircle
 10
26.5
 20
42.95412320370268
 30
0.0
 40
0.5
100
AcDbArc
 50
270.0
 51
0.0
  0
LINE
  5
66E2E
330
18
100
AcDbEntity
  8
1
100
AcDbLine
 10
27.0000000949949
 20
45.40000014603174
 30
0.0
 11
27.0
 21
41.10000000000035
 31
0.0
  0
ARC
  5
66E2F
330
18
100
AcDbEntity
  8
1
100
AcDbCircle
 10
25.25
 20
45.39999999999962
 30
0.0
 40
1.75
100
AcDbArc
 50
0.0
 51
210.3899424493178
  0
LINE
  5
66E30
330
18
100
AcDbEntity
  8
1
100
AcDbLine
 10
26.00000004749745
 20
44.05773660764134
 30
0.0
 11
26.00000004749745
 21
43.04999994710124
 31
0.0
  0
LINE
  5
66E31
330
18
100
AcDbEntity
  8
1
100
AcDbLine
 10
24.07592660747468
 20
43.04999994710124
 30
0.0
 11
26.00000004749745
 21
43.04999994710124
 31
0.0
  0
ARC
  5
66E32
330
18
100
AcDbEntity
  8
1
100
AcDbCircle
 10
21.58393944403542
 20
43.25
 30
0.0
 40
2.499999999999981
100
AcDbArc
 50
329.610057550682
 51
30.38994244931785
  0
ARC
  5
66E33
330
18
100
AcDbEntity
  8
1
100
AcDbCircle
 10
26.5
 20
42.95412320370268
 30
0.0
 40
0.5000000000019444
100
AcDbArc
 50
269.8529625884105
 51
270.0
  0
LINE
  5
66E34
330
18
100
AcDbEntity
  8
3
  6
CENTER2
100
AcDbLine
 10
22.5
 20
45.49999999999999
 30
0.0
 11
28.0
 21
45.49999999999999
 31
0.0
  0
CIRCLE
  5
66E35
330
18
100
AcDbEntity
  8
1
100
AcDbCircle
 10
25.0
 20
41.10000000000035
 30
0.0
 40
0.75
  0
ARC
  5
66E36
330
18
100
AcDbEntity
  8
1
100
AcDbCircle
 10
25.25
 20
41.10000000000035
 30
0.0
 40
1.750000000000011
100
AcDbArc
 50
149.610057550682
 51
0.0
  0
LINE
  5
66E37
330
18
100
AcDbEntity
  8
3
  6
CENTER2
100
AcDbLine
 10
22.5
 20
41.0
 30
0.0
 11
28.0
 21
41.0
 31
0.0
  0
LWPOLYLINE
  5
66E38
330
18
100
AcDbEntity
  8
1
100
AcDbPolyline
 90
        6
 70
     1
 43
0.0
 10
25.45260481162495
 20
46.15842611064453
 10
25.66649554498599
 20
45.74392395745871
 42
-0.2427991804677252
 10
25.66649554498599
 20
45.05607604254145
 10
25.45260481162495
 20
44.64157388935563
 42
-0.7862544828734497
 10
24.6971405209656
 20
44.82499999999982
 10
24.6971405209656
 20
45.97500000000036
 42
-0.78625448287345
  0
LWPOLYLINE
  5
66E39
330
18
100
AcDbEntity
  8
1
100
AcDbPolyline
 90
        6
 70
     0
 43
0.0
 10
26.00000004749745
 20
44.05773660764134
 10
25.23902020679497
 20
43.93625360493023
 42
-0.461377650946555
 10
24.1971405209656
 20
44.82499999999982
 10
24.1971405209656
 20
45.97500000000036
 42
-0.4653358533160997
 10
25.25059204827221
 20
46.8618216442819
 10
26.47474487312138
 20
46.64999988526142
  0
DIMENSION
  5
66E3A
330
18
100
AcDbEntity
  8
2
100
AcDbDimension
  2
*D22
 10
13.49999999999999
 20
45.49999999999999
 30
0.0
 11
11.27031796520713
 21
55.44840018357354
 31
0.0
 70
   160
 71
     5
 42
4.5
 53
90.0
  3
STANDARD
100
AcDbAlignedDimension
 13
22.5
 23
50.0
 33
0.0
 14
22.5
 24
45.49999999999999
 34
0.0
 50
90.0
100
AcDbRotatedDimension
1001
ACAD
1000
DSTYLE
1002
{
1070
    41
1040
2.5
1070
    42
1040
0.0
1070
    43
1040
3.75
1070
    44
1040
0.25
1070
    73
1070
     0
1070
    77
1070
     1
1070
    78
1070
     8
1070
   140
1040
3.0
1070
   141
1040
0.0
1070
   143
1040
0.0394
1070
   146
1040
0.6666666666666666
1070
   147
1040
0.63
1070
   172
1070
     1
1070
   174
1070
     1
1070
   271
1070
     6
1070
   272
1070
     6
1070
   279
1070
     2
1070
   284
1070
     8
1070
   285
1070
     8
1070
   286
1070
     8
1070
   340
1005
52A
1002
}
  0
DIMENSION
  5
66E3B
330
18
100
AcDbEntity
  8
2
100
AcDbDimension
  2
*D23
 10
13.49999999999999
 20
41.0
 30
0.0
 11
11.36999999999999
 21
43.25000000000001
 31
0.0
 70
    32
 71
     5
 42
4.5
  3
STANDARD
100
AcDbAlignedDimension
 13
22.5
 23
45.49999999999999
 33
0.0
 14
22.5
 24
41.0
 34
0.0
 50
90.0
100
AcDbRotatedDimension
1001
ACAD
1000
DSTYLE
1002
{
1070
    41
1040
2.5
1070
    42
1040
0.0
1070
    43
1040
3.75
1070
    44
1040
0.25
1070
    73
1070
     0
1070
    77
1070
     1
1070
    78
1070
     8
1070
   140
1040
3.0
1070
   141
1040
0.0
1070
   143
1040
0.0394
1070
   146
1040
0.6666666666666666
1070
   147
1040
0.63
1070
   172
1070
     1
1070
   174
1070
     1
1070
   271
1070
     6
1070
   272
1070
     6
1070
   279
1070
     2
1070
   284
1070
     8
1070
   285
1070
     8
1070
   286
1070
     8
1070
   340
1005
52A
1002
}
  0
DIMENSION
  5
66E3C
330
18
100
AcDbEntity
  8
2
100
AcDbDimension
  2
*D24
 10
23.5
 20
29.34999999999991
 30
0.0
 11
17.64513756135238
 21
31.48000000000002
 31
0.0
 70
   160
 71
     5
 42
1.5
  3
STANDARD
100
AcDbAlignedDimension
 13
25.0
 23
41.0
 33
0.0
 14
23.5
 24
41.10000000000035
 34
0.0
100
AcDbRotatedDimension
1001
ACAD
1000
DSTYLE
1002
{
1070
    41
1040
2.5
1070
    42
1040
0.0
1070
    43
1040
3.75
1070
    44
1040
0.25
1070
    73
1070
     0
1070
    77
1070
     1
1070
    78
1070
     8
1070
   140
1040
3.0
1070
   141
1040
0.0
1070
   143
1040
0.0394
1070
   146
1040
0.6666666666666666
1070
   147
1040
0.63
1070
   172
1070
     1
1070
   174
1070
     1
1070
   271
1070
     6
1070
   272
1070
     6
1070
   279
1070
     2
1070
   284
1070
     8
1070
   285
1070
     8
1070
   286
1070
     8
1070
   340
1005
52A
1002
}
  0
DIMENSION
  5
66E3D
330
18
100
AcDbEntity
  8
2
100
AcDbDimension
  2
*D25
 10
23.5
 20
22.34999999999991
 30
0.0
 11
17.11944263308941
 21
24.48000000000002
 31
0.0
 70
   160
 71
     5
 42
3.5
  3
STANDARD
100
AcDbAlignedDimension
 13
27.0
 23
41.10000000000035
 33
0.0
 14
23.5
 24
41.10000000000035
 34
0.0
100
AcDbRotatedDimension
1001
ACAD
1000
DSTYLE
1002
{
1070
    41
1040
2.5
1070
    42
1040
0.0
1070
    43
1040
3.75
1070
    44
1040
0.25
1070
    73
1070
     0
1070
    77
1070
     1
1070
    78
1070
     8
1070
   140
1040
3.0
1070
   141
1040
0.0
1070
   143
1040
0.0394
1070
   146
1040
0.6666666666666666
1070
   147
1040
0.63
1070
   172
1070
     1
1070
   174
1070
     1
1070
   271
1070
     6
1070
   272
1070
     6
1070
   279
1070
     2
1070
   284
1070
     8
1070
   285
1070
     8
1070
   286
1070
     8
1070
   340
1005
52A
1002
}
  0
LINE
  5
66E3E
330
18
100
AcDbEntity
  8
2
100
AcDbLine
 10
19.25544737006748
 20
29.34999999999991
 30
0.0
 11
13.70303074122148
 21
29.34999999999991
 31
0.0
  0
LINE
  5
66E3F
330
18
100
AcDbEntity
  8
2
100
AcDbLine
 10
18.49999999999999
 20
22.34999999999991
 30
0.0
 11
13.64029060817756
 21
22.34999999999991
 31
0.0
  0
LINE
  5
66E40
330
18
100
AcDbEntity
  8
2
100
AcDbLine
 10
13.49999999999999
 20
55.0
 30
0.0
 11
13.49999999999999
 21
59.10755432183487
 31
0.0
  0
LINE
  5
66E41
330
18
100
AcDbEntity
  8
1
100
AcDbLine
 10
26.47474487312138
 20
51.14999988526142
 30
0.0
 11
25.0
 21
51.14999988526142
 31
0.0
  0
ARC
  5
66E42
330
18
100
AcDbEntity
  8
1
100
AcDbCircle
 10
25.0
 20
49.89999999999962
 30
0.0
 40
1.250000000000029
100
AcDbArc
 50
90.0
 51
265.0000000000264
  0
LINE
  5
66E43
330
18
100
AcDbEntity
  8
1
100
AcDbLine
 10
24.89105531858513
 20
48.65475667119063
 30
0.0
 11
26.00000004749745
 21
48.55773660764135
 31
0.0
  0
CIRCLE
  5
66E44
330
18
100
AcDbEntity
  8
1
100
AcDbCircle
 10
25.0
 20
49.89999999999962
 30
0.0
 40
0.75
  0
ARC
  5
66E45
330
18
100
AcDbEntity
  8
1
100
AcDbCircle
 10
26.5
 20
47.45412320370268
 30
0.0
 40
0.5000000000019444
100
AcDbArc
 50
269.8529625884105
 51
270.0
  0
LINE
  5
6715E
330
18
100
AcDbEntity
  8
3
  6
CENTER
100
AcDbLine
 10
53.00000000000046
 20
50.0
 30
0.0
 11
191.7000000000012
 21
50.0
 31
0.0
  0
LINE
  5
6715F
330
18
100
AcDbEntity
  8
3
  6
CENTER
100
AcDbLine
 10
53.00000000000046
 20
45.49999999999911
 30
0.0
 11
191.7000000000012
 21
45.49999999999999
 31
0.0
  0
LINE
  5
67160
330
18
100
AcDbEntity
  8
3
  6
CENTER
100
AcDbLine
 10
53.00000000000046
 20
45.49999999999911
 30
0.0
 11
191.7000000000012
 21
45.49999999999818
 31
0.0
  0
LINE
  5
67161
330
18
100
AcDbEntity
  8
3
  6
CENTER
100
AcDbLine
 10
53.00000000000046
 20
40.99999999999864
 30
0.0
 11
191.7000000000012
 21
40.99999999999864
 31
0.0
  0
LWPOLYLINE
  5
67162
330
18
100
AcDbEntity
  8
1
100
AcDbPolyline
 90
        8
 70
     0
 43
0.0
 10
141.5162795753949
 20
46.93352388096672
 42
0.1075074123048084
 10
141.4357181553218
 20
46.73682408883224
 10
141.034085604901
 20
44.45905270746242
 42
-0.363970234266178
 10
140.5416817283949
 20
44.04587679629595
 10
134.1583182716044
 20
44.04587679629595
 42
-0.3639702342661782
 10
133.6659143950987
 20
44.45905270746242
 10
133.2642818446775
 20
46.73682408883224
 42
0.1075074121871525
 10
133.1837204247363
 20
46.93352388077483
 42
0.1075074121871525
  0
LWPOLYLINE
  5
67163
330
18
100
AcDbEntity
  8
1
100
AcDbPolyline
 90
        4
 70
     0
 43
0.0
 10
131.8499999999994
 20
46.95412320370179
 10
131.849999999999
 20
46.64999999999872
 10
127.8499999999994
 20
46.64999999999919
 10
127.8499999999999
 20
46.95412320370179
  0
LWPOLYLINE
  5
67164
330
18
100
AcDbEntity
  8
1
100
AcDbPolyline
 90
        8
 70
     0
 43
0.0
 10
126.5162795769056
 20
46.93352388316134
 42
0.1075074136524214
 10
126.4357181553218
 20
46.73682408883224
 10
126.034085604901
 20
44.45905270746242
 42
-0.3639702342661782
 10
125.5416817283944
 20
44.04587679629595
 10
119.1583182716044
 20
44.04587679629639
 42
-0.3639702342661779
 10
118.6659143950987
 20
44.4590527074629
 10
118.2642818446779
 20
46.73682408883268
 42
0.1075074106018822
 10
118.1837204265143
 20
46.93352387819368
 42
0.1075074106018822
  0
LWPOLYLINE
  5
67165
330
18
100
AcDbEntity
  8
1
100
AcDbPolyline
 90
        4
 70
     0
 43
0.0
 10
116.8499999999999
 20
46.95412320370223
 10
116.8499999999999
 20
46.64999999999919
 10
112.8499999999999
 20
46.64999999999963
 10
112.8499999999999
 20
46.95412320370223
  0
LWPOLYLINE
  5
67166
330
18
100
AcDbEntity
  8
1
100
AcDbPolyline
 90
        8
 70
     0
 43
0.0
 10
111.5162795734763
 20
46.93352387818005
 42
0.1075074105935241
 10
111.4357181553223
 20
46.73682408883268
 10
111.034085604901
 20
44.4590527074629
 42
-0.363970234266178
 10
110.5416817283953
 20
44.04587679629639
 10
104.1583182716053
 20
44.04587679629639
 42
-0.3639702342661781
 10
103.6659143950987
 20
44.45905270746242
 10
103.2642818446779
 20
46.73682408883224
 42
0.1075074124160796
 10
103.1837204244802
 20
46.93352388114773
 42
0.1075074124160796
  0
LWPOLYLINE
  5
67167
330
18
100
AcDbEntity
  8
1
100
AcDbPolyline
 90
        4
 70
     0
 43
0.0
 10
101.8499999999999
 20
46.95412320370223
 10
101.8500000000003
 20
46.64999999999919
 10
97.84999999999993
 20
46.64999999999872
 10
97.84999999999993
 20
46.95412320370179
  0
LWPOLYLINE
  5
67168
330
18
100
AcDbEntity
  8
1
100
AcDbPolyline
 90
        8
 70
     0
 43
0.0
 10
96.51627957631172
 20
46.93352388229824
 42
0.1075074131224278
 10
96.43571815532231
 20
46.73682408883224
 10
96.03408560490109
 20
44.45905270746242
 42
-0.363970234266178
 10
95.54168172839537
 20
44.04587679629595
 10
89.1583182716049
 20
44.04587679629595
 42
-0.3639702342661779
 10
88.66591439509873
 20
44.45905270746242
 10
88.26428184467793
 20
46.73682408883224
 42
0.1075074116230644
 10
88.1837204253693
 20
46.93352387985624
 42
0.1075074116230644
  0
LWPOLYLINE
  5
67169
330
18
100
AcDbEntity
  8
1
100
AcDbPolyline
 90
        4
 70
     0
 43
0.0
 10
86.84999999999991
 20
46.95412320370179
 10
86.84999999999991
 20
46.64999999999872
 10
82.84999999999991
 20
46.64999999999963
 10
82.84999999999991
 20
46.95412320370179
  0
LWPOLYLINE
  5
6716A
330
18
100
AcDbEntity
  8
1
100
AcDbPolyline
 90
        8
 70
     0
 43
0.0
 10
81.51627957523258
 20
46.93352388073118
 42
0.1075074121601828
 10
81.43571815532189
 20
46.73682408883224
 10
81.03408560490107
 20
44.45905270746242
 42
-0.363970234266178
 10
80.5416817283949
 20
44.04587679629639
 10
74.15831827160491
 20
44.04587679629639
 42
-0.3639702342661777
 10
73.66591439509875
 20
44.4590527074629
 10
73.26428184467795
 20
46.73682408883268
 42
0.1075074102489446
 10
73.18372042690999
 20
46.9335238776189
 42
0.1075074102489446
  0
LWPOLYLINE
  5
6716B
330
18
100
AcDbEntity
  8
1
100
AcDbPolyline
 90
        4
 70
     0
 43
0.0
 10
71.84999999999991
 20
46.95412320370223
 10
71.84999999999991
 20
46.64999999999963
 10
67.84999999999991
 20
46.64999999999919
 10
67.84999999999991
 20
46.95412320370223
  0
LWPOLYLINE
  5
6716C
330
18
100
AcDbEntity
  8
1
100
AcDbPolyline
 90
        8
 70
     0
 43
0.0
 10
66.51627957334358
 20
46.93352387798678
 42
0.1075074104748633
 10
66.43571815532187
 20
46.73682408883268
 10
66.03408560490106
 20
44.4590527074629
 42
-0.3639702342661777
 10
65.5416817283949
 20
44.04587679629639
 10
59.15831827160491
 20
44.04587679629639
 42
-0.3639702342661779
 10
58.66591439509875
 20
44.4590527074629
 10
58.26428184467795
 20
46.73682408883268
 42
0.1075074114605818
 10
58.18372042555121
 20
46.93352387959204
 42
0.1075074114605818
  0
LWPOLYLINE
  5
6716D
330
18
100
AcDbEntity
  8
1
100
AcDbPolyline
 90
       60
 70
     0
 43
0.0
 10
56.8499999999999
 20
46.95412320370223
 10
56.8499999999999
 20
46.64999999999919
 10
55.5
 20
46.64999999999919
 42
0.4142135623730951
 10
55.0
 20
46.14999999999919
 10
55.0
 20
42.95412320370179
 42
0.4142135623730951
 10
55.5
 20
42.45412320370178
 10
58.0416817283949
 20
42.45412320370178
 42
-0.3639702342661772
 10
58.53408560490106
 20
42.04094729253529
 10
58.93571815532232
 20
39.7631759111655
 42
0.3639702342661772
 10
59.42812203182848
 20
39.34999999999901
 10
65.27187796817134
 20
39.34999999999901
 42
0.3639702342661777
 10
65.76428184467795
 20
39.7631759111655
 10
66.16591439509875
 20
42.04094729253529
 42
-0.3639702342661776
 10
66.65831827160491
 20
42.45412320370178
 10
73.04168172839536
 20
42.45412320370178
 42
-0.3639702342661777
 10
73.53408560490152
 20
42.04094729253529
 10
73.93571815532276
 20
39.7631759111655
 42
0.3639702342661777
 10
74.42812203182848
 20
39.34999999999901
 10
80.27187796817134
 20
39.34999999999855
 42
0.363970234266178
 10
80.76428184467705
 20
39.76317591116504
 10
81.1659143950983
 20
42.04094729253484
 42
-0.3639702342661777
 10
81.65831827160445
 20
42.45412320370133
 10
88.0416817283949
 20
42.45412320370133
 42
-0.363970234266178
 10
88.53408560490107
 20
42.04094729253484
 10
88.93571815532189
 20
39.76317591116504
 42
0.3639702342661779
 10
89.42812203182848
 20
39.34999999999855
 10
95.27187796817136
 20
39.34999999999855
 42
0.363970234266178
 10
95.76428184467793
 20
39.76317591116504
 10
96.16591439509877
 20
42.04094729253484
 42
-0.363970234266178
 10
96.65831827160538
 20
42.45412320370133
 10
103.0416817283953
 20
42.45412320370133
 42
-0.3639702342661781
 10
103.534085604902
 20
42.04094729253484
 10
103.9357181553228
 20
39.76317591116504
 42
0.3639702342661781
 10
104.4281220318289
 20
39.34999999999855
 10
110.2718779681713
 20
39.34999999999901
 42
0.363970234266178
 10
110.7642818446775
 20
39.7631759111655
 10
111.1659143950987
 20
42.04094729253529
 42
-0.3639702342661777
 10
111.6583182716044
 20
42.45412320370178
 10
118.0416817283953
 20
42.45412320370178
 42
-0.363970234266178
 10
118.534085604901
 20
42.04094729253529
 10
118.9357181553223
 20
39.7631759111655
 42
0.3639702342661779
 10
119.4281220318285
 20
39.34999999999901
 10
125.2718779681709
 20
39.34999999999901
 42
0.3639702342661782
 10
125.764281844677
 20
39.76317591116504
 10
126.1659143950978
 20
42.04094729253484
 42
-0.363970234266178
 10
126.6583182716044
 20
42.45412320370133
 10
133.0416817283944
 20
42.45412320370133
 42
-0.3639702342661783
 10
133.534085604901
 20
42.04094729253484
 10
133.9357181553218
 20
39.76317591116504
 42
0.3639702342661781
 10
134.428122031828
 20
39.34999999999855
 10
140.2718779681713
 20
39.34999999999855
 42
0.363970234266178
 10
140.7642818446779
 20
39.76317591116504
 10
141.1659143950987
 20
42.04094729253484
 42
-0.363970234266178
 10
141.6583182716049
 20
42.45412320370133
 10
144.2000000000003
 20
42.45412320370133
 42
0.4142135623730951
 10
144.7000000000002
 20
42.95412320370131
 10
144.7000000000002
 20
46.14999999999872
 42
0.4142135623730951
 10
144.2000000000003
 20
46.64999999999872
 10
142.8499999999999
 20
46.64999999999872
 10
142.8499999999999
 20
46.95412320370179
  0
LWPOLYLINE
  5
6716E
330
18
100
AcDbEntity
  8
1
100
AcDbPolyline
 90
       16
 70
     1
 43
0.0
 10
144.0905114528959
 20
45.1001029608392
 10
142.5059995778961
 20
45.1001029608392
 10
142.1271867653963
 20
44.72131827333896
 10
142.8578405153962
 20
44.72131827333896
 10
142.394888952896
 20
44.25833858583883
 10
142.804310202896
 20
44.25833858583883
 10
142.3413305153958
 20
43.79534202333844
 10
142.7245927028956
 20
43.79534202333844
 10
142.261582077896
 20
43.33237639833896
 10
142.790067702896
 20
43.33237639833896
 10
143.2530473903962
 20
43.79534202333844
 10
142.876633640396
 20
43.79534202333844
 10
143.3396133278961
 20
44.25833858583883
 10
142.9301752028959
 20
44.25833858583883
 10
143.3931717653963
 20
44.72131827333896
 10
143.7117408278959
 20
44.72131827333896
  0
LWPOLYLINE
  5
6716F
330
18
100
AcDbEntity
  8
1
100
AcDbPolyline
 90
        8
 70
     0
 43
0.0
 10
65.68372042562896
 20
44.06647612051894
 42
0.1075074113914614
 10
65.76428184467795
 20
44.26317591116595
 10
66.16591439509875
 20
46.54094729253575
 42
-0.3639702342661776
 10
66.65831827160491
 20
46.95412320370223
 10
73.04168172839536
 20
46.95412320370223
 42
-0.3639702342661777
 10
73.53408560490152
 20
46.54094729253575
 10
73.93571815532276
 20
44.26317591116595
 42
0.1075074109263846
 10
74.01627957385016
 20
44.06647612127654
 42
0.1075074109263846
  0
LWPOLYLINE
  5
67170
330
18
100
AcDbEntity
  8
1
100
AcDbPolyline
 90
        8
 70
     0
 43
0.0
 10
80.68372042444662
 20
44.06647611880226
 42
0.1075074124455109
 10
80.76428184467705
 20
44.26317591116549
 10
81.1659143950983
 20
46.54094729253529
 42
-0.3639702342661777
 10
81.65831827160445
 20
46.95412320370179
 10
88.0416817283949
 20
46.95412320370179
 42
-0.363970234266178
 10
88.53408560490107
 20
46.54094729253529
 10
88.93571815532189
 20
44.26317591116549
 42
0.1075074118793769
 10
89.01627957491793
 20
44.06647611972403
 42
0.1075074118793769
  0
LWPOLYLINE
  5
67171
330
18
100
AcDbEntity
  8
1
100
AcDbPolyline
 90
       50
 70
     0
 43
0.0
 10
95.6837204265089
 20
44.06647612179723
 42
0.1075074106064515
 10
95.76428184467793
 20
44.26317591116549
 10
96.16591439509877
 20
46.54094729253529
 42
-0.363970234266178
 10
96.65831827160538
 20
46.95412320370179
 10
99.84999999999992
 20
46.95412320370179
 10
99.84999999999992
 20
51.14999999999919
 10
97.84999999999993
 20
51.14999999999919
 10
97.84999999999993
 20
51.64999999999919
 10
96.92812203182848
 20
51.64999999999919
 42
0.3639702342661779
 10
96.43571815532231
 20
51.23682408883269
 10
96.03408560490109
 20
48.9590527074629
 42
-0.363970234266178
 10
95.54168172839537
 20
48.5458767962964
 10
89.1583182716049
 20
48.5458767962964
 42
-0.3639702342661779
 10
88.66591439509873
 20
48.9590527074629
 10
88.26428184467793
 20
51.23682408883269
 42
0.363970234266178
 10
87.77187796817136
 20
51.64999999999919
 10
86.84999999999991
 20
51.64999999999919
 10
86.84999999999991
 20
51.14999999999919
 10
82.84999999999991
 20
51.15000000000009
 10
82.84999999999991
 20
51.64999999999919
 10
81.92812203182848
 20
51.64999999999919
 42
0.3639702342661777
 10
81.43571815532189
 20
51.23682408883269
 10
81.03408560490107
 20
48.9590527074629
 42
-0.363970234266178
 10
80.5416817283949
 20
48.54587679629687
 10
74.15831827160491
 20
48.54587679629687
 42
-0.3639702342661777
 10
73.66591439509875
 20
48.95905270746335
 10
73.26428184467795
 20
51.23682408883315
 42
0.3639702342661777
 10
72.77187796817134
 20
51.64999999999963
 10
71.84999999999991
 20
51.64999999999963
 10
71.84999999999991
 20
51.15000000000009
 10
67.84999999999991
 20
51.14999999999963
 10
67.84999999999991
 20
51.64999999999963
 10
66.92812203182848
 20
51.64999999999963
 42
0.3639702342661776
 10
66.43571815532187
 20
51.23682408883315
 10
66.03408560490106
 20
48.95905270746335
 42
-0.3639702342661777
 10
65.5416817283949
 20
48.54587679629687
 10
59.15831827160491
 20
48.54587679629687
 42
-0.3639702342661779
 10
58.66591439509875
 20
48.95905270746335
 10
58.26428184467795
 20
51.23682408883315
 42
0.363970234266178
 10
57.77187796817134
 20
51.64999999999963
 10
56.8499999999999
 20
51.64999999999963
 10
56.8499999999999
 20
51.14999999999963
 10
55.5
 20
51.14999999999963
 42
0.4142135623730951
 10
55.0
 20
50.64999999999963
 10
55.0
 20
47.45412320370223
 42
0.4142135623730951
 10
55.5
 20
46.95412320370223
 10
58.0416817283949
 20
46.95412320370223
 42
-0.3639702342661772
 10
58.53408560490106
 20
46.54094729253575
 10
58.93571815532232
 20
44.26317591116595
 42
0.1075074108847853
 10
59.01627957380333
 20
44.0664761213443
  0
LWPOLYLINE
  5
67172
330
18
100
AcDbEntity
  8
1
100
AcDbPolyline
 90
        8
 70
     0
 43
0.0
 10
186.5162795749388
 20
46.93352388030235
 42
0.107507411897855
 10
186.4357181553218
 20
46.73682408883087
 10
186.034085604901
 20
44.45905270746107
 42
-0.363970234266178
 10
185.5416817283944
 20
44.04587679629456
 10
179.1583182716044
 20
44.04587679629456
 42
-0.3639702342661782
 10
178.6659143950983
 20
44.45905270746107
 10
178.264281844677
 20
46.73682408883087
 42
0.1075074111818652
 10
178.183720425863
 20
46.93352387913638
 42
0.1075074111818652
  0
LWPOLYLINE
  5
67173
330
18
100
AcDbEntity
  8
1
100
AcDbPolyline
 90
        4
 70
     0
 43
0.0
 10
176.849999999999
 20
46.95412320370179
 10
176.849999999999
 20
46.64999999999737
 10
172.849999999999
 20
46.64999999999781
 10
172.849999999999
 20
46.95412320370179
  0
LWPOLYLINE
  5
67174
330
18
100
AcDbEntity
  8
1
100
AcDbPolyline
 90
        8
 70
     0
 43
0.0
 10
171.5162795745732
 20
46.93352387977212
 42
0.1075074115722306
 10
171.4357181553218
 20
46.73682408883087
 10
171.0340856049006
 20
44.45905270746107
 42
-0.3639702342661782
 10
170.5416817283944
 20
44.04587679629456
 10
164.1583182716044
 20
44.04587679629504
 42
-0.3639702342661779
 10
163.6659143950987
 20
44.45905270746153
 10
163.2642818446779
 20
46.73682408883133
 42
0.1075074113424217
 10
163.183720425684
 20
46.93352387939831
 42
0.1075074113424217
  0
LWPOLYLINE
  5
67175
330
18
100
AcDbEntity
  8
1
100
AcDbPolyline
 90
        4
 70
     0
 43
0.0
 10
161.8499999999999
 20
46.95412320370223
 10
161.8499999999999
 20
46.64999999999781
 10
157.8499999999999
 20
46.64999999999827
 10
157.8499999999999
 20
46.95412320370223
  0
LWPOLYLINE
  5
67176
330
18
100
AcDbEntity
  8
1
100
AcDbPolyline
 90
        8
 70
     0
 43
0.0
 10
156.5162795744068
 20
46.93352387953065
 42
0.1075074114235306
 10
156.4357181553218
 20
46.73682408883133
 10
156.034085604901
 20
44.45905270746153
 42
-0.363970234266178
 10
155.5416817283949
 20
44.04587679629504
 10
149.1583182716049
 20
44.04587679629504
 42
-0.3639702342661781
 10
148.6659143950987
 20
44.45905270746107
 10
148.2642818446779
 20
46.73682408883087
 42
0.1075074110193206
 10
148.1837204260459
 20
46.93352387887172
 42
0.1075074110193206
  0
LWPOLYLINE
  5
67177
330
18
100
AcDbEntity
  8
1
100
AcDbPolyline
 90
       34
 70
     0
 43
0.0
 10
146.8499999999999
 20
46.95412320370179
 10
146.8499999999999
 20
46.64999999999781
 10
144.8499999999999
 20
46.64999999999737
 10
144.8499999999999
 20
42.45412320369997
 10
148.0416817283953
 20
42.45412320369997
 42
-0.3639702342661781
 10
148.5340856049015
 20
42.04094729253347
 10
148.9357181553228
 20
39.76317591116368
 42
0.3639702342661781
 10
149.4281220318285
 20
39.34999999999719
 10
155.2718779681713
 20
39.34999999999764
 42
0.363970234266178
 10
155.764281844677
 20
39.76317591116414
 10
156.1659143950983
 20
42.04094729253394
 42
-0.3639702342661777
 10
156.6583182716044
 20
42.45412320370042
 10
163.0416817283949
 20
42.45412320370042
 42
-0.363970234266178
 10
163.534085604901
 20
42.04094729253394
 10
163.9357181553218
 20
39.76317591116414
 42
0.3639702342661779
 10
164.4281220318285
 20
39.34999999999764
 10
170.2718779681704
 20
39.34999999999764
 42
0.3639702342661782
 10
170.7642818446769
 20
39.76317591116368
 10
171.1659143950978
 20
42.04094729253347
 42
-0.363970234266178
 10
171.658318271604
 20
42.45412320369997
 10
178.0416817283944
 20
42.45412320369997
 42
-0.3639702342661783
 10
178.5340856049006
 20
42.04094729253347
 10
178.9357181553218
 20
39.76317591116368
 42
0.3639702342661781
 10
179.4281220318275
 20
39.34999999999719
 10
185.2718779681713
 20
39.34999999999719
 42
0.363970234266178
 10
185.7642818446775
 20
39.76317591116368
 10
186.1659143950987
 20
42.04094729253347
 42
-0.363970234266178
 10
186.6583182716044
 20
42.45412320369997
 10
189.2000000000003
 20
42.45412320369997
 42
0.4142135623730951
 10
189.7000000000002
 20
42.95412320369996
 10
189.7000000000002
 20
46.14999999999737
 42
0.4142135623730951
 10
189.2000000000003
 20
46.64999999999737
 10
187.8499999999994
 20
46.64999999999737
 10
187.8499999999999
 20
46.95412320370179
  0
LWPOLYLINE
  5
67178
330
18
100
AcDbEntity
  8
1
100
AcDbPolyline
 90
       16
 70
     1
 43
0.0
 10
189.0905114528955
 20
45.10010296083783
 10
187.5059995778961
 20
45.10010296083783
 10
187.1271867653959
 20
44.7213182733376
 10
187.8578405153957
 20
44.7213182733376
 10
187.394888952896
 20
44.25833858583747
 10
187.8043102028955
 20
44.25833858583747
 10
187.3413305153958
 20
43.79534202333707
 10
187.7245927028957
 20
43.79534202333707
 10
187.261582077896
 20
43.3323763983376
 10
187.7900677028961
 20
43.3323763983376
 10
188.2530473903957
 20
43.79534202333707
 10
187.8766336403955
 20
43.79534202333707
 10
188.339613327896
 20
44.25833858583747
 10
187.9301752028955
 20
44.25833858583747
 10
188.3931717653959
 20
44.7213182733376
 10
188.7117408278959
 20
44.7213182733376
  0
LWPOLYLINE
  5
67179
330
18
100
AcDbEntity
  8
1
100
AcDbPolyline
 90
       88
 70
     0
 43
0.0
 10
185.6837204247245
 20
44.06647611920379
 42
0.1075074121988626
 10
185.7642818446784
 20
44.26317591116549
 10
186.1659143950996
 20
46.54094729253529
 42
-0.363970234266178
 10
186.6583182716053
 20
46.95412320370179
 10
189.2000000000012
 20
46.95412320370179
 42
0.4142135623730951
 10
189.7000000000011
 20
47.45412320370179
 10
189.7000000000011
 20
50.64999999999919
 42
0.4142135623730951
 10
189.2000000000012
 20
51.14999999999919
 10
187.8500000000003
 20
51.14999999999919
 10
187.8500000000008
 20
51.64999999999919
 10
186.9281220318289
 20
51.64999999999919
 42
0.3639702342661779
 10
186.4357181553227
 20
51.23682408883269
 10
186.0340856049019
 20
48.9590527074629
 42
-0.363970234266178
 10
185.5416817283953
 20
48.5458767962964
 10
179.1583182716053
 20
48.5458767962964
 42
-0.3639702342661782
 10
178.6659143950991
 20
48.9590527074629
 10
178.2642818446779
 20
51.23682408883269
 42
0.3639702342661782
 10
177.7718779681722
 20
51.64999999999919
 10
176.8500000000003
 20
51.64999999999919
 10
176.8499999999999
 20
51.14999999999919
 10
172.8499999999999
 20
51.14999999999963
 10
172.8500000000003
 20
51.64999999999919
 10
171.9281220318285
 20
51.64999999999919
 42
0.363970234266178
 10
171.4357181553227
 20
51.23682408883269
 10
171.0340856049015
 20
48.9590527074629
 42
-0.3639702342661782
 10
170.5416817283953
 20
48.5458767962964
 10
164.1583182716053
 20
48.54587679629687
 42
-0.3639702342661779
 10
163.6659143950996
 20
48.95905270746335
 10
163.2642818446788
 20
51.23682408883315
 42
0.363970234266178
 10
162.7718779681722
 20
51.64999999999963
 10
161.8500000000008
 20
51.64999999999963
 10
161.8500000000008
 20
51.14999999999963
 10
157.8500000000008
 20
51.15000000000009
 10
157.8500000000008
 20
51.64999999999963
 10
156.9281220318294
 20
51.64999999999963
 42
0.3639702342661777
 10
156.4357181553227
 20
51.23682408883315
 10
156.0340856049019
 20
48.95905270746335
 42
-0.363970234266178
 10
155.5416817283958
 20
48.54587679629687
 10
149.1583182716058
 20
48.54587679629687
 42
-0.3639702342661781
 10
148.6659143950996
 20
48.9590527074629
 10
148.2642818446788
 20
51.23682408883269
 42
0.3639702342661535
 10
147.7718779681722
 20
51.64999999999919
 10
146.8500000000008
 20
51.64999999999919
 10
146.8500000000008
 20
51.14999999999963
 10
142.8500000000008
 20
51.14999999999919
 10
142.8500000000008
 20
51.64999999999919
 10
141.9281220318294
 20
51.64999999999919
 42
0.3639702342661779
 10
141.4357181553228
 20
51.23682408883269
 10
141.0340856049019
 20
48.9590527074629
 42
-0.363970234266178
 10
140.5416817283958
 20
48.5458767962964
 10
134.1583182716053
 20
48.5458767962964
 42
-0.3639702342661779
 10
133.6659143950992
 20
48.9590527074629
 10
133.2642818446784
 20
51.23682408883269
 42
0.363970234266178
 10
132.7718779681722
 20
51.64999999999919
 10
131.8500000000003
 20
51.64999999999919
 10
131.8500000000008
 20
51.14999999999919
 10
127.8500000000003
 20
51.15000000000009
 10
127.8500000000008
 20
51.64999999999919
 10
126.9281220318289
 20
51.64999999999919
 42
0.3639702342661777
 10
126.4357181553227
 20
51.23682408883269
 10
126.0340856049019
 20
48.9590527074629
 42
-0.363970234266178
 10
125.5416817283953
 20
48.54587679629687
 10
119.1583182716053
 20
48.54587679629687
 42
-0.3639702342661777
 10
118.6659143950992
 20
48.95905270746335
 10
118.2642818446784
 20
51.23682408883315
 42
0.3639702342661777
 10
117.7718779681722
 20
51.64999999999963
 10
116.8500000000008
 20
51.64999999999963
 10
116.8500000000008
 20
51.15000000000009
 10
112.8500000000008
 20
51.14999999999963
 10
112.8500000000008
 20
51.64999999999963
 10
111.9281220318289
 20
51.64999999999963
 42
0.3639702342661776
 10
111.4357181553228
 20
51.23682408883315
 10
111.0340856049019
 20
48.95905270746335
 42
-0.3639702342661777
 10
110.5416817283953
 20
48.54587679629687
 10
104.1583182716053
 20
48.54587679629687
 42
-0.3639702342661779
 10
103.6659143950992
 20
48.95905270746335
 10
103.2642818446784
 20
51.23682408883315
 42
0.363970234266178
 10
102.7718779681722
 20
51.64999999999963
 10
101.8500000000003
 20
51.64999999999963
 10
101.8500000000008
 20
51.14999999999963
 10
100.5000000000004
 20
51.14999999999963
 42
0.4142135623730951
 10
100.0000000000004
 20
50.64999999999963
 10
100.0000000000004
 20
47.45412320370223
 42
0.4142135623730951
 10
100.5000000000004
 20
46.95412320370223
 10
103.0416817283953
 20
46.95412320370223
 42
-0.3639702342661772
 10
103.534085604902
 20
46.54094729253575
 10
103.9357181553228
 20
44.26317591116595
 42
0.1075074117867033
 10
104.0162795748151
 20
44.06647611987547
 42
0.1075074117867033
  0
LWPOLYLINE
  5
6717A
330
18
100
AcDbEntity
  8
1
100
AcDbPolyline
 90
        8
 70
     0
 43
0.0
 10
110.6837204260332
 20
44.0664761211051
 42
0.1075074110315169
 10
110.7642818446784
 20
44.26317591116595
 10
111.1659143950996
 20
46.54094729253575
 42
-0.3639702342661776
 10
111.6583182716053
 20
46.95412320370223
 10
118.0416817283962
 20
46.95412320370223
 42
-0.3639702342661777
 10
118.5340856049019
 20
46.54094729253575
 10
118.9357181553232
 20
44.26317591116595
 42
0.1075074114756275
 10
119.0162795744668
 20
44.06647612038205
  0
LWPOLYLINE
  5
6717B
330
18
100
AcDbEntity
  8
1
100
AcDbPolyline
 90
        8
 70
     0
 43
0.0
 10
125.683720424689
 20
44.06647611915333
 42
0.1075074122298325
 10
125.7642818446779
 20
44.26317591116549
 10
126.1659143950987
 20
46.54094729253529
 42
-0.3639702342661777
 10
126.6583182716053
 20
46.95412320370179
 10
133.0416817283953
 20
46.95412320370179
 42
-0.363970234266178
 10
133.534085604902
 20
46.54094729253529
 10
133.9357181553227
 20
44.26317591116549
 42
0.1075074118154209
 10
134.016279574847
 20
44.06647611982817
  0
LWPOLYLINE
  5
6717C
330
18
100
AcDbEntity
  8
1
100
AcDbPolyline
 90
        8
 70
     0
 43
0.0
 10
140.6837204252583
 20
44.06647611998006
 42
0.1075074117222559
 10
140.7642818446788
 20
44.26317591116549
 10
141.1659143950996
 20
46.54094729253529
 42
-0.363970234266178
 10
141.6583182716058
 20
46.95412320370179
 10
148.0416817283962
 20
46.95412320370179
 42
-0.3639702342661781
 10
148.5340856049024
 20
46.54094729253529
 10
148.9357181553237
 20
44.26317591116549
 42
0.1075074123493406
 10
149.0162795754463
 20
44.06647611895868
  0
LWPOLYLINE
  5
6717D
330
18
100
AcDbEntity
  8
1
100
AcDbPolyline
 90
        8
 70
     0
 43
0.0
 10
155.6837204249364
 20
44.06647611951303
 42
0.1075074120091465
 10
155.7642818446779
 20
44.26317591116595
 10
156.1659143950992
 20
46.54094729253575
 42
-0.3639702342661777
 10
156.6583182716053
 20
46.95412320370223
 10
163.0416817283958
 20
46.95412320370223
 42
-0.363970234266178
 10
163.5340856049019
 20
46.54094729253575
 10
163.9357181553227
 20
44.26317591116595
 42
0.1075074110316974
 10
164.0162795739688
 20
44.0664761211051
  0
LWPOLYLINE
  5
6717E
330
18
100
AcDbEntity
  8
1
100
AcDbPolyline
 90
        8
 70
     0
 43
0.0
 10
170.683720424865
 20
44.06647611940889
 42
0.1075074120728933
 10
170.7642818446779
 20
44.26317591116549
 10
171.1659143950987
 20
46.54094729253529
 42
-0.363970234266178
 10
171.6583182716049
 20
46.95412320370179
 10
178.0416817283953
 20
46.95412320370179
 42
-0.3639702342661783
 10
178.5340856049015
 20
46.54094729253529
 10
178.9357181553228
 20
44.26317591116549
 42
0.1075074118536949
 10
179.0162795748896
 20
44.06647611976587
  0
LWPOLYLINE
  5
6717F
330
18
100
AcDbEntity
  8
1
100
AcDbPolyline
 90
       16
 70
     1
 43
0.0
 10
189.0905114528964
 20
49.60010296083965
 10
187.505999577897
 20
49.60010296083965
 10
187.1271867653968
 20
49.22131827333942
 10
187.8578405153966
 20
49.22131827333942
 10
187.3948889528969
 20
48.75833858583929
 10
187.8043102028964
 20
48.75833858583929
 10
187.3413305153967
 20
48.29534202333888
 10
187.7245927028966
 20
48.29534202333888
 10
187.2615820778969
 20
47.83237639833942
 10
187.790067702897
 20
47.83237639833942
 10
188.2530473903966
 20
48.29534202333888
 10
187.8766336403964
 20
48.29534202333888
 10
188.339613327897
 20
48.75833858583929
 10
187.9301752028964
 20
48.75833858583929
 10
188.3931717653968
 20
49.22131827333942
 10
188.7117408278968
 20
49.22131827333942
  0
DIMENSION
  5
67180
330
18
100
AcDbEntity
  8
2
100
AcDbDimension
  2
*D29
 10
189.7000000000011
 20
61.64999999999872
 30
0.0
 11
122.3500000000006
 21
63.77999999999872
 31
0.0
 70
    32
 71
     5
 42
134.7000000000011
  3
STANDARD
100
AcDbAlignedDimension
 13
55.0
 23
50.64999999999963
 33
0.0
 14
189.7000000000011
 24
50.64999999999919
 34
0.0
100
AcDbRotatedDimension
1001
ACAD
1000
DSTYLE
1002
{
1070
    41
1040
2.5
1070
    42
1040
0.0
1070
    43
1040
3.75
1070
    44
1040
0.25
1070
    73
1070
     0
1070
    77
1070
     1
1070
    78
1070
     8
1070
   140
1040
3.0
1070
   141
1040
0.0
1070
   143
1040
0.0394
1070
   146
1040
0.6666666666666666
1070
   147
1040
0.63
1070
   172
1070
     1
1070
   174
1070
     1
1070
   271
1070
     6
1070
   272
1070
     6
1070
   279
1070
     2
1070
   284
1070
     8
1070
   285
1070
     8
1070
   286
1070
     8
1070
   340
1005
52A
1002
}
  0
LINE
  5
67181
330
18
100
AcDbEntity
  8
1
100
AcDbLine
 10
55.00000000000046
 20
14.34999999999945
 30
0.0
 11
55.0
 21
11.09999993294423
 31
0.0
  0
LINE
  5
67182
330
18
100
AcDbEntity
  8
1
100
AcDbLine
 10
97.84999999999993
 20
11.09999993294423
 30
0.0
 11
101.8499999999999
 21
11.09999993294423
 31
0.0
  0
LINE
  5
67183
330
18
100
AcDbEntity
  8
1
100
AcDbLine
 10
101.8499999999999
 20
10.84999989196603
 30
0.0
 11
103.4499991446732
 21
10.84999989196603
 31
0.0
  0
LINE
  5
67184
330
18
100
AcDbEntity
  8
1
100
AcDbLine
 10
96.25000085532656
 20
10.84999989196603
 30
0.0
 11
97.84999999999993
 21
10.84999989196603
 31
0.0
  0
ELLIPSE
  5
67185
330
18
100
AcDbEntity
  8
1
100
AcDbEllipse
 10
103.7499997526406
 20
12.59999990500455
 30
0.0
 11
0.0
 21
1.75
 31
0.0
210
0.0
220
0.0
230
1.0
 40
0.1763269807084628
 41
2.611188098357385
 42
6.283185307179585
  0
ELLIPSE
  5
67186
330
18
100
AcDbEntity
  8
1
100
AcDbEllipse
 10
95.95000040829154
 20
12.59999990500455
 30
0.0
 11
0.0
 21
1.75
 31
0.0
210
0.0
220
0.0
230
1.0
 40
0.1763269807084628
 41
0.0
 42
3.671997208822218
  0
ELLIPSE
  5
67187
330
18
100
AcDbEntity
  8
1
100
AcDbEllipse
 10
103.7499997526406
 20
12.34999990500455
 30
0.0
 11
0.0
 21
0.75
 31
0.0
210
0.0
220
0.0
230
1.0
 40
0.1763269807084574
 41
0.0
 42
6.283185307179585
  0
ELLIPSE
  5
67188
330
18
100
AcDbEntity
  8
1
100
AcDbEllipse
 10
103.3708967441175
 20
8.933939349039974
 30
0.0
 11
0.0
 21
2.5
 31
0.0
210
0.0
220
0.0
230
1.0
 40
0.1763269807084669
 41
5.752780751947317
 42
6.203099727145999
  0
LINE
  5
67189
330
18
100
AcDbEntity
  8
1
100
AcDbLine
 10
103.4061617910861
 20
11.42592651247923
 30
0.0
 11
103.4061617910861
 21
13.349999952502
 31
0.0
  0
LINE
  5
6718A
330
18
100
AcDbEntity
  8
1
100
AcDbLine
 10
103.4061617910861
 20
13.349999952502
 30
0.0
 11
103.511231741309
 21
13.84999991804306
 31
0.0
  0
ELLIPSE
  5
6718B
330
18
100
AcDbEntity
  8
1
100
AcDbEllipse
 10
103.4230678062704
 20
13.84999990500455
 30
0.0
 11
0.0
 21
0.5
 31
0.0
210
0.0
220
0.0
230
1.0
 40
0.1763269807084669
 41
4.712388980384691
 42
6.283185307179585
  0
ELLIPSE
  5
6718C
330
18
100
AcDbEntity
  8
1
100
AcDbEllipse
 10
95.95000040829154
 20
12.34999990500455
 30
0.0
 11
0.0
 21
0.75
 31
0.0
210
0.0
220
0.0
230
1.0
 40
0.1763269807084763
 41
0.0
 42
6.283185307179585
  0
ELLIPSE
  5
6718D
330
18
100
AcDbEntity
  8
1
100
AcDbEllipse
 10
96.27693235466223
 20
13.84999990500455
 30
0.0
 11
0.0
 21
0.5
 31
0.0
210
0.0
220
0.0
230
1.0
 40
0.1763269807084669
 41
0.0
 42
1.570796326794896
  0
LINE
  5
6718E
330
18
100
AcDbEntity
  8
1
100
AcDbLine
 10
96.29383820891373
 20
13.349999952502
 30
0.0
 11
96.18876919001332
 21
13.84999991804306
 31
0.0
  0
LINE
  5
6718F
330
18
100
AcDbEntity
  8
1
100
AcDbLine
 10
96.29383820891373
 20
11.42592651247923
 30
0.0
 11
96.29383820891373
 21
13.349999952502
 31
0.0
  0
ELLIPSE
  5
67190
330
18
100
AcDbEntity
  8
1
100
AcDbEllipse
 10
96.32910341681508
 20
8.933939349039974
 30
0.0
 11
0.0
 21
2.5
 31
0.0
210
0.0
220
0.0
230
1.0
 40
0.1763269807084669
 41
0.0800855800336977
 42
0.5304045552323553
  0
LINE
  5
67191
330
18
100
AcDbEntity
  8
1
100
AcDbLine
 10
103.4061617910861
 20
11.42592651247923
 30
0.0
 11
101.8499999999999
 21
11.42592651247923
 31
0.0
  0
LINE
  5
67192
330
18
100
AcDbEntity
  8
1
100
AcDbLine
 10
97.84999999999993
 20
11.42592651247923
 30
0.0
 11
96.29383820891373
 21
11.42592651247923
 31
0.0
  0
LINE
  5
67193
330
18
100
AcDbEntity
  8
1
100
AcDbLine
 10
103.511231741309
 20
13.84999991804306
 30
0.0
 11
96.18876919001332
 21
13.84999991804306
 31
0.0
  0
LINE
  5
67194
330
18
100
AcDbEntity
  8
1
100
AcDbLine
 10
103.4061617910861
 20
13.349999952502
 30
0.0
 11
96.29383820891373
 21
13.349999952502
 31
0.0
  0
LINE
  5
67195
330
18
100
AcDbEntity
  8
1
100
AcDbLine
 10
101.8499999999999
 20
12.24105522358968
 30
0.0
 11
97.84999999999993
 21
12.24105522358968
 31
0.0
  0
ELLIPSE
  5
67196
330
18
100
AcDbEntity
  8
1
100
AcDbEllipse
 10
96.25000040829172
 20
12.59999990500455
 30
0.0
 11
0.0
 21
1.75
 31
0.0
210
0.0
220
0.0
230
1.0
 40
0.1763269807084628
 41
2.633959910779439
 42
3.141592653589792
  0
ELLIPSE
  5
67197
330
18
100
AcDbEntity
  8
1
100
AcDbEllipse
 10
103.4499997526404
 20
12.59999990500455
 30
0.0
 11
0.0
 21
1.75
 31
0.0
210
0.0
220
0.0
230
1.0
 40
0.1763269807084628
 41
3.141592653589792
 42
3.649225396400101
  0
LINE
  5
67198
330
18
100
AcDbEntity
  8
1
100
AcDbLine
 10
101.8499999999999
 20
13.349999952502
 30
0.0
 11
101.8499999999999
 21
10.84999989196603
 31
0.0
  0
LINE
  5
67199
330
18
100
AcDbEntity
  8
1
100
AcDbLine
 10
97.84999999999993
 20
10.84999989196603
 30
0.0
 11
97.84999999999993
 21
13.349999952502
 31
0.0
  0
LINE
  5
6719A
330
18
100
AcDbEntity
  8
1
100
AcDbLine
 10
112.8499999999999
 20
11.09999993294423
 30
0.0
 11
116.8499999999999
 21
11.09999993294423
 31
0.0
  0
LINE
  5
6719B
330
18
100
AcDbEntity
  8
1
100
AcDbLine
 10
116.8499999999999
 20
10.84999989196603
 30
0.0
 11
118.4499991446732
 21
10.84999989196603
 31
0.0
  0
LINE
  5
6719C
330
18
100
AcDbEntity
  8
1
100
AcDbLine
 10
111.2500008553265
 20
10.84999989196603
 30
0.0
 11
112.8499999999999
 21
10.84999989196603
 31
0.0
  0
ELLIPSE
  5
6719D
330
18
100
AcDbEntity
  8
1
100
AcDbEllipse
 10
118.7499997526406
 20
12.59999990500455
 30
0.0
 11
0.0
 21
1.75
 31
0.0
210
0.0
220
0.0
230
1.0
 40
0.1763269807084628
 41
2.611188098357385
 42
6.283185307179585
  0
ELLIPSE
  5
6719E
330
18
100
AcDbEntity
  8
1
100
AcDbEllipse
 10
110.9500004082915
 20
12.59999990500455
 30
0.0
 11
0.0
 21
1.75
 31
0.0
210
0.0
220
0.0
230
1.0
 40
0.1763269807084628
 41
0.0
 42
3.671997208822218
  0
ELLIPSE
  5
6719F
330
18
100
AcDbEntity
  8
1
100
AcDbEllipse
 10
118.7499997526406
 20
12.34999990500455
 30
0.0
 11
0.0
 21
0.75
 31
0.0
210
0.0
220
0.0
230
1.0
 40
0.1763269807084574
 41
0.0
 42
6.283185307179585
  0
ELLIPSE
  5
671A0
330
18
100
AcDbEntity
  8
1
100
AcDbEllipse
 10
118.3708967441175
 20
8.933939349039974
 30
0.0
 11
0.0
 21
2.5
 31
0.0
210
0.0
220
0.0
230
1.0
 40
0.1763269807084669
 41
5.752780751947317
 42
6.203099727145999
  0
LINE
  5
671A1
330
18
100
AcDbEntity
  8
1
100
AcDbLine
 10
118.4061617910861
 20
11.42592651247923
 30
0.0
 11
118.4061617910861
 21
13.349999952502
 31
0.0
  0
LINE
  5
671A2
330
18
100
AcDbEntity
  8
1
100
AcDbLine
 10
118.4061617910861
 20
13.349999952502
 30
0.0
 11
118.5112317413091
 21
13.84999991804306
 31
0.0
  0
ELLIPSE
  5
671A3
330
18
100
AcDbEntity
  8
1
100
AcDbEllipse
 10
118.4230678062704
 20
13.84999990500455
 30
0.0
 11
0.0
 21
0.5
 31
0.0
210
0.0
220
0.0
230
1.0
 40
0.1763269807084669
 41
4.712388980384691
 42
6.283185307179585
  0
ELLIPSE
  5
671A4
330
18
100
AcDbEntity
  8
1
100
AcDbEllipse
 10
110.9500004082915
 20
12.34999990500455
 30
0.0
 11
0.0
 21
0.75
 31
0.0
210
0.0
220
0.0
230
1.0
 40
0.1763269807084763
 41
0.0
 42
6.283185307179585
  0
ELLIPSE
  5
671A5
330
18
100
AcDbEntity
  8
1
100
AcDbEllipse
 10
111.2769323546622
 20
13.84999990500455
 30
0.0
 11
0.0
 21
0.5
 31
0.0
210
0.0
220
0.0
230
1.0
 40
0.1763269807084669
 41
0.0
 42
1.570796326794896
  0
LINE
  5
671A6
330
18
100
AcDbEntity
  8
1
100
AcDbLine
 10
111.2938382089137
 20
13.349999952502
 30
0.0
 11
111.1887691900133
 21
13.84999991804306
 31
0.0
  0
LINE
  5
671A7
330
18
100
AcDbEntity
  8
1
100
AcDbLine
 10
111.2938382089137
 20
11.42592651247923
 30
0.0
 11
111.2938382089137
 21
13.349999952502
 31
0.0
  0
ELLIPSE
  5
671A8
330
18
100
AcDbEntity
  8
1
100
AcDbEllipse
 10
111.3291034168151
 20
8.933939349039974
 30
0.0
 11
0.0
 21
2.5
 31
0.0
210
0.0
220
0.0
230
1.0
 40
0.1763269807084669
 41
0.0800855800336977
 42
0.5304045552323553
  0
LINE
  5
671A9
330
18
100
AcDbEntity
  8
1
100
AcDbLine
 10
118.4061617910861
 20
11.42592651247923
 30
0.0
 11
116.8499999999999
 21
11.42592651247923
 31
0.0
  0
LINE
  5
671AA
330
18
100
AcDbEntity
  8
1
100
AcDbLine
 10
112.8499999999999
 20
11.42592651247923
 30
0.0
 11
111.2938382089137
 21
11.42592651247923
 31
0.0
  0
LINE
  5
671AB
330
18
100
AcDbEntity
  8
1
100
AcDbLine
 10
118.5112317413091
 20
13.84999991804306
 30
0.0
 11
111.1887691900133
 21
13.84999991804306
 31
0.0
  0
LINE
  5
671AC
330
18
100
AcDbEntity
  8
1
100
AcDbLine
 10
118.4061617910861
 20
13.349999952502
 30
0.0
 11
111.2938382089137
 21
13.349999952502
 31
0.0
  0
LINE
  5
671AD
330
18
100
AcDbEntity
  8
1
100
AcDbLine
 10
116.8499999999999
 20
12.24105522358968
 30
0.0
 11
112.8499999999999
 21
12.24105522358968
 31
0.0
  0
ELLIPSE
  5
671AE
330
18
100
AcDbEntity
  8
1
100
AcDbEllipse
 10
111.2500004082917
 20
12.59999990500455
 30
0.0
 11
0.0
 21
1.75
 31
0.0
210
0.0
220
0.0
230
1.0
 40
0.1763269807084628
 41
2.633959910779439
 42
3.141592653589792
  0
ELLIPSE
  5
671AF
330
18
100
AcDbEntity
  8
1
100
AcDbEllipse
 10
118.4499997526404
 20
12.59999990500455
 30
0.0
 11
0.0
 21
1.75
 31
0.0
210
0.0
220
0.0
230
1.0
 40
0.1763269807084628
 41
3.141592653589792
 42
3.649225396400101
  0
LINE
  5
671B0
330
18
100
AcDbEntity
  8
1
100
AcDbLine
 10
116.8499999999999
 20
13.349999952502
 30
0.0
 11
116.8499999999999
 21
10.84999989196603
 31
0.0
  0
LINE
  5
671B1
330
18
100
AcDbEntity
  8
1
100
AcDbLine
 10
112.8499999999999
 20
10.84999989196603
 30
0.0
 11
112.8499999999999
 21
13.349999952502
 31
0.0
  0
LINE
  5
671B2
330
18
100
AcDbEntity
  8
1
100
AcDbLine
 10
127.8499999999999
 20
11.09999993294423
 30
0.0
 11
131.8499999999999
 21
11.09999993294423
 31
0.0
  0
LINE
  5
671B3
330
18
100
AcDbEntity
  8
1
100
AcDbLine
 10
131.8499999999999
 20
10.84999989196603
 30
0.0
 11
133.4499991446732
 21
10.84999989196603
 31
0.0
  0
LINE
  5
671B4
330
18
100
AcDbEntity
  8
1
100
AcDbLine
 10
126.2500008553265
 20
10.84999989196603
 30
0.0
 11
127.8499999999999
 21
10.84999989196603
 31
0.0
  0
ELLIPSE
  5
671B5
330
18
100
AcDbEntity
  8
1
100
AcDbEllipse
 10
133.7499997526406
 20
12.59999990500455
 30
0.0
 11
0.0
 21
1.75
 31
0.0
210
0.0
220
0.0
230
1.0
 40
0.1763269807084628
 41
2.611188098357385
 42
6.283185307179585
  0
ELLIPSE
  5
671B6
330
18
100
AcDbEntity
  8
1
100
AcDbEllipse
 10
125.9500004082915
 20
12.59999990500455
 30
0.0
 11
0.0
 21
1.75
 31
0.0
210
0.0
220
0.0
230
1.0
 40
0.1763269807084628
 41
0.0
 42
3.671997208822218
  0
ELLIPSE
  5
671B7
330
18
100
AcDbEntity
  8
1
100
AcDbEllipse
 10
133.7499997526406
 20
12.34999990500455
 30
0.0
 11
0.0
 21
0.75
 31
0.0
210
0.0
220
0.0
230
1.0
 40
0.1763269807084574
 41
0.0
 42
6.283185307179585
  0
ELLIPSE
  5
671B8
330
18
100
AcDbEntity
  8
1
100
AcDbEllipse
 10
133.3708967441175
 20
8.933939349039974
 30
0.0
 11
0.0
 21
2.5
 31
0.0
210
0.0
220
0.0
230
1.0
 40
0.1763269807084669
 41
5.752780751947317
 42
6.203099727145999
  0
LINE
  5
671B9
330
18
100
AcDbEntity
  8
1
100
AcDbLine
 10
133.4061617910861
 20
11.42592651247923
 30
0.0
 11
133.4061617910861
 21
13.349999952502
 31
0.0
  0
LINE
  5
671BA
330
18
100
AcDbEntity
  8
1
100
AcDbLine
 10
133.4061617910861
 20
13.349999952502
 30
0.0
 11
133.511231741309
 21
13.84999991804306
 31
0.0
  0
ELLIPSE
  5
671BB
330
18
100
AcDbEntity
  8
1
100
AcDbEllipse
 10
133.4230678062699
 20
13.84999990500455
 30
0.0
 11
0.0
 21
0.5
 31
0.0
210
0.0
220
0.0
230
1.0
 40
0.1763269807084669
 41
4.712388980384691
 42
6.283185307179585
  0
ELLIPSE
  5
671BC
330
18
100
AcDbEntity
  8
1
100
AcDbEllipse
 10
125.9500004082915
 20
12.34999990500455
 30
0.0
 11
0.0
 21
0.75
 31
0.0
210
0.0
220
0.0
230
1.0
 40
0.1763269807084763
 41
0.0
 42
6.283185307179585
  0
ELLIPSE
  5
671BD
330
18
100
AcDbEntity
  8
1
100
AcDbEllipse
 10
126.2769323546622
 20
13.84999990500455
 30
0.0
 11
0.0
 21
0.5
 31
0.0
210
0.0
220
0.0
230
1.0
 40
0.1763269807084669
 41
0.0
 42
1.570796326794896
  0
LINE
  5
671BE
330
18
100
AcDbEntity
  8
1
100
AcDbLine
 10
126.2938382089137
 20
13.349999952502
 30
0.0
 11
126.1887691900133
 21
13.84999991804306
 31
0.0
  0
LINE
  5
671BF
330
18
100
AcDbEntity
  8
1
100
AcDbLine
 10
126.2938382089137
 20
11.42592651247923
 30
0.0
 11
126.2938382089137
 21
13.349999952502
 31
0.0
  0
ELLIPSE
  5
671C0
330
18
100
AcDbEntity
  8
1
100
AcDbEllipse
 10
126.3291034168146
 20
8.933939349039974
 30
0.0
 11
0.0
 21
2.5
 31
0.0
210
0.0
220
0.0
230
1.0
 40
0.1763269807084669
 41
0.0800855800336977
 42
0.5304045552323553
  0
LINE
  5
671C1
330
18
100
AcDbEntity
  8
1
100
AcDbLine
 10
133.4061617910861
 20
11.42592651247923
 30
0.0
 11
131.8499999999999
 21
11.42592651247923
 31
0.0
  0
LINE
  5
671C2
330
18
100
AcDbEntity
  8
1
100
AcDbLine
 10
127.8499999999999
 20
11.42592651247923
 30
0.0
 11
126.2938382089137
 21
11.42592651247923
 31
0.0
  0
LINE
  5
671C3
330
18
100
AcDbEntity
  8
1
100
AcDbLine
 10
133.511231741309
 20
13.84999991804306
 30
0.0
 11
126.1887691900133
 21
13.84999991804306
 31
0.0
  0
LINE
  5
671C4
330
18
100
AcDbEntity
  8
1
100
AcDbLine
 10
133.4061617910861
 20
13.349999952502
 30
0.0
 11
126.2938382089137
 21
13.349999952502
 31
0.0
  0
LINE
  5
671C5
330
18
100
AcDbEntity
  8
1
100
AcDbLine
 10
131.8499999999999
 20
12.24105522358968
 30
0.0
 11
127.8499999999999
 21
12.24105522358968
 31
0.0
  0
ELLIPSE
  5
671C6
330
18
100
AcDbEntity
  8
1
100
AcDbEllipse
 10
126.2500004082917
 20
12.59999990500455
 30
0.0
 11
0.0
 21
1.75
 31
0.0
210
0.0
220
0.0
230
1.0
 40
0.1763269807084628
 41
2.633959910779439
 42
3.141592653589792
  0
ELLIPSE
  5
671C7
330
18
100
AcDbEntity
  8
1
100
AcDbEllipse
 10
133.4499997526404
 20
12.59999990500455
 30
0.0
 11
0.0
 21
1.75
 31
0.0
210
0.0
220
0.0
230
1.0
 40
0.1763269807084628
 41
3.141592653589792
 42
3.649225396400101
  0
LINE
  5
671C8
330
18
100
AcDbEntity
  8
1
100
AcDbLine
 10
131.8499999999999
 20
13.349999952502
 30
0.0
 11
131.8499999999999
 21
10.84999989196603
 31
0.0
  0
LINE
  5
671C9
330
18
100
AcDbEntity
  8
1
100
AcDbLine
 10
127.8499999999999
 20
10.84999989196603
 30
0.0
 11
127.8499999999999
 21
13.349999952502
 31
0.0
  0
LINE
  5
671CA
330
18
100
AcDbEntity
  8
1
100
AcDbLine
 10
142.849999999999
 20
11.09999993294423
 30
0.0
 11
144.7000000000002
 21
11.09999993294423
 31
0.0
  0
LINE
  5
671CB
330
18
100
AcDbEntity
  8
1
100
AcDbLine
 10
141.2500008553256
 20
10.84999989196603
 30
0.0
 11
142.849999999999
 21
10.84999989196603
 31
0.0
  0
ELLIPSE
  5
671CC
330
18
100
AcDbEntity
  8
1
100
AcDbEllipse
 10
140.9500004082906
 20
12.59999990500455
 30
0.0
 11
0.0
 21
1.75
 31
0.0
210
0.0
220
0.0
230
1.0
 40
0.1763269807084628
 41
0.0
 42
3.671997208822218
  0
ELLIPSE
  5
671CD
330
18
100
AcDbEntity
  8
1
100
AcDbEllipse
 10
140.9500004082906
 20
12.34999990500455
 30
0.0
 11
0.0
 21
0.75
 31
0.0
210
0.0
220
0.0
230
1.0
 40
0.1763269807084763
 41
0.0
 42
6.283185307179585
  0
ELLIPSE
  5
671CE
330
18
100
AcDbEntity
  8
1
100
AcDbEllipse
 10
141.2769323546613
 20
13.84999990500455
 30
0.0
 11
0.0
 21
0.5
 31
0.0
210
0.0
220
0.0
230
1.0
 40
0.1763269807084669
 41
0.0
 42
1.570796326794896
  0
LINE
  5
671CF
330
18
100
AcDbEntity
  8
1
100
AcDbLine
 10
141.2938382089128
 20
13.349999952502
 30
0.0
 11
141.1887691900124
 21
13.84999991804306
 31
0.0
  0
LINE
  5
671D0
330
18
100
AcDbEntity
  8
1
100
AcDbLine
 10
141.2938382089128
 20
11.42592651247923
 30
0.0
 11
141.2938382089128
 21
13.349999952502
 31
0.0
  0
ELLIPSE
  5
671D1
330
18
100
AcDbEntity
  8
1
100
AcDbEllipse
 10
141.3291034168141
 20
8.933939349039974
 30
0.0
 11
0.0
 21
2.5
 31
0.0
210
0.0
220
0.0
230
1.0
 40
0.1763269807084669
 41
0.0800855800336977
 42
0.5304045552323553
  0
LINE
  5
671D2
330
18
100
AcDbEntity
  8
1
100
AcDbLine
 10
141.2769319102158
 20
14.34999999999945
 30
0.0
 11
140.9500004336228
 21
14.34999999999945
 31
0.0
  0
LINE
  5
671D3
330
18
100
AcDbEntity
  8
1
100
AcDbLine
 10
142.849999999999
 20
11.42592651247923
 30
0.0
 11
141.2938382089128
 21
11.42592651247923
 31
0.0
  0
LINE
  5
671D4
330
18
100
AcDbEntity
  8
1
100
AcDbLine
 10
144.7000000000002
 20
13.349999952502
 30
0.0
 11
141.2938382089128
 21
13.349999952502
 31
0.0
  0
LINE
  5
671D5
330
18
100
AcDbEntity
  8
1
100
AcDbLine
 10
144.7000000000002
 20
12.24105522358968
 30
0.0
 11
142.849999999999
 21
12.24105522358968
 31
0.0
  0
ELLIPSE
  5
671D6
330
18
100
AcDbEntity
  8
1
100
AcDbEllipse
 10
141.2500004082908
 20
12.59999990500455
 30
0.0
 11
0.0
 21
1.75
 31
0.0
210
0.0
220
0.0
230
1.0
 40
0.1763269807084628
 41
2.633959910779439
 42
3.141592653589792
  0
LINE
  5
671D7
330
18
100
AcDbEntity
  8
1
100
AcDbLine
 10
142.849999999999
 20
10.84999989196603
 30
0.0
 11
142.849999999999
 21
13.349999952502
 31
0.0
  0
LINE
  5
671D8
330
18
100
AcDbEntity
  8
1
100
AcDbLine
 10
56.84999999999989
 20
11.09999993294423
 30
0.0
 11
55.00000000000046
 21
11.09999993294423
 31
0.0
  0
LINE
  5
671D9
330
18
100
AcDbEntity
  8
1
100
AcDbLine
 10
58.44999914467325
 20
10.84999989196603
 30
0.0
 11
56.84999999999989
 21
10.84999989196603
 31
0.0
  0
ELLIPSE
  5
671DA
330
18
100
AcDbEntity
  8
1
100
AcDbEllipse
 10
58.74999959170827
 20
12.59999990500455
 30
0.0
 11
0.0
 21
1.75
 31
0.0
210
0.0
220
0.0
230
-1.0
 40
0.1763269807084628
 41
0.0
 42
3.671997208822218
  0
ELLIPSE
  5
671DB
330
18
100
AcDbEntity
  8
1
100
AcDbEllipse
 10
58.74999959170827
 20
12.34999990500455
 30
0.0
 11
0.0
 21
0.75
 31
0.0
210
0.0
220
0.0
230
-1.0
 40
0.1763269807084763
 41
0.0
 42
6.283185307179585
  0
ELLIPSE
  5
671DC
330
18
100
AcDbEntity
  8
1
100
AcDbEllipse
 10
58.42306764533759
 20
13.84999990500455
 30
0.0
 11
0.0
 21
0.5
 31
0.0
210
0.0
220
0.0
230
-1.0
 40
0.1763269807084669
 41
0.0
 42
1.570796326794896
  0
LINE
  5
671DD
330
18
100
AcDbEntity
  8
1
100
AcDbLine
 10
58.4061617910861
 20
13.349999952502
 30
0.0
 11
58.51123080998649
 21
13.84999991804306
 31
0.0
  0
LINE
  5
671DE
330
18
100
AcDbEntity
  8
1
100
AcDbLine
 10
58.4061617910861
 20
11.42592651247923
 30
0.0
 11
58.4061617910861
 21
13.349999952502
 31
0.0
  0
ELLIPSE
  5
671DF
330
18
100
AcDbEntity
  8
1
100
AcDbEllipse
 10
58.37089658318518
 20
8.933939349039974
 30
0.0
 11
0.0
 21
2.5
 31
0.0
210
0.0
220
0.0
230
-1.0
 40
0.1763269807084669
 41
0.0800855800336977
 42
0.5304045552323553
  0
LINE
  5
671E0
330
18
100
AcDbEntity
  8
1
100
AcDbLine
 10
56.84999999999989
 20
11.42592651247923
 30
0.0
 11
58.4061617910861
 21
11.42592651247923
 31
0.0
  0
LINE
  5
671E1
330
18
100
AcDbEntity
  8
1
100
AcDbLine
 10
55.0
 20
13.84999991804306
 30
0.0
 11
58.51123080998649
 21
13.84999991804306
 31
0.0
  0
LINE
  5
671E2
330
18
100
AcDbEntity
  8
1
100
AcDbLine
 10
55.0
 20
13.349999952502
 30
0.0
 11
58.4061617910861
 21
13.349999952502
 31
0.0
  0
LINE
  5
671E3
330
18
100
AcDbEntity
  8
1
100
AcDbLine
 10
55.00000000000046
 20
12.24105522358968
 30
0.0
 11
56.84999999999989
 21
12.24105522358968
 31
0.0
  0
ELLIPSE
  5
671E4
330
18
100
AcDbEntity
  8
1
100
AcDbEllipse
 10
58.44999959170809
 20
12.59999990500455
 30
0.0
 11
0.0
 21
1.75
 31
0.0
210
0.0
220
0.0
230
-1.0
 40
0.1763269807084628
 41
2.633959910779439
 42
3.141592653589792
  0
LINE
  5
671E5
330
18
100
AcDbEntity
  8
1
100
AcDbLine
 10
56.84999999999989
 20
10.84999989196603
 30
0.0
 11
56.84999999999989
 21
13.349999952502
 31
0.0
  0
LINE
  5
671E6
330
18
100
AcDbEntity
  8
1
100
AcDbLine
 10
144.7000000000002
 20
11.09999993294423
 30
0.0
 11
144.7000000000002
 21
14.34999999999945
 31
0.0
  0
LINE
  5
671E7
330
18
100
AcDbEntity
  8
1
100
AcDbLine
 10
82.84999999999991
 20
11.09999993294423
 30
0.0
 11
86.84999999999991
 21
11.09999993294423
 31
0.0
  0
LINE
  5
671E8
330
18
100
AcDbEntity
  8
1
100
AcDbLine
 10
86.84999999999991
 20
10.84999989196603
 30
0.0
 11
88.44999914467328
 21
10.84999989196603
 31
0.0
  0
LINE
  5
671E9
330
18
100
AcDbEntity
  8
1
100
AcDbLine
 10
81.25000085532656
 20
10.84999989196603
 30
0.0
 11
82.84999999999991
 21
10.84999989196603
 31
0.0
  0
ELLIPSE
  5
671EA
330
18
100
AcDbEntity
  8
1
100
AcDbEllipse
 10
88.74999975264065
 20
12.59999990500455
 30
0.0
 11
0.0
 21
1.75
 31
0.0
210
0.0
220
0.0
230
1.0
 40
0.1763269807084628
 41
2.611188098357385
 42
6.283185307179585
  0
ELLIPSE
  5
671EB
330
18
100
AcDbEntity
  8
1
100
AcDbEllipse
 10
80.95000040829154
 20
12.59999990500455
 30
0.0
 11
0.0
 21
1.75
 31
0.0
210
0.0
220
0.0
230
1.0
 40
0.1763269807084628
 41
0.0
 42
3.671997208822218
  0
ELLIPSE
  5
671EC
330
18
100
AcDbEntity
  8
1
100
AcDbEllipse
 10
88.74999975264065
 20
12.34999990500455
 30
0.0
 11
0.0
 21
0.75
 31
0.0
210
0.0
220
0.0
230
1.0
 40
0.1763269807084574
 41
0.0
 42
6.283185307179585
  0
ELLIPSE
  5
671ED
330
18
100
AcDbEntity
  8
1
100
AcDbEllipse
 10
88.37089674411755
 20
8.933939349039974
 30
0.0
 11
0.0
 21
2.5
 31
0.0
210
0.0
220
0.0
230
1.0
 40
0.1763269807084669
 41
5.752780751947317
 42
6.203099727145999
  0
LINE
  5
671EE
330
18
100
AcDbEntity
  8
1
100
AcDbLine
 10
88.40616179108611
 20
11.42592651247923
 30
0.0
 11
88.40616179108611
 21
13.349999952502
 31
0.0
  0
LINE
  5
671EF
330
18
100
AcDbEntity
  8
1
100
AcDbLine
 10
88.40616179108611
 20
13.349999952502
 30
0.0
 11
88.51123174130908
 21
13.84999991804306
 31
0.0
  0
ELLIPSE
  5
671F0
330
18
100
AcDbEntity
  8
1
100
AcDbEllipse
 10
88.42306780626996
 20
13.84999990500455
 30
0.0
 11
0.0
 21
0.5
 31
0.0
210
0.0
220
0.0
230
1.0
 40
0.1763269807084669
 41
4.712388980384691
 42
6.283185307179585
  0
ELLIPSE
  5
671F1
330
18
100
AcDbEntity
  8
1
100
AcDbEllipse
 10
80.95000040829154
 20
12.34999990500455
 30
0.0
 11
0.0
 21
0.75
 31
0.0
210
0.0
220
0.0
230
1.0
 40
0.1763269807084763
 41
0.0
 42
6.283185307179585
  0
ELLIPSE
  5
671F2
330
18
100
AcDbEntity
  8
1
100
AcDbEllipse
 10
81.27693235466223
 20
13.84999990500455
 30
0.0
 11
0.0
 21
0.5
 31
0.0
210
0.0
220
0.0
230
1.0
 40
0.1763269807084669
 41
0.0
 42
1.570796326794896
  0
LINE
  5
671F3
330
18
100
AcDbEntity
  8
1
100
AcDbLine
 10
81.29383820891371
 20
13.349999952502
 30
0.0
 11
81.18876919001332
 21
13.84999991804306
 31
0.0
  0
LINE
  5
671F4
330
18
100
AcDbEntity
  8
1
100
AcDbLine
 10
81.29383820891371
 20
11.42592651247923
 30
0.0
 11
81.29383820891371
 21
13.349999952502
 31
0.0
  0
ELLIPSE
  5
671F5
330
18
100
AcDbEntity
  8
1
100
AcDbEllipse
 10
81.32910341681464
 20
8.933939349039974
 30
0.0
 11
0.0
 21
2.5
 31
0.0
210
0.0
220
0.0
230
1.0
 40
0.1763269807084669
 41
0.0800855800336977
 42
0.5304045552323553
  0
LINE
  5
671F6
330
18
100
AcDbEntity
  8
1
100
AcDbLine
 10
88.40616179108611
 20
11.42592651247923
 30
0.0
 11
86.84999999999991
 21
11.42592651247923
 31
0.0
  0
LINE
  5
671F7
330
18
100
AcDbEntity
  8
1
100
AcDbLine
 10
82.84999999999991
 20
11.42592651247923
 30
0.0
 11
81.29383820891371
 21
11.42592651247923
 31
0.0
  0
LINE
  5
671F8
330
18
100
AcDbEntity
  8
1
100
AcDbLine
 10
88.51123174130908
 20
13.84999991804306
 30
0.0
 11
81.18876919001332
 21
13.84999991804306
 31
0.0
  0
LINE
  5
671F9
330
18
100
AcDbEntity
  8
1
100
AcDbLine
 10
88.40616179108611
 20
13.349999952502
 30
0.0
 11
81.29383820891371
 21
13.349999952502
 31
0.0
  0
LINE
  5
671FA
330
18
100
AcDbEntity
  8
1
100
AcDbLine
 10
86.84999999999991
 20
12.24105522358968
 30
0.0
 11
82.84999999999991
 21
12.24105522358968
 31
0.0
  0
ELLIPSE
  5
671FB
330
18
100
AcDbEntity
  8
1
100
AcDbEllipse
 10
81.25000040829172
 20
12.59999990500455
 30
0.0
 11
0.0
 21
1.75
 31
0.0
210
0.0
220
0.0
230
1.0
 40
0.1763269807084628
 41
2.633959910779439
 42
3.141592653589792
  0
ELLIPSE
  5
671FC
330
18
100
AcDbEntity
  8
1
100
AcDbEllipse
 10
88.44999975264045
 20
12.59999990500455
 30
0.0
 11
0.0
 21
1.75
 31
0.0
210
0.0
220
0.0
230
1.0
 40
0.1763269807084628
 41
3.141592653589792
 42
3.649225396400101
  0
LINE
  5
671FD
330
18
100
AcDbEntity
  8
1
100
AcDbLine
 10
86.84999999999991
 20
13.349999952502
 30
0.0
 11
86.84999999999991
 21
10.84999989196603
 31
0.0
  0
LINE
  5
671FE
330
18
100
AcDbEntity
  8
1
100
AcDbLine
 10
82.84999999999991
 20
10.84999989196603
 30
0.0
 11
82.84999999999991
 21
13.349999952502
 31
0.0
  0
LINE
  5
671FF
330
18
100
AcDbEntity
  8
1
100
AcDbLine
 10
67.84999999999991
 20
11.09999993294423
 30
0.0
 11
71.84999999999991
 21
11.09999993294423
 31
0.0
  0
LINE
  5
67200
330
18
100
AcDbEntity
  8
1
100
AcDbLine
 10
71.84999999999991
 20
10.84999989196603
 30
0.0
 11
73.44999914467326
 21
10.84999989196603
 31
0.0
  0
LINE
  5
67201
330
18
100
AcDbEntity
  8
1
100
AcDbLine
 10
66.25000085532656
 20
10.84999989196603
 30
0.0
 11
67.84999999999991
 21
10.84999989196603
 31
0.0
  0
ELLIPSE
  5
67202
330
18
100
AcDbEntity
  8
1
100
AcDbEllipse
 10
73.74999975264064
 20
12.59999990500455
 30
0.0
 11
0.0
 21
1.75
 31
0.0
210
0.0
220
0.0
230
1.0
 40
0.1763269807084628
 41
2.611188098357385
 42
6.283185307179585
  0
ELLIPSE
  5
67203
330
18
100
AcDbEntity
  8
1
100
AcDbEllipse
 10
65.95000040829154
 20
12.59999990500455
 30
0.0
 11
0.0
 21
1.75
 31
0.0
210
0.0
220
0.0
230
1.0
 40
0.1763269807084628
 41
0.0
 42
3.671997208822218
  0
ELLIPSE
  5
67204
330
18
100
AcDbEntity
  8
1
100
AcDbEllipse
 10
73.74999975264064
 20
12.34999990500455
 30
0.0
 11
0.0
 21
0.75
 31
0.0
210
0.0
220
0.0
230
1.0
 40
0.1763269807084574
 41
0.0
 42
6.283185307179585
  0
ELLIPSE
  5
67205
330
18
100
AcDbEntity
  8
1
100
AcDbEllipse
 10
73.37089674411754
 20
8.933939349039974
 30
0.0
 11
0.0
 21
2.5
 31
0.0
210
0.0
220
0.0
230
1.0
 40
0.1763269807084669
 41
5.752780751947317
 42
6.203099727145999
  0
LINE
  5
67206
330
18
100
AcDbEntity
  8
1
100
AcDbLine
 10
73.40616179108611
 20
11.42592651247923
 30
0.0
 11
73.40616179108611
 21
13.349999952502
 31
0.0
  0
LINE
  5
67207
330
18
100
AcDbEntity
  8
1
100
AcDbLine
 10
73.40616179108611
 20
13.349999952502
 30
0.0
 11
73.51123174130908
 21
13.84999991804306
 31
0.0
  0
ELLIPSE
  5
67208
330
18
100
AcDbEntity
  8
1
100
AcDbEllipse
 10
73.42306780626995
 20
13.84999990500455
 30
0.0
 11
0.0
 21
0.5
 31
0.0
210
0.0
220
0.0
230
1.0
 40
0.1763269807084669
 41
4.712388980384691
 42
6.283185307179585
  0
ELLIPSE
  5
67209
330
18
100
AcDbEntity
  8
1
100
AcDbEllipse
 10
65.95000040829154
 20
12.34999990500455
 30
0.0
 11
0.0
 21
0.75
 31
0.0
210
0.0
220
0.0
230
1.0
 40
0.1763269807084763
 41
0.0
 42
6.283185307179585
  0
ELLIPSE
  5
6720A
330
18
100
AcDbEntity
  8
1
100
AcDbEllipse
 10
66.27693235466222
 20
13.84999990500455
 30
0.0
 11
0.0
 21
0.5
 31
0.0
210
0.0
220
0.0
230
1.0
 40
0.1763269807084669
 41
0.0
 42
1.570796326794896
  0
LINE
  5
6720B
330
18
100
AcDbEntity
  8
1
100
AcDbLine
 10
66.29383820891371
 20
13.349999952502
 30
0.0
 11
66.18876919001332
 21
13.84999991804306
 31
0.0
  0
LINE
  5
6720C
330
18
100
AcDbEntity
  8
1
100
AcDbLine
 10
66.29383820891371
 20
11.42592651247923
 30
0.0
 11
66.29383820891371
 21
13.349999952502
 31
0.0
  0
ELLIPSE
  5
6720D
330
18
100
AcDbEntity
  8
1
100
AcDbEllipse
 10
66.32910341681463
 20
8.933939349039974
 30
0.0
 11
0.0
 21
2.5
 31
0.0
210
0.0
220
0.0
230
1.0
 40
0.1763269807084669
 41
0.0800855800336977
 42
0.5304045552323553
  0
LINE
  5
6720E
330
18
100
AcDbEntity
  8
1
100
AcDbLine
 10
73.40616179108611
 20
11.42592651247923
 30
0.0
 11
71.84999999999991
 21
11.42592651247923
 31
0.0
  0
LINE
  5
6720F
330
18
100
AcDbEntity
  8
1
100
AcDbLine
 10
67.84999999999991
 20
11.42592651247923
 30
0.0
 11
66.29383820891371
 21
11.42592651247923
 31
0.0
  0
LINE
  5
67210
330
18
100
AcDbEntity
  8
1
100
AcDbLine
 10
73.51123174130908
 20
13.84999991804306
 30
0.0
 11
66.18876919001332
 21
13.84999991804306
 31
0.0
  0
LINE
  5
67211
330
18
100
AcDbEntity
  8
1
100
AcDbLine
 10
73.40616179108611
 20
13.349999952502
 30
0.0
 11
66.29383820891371
 21
13.349999952502
 31
0.0
  0
LINE
  5
67212
330
18
100
AcDbEntity
  8
1
100
AcDbLine
 10
71.84999999999991
 20
12.24105522358968
 30
0.0
 11
67.84999999999991
 21
12.24105522358968
 31
0.0
  0
ELLIPSE
  5
67213
330
18
100
AcDbEntity
  8
1
100
AcDbEllipse
 10
66.25000040829172
 20
12.59999990500455
 30
0.0
 11
0.0
 21
1.75
 31
0.0
210
0.0
220
0.0
230
1.0
 40
0.1763269807084628
 41
2.633959910779439
 42
3.141592653589792
  0
ELLIPSE
  5
67214
330
18
100
AcDbEntity
  8
1
100
AcDbEllipse
 10
73.44999975264045
 20
12.59999990500455
 30
0.0
 11
0.0
 21
1.75
 31
0.0
210
0.0
220
0.0
230
1.0
 40
0.1763269807084628
 41
3.141592653589792
 42
3.649225396400101
  0
LINE
  5
67215
330
18
100
AcDbEntity
  8
1
100
AcDbLine
 10
71.84999999999991
 20
13.349999952502
 30
0.0
 11
71.84999999999991
 21
10.84999989196603
 31
0.0
  0
LINE
  5
67216
330
18
100
AcDbEntity
  8
1
100
AcDbLine
 10
67.84999999999991
 20
10.84999989196603
 30
0.0
 11
67.84999999999991
 21
13.349999952502
 31
0.0
  0
LINE
  5
67217
330
18
100
AcDbEntity
  8
1
100
AcDbLine
 10
55.00000000000046
 20
14.34999999999945
 30
0.0
 11
144.7000000000002
 21
14.34999999999945
 31
0.0
  0
LINE
  5
67218
330
18
100
AcDbEntity
  8
1
100
AcDbLine
 10
133.7499997526406
 20
10.84999990500455
 30
0.0
 11
140.9500004082906
 21
10.84999990500455
 31
0.0
  0
LINE
  5
67219
330
18
100
AcDbEntity
  8
1
100
AcDbLine
 10
125.9500004082915
 20
10.84999990500455
 30
0.0
 11
118.7499997526406
 21
10.84999990500455
 31
0.0
  0
LINE
  5
6721A
330
18
100
AcDbEntity
  8
1
100
AcDbLine
 10
110.9500004082915
 20
10.84999990500455
 30
0.0
 11
103.7499997526406
 21
10.84999990500455
 31
0.0
  0
LINE
  5
6721B
330
18
100
AcDbEntity
  8
1
100
AcDbLine
 10
95.95000040829154
 20
10.84999990500455
 30
0.0
 11
88.74999975264065
 21
10.84999990500455
 31
0.0
  0
LINE
  5
6721C
330
18
100
AcDbEntity
  8
1
100
AcDbLine
 10
80.95000040829154
 20
10.84999990500455
 30
0.0
 11
73.74999975264064
 21
10.84999990500455
 31
0.0
  0
LINE
  5
6721D
330
18
100
AcDbEntity
  8
1
100
AcDbLine
 10
65.95000040829154
 20
10.84999990500455
 30
0.0
 11
58.74999959170827
 21
10.84999990500455
 31
0.0
  0
LINE
  5
6721E
330
18
100
AcDbEntity
  8
3
  6
CENTER
100
AcDbLine
 10
53.00000000000046
 20
12.34999999999945
 30
0.0
 11
146.7000000000003
 21
12.34999999999945
 31
0.0
  0
LINE
  5
6721F
330
18
100
AcDbEntity
  8
1
100
AcDbLine
 10
144.8500000000003
 20
11.09999993294332
 30
0.0
 11
146.8500000000013
 21
11.09999993294423
 31
0.0
  0
LINE
  5
67220
330
18
100
AcDbEntity
  8
1
100
AcDbLine
 10
146.8500000000013
 20
10.84999989196603
 30
0.0
 11
148.4499991446746
 21
10.84999989196603
 31
0.0
  0
ELLIPSE
  5
67221
330
18
100
AcDbEntity
  8
1
100
AcDbEllipse
 10
148.749999752642
 20
12.59999990500455
 30
0.0
 11
0.0
 21
1.75
 31
0.0
210
0.0
220
0.0
230
1.0
 40
0.1763269807084628
 41
2.611188098357385
 42
6.283185307179585
  0
ELLIPSE
  5
67222
330
18
100
AcDbEntity
  8
1
100
AcDbEllipse
 10
148.749999752642
 20
12.34999990500455
 30
0.0
 11
0.0
 21
0.75
 31
0.0
210
0.0
220
0.0
230
1.0
 40
0.1763269807084574
 41
0.0
 42
6.283185307179585
  0
ELLIPSE
  5
67223
330
18
100
AcDbEntity
  8
1
100
AcDbEllipse
 10
148.3708967441189
 20
8.933939349039974
 30
0.0
 11
0.0
 21
2.5
 31
0.0
210
0.0
220
0.0
230
1.0
 40
0.1763269807084669
 41
5.752780751947317
 42
6.203099727145999
  0
LINE
  5
67224
330
18
100
AcDbEntity
  8
1
100
AcDbLine
 10
148.4061617910874
 20
11.42592651247923
 30
0.0
 11
148.4061617910874
 21
13.349999952502
 31
0.0
  0
LINE
  5
67225
330
18
100
AcDbEntity
  8
1
100
AcDbLine
 10
148.4061617910874
 20
13.349999952502
 30
0.0
 11
148.5112317413104
 21
13.84999991804306
 31
0.0
  0
ELLIPSE
  5
67226
330
18
100
AcDbEntity
  8
1
100
AcDbEllipse
 10
148.4230678062713
 20
13.84999990500455
 30
0.0
 11
0.0
 21
0.5
 31
0.0
210
0.0
220
0.0
230
1.0
 40
0.1763269807084669
 41
4.712388980384691
 42
6.283185307179585
  0
LINE
  5
67227
330
18
100
AcDbEntity
  8
1
100
AcDbLine
 10
148.4061617910874
 20
11.42592651247923
 30
0.0
 11
146.8500000000013
 21
11.42592651247923
 31
0.0
  0
LINE
  5
67228
330
18
100
AcDbEntity
  8
1
100
AcDbLine
 10
148.5112317413104
 20
13.84999991804306
 30
0.0
 11
144.8499999999999
 21
13.84999991804306
 31
0.0
  0
LINE
  5
67229
330
18
100
AcDbEntity
  8
1
100
AcDbLine
 10
148.4061617910874
 20
13.349999952502
 30
0.0
 11
144.8500000000003
 21
13.34999995250109
 31
0.0
  0
LINE
  5
6722A
330
18
100
AcDbEntity
  8
1
100
AcDbLine
 10
146.8500000000013
 20
12.24105522358968
 30
0.0
 11
144.8500000000003
 21
12.24105522358877
 31
0.0
  0
ELLIPSE
  5
6722B
330
18
100
AcDbEntity
  8
1
100
AcDbEllipse
 10
148.4499997526418
 20
12.59999990500455
 30
0.0
 11
0.0
 21
1.75
 31
0.0
210
0.0
220
0.0
230
1.0
 40
0.1763269807084628
 41
3.141592653589792
 42
3.649225396400101
  0
LINE
  5
6722C
330
18
100
AcDbEntity
  8
1
100
AcDbLine
 10
146.8500000000013
 20
13.349999952502
 30
0.0
 11
146.8500000000013
 21
10.84999989196603
 31
0.0
  0
LINE
  5
6722D
330
18
100
AcDbEntity
  8
1
100
AcDbLine
 10
157.8500000000012
 20
11.09999993294423
 30
0.0
 11
161.8500000000012
 21
11.09999993294423
 31
0.0
  0
LINE
  5
6722E
330
18
100
AcDbEntity
  8
1
100
AcDbLine
 10
161.8500000000012
 20
10.84999989196603
 30
0.0
 11
163.4499991446746
 21
10.84999989196603
 31
0.0
  0
LINE
  5
6722F
330
18
100
AcDbEntity
  8
1
100
AcDbLine
 10
156.2500008553279
 20
10.84999989196603
 30
0.0
 11
157.8500000000012
 21
10.84999989196603
 31
0.0
  0
ELLIPSE
  5
67230
330
18
100
AcDbEntity
  8
1
100
AcDbEllipse
 10
163.749999752642
 20
12.59999990500455
 30
0.0
 11
0.0
 21
1.75
 31
0.0
210
0.0
220
0.0
230
1.0
 40
0.1763269807084628
 41
2.611188098357385
 42
6.283185307179585
  0
ELLIPSE
  5
67231
330
18
100
AcDbEntity
  8
1
100
AcDbEllipse
 10
155.9500004082929
 20
12.59999990500455
 30
0.0
 11
0.0
 21
1.75
 31
0.0
210
0.0
220
0.0
230
1.0
 40
0.1763269807084628
 41
0.0
 42
3.671997208822218
  0
ELLIPSE
  5
67232
330
18
100
AcDbEntity
  8
1
100
AcDbEllipse
 10
163.749999752642
 20
12.34999990500455
 30
0.0
 11
0.0
 21
0.75
 31
0.0
210
0.0
220
0.0
230
1.0
 40
0.1763269807084574
 41
0.0
 42
6.283185307179585
  0
ELLIPSE
  5
67233
330
18
100
AcDbEntity
  8
1
100
AcDbEllipse
 10
163.3708967441189
 20
8.933939349039974
 30
0.0
 11
0.0
 21
2.5
 31
0.0
210
0.0
220
0.0
230
1.0
 40
0.1763269807084669
 41
5.752780751947317
 42
6.203099727145999
  0
LINE
  5
67234
330
18
100
AcDbEntity
  8
1
100
AcDbLine
 10
163.4061617910874
 20
11.42592651247923
 30
0.0
 11
163.4061617910874
 21
13.349999952502
 31
0.0
  0
LINE
  5
67235
330
18
100
AcDbEntity
  8
1
100
AcDbLine
 10
163.4061617910874
 20
13.349999952502
 30
0.0
 11
163.5112317413104
 21
13.84999991804306
 31
0.0
  0
ELLIPSE
  5
67236
330
18
100
AcDbEntity
  8
1
100
AcDbEllipse
 10
163.4230678062713
 20
13.84999990500455
 30
0.0
 11
0.0
 21
0.5
 31
0.0
210
0.0
220
0.0
230
1.0
 40
0.1763269807084669
 41
4.712388980384691
 42
6.283185307179585
  0
ELLIPSE
  5
67237
330
18
100
AcDbEntity
  8
1
100
AcDbEllipse
 10
155.9500004082929
 20
12.34999990500455
 30
0.0
 11
0.0
 21
0.75
 31
0.0
210
0.0
220
0.0
230
1.0
 40
0.1763269807084763
 41
0.0
 42
6.283185307179585
  0
ELLIPSE
  5
67238
330
18
100
AcDbEntity
  8
1
100
AcDbEllipse
 10
156.2769323546636
 20
13.84999990500455
 30
0.0
 11
0.0
 21
0.5
 31
0.0
210
0.0
220
0.0
230
1.0
 40
0.1763269807084669
 41
0.0
 42
1.570796326794896
  0
LINE
  5
67239
330
18
100
AcDbEntity
  8
1
100
AcDbLine
 10
156.293838208915
 20
13.349999952502
 30
0.0
 11
156.1887691900146
 21
13.84999991804306
 31
0.0
  0
LINE
  5
6723A
330
18
100
AcDbEntity
  8
1
100
AcDbLine
 10
156.293838208915
 20
11.42592651247923
 30
0.0
 11
156.293838208915
 21
13.349999952502
 31
0.0
  0
ELLIPSE
  5
6723B
330
18
100
AcDbEntity
  8
1
100
AcDbEllipse
 10
156.329103416816
 20
8.933939349039974
 30
0.0
 11
0.0
 21
2.5
 31
0.0
210
0.0
220
0.0
230
1.0
 40
0.1763269807084669
 41
0.0800855800336977
 42
0.5304045552323553
  0
LINE
  5
6723C
330
18
100
AcDbEntity
  8
1
100
AcDbLine
 10
163.4061617910874
 20
11.42592651247923
 30
0.0
 11
161.8500000000012
 21
11.42592651247923
 31
0.0
  0
LINE
  5
6723D
330
18
100
AcDbEntity
  8
1
100
AcDbLine
 10
157.8500000000012
 20
11.42592651247923
 30
0.0
 11
156.293838208915
 21
11.42592651247923
 31
0.0
  0
LINE
  5
6723E
330
18
100
AcDbEntity
  8
1
100
AcDbLine
 10
163.5112317413104
 20
13.84999991804306
 30
0.0
 11
156.1887691900146
 21
13.84999991804306
 31
0.0
  0
LINE
  5
6723F
330
18
100
AcDbEntity
  8
1
100
AcDbLine
 10
163.4061617910874
 20
13.349999952502
 30
0.0
 11
156.293838208915
 21
13.349999952502
 31
0.0
  0
LINE
  5
67240
330
18
100
AcDbEntity
  8
1
100
AcDbLine
 10
161.8500000000012
 20
12.24105522358968
 30
0.0
 11
157.8500000000012
 21
12.24105522358968
 31
0.0
  0
ELLIPSE
  5
67241
330
18
100
AcDbEntity
  8
1
100
AcDbEllipse
 10
156.2500004082931
 20
12.59999990500455
 30
0.0
 11
0.0
 21
1.75
 31
0.0
210
0.0
220
0.0
230
1.0
 40
0.1763269807084628
 41
2.633959910779439
 42
3.141592653589792
  0
ELLIPSE
  5
67242
330
18
100
AcDbEntity
  8
1
100
AcDbEllipse
 10
163.4499997526418
 20
12.59999990500455
 30
0.0
 11
0.0
 21
1.75
 31
0.0
210
0.0
220
0.0
230
1.0
 40
0.1763269807084628
 41
3.141592653589792
 42
3.649225396400101
  0
LINE
  5
67243
330
18
100
AcDbEntity
  8
1
100
AcDbLine
 10
161.8500000000012
 20
13.349999952502
 30
0.0
 11
161.8500000000012
 21
10.84999989196603
 31
0.0
  0
LINE
  5
67244
330
18
100
AcDbEntity
  8
1
100
AcDbLine
 10
157.8500000000012
 20
10.84999989196603
 30
0.0
 11
157.8500000000012
 21
13.349999952502
 31
0.0
  0
LINE
  5
67245
330
18
100
AcDbEntity
  8
1
100
AcDbLine
 10
172.8500000000003
 20
11.09999993294423
 30
0.0
 11
176.8500000000003
 21
11.09999993294423
 31
0.0
  0
LINE
  5
67246
330
18
100
AcDbEntity
  8
1
100
AcDbLine
 10
176.8500000000003
 20
10.84999989196603
 30
0.0
 11
178.4499991446736
 21
10.84999989196603
 31
0.0
  0
LINE
  5
67247
330
18
100
AcDbEntity
  8
1
100
AcDbLine
 10
171.250000855327
 20
10.84999989196603
 30
0.0
 11
172.8500000000003
 21
10.84999989196603
 31
0.0
  0
ELLIPSE
  5
67248
330
18
100
AcDbEntity
  8
1
100
AcDbEllipse
 10
178.7499997526411
 20
12.59999990500455
 30
0.0
 11
0.0
 21
1.75
 31
0.0
210
0.0
220
0.0
230
1.0
 40
0.1763269807084628
 41
2.611188098357385
 42
6.283185307179585
  0
ELLIPSE
  5
67249
330
18
100
AcDbEntity
  8
1
100
AcDbEllipse
 10
170.950000408292
 20
12.59999990500455
 30
0.0
 11
0.0
 21
1.75
 31
0.0
210
0.0
220
0.0
230
1.0
 40
0.1763269807084628
 41
0.0
 42
3.671997208822218
  0
ELLIPSE
  5
6724A
330
18
100
AcDbEntity
  8
1
100
AcDbEllipse
 10
178.7499997526411
 20
12.34999990500455
 30
0.0
 11
0.0
 21
0.75
 31
0.0
210
0.0
220
0.0
230
1.0
 40
0.1763269807084574
 41
0.0
 42
6.283185307179585
  0
ELLIPSE
  5
6724B
330
18
100
AcDbEntity
  8
1
100
AcDbEllipse
 10
178.370896744118
 20
8.933939349039974
 30
0.0
 11
0.0
 21
2.5
 31
0.0
210
0.0
220
0.0
230
1.0
 40
0.1763269807084669
 41
5.752780751947317
 42
6.203099727145999
  0
LINE
  5
6724C
330
18
100
AcDbEntity
  8
1
100
AcDbLine
 10
178.4061617910865
 20
11.42592651247923
 30
0.0
 11
178.4061617910865
 21
13.349999952502
 31
0.0
  0
LINE
  5
6724D
330
18
100
AcDbEntity
  8
1
100
AcDbLine
 10
178.4061617910865
 20
13.349999952502
 30
0.0
 11
178.5112317413095
 21
13.84999991804306
 31
0.0
  0
ELLIPSE
  5
6724E
330
18
100
AcDbEntity
  8
1
100
AcDbEllipse
 10
178.4230678062708
 20
13.84999990500455
 30
0.0
 11
0.0
 21
0.5
 31
0.0
210
0.0
220
0.0
230
1.0
 40
0.1763269807084669
 41
4.712388980384691
 42
6.283185307179585
  0
ELLIPSE
  5
6724F
330
18
100
AcDbEntity
  8
1
100
AcDbEllipse
 10
170.950000408292
 20
12.34999990500455
 30
0.0
 11
0.0
 21
0.75
 31
0.0
210
0.0
220
0.0
230
1.0
 40
0.1763269807084763
 41
0.0
 42
6.283185307179585
  0
ELLIPSE
  5
67250
330
18
100
AcDbEntity
  8
1
100
AcDbEllipse
 10
171.2769323546627
 20
13.84999990500455
 30
0.0
 11
0.0
 21
0.5
 31
0.0
210
0.0
220
0.0
230
1.0
 40
0.1763269807084669
 41
0.0
 42
1.570796326794896
  0
LINE
  5
67251
330
18
100
AcDbEntity
  8
1
100
AcDbLine
 10
171.2938382089141
 20
13.349999952502
 30
0.0
 11
171.1887691900138
 21
13.84999991804306
 31
0.0
  0
LINE
  5
67252
330
18
100
AcDbEntity
  8
1
100
AcDbLine
 10
171.2938382089141
 20
11.42592651247923
 30
0.0
 11
171.2938382089141
 21
13.349999952502
 31
0.0
  0
ELLIPSE
  5
67253
330
18
100
AcDbEntity
  8
1
100
AcDbEllipse
 10
171.3291034168155
 20
8.933939349039974
 30
0.0
 11
0.0
 21
2.5
 31
0.0
210
0.0
220
0.0
230
1.0
 40
0.1763269807084669
 41
0.0800855800336977
 42
0.5304045552323553
  0
LINE
  5
67254
330
18
100
AcDbEntity
  8
1
100
AcDbLine
 10
178.4061617910865
 20
11.42592651247923
 30
0.0
 11
176.8500000000003
 21
11.42592651247923
 31
0.0
  0
LINE
  5
67255
330
18
100
AcDbEntity
  8
1
100
AcDbLine
 10
172.8500000000003
 20
11.42592651247923
 30
0.0
 11
171.2938382089141
 21
11.42592651247923
 31
0.0
  0
LINE
  5
67256
330
18
100
AcDbEntity
  8
1
100
AcDbLine
 10
178.5112317413095
 20
13.84999991804306
 30
0.0
 11
171.1887691900138
 21
13.84999991804306
 31
0.0
  0
LINE
  5
67257
330
18
100
AcDbEntity
  8
1
100
AcDbLine
 10
178.4061617910865
 20
13.349999952502
 30
0.0
 11
171.2938382089141
 21
13.349999952502
 31
0.0
  0
LINE
  5
67258
330
18
100
AcDbEntity
  8
1
100
AcDbLine
 10
176.8500000000003
 20
12.24105522358968
 30
0.0
 11
172.8500000000003
 21
12.24105522358968
 31
0.0
  0
ELLIPSE
  5
67259
330
18
100
AcDbEntity
  8
1
100
AcDbEllipse
 10
171.2500004082922
 20
12.59999990500455
 30
0.0
 11
0.0
 21
1.75
 31
0.0
210
0.0
220
0.0
230
1.0
 40
0.1763269807084628
 41
2.633959910779439
 42
3.141592653589792
  0
ELLIPSE
  5
6725A
330
18
100
AcDbEntity
  8
1
100
AcDbEllipse
 10
178.4499997526409
 20
12.59999990500455
 30
0.0
 11
0.0
 21
1.75
 31
0.0
210
0.0
220
0.0
230
1.0
 40
0.1763269807084628
 41
3.141592653589792
 42
3.649225396400101
  0
LINE
  5
6725B
330
18
100
AcDbEntity
  8
1
100
AcDbLine
 10
176.8500000000003
 20
13.349999952502
 30
0.0
 11
176.8500000000003
 21
10.84999989196603
 31
0.0
  0
LINE
  5
6725C
330
18
100
AcDbEntity
  8
1
100
AcDbLine
 10
172.8500000000003
 20
10.84999989196603
 30
0.0
 11
172.8500000000003
 21
13.349999952502
 31
0.0
  0
LINE
  5
6725D
330
18
100
AcDbEntity
  8
1
100
AcDbLine
 10
187.8500000000003
 20
11.09999993294423
 30
0.0
 11
189.7000000000007
 21
11.09999993294423
 31
0.0
  0
LINE
  5
6725E
330
18
100
AcDbEntity
  8
1
100
AcDbLine
 10
186.250000855327
 20
10.84999989196603
 30
0.0
 11
187.8500000000003
 21
10.84999989196603
 31
0.0
  0
ELLIPSE
  5
6725F
330
18
100
AcDbEntity
  8
1
100
AcDbEllipse
 10
185.950000408292
 20
12.59999990500455
 30
0.0
 11
0.0
 21
1.75
 31
0.0
210
0.0
220
0.0
230
1.0
 40
0.1763269807084628
 41
0.0
 42
3.671997208822218
  0
ELLIPSE
  5
67260
330
18
100
AcDbEntity
  8
1
100
AcDbEllipse
 10
185.950000408292
 20
12.34999990500455
 30
0.0
 11
0.0
 21
0.75
 31
0.0
210
0.0
220
0.0
230
1.0
 40
0.1763269807084763
 41
0.0
 42
6.283185307179585
  0
ELLIPSE
  5
67261
330
18
100
AcDbEntity
  8
1
100
AcDbEllipse
 10
186.2769323546626
 20
13.84999990500455
 30
0.0
 11
0.0
 21
0.5
 31
0.0
210
0.0
220
0.0
230
1.0
 40
0.1763269807084669
 41
0.0
 42
1.570796326794896
  0
LINE
  5
67262
330
18
100
AcDbEntity
  8
1
100
AcDbLine
 10
186.2938382089141
 20
13.349999952502
 30
0.0
 11
186.1887691900138
 21
13.84999991804306
 31
0.0
  0
LINE
  5
67263
330
18
100
AcDbEntity
  8
1
100
AcDbLine
 10
186.2938382089141
 20
11.42592651247923
 30
0.0
 11
186.2938382089141
 21
13.349999952502
 31
0.0
  0
ELLIPSE
  5
67264
330
18
100
AcDbEntity
  8
1
100
AcDbEllipse
 10
186.3291034168151
 20
8.933939349039974
 30
0.0
 11
0.0
 21
2.5
 31
0.0
210
0.0
220
0.0
230
1.0
 40
0.1763269807084669
 41
0.0800855800336977
 42
0.5304045552323553
  0
LINE
  5
67265
330
18
100
AcDbEntity
  8
1
100
AcDbLine
 10
186.2769319102172
 20
14.34999999999945
 30
0.0
 11
185.950000433624
 21
14.34999999999945
 31
0.0
  0
LINE
  5
67266
330
18
100
AcDbEntity
  8
1
100
AcDbLine
 10
187.8500000000003
 20
11.42592651247923
 30
0.0
 11
186.2938382089141
 21
11.42592651247923
 31
0.0
  0
LINE
  5
67267
330
18
100
AcDbEntity
  8
1
100
AcDbLine
 10
189.7000000000011
 20
13.349999952502
 30
0.0
 11
186.2938382089141
 21
13.349999952502
 31
0.0
  0
LINE
  5
67268
330
18
100
AcDbEntity
  8
1
100
AcDbLine
 10
189.7000000000007
 20
12.24105522358968
 30
0.0
 11
187.8500000000003
 21
12.24105522358968
 31
0.0
  0
ELLIPSE
  5
67269
330
18
100
AcDbEntity
  8
1
100
AcDbEllipse
 10
186.2500004082922
 20
12.59999990500455
 30
0.0
 11
0.0
 21
1.75
 31
0.0
210
0.0
220
0.0
230
1.0
 40
0.1763269807084628
 41
2.633959910779439
 42
3.141592653589792
  0
LINE
  5
6726A
330
18
100
AcDbEntity
  8
1
100
AcDbLine
 10
187.8500000000003
 20
10.84999989196603
 30
0.0
 11
187.8500000000003
 21
13.349999952502
 31
0.0
  0
LINE
  5
6726B
330
18
100
AcDbEntity
  8
1
100
AcDbLine
 10
189.7000000000011
 20
11.09999993294423
 30
0.0
 11
189.7000000000011
 21
14.34999999999945
 31
0.0
  0
LINE
  5
6726C
330
18
100
AcDbEntity
  8
1
100
AcDbLine
 10
144.8500000000003
 20
14.34999999999854
 30
0.0
 11
189.7000000000011
 21
14.34999999999945
 31
0.0
  0
LINE
  5
6726D
330
18
100
AcDbEntity
  8
1
100
AcDbLine
 10
178.7499997526411
 20
10.84999990500455
 30
0.0
 11
185.950000408292
 21
10.84999990500455
 31
0.0
  0
LINE
  5
6726E
330
18
100
AcDbEntity
  8
1
100
AcDbLine
 10
170.950000408292
 20
10.84999990500455
 30
0.0
 11
163.749999752642
 21
10.84999990500455
 31
0.0
  0
LINE
  5
6726F
330
18
100
AcDbEntity
  8
1
100
AcDbLine
 10
155.9500004082929
 20
10.84999990500455
 30
0.0
 11
148.749999752642
 21
10.84999990500455
 31
0.0
  0
LINE
  5
67270
330
18
100
AcDbEntity
  8
1
100
AcDbLine
 10
144.8500000000003
 20
14.34999999999854
 30
0.0
 11
144.8500000000003
 21
11.09999993294241
 31
0.0
  0
LINE
  5
67271
330
18
100
AcDbEntity
  8
3
  6
CENTER
100
AcDbLine
 10
142.8499999999985
 20
12.34999999999945
 30
0.0
 11
191.700000000003
 21
12.34999999999945
 31
0.0
  0
ENDSEC
  0
SECTION
  2
OBJECTS
  0
DICTIONARY
  5
C
330
0
100
AcDbDictionary
281
     1
  3
ACAD_CIP_PREVIOUS_PRODUCT_INFO
350
650B5
  3
ACAD_COLOR
350
A12D
  3
ACAD_DETAILVIEWSTYLE
350
650B0
  3
ACAD_GROUP
350
D
  3
ACAD_IMAGE_DICT
350
A0F4
  3
ACAD_IMAGE_VARS
350
A0EC
  3
ACAD_LAYOUT
350
1C62
  3
ACAD_MATERIAL
350
A103
  3
ACAD_MLEADERSTYLE
350
A130
  3
ACAD_MLINESTYLE
350
E
  3
ACAD_PLOTSETTINGS
350
1C63
  3
ACAD_PLOTSTYLENAME
350
1C60
  3
ACAD_SCALELIST
350
9FA7
  3
ACAD_SECTIONVIEWSTYLE
350
650AE
  3
ACAD_TABLESTYLE
350
A12E
  3
ACAD_VISUALSTYLE
350
A11C
  3
AcadDim
350
2219
  3
ACDB_RECOMPOSE_DATA
350
672E3
  3
AcDbVariableDictionary
350
1237
  3
APPDATA
350
A0EB
  3
CONTENTDICTIONARY
350
322
  3
DWGPROPS
350
672E4
  0
DICTIONARY
  5
A0A3
330
2
100
AcDbDictionary
280
     1
281
     1
  3
ACAD_LAYERFILTERS
360
A0DF
  3
ACAD_LAYERSTATES
360
A0ED
  3
ACLYDICTIONARY
360
A0DE
  0
DICTIONARY
  5
9FD1
330
F
100
AcDbDictionary
280
     1
281
     1
  3
ADSK_XREC_LAYER_RECONCILED
360
66F93
  0
DICTIONARY
  5
9FD3
330
526
100
AcDbDictionary
280
     1
281
     1
  3
ADSK_XREC_LAYER_RECONCILED
360
66F94
  0
DICTIONARY
  5
9FD5
330
138F
100
AcDbDictionary
280
     1
281
     1
  3
ADSK_XREC_LAYER_RECONCILED
360
66F95
  0
DICTIONARY
  5
9FD7
330
1390
100
AcDbDictionary
280
     1
281
     1
  3
ADSK_XREC_LAYER_RECONCILED
360
66F96
  0
DICTIONARY
  5
9ACC
330
18
100
AcDbDictionary
280
     1
281
     1
  3
ACAD_SORTENTS
360
9ACD
  0
XRECORD
  5
650B5
102
{ACAD_REACTORS
330
C
102
}
330
C
100
AcDbXrecord
280
     1
300
ACDLT
300
2016
300
ACDLT_F_S
  0
DICTIONARY
  5
A12D
102
{ACAD_REACTORS
330
C
102
}
330
C
100
AcDbDictionary
281
     1
  0
DICTIONARY
  5
650B0
102
{ACAD_REACTORS
330
C
102
}
330
C
100
AcDbDictionary
281
     1
  3
Metric50
350
650B1
  0
DICTIONARY
  5
D
102
{ACAD_REACTORS
330
C
102
}
330
C
100
AcDbDictionary
281
     1
  0
DICTIONARY
  5
A0F4
102
{ACAD_REACTORS
330
C
102
}
330
C
100
AcDbDictionary
281
     1
  3
新しい画像 (7)
350
A0F6
  0
RASTERVARIABLES
  5
A0EC
102
{ACAD_REACTORS
330
C
102
}
330
C
100
AcDbRasterVariables
 90
        0
 70
     1
 71
     1
 72
     0
  0
DICTIONARY
  5
1C62
102
{ACAD_REACTORS
330
C
102
}
330
C
100
AcDbDictionary
281
     1
  3
Model
350
1C64
  3
ﾚｲｱｳﾄ1
350
1C65
  0
DICTIONARY
  5
A103
102
{ACAD_REACTORS
330
C
102
}
330
C
100
AcDbDictionary
281
     1
  3
ByBlock
350
A10C
  3
ByLayer
350
A104
  3
Global
350
A114
  0
DICTIONARY
  5
A130
102
{ACAD_REACTORS
330
C
102
}
330
C
100
AcDbDictionary
281
     1
  3
Standard
350
A131
  0
DICTIONARY
  5
E
102
{ACAD_REACTORS
330
C
102
}
330
C
100
AcDbDictionary
281
     1
  3
STANDARD
350
1B
  0
DICTIONARY
  5
1C63
102
{ACAD_REACTORS
330
C
102
}
330
C
100
AcDbDictionary
281
     1
  0
ACDBDICTIONARYWDFLT
  5
1C60
102
{ACAD_REACTORS
330
C
102
}
330
C
100
AcDbDictionary
281
     1
  3
Normal
350
1C61
100
AcDbDictionaryWithDefault
340
1C61
  0
DICTIONARY
  5
9FA7
102
{ACAD_REACTORS
330
C
102
}
330
C
100
AcDbDictionary
281
     1
  3
A0
350
9FA8
  3
A1
350
9FA9
  3
A2
350
9FAA
  3
A3
350
9FAB
  3
A4
350
9FAC
  3
A5
350
9FAD
  3
A6
350
9FAE
  3
A7
350
9FAF
  3
A8
350
9FB0
  3
A9
350
9FB1
  3
B0
350
9FB2
  3
B1
350
9FB3
  3
B2
350
9FB4
  3
B3
350
9FB5
  3
B4
350
9FB6
  3
B5
350
9FB7
  3
B6
350
9FB8
  3
B7
350
9FB9
  3
B8
350
9FBA
  3
B9
350
9FBB
  3
C0
350
9FBC
  3
C1
350
9FBD
  3
C2
350
9FBE
  3
C3
350
9FBF
  3
C4
350
9FC0
  3
C5
350
9FC1
  3
C6
350
9FC2
  3
C7
350
9FC3
  3
C8
350
9FC4
  3
C9
350
9FC5
  3
D0
350
9FC6
  3
D1
350
9FC7
  3
D2
350
9FC8
  0
DICTIONARY
  5
650AE
102
{ACAD_REACTORS
330
C
102
}
330
C
100
AcDbDictionary
281
     1
  3
Metric50
350
650AF
  0
DICTIONARY
  5
A12E
102
{ACAD_REACTORS
330
C
102
}
330
C
100
AcDbDictionary
281
     1
  3
Standard
350
A12F
  0
DICTIONARY
  5
A11C
102
{ACAD_REACTORS
330
C
102
}
330
C
100
AcDbDictionary
281
     1
  3
2dWireframe
350
A122
  3
3D Hidden
350
A124
  3
3dWireframe
350
A123
  3
Basic
350
A121
  3
Brighten
350
A128
  3
ColorChange
350
A12C
  3
Conceptual
350
A125
  3
Dim
350
A127
  3
EdgeColorOff
350
650AD
  3
Facepattern
350
A12B
  3
Flat
350
A11D
  3
FlatWithEdges
350
A11E
  3
Gouraud
350
A11F
  3
GouraudWithEdges
350
A120
  3
Hidden
350
650A5
  3
JitterOff
350
650AB
  3
Linepattern
350
A12A
  3
OverhangOff
350
650AC
  3
Realistic
350
A126
  3
Shaded
350
650AA
  3
Shaded with edges
350
650A9
  3
Shades of Gray
350
650A6
  3
Sketchy
350
650A7
  3
Thicken
350
A129
  3
Wireframe
350
650A4
  3
X-Ray
350
650A8
  0
XRECORD
  5
2219
102
{ACAD_REACTORS
330
C
102
}
330
C
100
AcDbXrecord
280
     1
 90
   990106
  3

 60
     4
 61
     0
 62
     1
 63
     3
 64
     0
 65
     0
 66
     1
 67
     3
 68
     1
 69
     0
 70
     0
 71
     0
 72
     0
 40
0.0
170
     1
  0
XRECORD
  5
672E3
102
{ACAD_REACTORS
330
C
102
}
330
C
100
AcDbXrecord
280
     1
 90
        1
330
A12F
  0
DICTIONARY
  5
1237
102
{ACAD_REACTORS
330
C
102
}
330
C
100
AcDbDictionary
281
     1
  3
CANNOSCALE
350
A101
  3
CMLEADERSTYLE
350
A2B4
  3
CTABLESTYLE
350
A2B3
  3
CVIEWDETAILSTYLE
350
65219
  3
CVIEWSECTIONSTYLE
350
6521A
  3
DIMASSOC
350
9CC6
  3
INDEXCTL
350
9CC5
  3
LIGHTINGUNITS
350
10561
  3
MSLTSCALE
350
10560
  3
SORTENTS
350
1238
  3
XCLIPFRAME
350
672E1
  0
DICTIONARY
  5
A0EB
102
{ACAD_REACTORS
330
C
102
}
330
C
100
AcDbDictionary
281
     1
  0
DICTIONARY
  5
322
102
{ACAD_REACTORS
330
C
102
}
330
C
100
AcDbDictionary
281
     1
  0
XRECORD
  5
672E4
102
{ACAD_REACTORS
330
C
102
}
330
C
100
AcDbXrecord
280
     1
  1
DWGPROPS COOKIE
  2

  3

  4

  6

  7

  8
kenichiro.yamamoto
  9

300
=
301
=
302
=
303
=
304
=
305
=
306
=
307
=
308
=
309
=
 40
0.1348807754629629
 41
2456939.429856644
 42
2458145.510383588
  1

 90
        0
  0
DICTIONARY
  5
A0DF
102
{ACAD_REACTORS
330
A0A3
102
}
330
A0A3
100
AcDbDictionary
281
     1
  0
DICTIONARY
  5
A0ED
102
{ACAD_REACTORS
330
A0A3
102
}
330
A0A3
100
AcDbDictionary
281
     1
  3
ARGON_LAYERP_1
350
A0EE
  0
DICTIONARY
  5
A0DE
102
{ACAD_REACTORS
330
A0A3
102
}
330
A0A3
100
AcDbDictionary
281
     1
1001
ACAD
1000
<All
  0
XRECORD
  5
66F93
102
{ACAD_REACTORS
330
9FD1
102
}
330
9FD1
100
AcDbXrecord
280
     1
290
     1
  0
XRECORD
  5
66F94
102
{ACAD_REACTORS
330
9FD3
102
}
330
9FD3
100
AcDbXrecord
280
     1
290
     1
  0
XRECORD
  5
66F95
102
{ACAD_REACTORS
330
9FD5
102
}
330
9FD5
100
AcDbXrecord
280
     1
290
     1
  0
XRECORD
  5
66F96
102
{ACAD_REACTORS
330
9FD7
102
}
330
9FD7
100
AcDbXrecord
280
     1
290
     1
  0
SORTENTSTABLE
  5
9ACD
102
{ACAD_REACTORS
330
9ACC
102
}
330
9ACC
100
AcDbSortentsTable
330
18
331
66E23
  5
66E23
331
66E30
  5
66E30
331
66E44
  5
66E44
331
66E3A
  5
66E3A
331
66E2B
  5
66E2B
331
66E36
  5
66E36
331
66E31
  5
66E31
331
66E3B
  5
66E3B
331
66E45
  5
66E45
331
66E24
  5
66E24
331
66E40
  5
66E40
331
66E2C
  5
66E2C
331
66E37
  5
66E37
331
FE2
  5
FE2
331
66E32
  5
66E32
331
66E3C
  5
66E3C
331
218A
  5
218A
331
66E25
  5
66E25
331
66E20
  5
66E20
331
66E41
  5
66E41
331
66E2D
  5
66E2D
331
66E33
  5
66E33
331
66E3D
  5
66E3D
331
6694B
  5
6694B
331
66E28
  5
66E28
331
66E26
  5
66E26
331
66E21
  5
66E21
331
66E42
  5
66E42
331
66E2E
  5
66E2E
331
66E38
  5
66E38
331
64F70
  5
64F70
331
66E34
  5
66E34
331
FDF
  5
FDF
331
66E3E
  5
66E3E
331
66E29
  5
66E29
331
66E27
  5
66E27
331
66E22
  5
66E22
331
66E2F
  5
66E2F
331
66E43
  5
66E43
331
66E39
  5
66E39
331
64F71
  5
64F71
331
66E3F
  5
66E3F
331
66E2A
  5
66E2A
331
66E35
  5
66E35
  0
ACDBDETAILVIEWSTYLE
  5
650B1
102
{ACAD_XDICTIONARY
360
67320
102
}
102
{ACAD_REACTORS
330
650B0
102
}
330
650B0
100
AcDbModelDocViewStyle
 70
     0
  3
Metric50
290
     0
100
AcDbDetailViewStyle
 70
     0
 71
     0
 90
        3
 71
     1
340
10
 40
5.0
340
0
 40
5.0
300

 40
0.0
280
     1
 71
     2
340
14
 90
       25
 71
     3
340
10
 40
5.0
 90
        0
 40
15.0
 90
        1
300
%<\AcVar ViewDetailId>% (%<\AcVar ViewScale \f "%sn">%)
 71
     4
340
14
 90
       25
340
14
 90
       25
280
     0
  0
IMAGEDEF
  5
A0F6
102
{ACAD_REACTORS
330
A0F4
102
}
330
A0F4
100
AcDbRasterImageDef
 90
        0
  1
D:\My Documents\My Pictures\新しい画像 (7).bmp
 10
736.0
 20
463.0
 11
0.0013586956521739
 21
0.0013586956521739
280
     1
281
     0
  0
LAYOUT
  5
1C64
102
{ACAD_XDICTIONARY
360
672E5
102
}
102
{ACAD_REACTORS
330
1C62
102
}
330
1C62
100
AcDbPlotSettings
  1

  2
\\YAMA2003\RICOH IPSiO SP C810 RPCS
  4
A4
  6

 40
5.873749732971191
 41
5.873747825622557
 42
5.873748779296875
 43
5.873748779296875
 44
209.9733276367186
 45
296.9259948730469
 46
14.51446267338023
 47
0.0
 48
1029.050397903912
 49
-361.8847639081487
140
1239.375199993734
141
-237.098689511352
142
1.0
143
0.7375198458758714
 70
 11956
 72
     1
 73
     1
 74
     4
  7
canon00.ctb
 75
     0
147
1.355895716694115
148
-1029.050397903912
149
361.8847639081487
100
AcDbLayout
  1
Model
 70
     1
 71
     0
 10
0.0
 20
0.0
 11
12.0
 21
9.0
 12
0.0
 22
0.0
 32
0.0
 14
0.0
 24
0.0
 34
0.0
 15
0.0
 25
0.0
 35
0.0
146
0.0
 13
0.0
 23
0.0
 33
0.0
 16
1.0
 26
0.0
 36
0.0
 17
0.0
 27
1.0
 37
0.0
 76
     0
330
18
331
8F41
1001
ACAD_PSEXT
1000
\\YAMA2003\RICOH IPSiO SP C810 RPCS
1000
RICOH IPSiO SP C810 RPCS
1000
ツバキ山久チエイン㈱久喜工場　事務所
1000
RPCS Driver (Windows 2000/XP/Server 2003)
1070
     0
  0
LAYOUT
  5
1C65
102
{ACAD_XDICTIONARY
360
672E7
102
}
102
{ACAD_REACTORS
330
1C62
102
}
330
1C62
100
AcDbPlotSettings
  1

  2
\\TECH-SERVER\Canon
  4

  6

 40
0.0
 41
0.0
 42
0.0
 43
0.0
 44
0.0
 45
0.0
 46
0.0
 47
0.0
 48
0.0
 49
0.0
140
0.0
141
0.0
142
1.0
143
1.0
 70
   688
 72
     0
 73
     0
 74
     5
  7
030127.ctb
 75
    16
147
1.0
148
0.0
149
0.0
100
AcDbLayout
  1
ﾚｲｱｳﾄ1
 70
     1
 71
     1
 10
0.0
 20
0.0
 11
420.0
 21
297.0
 12
0.0
 22
0.0
 32
0.0
 14
1.000000000000000E+20
 24
1.000000000000000E+20
 34
1.000000000000000E+20
 15
-1.000000000000000E+20
 25
-1.000000000000000E+20
 35
-1.000000000000000E+20
146
0.0
 13
0.0
 23
0.0
 33
0.0
 16
1.0
 26
0.0
 36
0.0
 17
0.0
 27
1.0
 37
0.0
 76
     0
330
15
  0
MATERIAL
  5
A10C
102
{ACAD_XDICTIONARY
360
A10D
102
}
102
{ACAD_REACTORS
330
A103
102
}
330
A103
100
AcDbMaterial
  1
ByBlock
 72
     0
 43
0.0208333333333333
 43
0.0
 43
0.0
 43
0.0
 43
0.0
 43
0.0208333333333333
 43
0.0
 43
0.0
 43
0.0
 43
0.0
 43
1.0
 43
0.0
 43
0.0
 43
0.0
 43
0.0
 43
1.0
 77
     0
 47
0.0208333333333333
 47
0.0
 47
0.0
 47
0.0
 47
0.0
 47
0.0208333333333333
 47
0.0
 47
0.0
 47
0.0
 47
0.0
 47
1.0
 47
0.0
 47
0.0
 47
0.0
 47
0.0
 47
1.0
171
     0
 49
0.0208333333333333
 49
0.0
 49
0.0
 49
0.0
 49
0.0
 49
0.0208333333333333
 49
0.0
 49
0.0
 49
0.0
 49
0.0
 49
1.0
 49
0.0
 49
0.0
 49
0.0
 49
0.0
 49
1.0
175
     0
142
0.0208333333333333
142
0.0
142
0.0
142
0.0
142
0.0
142
0.0208333333333333
142
0.0
142
0.0
142
0.0
142
0.0
142
1.0
142
0.0
142
0.0
142
0.0
142
0.0
142
1.0
179
     0
144
0.0208333333333333
144
0.0
144
0.0
144
0.0
144
0.0
144
0.0208333333333333
144
0.0
144
0.0
144
0.0
144
0.0
144
1.0
144
0.0
144
0.0
144
0.0
144
0.0
144
1.0
147
0.0208333333333333
147
0.0
147
0.0
147
0.0
147
0.0
147
0.0208333333333333
147
0.0
147
0.0
147
0.0
147
0.0
147
1.0
147
0.0
147
0.0
147
0.0
147
0.0
147
1.0
  0
MATERIAL
  5
A104
102
{ACAD_XDICTIONARY
360
A105
102
}
102
{ACAD_REACTORS
330
A103
102
}
330
A103
100
AcDbMaterial
  1
ByLayer
 72
     0
 43
0.0208333333333333
 43
0.0
 43
0.0
 43
0.0
 43
0.0
 43
0.0208333333333333
 43
0.0
 43
0.0
 43
0.0
 43
0.0
 43
1.0
 43
0.0
 43
0.0
 43
0.0
 43
0.0
 43
1.0
 77
     0
 47
0.0208333333333333
 47
0.0
 47
0.0
 47
0.0
 47
0.0
 47
0.0208333333333333
 47
0.0
 47
0.0
 47
0.0
 47
0.0
 47
1.0
 47
0.0
 47
0.0
 47
0.0
 47
0.0
 47
1.0
171
     0
 49
0.0208333333333333
 49
0.0
 49
0.0
 49
0.0
 49
0.0
 49
0.0208333333333333
 49
0.0
 49
0.0
 49
0.0
 49
0.0
 49
1.0
 49
0.0
 49
0.0
 49
0.0
 49
0.0
 49
1.0
175
     0
142
0.0208333333333333
142
0.0
142
0.0
142
0.0
142
0.0
142
0.0208333333333333
142
0.0
142
0.0
142
0.0
142
0.0
142
1.0
142
0.0
142
0.0
142
0.0
142
0.0
142
1.0
179
     0
144
0.0208333333333333
144
0.0
144
0.0
144
0.0
144
0.0
144
0.0208333333333333
144
0.0
144
0.0
144
0.0
144
0.0
144
1.0
144
0.0
144
0.0
144
0.0
144
0.0
144
1.0
147
0.0208333333333333
147
0.0
147
0.0
147
0.0
147
0.0
147
0.0208333333333333
147
0.0
147
0.0
147
0.0
147
0.0
147
1.0
147
0.0
147
0.0
147
0.0
147
0.0
147
1.0
  0
MATERIAL
  5
A114
102
{ACAD_XDICTIONARY
360
A115
102
}
102
{ACAD_REACTORS
330
A103
102
}
330
A103
100
AcDbMaterial
  1
Global
 72
     0
 43
0.0208333333333333
 43
0.0
 43
0.0
 43
0.0
 43
0.0
 43
0.0208333333333333
 43
0.0
 43
0.0
 43
0.0
 43
0.0
 43
1.0
 43
0.0
 43
0.0
 43
0.0
 43
0.0
 43
1.0
 77
     0
 47
0.0208333333333333
 47
0.0
 47
0.0
 47
0.0
 47
0.0
 47
0.0208333333333333
 47
0.0
 47
0.0
 47
0.0
 47
0.0
 47
1.0
 47
0.0
 47
0.0
 47
0.0
 47
0.0
 47
1.0
171
     0
 49
0.0208333333333333
 49
0.0
 49
0.0
 49
0.0
 49
0.0
 49
0.0208333333333333
 49
0.0
 49
0.0
 49
0.0
 49
0.0
 49
1.0
 49
0.0
 49
0.0
 49
0.0
 49
0.0
 49
1.0
175
     0
142
0.0208333333333333
142
0.0
142
0.0
142
0.0
142
0.0
142
0.0208333333333333
142
0.0
142
0.0
142
0.0
142
0.0
142
1.0
142
0.0
142
0.0
142
0.0
142
0.0
142
1.0
179
     0
144
0.0208333333333333
144
0.0
144
0.0
144
0.0
144
0.0
144
0.0208333333333333
144
0.0
144
0.0
144
0.0
144
0.0
144
1.0
144
0.0
144
0.0
144
0.0
144
0.0
144
1.0
147
0.0208333333333333
147
0.0
147
0.0
147
0.0
147
0.0
147
0.0208333333333333
147
0.0
147
0.0
147
0.0
147
0.0
147
1.0
147
0.0
147
0.0
147
0.0
147
0.0
147
1.0
  0
MLEADERSTYLE
  5
A131
102
{ACAD_REACTORS
330
A130
102
}
330
A130
100
AcDbMLeaderStyle
170
     2
171
     1
172
     0
 90
        2
 40
0.0
 41
0.0
173
     1
 91
-1056964608
340
12
 92
       -2
290
     1
 42
2.0
291
     1
 43
0.36
  3
Standard
 44
4.0
300

342
10
174
     1
178
     6
175
     1
176
     0
 93
-1056964608
 45
4.0
292
     0
297
     0
 46
4.0
 94
-1056964608
 47
1.0
 49
1.0
140
1.0
293
     1
141
0.0
294
     1
177
     0
142
1.0
295
     0
296
     0
143
0.125
1001
ACAD
1000
AcRTDxfName
1000
MLEADERSTYLE
1001
ACAD_MLEADERVER
1070
     2
  0
MLINESTYLE
  5
1B
102
{ACAD_REACTORS
330
E
102
}
330
E
100
AcDbMlineStyle
  2
STANDARD
 70
     0
  3

 62
     0
 51
90.0
 52
90.0
 71
     2
 49
0.5
 62
   256
  6
BYLAYER
 49
-0.5
 62
   256
  6
BYLAYER
  0
ACDBPLACEHOLDER
  5
1C61
102
{ACAD_REACTORS
330
1C60
102
}
330
1C60
  0
SCALE
  5
9FA8
102
{ACAD_REACTORS
330
9FA7
102
}
330
9FA7
100
AcDbScale
 70
     0
300
1:1
140
1.0
141
1.0
290
     1
1001
ACAD
1000
AcRTDxfName
1000
SCALE
  0
SCALE
  5
9FA9
102
{ACAD_REACTORS
330
9FA7
102
}
330
9FA7
100
AcDbScale
 70
     0
300
1:2
140
1.0
141
2.0
290
     0
1001
ACAD
1000
AcRTDxfName
1000
SCALE
  0
SCALE
  5
9FAA
102
{ACAD_REACTORS
330
9FA7
102
}
330
9FA7
100
AcDbScale
 70
     0
300
1:4
140
1.0
141
4.0
290
     0
1001
ACAD
1000
AcRTDxfName
1000
SCALE
  0
SCALE
  5
9FAB
102
{ACAD_REACTORS
330
9FA7
102
}
330
9FA7
100
AcDbScale
 70
     0
300
1:5
140
1.0
141
5.0
290
     0
1001
ACAD
1000
AcRTDxfName
1000
SCALE
  0
SCALE
  5
9FAC
102
{ACAD_REACTORS
330
9FA7
102
}
330
9FA7
100
AcDbScale
 70
     0
300
1:8
140
1.0
141
8.0
290
     0
1001
ACAD
1000
AcRTDxfName
1000
SCALE
  0
SCALE
  5
9FAD
102
{ACAD_REACTORS
330
9FA7
102
}
330
9FA7
100
AcDbScale
 70
     0
300
1:10
140
1.0
141
10.0
290
     0
1001
ACAD
1000
AcRTDxfName
1000
SCALE
  0
SCALE
  5
9FAE
102
{ACAD_REACTORS
330
9FA7
102
}
330
9FA7
100
AcDbScale
 70
     0
300
1:16
140
1.0
141
16.0
290
     0
1001
ACAD
1000
AcRTDxfName
1000
SCALE
  0
SCALE
  5
9FAF
102
{ACAD_REACTORS
330
9FA7
102
}
330
9FA7
100
AcDbScale
 70
     0
300
1:20
140
1.0
141
20.0
290
     0
1001
ACAD
1000
AcRTDxfName
1000
SCALE
  0
SCALE
  5
9FB0
102
{ACAD_REACTORS
330
9FA7
102
}
330
9FA7
100
AcDbScale
 70
     0
300
1:30
140
1.0
141
30.0
290
     0
1001
ACAD
1000
AcRTDxfName
1000
SCALE
  0
SCALE
  5
9FB1
102
{ACAD_REACTORS
330
9FA7
102
}
330
9FA7
100
AcDbScale
 70
     0
300
1:40
140
1.0
141
40.0
290
     0
1001
ACAD
1000
AcRTDxfName
1000
SCALE
  0
SCALE
  5
9FB2
102
{ACAD_REACTORS
330
9FA7
102
}
330
9FA7
100
AcDbScale
 70
     0
300
1:50
140
1.0
141
50.0
290
     0
1001
ACAD
1000
AcRTDxfName
1000
SCALE
  0
SCALE
  5
9FB3
102
{ACAD_REACTORS
330
9FA7
102
}
330
9FA7
100
AcDbScale
 70
     0
300
1:100
140
1.0
141
100.0
290
     0
1001
ACAD
1000
AcRTDxfName
1000
SCALE
  0
SCALE
  5
9FB4
102
{ACAD_REACTORS
330
9FA7
102
}
330
9FA7
100
AcDbScale
 70
     0
300
2:1
140
2.0
141
1.0
290
     0
1001
ACAD
1000
AcRTDxfName
1000
SCALE
  0
SCALE
  5
9FB5
102
{ACAD_REACTORS
330
9FA7
102
}
330
9FA7
100
AcDbScale
 70
     0
300
4:1
140
4.0
141
1.0
290
     0
1001
ACAD
1000
AcRTDxfName
1000
SCALE
  0
SCALE
  5
9FB6
102
{ACAD_REACTORS
330
9FA7
102
}
330
9FA7
100
AcDbScale
 70
     0
300
8:1
140
8.0
141
1.0
290
     0
1001
ACAD
1000
AcRTDxfName
1000
SCALE
  0
SCALE
  5
9FB7
102
{ACAD_REACTORS
330
9FA7
102
}
330
9FA7
100
AcDbScale
 70
     0
300
10:1
140
10.0
141
1.0
290
     0
1001
ACAD
1000
AcRTDxfName
1000
SCALE
  0
SCALE
  5
9FB8
102
{ACAD_REACTORS
330
9FA7
102
}
330
9FA7
100
AcDbScale
 70
     0
300
100:1
140
100.0
141
1.0
290
     0
1001
ACAD
1000
AcRTDxfName
1000
SCALE
  0
SCALE
  5
9FB9
102
{ACAD_REACTORS
330
9FA7
102
}
330
9FA7
100
AcDbScale
 70
     0
300
1/128" = 1'-0"
140
0.0078125
141
12.0
290
     0
1001
ACAD
1000
AcRTDxfName
1000
SCALE
  0
SCALE
  5
9FBA
102
{ACAD_REACTORS
330
9FA7
102
}
330
9FA7
100
AcDbScale
 70
     0
300
1/64" = 1'-0"
140
0.015625
141
12.0
290
     0
1001
ACAD
1000
AcRTDxfName
1000
SCALE
  0
SCALE
  5
9FBB
102
{ACAD_REACTORS
330
9FA7
102
}
330
9FA7
100
AcDbScale
 70
     0
300
1/32" = 1'-0"
140
0.03125
141
12.0
290
     0
1001
ACAD
1000
AcRTDxfName
1000
SCALE
  0
SCALE
  5
9FBC
102
{ACAD_REACTORS
330
9FA7
102
}
330
9FA7
100
AcDbScale
 70
     0
300
1/16" = 1'-0"
140
0.0625
141
12.0
290
     0
1001
ACAD
1000
AcRTDxfName
1000
SCALE
  0
SCALE
  5
9FBD
102
{ACAD_REACTORS
330
9FA7
102
}
330
9FA7
100
AcDbScale
 70
     0
300
3/32" = 1'-0"
140
0.09375
141
12.0
290
     0
1001
ACAD
1000
AcRTDxfName
1000
SCALE
  0
SCALE
  5
9FBE
102
{ACAD_REACTORS
330
9FA7
102
}
330
9FA7
100
AcDbScale
 70
     0
300
1/8" = 1'-0"
140
0.125
141
12.0
290
     0
1001
ACAD
1000
AcRTDxfName
1000
SCALE
  0
SCALE
  5
9FBF
102
{ACAD_REACTORS
330
9FA7
102
}
330
9FA7
100
AcDbScale
 70
     0
300
3/16" = 1'-0"
140
0.1875
141
12.0
290
     0
1001
ACAD
1000
AcRTDxfName
1000
SCALE
  0
SCALE
  5
9FC0
102
{ACAD_REACTORS
330
9FA7
102
}
330
9FA7
100
AcDbScale
 70
     0
300
1/4" = 1'-0"
140
0.25
141
12.0
290
     0
1001
ACAD
1000
AcRTDxfName
1000
SCALE
  0
SCALE
  5
9FC1
102
{ACAD_REACTORS
330
9FA7
102
}
330
9FA7
100
AcDbScale
 70
     0
300
3/8" = 1'-0"
140
0.375
141
12.0
290
     0
1001
ACAD
1000
AcRTDxfName
1000
SCALE
  0
SCALE
  5
9FC2
102
{ACAD_REACTORS
330
9FA7
102
}
330
9FA7
100
AcDbScale
 70
     0
300
1/2" = 1'-0"
140
0.5
141
12.0
290
     0
1001
ACAD
1000
AcRTDxfName
1000
SCALE
  0
SCALE
  5
9FC3
102
{ACAD_REACTORS
330
9FA7
102
}
330
9FA7
100
AcDbScale
 70
     0
300
3/4" = 1'-0"
140
0.75
141
12.0
290
     0
1001
ACAD
1000
AcRTDxfName
1000
SCALE
  0
SCALE
  5
9FC4
102
{ACAD_REACTORS
330
9FA7
102
}
330
9FA7
100
AcDbScale
 70
     0
300
1" = 1'-0"
140
1.0
141
12.0
290
     0
1001
ACAD
1000
AcRTDxfName
1000
SCALE
  0
SCALE
  5
9FC5
102
{ACAD_REACTORS
330
9FA7
102
}
330
9FA7
100
AcDbScale
 70
     0
300
1-1/2" = 1'-0"
140
1.5
141
12.0
290
     0
1001
ACAD
1000
AcRTDxfName
1000
SCALE
  0
SCALE
  5
9FC6
102
{ACAD_REACTORS
330
9FA7
102
}
330
9FA7
100
AcDbScale
 70
     0
300
3" = 1'-0"
140
3.0
141
12.0
290
     0
1001
ACAD
1000
AcRTDxfName
1000
SCALE
  0
SCALE
  5
9FC7
102
{ACAD_REACTORS
330
9FA7
102
}
330
9FA7
100
AcDbScale
 70
     0
300
6" = 1'-0"
140
6.0
141
12.0
290
     0
1001
ACAD
1000
AcRTDxfName
1000
SCALE
  0
SCALE
  5
9FC8
102
{ACAD_REACTORS
330
9FA7
102
}
330
9FA7
100
AcDbScale
 70
     0
300
1'-0" = 1'-0"
140
12.0
141
12.0
290
     0
1001
ACAD
1000
AcRTDxfName
1000
SCALE
  0
ACDBSECTIONVIEWSTYLE
  5
650AF
102
{ACAD_XDICTIONARY
360
6731E
102
}
102
{ACAD_REACTORS
330
650AE
102
}
330
650AE
100
AcDbModelDocViewStyle
 70
     0
  3
Metric50
290
     0
100
AcDbSectionViewStyle
 70
     0
 71
     0
 90
      102
 71
     1
340
10
 40
5.0
340
0
340
0
 40
5.0
300
I, O, Q, S, X, Z
 40
10.0
 90
        0
 40
2.5
 90
        0
 71
     2
340
14
 90
       25
340
14
 90
       50
 40
5.0
 40
2.5
 40
5.0
 71
     3
340
10
 40
5.0
 90
        0
 40
15.0
 90
        1
300
%<\AcVar ViewSectionStartId>%-%<\AcVar ViewSectionEndId>% (%<\AcVar ViewScale \f "%sn">%)
 71
     4
300
ANSI31
 40
1.0
 90
        0
290
     0
290
     0
 90
        6
 40
0.0
 40
1.570796326794896
 40
0.2617993877991494
 40
1.308996938995747
 40
-0.2617993877991494
 40
1.832595714594044
  0
TABLESTYLE
  5
A12F
102
{ACAD_XDICTIONARY
360
A2B5
102
}
102
{ACAD_REACTORS
330
A12E
102
}
330
A12E
100
AcDbTableStyle
  3
Standard
 70
     0
 71
     0
 40
1.5
 41
1.5
280
     0
281
     0
  7
STANDARD
140
4.5
170
     2
 62
     0
 63
     7
283
     0
274
    -2
284
     1
 64
     0
275
    -2
285
     1
 65
     0
276
    -2
286
     1
 66
     0
277
    -2
287
     1
 67
     0
278
    -2
288
     1
 68
     0
279
    -2
289
     1
 69
     0
  7
STANDARD
140
6.0
170
     5
 62
     0
 63
     7
283
     0
274
    -2
284
     1
 64
     0
275
    -2
285
     1
 65
     0
276
    -2
286
     1
 66
     0
277
    -2
287
     1
 67
     0
278
    -2
288
     1
 68
     0
279
    -2
289
     1
 69
     0
  7
STANDARD
140
4.5
170
     5
 62
     0
 63
     7
283
     0
274
    -2
284
     1
 64
     0
275
    -2
285
     1
 65
     0
276
    -2
286
     1
 66
     0
277
    -2
287
     1
 67
     0
278
    -2
288
     1
 68
     0
279
    -2
289
     1
 69
     0
  0
VISUALSTYLE
  5
A122
102
{ACAD_XDICTIONARY
360
672F3
102
}
102
{ACAD_REACTORS
330
A11C
102
}
330
A11C
100
AcDbVisualStyle
  2

 70
     4
 71
     0
 72
     2
 73
     0
 90
        0
 40
-0.6
 41
-30.0
 62
     5
 63
     7
 74
     1
 91
        4
 64
     7
 65
   257
 75
     1
175
     1
 42
1.0
 92
        0
 66
   257
 43
1.0
 76
     1
 77
     6
 78
     2
 67
     7
 79
     5
170
     0
171
     0
290
     0
174
     0
 93
        1
 44
0.0
173
     0
291
     0
 45
0.0
1001
ACAD
1000
AcDbSavedByObjectVersion
1070
     0
  0
VISUALSTYLE
  5
A124
102
{ACAD_XDICTIONARY
360
672F7
102
}
102
{ACAD_REACTORS
330
A11C
102
}
330
A11C
100
AcDbVisualStyle
  2

 70
     6
 71
     1
 72
     2
 73
     2
 90
        0
 40
-0.6
 41
-30.0
 62
     5
 63
     7
 74
     2
 91
        2
 64
     7
 65
   257
 75
     2
175
     1
 42
40.0
 92
        0
 66
   257
 43
1.0
 76
     1
 77
     6
 78
     2
 67
     7
 79
     3
170
     0
171
     0
290
     0
174
     0
 93
        1
 44
0.0
173
     0
291
     0
 45
0.0
1001
ACAD
1000
AcDbSavedByObjectVersion
1070
     0
  0
VISUALSTYLE
  5
A123
102
{ACAD_XDICTIONARY
360
672F5
102
}
102
{ACAD_REACTORS
330
A11C
102
}
330
A11C
100
AcDbVisualStyle
  2

 70
     5
 71
     0
 72
     2
 73
     0
 90
        0
 40
-0.6
 41
-30.0
 62
     5
 63
     7
 74
     1
 91
        4
 64
     7
 65
   257
 75
     1
175
     1
 42
1.0
 92
        0
 66
   257
 43
1.0
 76
     1
 77
     6
 78
     2
 67
     7
 79
     5
170
     0
171
     0
290
     0
174
     0
 93
        1
 44
0.0
173
     0
291
     0
 45
0.0
1001
ACAD
1000
AcDbSavedByObjectVersion
1070
     0
  0
VISUALSTYLE
  5
A121
102
{ACAD_XDICTIONARY
360
672F1
102
}
102
{ACAD_REACTORS
330
A11C
102
}
330
A11C
100
AcDbVisualStyle
  2

 70
     7
 71
     1
 72
     0
 73
     1
 90
        0
 40
-0.6
 41
-30.0
 62
     5
 63
     7
 74
     0
 91
        4
 64
     7
 65
   257
 75
     1
175
     1
 42
1.0
 92
        8
 66
     7
 43
1.0
 76
     1
 77
     6
 78
     2
 67
     7
 79
     5
170
     0
171
     0
290
     0
174
     0
 93
        1
 44
0.0
173
     0
291
     1
 45
0.0
1001
ACAD
1000
AcDbSavedByObjectVersion
1070
     0
  0
VISUALSTYLE
  5
A128
102
{ACAD_XDICTIONARY
360
672FF
102
}
102
{ACAD_REACTORS
330
A11C
102
}
330
A11C
100
AcDbVisualStyle
  2

 70
    12
 71
     2
 72
     2
 73
     0
 90
        0
 40
-0.6
 41
-30.0
 62
     5
 63
     7
 74
     1
 91
        4
 64
     7
 65
   257
 75
     1
175
     1
 42
1.0
 92
        8
 66
     7
 43
1.0
 76
     1
 77
     6
 78
     2
 67
     7
 79
     5
170
     0
171
     0
290
     0
174
     0
 93
        1
 44
50.0
173
     0
291
     1
 45
0.0
1001
ACAD
1000
AcDbSavedByObjectVersion
1070
     0
  0
VISUALSTYLE
  5
A12C
102
{ACAD_XDICTIONARY
360
67307
102
}
102
{ACAD_REACTORS
330
A11C
102
}
330
A11C
100
AcDbVisualStyle
  2

 70
    16
 71
     2
 72
     2
 73
     3
 90
        0
 40
-0.6
 41
-30.0
 62
     5
 63
     8
 74
     1
 91
        4
 64
     7
 65
   257
 75
     1
175
     1
 42
1.0
 92
        8
 66
     8
 43
1.0
 76
     1
 77
     6
 78
     2
 67
     7
 79
     5
170
     0
171
     0
290
     0
174
     0
 93
        1
 44
0.0
173
     0
291
     1
 45
0.0
1001
ACAD
1000
AcDbSavedByObjectVersion
1070
     0
  0
VISUALSTYLE
  5
A125
102
{ACAD_XDICTIONARY
360
672F9
102
}
102
{ACAD_REACTORS
330
A11C
102
}
330
A11C
100
AcDbVisualStyle
  2

 70
     9
 71
     3
 72
     2
 73
     0
 90
        0
 40
-0.6
 41
-30.0
 62
     5
 63
     7
 74
     2
 91
        2
 64
     7
 65
   257
 75
     1
175
     1
 42
40.0
 92
        8
 66
     7
 43
1.0
 76
     1
 77
     6
 78
     2
 67
     7
 79
     3
170
     0
171
     0
290
     0
174
     0
 93
        1
 44
0.0
173
     0
291
     0
 45
0.0
1001
ACAD
1000
AcDbSavedByObjectVersion
1070
     0
  0
VISUALSTYLE
  5
A127
102
{ACAD_XDICTIONARY
360
672FD
102
}
102
{ACAD_REACTORS
330
A11C
102
}
330
A11C
100
AcDbVisualStyle
  2

 70
    11
 71
     2
 72
     2
 73
     0
 90
        0
 40
-0.6
 41
-30.0
 62
     5
 63
     7
 74
     1
 91
        4
 64
     7
 65
   257
 75
     1
175
     1
 42
1.0
 92
        8
 66
     7
 43
1.0
 76
     1
 77
     6
 78
     2
 67
     7
 79
     5
170
     0
171
     0
290
     0
174
     0
 93
        1
 44
-50.0
173
     0
291
     1
 45
0.0
1001
ACAD
1000
AcDbSavedByObjectVersion
1070
     0
  0
VISUALSTYLE
  5
650AD
102
{ACAD_XDICTIONARY
360
6731C
102
}
102
{ACAD_REACTORS
330
A11C
102
}
330
A11C
100
AcDbVisualStyle
  2

 70
    22
 71
     2
 72
     2
 73
     0
 90
        0
 40
-0.6
 41
-30.0
 62
     5
 63
     7
 74
     1
 91
        4
 64
     7
 65
   257
 75
     1
175
     1
 42
1.0
 92
        8
 66
     7
 43
1.0
 76
     1
 77
     6
 78
     2
 67
     7
 79
     5
170
     0
171
     0
290
     0
174
     0
 93
        1
 44
0.0
173
     0
291
     1
 45
0.0
1001
ACAD
1000
AcDbSavedByObjectVersion
1070
     0
  0
VISUALSTYLE
  5
A12B
102
{ACAD_XDICTIONARY
360
67305
102
}
102
{ACAD_REACTORS
330
A11C
102
}
330
A11C
100
AcDbVisualStyle
  2

 70
    15
 71
     2
 72
     2
 73
     0
 90
        0
 40
-0.6
 41
-30.0
 62
     5
 63
     7
 74
     1
 91
        4
 64
     7
 65
   257
 75
     1
175
     1
 42
1.0
 92
        8
 66
     7
 43
1.0
 76
     1
 77
     6
 78
     2
 67
     7
 79
     5
170
     0
171
     0
290
     0
174
     0
 93
        1
 44
0.0
173
     0
291
     1
 45
0.0
1001
ACAD
1000
AcDbSavedByObjectVersion
1070
     0
  0
VISUALSTYLE
  5
A11D
102
{ACAD_XDICTIONARY
360
672E9
102
}
102
{ACAD_REACTORS
330
A11C
102
}
330
A11C
100
AcDbVisualStyle
  2

 70
     0
 71
     2
 72
     1
 73
     1
 90
        2
 40
-0.6
 41
30.0
 62
     5
 63
     7
 74
     0
 91
        4
 64
     7
 65
   257
 75
     1
175
     1
 42
1.0
 92
        8
 66
     7
 43
1.0
 76
     1
 77
     6
 78
     2
 67
     7
 79
     5
170
     0
171
     0
290
     0
174
     0
 93
       13
 44
0.0
173
     0
291
     1
 45
0.0
1001
ACAD
1000
AcDbSavedByObjectVersion
1070
     0
  0
VISUALSTYLE
  5
A11E
102
{ACAD_XDICTIONARY
360
672EB
102
}
102
{ACAD_REACTORS
330
A11C
102
}
330
A11C
100
AcDbVisualStyle
  2

 70
     1
 71
     2
 72
     1
 73
     1
 90
        2
 40
-0.6
 41
30.0
 62
     5
 63
     7
 74
     1
 91
        4
 64
     7
 65
   257
 75
     1
175
     1
 42
1.0
 92
        0
 66
   257
 43
1.0
 76
     1
 77
     6
 78
     2
 67
     7
 79
     5
170
     0
171
     0
290
     0
174
     0
 93
       13
 44
0.0
173
     0
291
     1
 45
0.0
1001
ACAD
1000
AcDbSavedByObjectVersion
1070
     0
  0
VISUALSTYLE
  5
A11F
102
{ACAD_XDICTIONARY
360
672ED
102
}
102
{ACAD_REACTORS
330
A11C
102
}
330
A11C
100
AcDbVisualStyle
  2

 70
     2
 71
     2
 72
     2
 73
     1
 90
        2
 40
-0.6
 41
30.0
 62
     5
 63
     7
 74
     0
 91
        4
 64
     7
 65
   257
 75
     1
175
     1
 42
1.0
 92
        0
 66
     7
 43
1.0
 76
     1
 77
     6
 78
     2
 67
     7
 79
     5
170
     0
171
     0
290
     0
174
     0
 93
       13
 44
0.0
173
     0
291
     1
 45
0.0
1001
ACAD
1000
AcDbSavedByObjectVersion
1070
     0
  0
VISUALSTYLE
  5
A120
102
{ACAD_XDICTIONARY
360
672EF
102
}
102
{ACAD_REACTORS
330
A11C
102
}
330
A11C
100
AcDbVisualStyle
  2

 70
     3
 71
     2
 72
     2
 73
     1
 90
        2
 40
-0.6
 41
30.0
 62
     5
 63
     7
 74
     1
 91
        4
 64
     7
 65
   257
 75
     1
175
     1
 42
1.0
 92
        0
 66
   257
 43
1.0
 76
     1
 77
     6
 78
     2
 67
     7
 79
     5
170
     0
171
     0
290
     0
174
     0
 93
       13
 44
0.0
173
     0
291
     1
 45
0.0
1001
ACAD
1000
AcDbSavedByObjectVersion
1070
     0
  0
VISUALSTYLE
  5
650A5
102
{ACAD_XDICTIONARY
360
6730C
102
}
102
{ACAD_REACTORS
330
A11C
102
}
330
A11C
100
AcDbVisualStyle
  2

 70
     6
 71
     1
 72
     2
 73
     2
 90
        0
 40
-0.6
 41
-30.0
 62
     5
 63
     7
 74
     2
 91
        2
 64
     7
 65
   257
 75
     2
175
     1
 42
40.0
 92
        0
 66
   257
 43
1.0
 76
     1
 77
     6
 78
     2
 67
     7
 79
     3
170
     0
171
     0
290
     0
174
     0
 93
        1
 44
0.0
173
     0
291
     0
 45
0.0
1001
ACAD
1000
AcDbSavedByObjectVersion
1070
     0
  0
VISUALSTYLE
  5
650AB
102
{ACAD_XDICTIONARY
360
67318
102
}
102
{ACAD_REACTORS
330
A11C
102
}
330
A11C
100
AcDbVisualStyle
  2

 70
    20
 71
     2
 72
     2
 73
     0
 90
        0
 40
-0.6
 41
-30.0
 62
     5
 63
     7
 74
     1
 91
        4
 64
     7
 65
   257
 75
     1
175
     1
 42
1.0
 92
       10
 66
     7
 43
1.0
 76
     1
 77
     6
 78
     2
 67
     7
 79
     5
170
     0
171
     0
290
     0
174
     0
 93
        1
 44
0.0
173
     0
291
     1
 45
0.0
1001
ACAD
1000
AcDbSavedByObjectVersion
1070
     0
  0
VISUALSTYLE
  5
A12A
102
{ACAD_XDICTIONARY
360
67303
102
}
102
{ACAD_REACTORS
330
A11C
102
}
330
A11C
100
AcDbVisualStyle
  2

 70
    14
 71
     2
 72
     2
 73
     0
 90
        0
 40
-0.6
 41
-30.0
 62
     5
 63
     7
 74
     1
 91
        4
 64
     7
 65
   257
 75
     7
175
     7
 42
1.0
 92
        8
 66
     7
 43
1.0
 76
     1
 77
     6
 78
     2
 67
     7
 79
     5
170
     0
171
     0
290
     0
174
     0
 93
        1
 44
0.0
173
     0
291
     1
 45
0.0
1001
ACAD
1000
AcDbSavedByObjectVersion
1070
     0
  0
VISUALSTYLE
  5
650AC
102
{ACAD_XDICTIONARY
360
6731A
102
}
102
{ACAD_REACTORS
330
A11C
102
}
330
A11C
100
AcDbVisualStyle
  2

 70
    21
 71
     2
 72
     2
 73
     0
 90
        0
 40
-0.6
 41
-30.0
 62
     5
 63
     7
 74
     1
 91
        4
 64
     7
 65
   257
 75
     1
175
     1
 42
1.0
 92
        9
 66
     7
 43
1.0
 76
     1
 77
     6
 78
     2
 67
     7
 79
     5
170
     0
171
     0
290
     0
174
     0
 93
        1
 44
0.0
173
     0
291
     1
 45
0.0
1001
ACAD
1000
AcDbSavedByObjectVersion
1070
     0
  0
VISUALSTYLE
  5
A126
102
{ACAD_XDICTIONARY
360
672FB
102
}
102
{ACAD_REACTORS
330
A11C
102
}
330
A11C
100
AcDbVisualStyle
  2

 70
     8
 71
     2
 72
     2
 73
     0
 90
        0
 40
-0.6
 41
-30.0
 62
     5
 63
     7
 74
     1
 91
        0
 64
     7
 65
   257
 75
     1
175
     1
 42
1.0
 92
        8
 66
     8
 43
1.0
 76
     1
 77
     6
 78
     2
 67
     7
 79
     5
170
     0
171
     0
290
     0
174
     0
 93
       13
 44
0.0
173
     0
291
     0
 45
0.0
1001
ACAD
1000
AcDbSavedByObjectVersion
1070
     0
  0
VISUALSTYLE
  5
650AA
102
{ACAD_XDICTIONARY
360
67316
102
}
102
{ACAD_REACTORS
330
A11C
102
}
330
A11C
100
AcDbVisualStyle
  2

 70
    27
 71
     2
 72
     2
 73
     1
 90
        2
 40
-0.6
 41
30.0
 62
     5
 63
     7
 74
     0
 91
        4
 64
     7
 65
   257
 75
     1
175
     1
 42
1.0
 92
        8
 66
   257
 43
1.0
 76
     1
 77
     6
 78
     2
 67
     8
 79
     3
170
     0
171
     0
290
     0
174
     0
 93
        5
 44
0.0
173
     0
291
     0
 45
0.0
1001
ACAD
1000
AcDbSavedByObjectVersion
1070
     0
  0
VISUALSTYLE
  5
650A9
102
{ACAD_XDICTIONARY
360
67314
102
}
102
{ACAD_REACTORS
330
A11C
102
}
330
A11C
100
AcDbVisualStyle
  2

 70
    26
 71
     2
 72
     2
 73
     1
 90
        2
 40
-0.6
 41
30.0
 62
     5
 63
     7
 74
     1
 91
       10
 64
     7
 65
   257
 75
     2
175
     1
 42
1.0
 92
        8
 66
   257
 43
1.0
 76
     1
 77
     6
 78
     2
 67
     7
 79
     3
170
     0
171
     0
290
     0
174
     0
 93
        5
 44
0.0
173
     0
291
     0
 45
0.0
1001
ACAD
1000
AcDbSavedByObjectVersion
1070
     0
  0
VISUALSTYLE
  5
650A6
102
{ACAD_XDICTIONARY
360
6730E
102
}
102
{ACAD_REACTORS
330
A11C
102
}
330
A11C
100
AcDbVisualStyle
  2

 70
    23
 71
     2
 72
     2
 73
     3
 90
        0
 40
-0.6
 41
-30.0
 62
     5
 63
     7
 74
     2
 91
        2
 64
     7
 65
     7
 75
     1
175
     1
 42
40.0
 92
        8
 66
     7
 43
1.0
 76
     1
 77
     6
 78
     2
 67
     7
 79
     3
170
     0
171
     0
290
     0
174
     0
 93
        1
 44
0.0
173
     0
291
     0
 45
0.0
1001
ACAD
1000
AcDbSavedByObjectVersion
1070
     0
  0
VISUALSTYLE
  5
650A7
102
{ACAD_XDICTIONARY
360
67310
102
}
102
{ACAD_REACTORS
330
A11C
102
}
330
A11C
100
AcDbVisualStyle
  2

 70
    24
 71
     1
 72
     2
 73
     2
 90
        0
 40
-0.6
 41
-30.0
 62
     5
 63
     7
 74
     2
 91
        2
 64
     7
 65
     7
 75
     1
175
     1
 42
40.0
 92
       11
 66
     7
 43
1.0
 76
     1
 77
     6
 78
     2
 67
     7
 79
     6
170
     0
171
     0
290
     0
174
     0
 93
        1
 44
0.0
173
     0
291
     0
 45
0.0
1001
ACAD
1000
AcDbSavedByObjectVersion
1070
     0
  0
VISUALSTYLE
  5
A129
102
{ACAD_XDICTIONARY
360
67301
102
}
102
{ACAD_REACTORS
330
A11C
102
}
330
A11C
100
AcDbVisualStyle
  2

 70
    13
 71
     2
 72
     2
 73
     0
 90
        0
 40
-0.6
 41
-30.0
 62
     5
 63
     7
 74
     1
 91
        4
 64
     7
 65
   257
 75
     1
175
     1
 42
1.0
 92
       12
 66
     7
 43
1.0
 76
     1
 77
     6
 78
     2
 67
     7
 79
     5
170
     0
171
     0
290
     0
174
     0
 93
        1
 44
0.0
173
     0
291
     1
 45
0.0
1001
ACAD
1000
AcDbSavedByObjectVersion
1070
     0
  0
VISUALSTYLE
  5
650A4
102
{ACAD_XDICTIONARY
360
6730A
102
}
102
{ACAD_REACTORS
330
A11C
102
}
330
A11C
100
AcDbVisualStyle
  2

 70
     5
 71
     0
 72
     2
 73
     0
 90
        0
 40
-0.6
 41
-30.0
 62
     5
 63
     7
 74
     1
 91
        4
 64
     7
 65
   257
 75
     1
175
     1
 42
1.0
 92
        0
 66
   257
 43
1.0
 76
     1
 77
     6
 78
     2
 67
     7
 79
     3
170
     0
171
     0
290
     0
174
     0
 93
        1
 44
0.0
173
     0
291
     0
 45
0.0
1001
ACAD
1000
AcDbSavedByObjectVersion
1070
     0
  0
VISUALSTYLE
  5
650A8
102
{ACAD_XDICTIONARY
360
67312
102
}
102
{ACAD_REACTORS
330
A11C
102
}
330
A11C
100
AcDbVisualStyle
  2

 70
    25
 71
     2
 72
     2
 73
     1
 90
        1
 40
0.5
 41
-30.0
 62
     5
 63
     7
 74
     1
 91
        0
 64
     7
 65
   257
 75
     1
175
     1
 42
1.0
 92
        8
 66
     7
 43
1.0
 76
     1
 77
     6
 78
     2
 67
     7
 79
     3
170
     0
171
     0
290
     0
174
     0
 93
       13
 44
0.0
173
     0
291
     0
 45
0.0
1001
ACAD
1000
AcDbSavedByObjectVersion
1070
     0
  0
DICTIONARYVAR
  5
A101
102
{ACAD_REACTORS
330
1237
102
}
330
1237
100
DictionaryVariables
280
     0
  1
1:1
  0
DICTIONARYVAR
  5
A2B4
102
{ACAD_REACTORS
330
1237
102
}
330
1237
100
DictionaryVariables
280
     0
  1
STANDARD
  0
DICTIONARYVAR
  5
A2B3
102
{ACAD_REACTORS
330
1237
102
}
330
1237
100
DictionaryVariables
280
     0
  1
STANDARD
  0
DICTIONARYVAR
  5
65219
102
{ACAD_REACTORS
330
1237
102
}
330
1237
100
DictionaryVariables
280
     0
  1
Metric50
  0
DICTIONARYVAR
  5
6521A
102
{ACAD_REACTORS
330
1237
102
}
330
1237
100
DictionaryVariables
280
     0
  1
Metric50
  0
DICTIONARYVAR
  5
9CC6
102
{ACAD_REACTORS
330
1237
102
}
330
1237
100
DictionaryVariables
280
     0
  1
1
  0
DICTIONARYVAR
  5
9CC5
102
{ACAD_REACTORS
330
1237
102
}
330
1237
100
DictionaryVariables
280
     0
  1
0
  0
DICTIONARYVAR
  5
10561
102
{ACAD_REACTORS
330
1237
102
}
330
1237
100
DictionaryVariables
280
     0
  1
0
  0
DICTIONARYVAR
  5
10560
102
{ACAD_REACTORS
330
1237
102
}
330
1237
100
DictionaryVariables
280
     0
  1
0
  0
DICTIONARYVAR
  5
1238
102
{ACAD_REACTORS
330
1237
102
}
330
1237
100
DictionaryVariables
280
     0
  1
96
  0
DICTIONARYVAR
  5
672E1
102
{ACAD_REACTORS
330
1237
102
}
330
1237
100
DictionaryVariables
280
     0
  1
2
  0
XRECORD
  5
A0EE
102
{ACAD_REACTORS
330
A0ED
102
}
330
A0ED
100
AcDbXrecord
280
     1
 91
     1023
301

290
     0
302
1
330
F
 90
        8
 62
     2
370
    -3
331
14
  1
Color_2
330
30
 90
        0
 62
     7
370
    -3
331
14
  1
Color_7
330
526
 90
        8
 62
     1
370
    -3
331
14
  1
Color_1
330
138F
 90
        8
 62
     6
370
    -3
331
C0D
  1
Color_6
330
1390
 90
        8
 62
     7
370
    -3
331
14
  1
Color_7
  0
DICTIONARY
  5
67320
330
650B1
100
AcDbDictionary
280
     1
281
     1
  3
ACAD_XREC_ROUNDTRIP
360
67321
  0
DICTIONARY
  5
672E5
330
1C64
100
AcDbDictionary
280
     1
281
     1
  3
ACAD_XREC_ROUNDTRIP
360
672E6
  0
DICTIONARY
  5
672E7
330
1C65
100
AcDbDictionary
280
     1
281
     1
  3
ACAD_XREC_ROUNDTRIP
360
672E8
  0
DICTIONARY
  5
A10D
330
A10C
100
AcDbDictionary
280
     1
281
     1
  3
ACAD_XREC_ROUNDTRIP
360
A2BF
  3
BUMPTILE
360
A10F
  3
DIFFUSETILE
360
A10E
  3
OPACITYTILE
360
A112
  3
REFLECTIONTILE
360
A111
  3
REFRACTIONTILE
360
A113
  3
SPECULARTILE
360
A110
  0
DICTIONARY
  5
A105
330
A104
100
AcDbDictionary
280
     1
281
     1
  3
ACAD_XREC_ROUNDTRIP
360
A2BE
  3
BUMPTILE
360
A107
  3
DIFFUSETILE
360
A106
  3
OPACITYTILE
360
A10A
  3
REFLECTIONTILE
360
A109
  3
REFRACTIONTILE
360
A10B
  3
SPECULARTILE
360
A108
  0
DICTIONARY
  5
A115
330
A114
100
AcDbDictionary
280
     1
281
     1
  3
ACAD_XREC_ROUNDTRIP
360
A2C0
  3
BUMPTILE
360
A117
  3
DIFFUSETILE
360
A116
  3
OPACITYTILE
360
A11A
  3
REFLECTIONTILE
360
A119
  3
REFRACTIONTILE
360
A11B
  3
SPECULARTILE
360
A118
  0
DICTIONARY
  5
6731E
330
650AF
100
AcDbDictionary
280
     1
281
     1
  3
ACAD_XREC_ROUNDTRIP
360
6731F
  0
DICTIONARY
  5
A2B5
330
A12F
100
AcDbDictionary
280
     1
281
     1
  3
ACAD_ROUNDTRIP_2008_TABLESTYLE_CELLSTYLEMAP
360
672E2
  3
ACAD_XREC_ROUNDTRIP
360
67309
  0
DICTIONARY
  5
672F3
330
A122
100
AcDbDictionary
280
     1
281
     1
  3
ACAD_XREC_ROUNDTRIP
360
672F4
  0
DICTIONARY
  5
672F7
330
A124
100
AcDbDictionary
280
     1
281
     1
  3
ACAD_XREC_ROUNDTRIP
360
672F8
  0
DICTIONARY
  5
672F5
330
A123
100
AcDbDictionary
280
     1
281
     1
  3
ACAD_XREC_ROUNDTRIP
360
672F6
  0
DICTIONARY
  5
672F1
330
A121
100
AcDbDictionary
280
     1
281
     1
  3
ACAD_XREC_ROUNDTRIP
360
672F2
  0
DICTIONARY
  5
672FF
330
A128
100
AcDbDictionary
280
     1
281
     1
  3
ACAD_XREC_ROUNDTRIP
360
67300
  0
DICTIONARY
  5
67307
330
A12C
100
AcDbDictionary
280
     1
281
     1
  3
ACAD_XREC_ROUNDTRIP
360
67308
  0
DICTIONARY
  5
672F9
330
A125
100
AcDbDictionary
280
     1
281
     1
  3
ACAD_XREC_ROUNDTRIP
360
672FA
  0
DICTIONARY
  5
672FD
330
A127
100
AcDbDictionary
280
     1
281
     1
  3
ACAD_XREC_ROUNDTRIP
360
672FE
  0
DICTIONARY
  5
6731C
330
650AD
100
AcDbDictionary
280
     1
281
     1
  3
ACAD_XREC_ROUNDTRIP
360
6731D
  0
DICTIONARY
  5
67305
330
A12B
100
AcDbDictionary
280
     1
281
     1
  3
ACAD_XREC_ROUNDTRIP
360
67306
  0
DICTIONARY
  5
672E9
330
A11D
100
AcDbDictionary
280
     1
281
     1
  3
ACAD_XREC_ROUNDTRIP
360
672EA
  0
DICTIONARY
  5
672EB
330
A11E
100
AcDbDictionary
280
     1
281
     1
  3
ACAD_XREC_ROUNDTRIP
360
672EC
  0
DICTIONARY
  5
672ED
330
A11F
100
AcDbDictionary
280
     1
281
     1
  3
ACAD_XREC_ROUNDTRIP
360
672EE
  0
DICTIONARY
  5
672EF
330
A120
100
AcDbDictionary
280
     1
281
     1
  3
ACAD_XREC_ROUNDTRIP
360
672F0
  0
DICTIONARY
  5
6730C
330
650A5
100
AcDbDictionary
280
     1
281
     1
  3
ACAD_XREC_ROUNDTRIP
360
6730D
  0
DICTIONARY
  5
67318
330
650AB
100
AcDbDictionary
280
     1
281
     1
  3
ACAD_XREC_ROUNDTRIP
360
67319
  0
DICTIONARY
  5
67303
330
A12A
100
AcDbDictionary
280
     1
281
     1
  3
ACAD_XREC_ROUNDTRIP
360
67304
  0
DICTIONARY
  5
6731A
330
650AC
100
AcDbDictionary
280
     1
281
     1
  3
ACAD_XREC_ROUNDTRIP
360
6731B
  0
DICTIONARY
  5
672FB
330
A126
100
AcDbDictionary
280
     1
281
     1
  3
ACAD_XREC_ROUNDTRIP
360
672FC
  0
DICTIONARY
  5
67316
330
650AA
100
AcDbDictionary
280
     1
281
     1
  3
ACAD_XREC_ROUNDTRIP
360
67317
  0
DICTIONARY
  5
67314
330
650A9
100
AcDbDictionary
280
     1
281
     1
  3
ACAD_XREC_ROUNDTRIP
360
67315
  0
DICTIONARY
  5
6730E
330
650A6
100
AcDbDictionary
280
     1
281
     1
  3
ACAD_XREC_ROUNDTRIP
360
6730F
  0
DICTIONARY
  5
67310
330
650A7
100
AcDbDictionary
280
     1
281
     1
  3
ACAD_XREC_ROUNDTRIP
360
67311
  0
DICTIONARY
  5
67301
330
A129
100
AcDbDictionary
280
     1
281
     1
  3
ACAD_XREC_ROUNDTRIP
360
67302
  0
DICTIONARY
  5
6730A
330
650A4
100
AcDbDictionary
280
     1
281
     1
  3
ACAD_XREC_ROUNDTRIP
360
6730B
  0
DICTIONARY
  5
67312
330
650A8
100
AcDbDictionary
280
     1
281
     1
  3
ACAD_XREC_ROUNDTRIP
360
67313
  0
XRECORD
  5
67321
102
{ACAD_REACTORS
330
67320
102
}
330
67320
100
AcDbXrecord
280
     1
102
DISPLAYNAME
  1
Metric50
102
FLAGS
 90
        0
  0
XRECORD
  5
672E6
102
{ACAD_REACTORS
330
672E5
102
}
330
672E5
100
AcDbXrecord
280
     1
102
SHADEPLOT
 70
     0
102
SHADEPLOTRESLEVEL
 70
     2
102
SHADEPLOTCUSTOMDPI
 70
   300
  0
XRECORD
  5
672E8
102
{ACAD_REACTORS
330
672E7
102
}
330
672E7
100
AcDbXrecord
280
     1
102
SHADEPLOT
 70
     0
102
SHADEPLOTRESLEVEL
 70
     2
102
SHADEPLOTCUSTOMDPI
 70
   300
  0
XRECORD
  5
A2BF
102
{ACAD_REACTORS
330
A10D
102
}
330
A10D
100
AcDbXrecord
280
     1
102
MATERIAL
148
0.0
149
0.0
149
0.0
 93
        0
 94
      127
282
     0
 72
     0
 77
     0
171
     0
175
     0
179
     0
273
     0
  0
XRECORD
  5
A10F
102
{ACAD_REACTORS
330
A10D
102
}
330
A10D
100
AcDbXrecord
280
     1
270
     1
271
     1
  0
XRECORD
  5
A10E
102
{ACAD_REACTORS
330
A10D
102
}
330
A10D
100
AcDbXrecord
280
     1
270
     1
271
     1
  0
XRECORD
  5
A112
102
{ACAD_REACTORS
330
A10D
102
}
330
A10D
100
AcDbXrecord
280
     1
270
     1
271
     1
  0
XRECORD
  5
A111
102
{ACAD_REACTORS
330
A10D
102
}
330
A10D
100
AcDbXrecord
280
     1
270
     1
271
     1
  0
XRECORD
  5
A113
102
{ACAD_REACTORS
330
A10D
102
}
330
A10D
100
AcDbXrecord
280
     1
270
     1
271
     1
  0
XRECORD
  5
A110
102
{ACAD_REACTORS
330
A10D
102
}
330
A10D
100
AcDbXrecord
280
     1
270
     1
271
     1
  0
XRECORD
  5
A2BE
102
{ACAD_REACTORS
330
A105
102
}
330
A105
100
AcDbXrecord
280
     1
102
MATERIAL
148
0.0
149
0.0
149
0.0
 93
        0
 94
      127
282
     0
 72
     0
 77
     0
171
     0
175
     0
179
     0
273
     0
  0
XRECORD
  5
A107
102
{ACAD_REACTORS
330
A105
102
}
330
A105
100
AcDbXrecord
280
     1
270
     1
271
     1
  0
XRECORD
  5
A106
102
{ACAD_REACTORS
330
A105
102
}
330
A105
100
AcDbXrecord
280
     1
270
     1
271
     1
  0
XRECORD
  5
A10A
102
{ACAD_REACTORS
330
A105
102
}
330
A105
100
AcDbXrecord
280
     1
270
     1
271
     1
  0
XRECORD
  5
A109
102
{ACAD_REACTORS
330
A105
102
}
330
A105
100
AcDbXrecord
280
     1
270
     1
271
     1
  0
XRECORD
  5
A10B
102
{ACAD_REACTORS
330
A105
102
}
330
A105
100
AcDbXrecord
280
     1
270
     1
271
     1
  0
XRECORD
  5
A108
102
{ACAD_REACTORS
330
A105
102
}
330
A105
100
AcDbXrecord
280
     1
270
     1
271
     1
  0
XRECORD
  5
A2C0
102
{ACAD_REACTORS
330
A115
102
}
330
A115
100
AcDbXrecord
280
     1
102
MATERIAL
148
0.0
149
0.0
149
0.0
 93
        0
 94
      127
282
     0
 72
     0
 77
     0
171
     0
175
     0
179
     0
273
     0
  0
XRECORD
  5
A117
102
{ACAD_REACTORS
330
A115
102
}
330
A115
100
AcDbXrecord
280
     1
270
     1
271
     1
  0
XRECORD
  5
A116
102
{ACAD_REACTORS
330
A115
102
}
330
A115
100
AcDbXrecord
280
     1
270
     1
271
     1
  0
XRECORD
  5
A11A
102
{ACAD_REACTORS
330
A115
102
}
330
A115
100
AcDbXrecord
280
     1
270
     1
271
     1
  0
XRECORD
  5
A119
102
{ACAD_REACTORS
330
A115
102
}
330
A115
100
AcDbXrecord
280
     1
270
     1
271
     1
  0
XRECORD
  5
A11B
102
{ACAD_REACTORS
330
A115
102
}
330
A115
100
AcDbXrecord
280
     1
270
     1
271
     1
  0
XRECORD
  5
A118
102
{ACAD_REACTORS
330
A115
102
}
330
A115
100
AcDbXrecord
280
     1
270
     1
271
     1
  0
XRECORD
  5
6731F
102
{ACAD_REACTORS
330
6731E
102
}
330
6731E
100
AcDbXrecord
280
     1
102
DISPLAYNAME
  1
Metric50
102
FLAGS
 90
        0
  0
CELLSTYLEMAP
  5
672E2
102
{ACAD_REACTORS
330
A2B5
102
}
330
A2B5
100
AcDbCellStyleMap
 90
        3
300
CELLSTYLE
  1
TABLEFORMAT_BEGIN
 90
        5
170
     1
 91
        0
 92
    32768
 62
   257
 93
        1
300
CONTENTFORMAT
  1
CONTENTFORMAT_BEGIN
 90
        0
 91
        0
 92
      512
 93
        0
300

 40
0.0
140
1.0
 94
        5
 62
     0
340
10
144
6.0
309
CONTENTFORMAT_END
171
     1
301
MARGIN
  1
CELLMARGIN_BEGIN
 40
1.5
 40
1.5
 40
1.5
 40
1.5
 40
0.18
 40
0.18
309
CELLMARGIN_END
 94
        6
 95
        1
302
GRIDFORMAT
  1
GRIDFORMAT_BEGIN
 90
        0
 91
        1
 62
     0
 92
       -2
340
0
 93
        0
 40
1.125
309
GRIDFORMAT_END
 95
        2
302
GRIDFORMAT
  1
GRIDFORMAT_BEGIN
 90
        0
 91
        1
 62
     0
 92
       -2
340
0
 93
        0
 40
1.125
309
GRIDFORMAT_END
 95
        4
302
GRIDFORMAT
  1
GRIDFORMAT_BEGIN
 90
        0
 91
        1
 62
     0
 92
       -2
340
0
 93
        0
 40
1.125
309
GRIDFORMAT_END
 95
        8
302
GRIDFORMAT
  1
GRIDFORMAT_BEGIN
 90
        0
 91
        1
 62
     0
 92
       -2
340
0
 93
        0
 40
1.125
309
GRIDFORMAT_END
 95
       16
302
GRIDFORMAT
  1
GRIDFORMAT_BEGIN
 90
        0
 91
        1
 62
     0
 92
       -2
340
0
 93
        0
 40
1.125
309
GRIDFORMAT_END
 95
       32
302
GRIDFORMAT
  1
GRIDFORMAT_BEGIN
 90
        0
 91
        1
 62
     0
 92
       -2
340
0
 93
        0
 40
1.125
309
GRIDFORMAT_END
309
TABLEFORMAT_END
  1
CELLSTYLE_BEGIN
 90
        1
 91
        1
300
_TITLE
309
CELLSTYLE_END
300
CELLSTYLE
  1
TABLEFORMAT_BEGIN
 90
        5
170
     1
 91
        0
 92
        0
 62
   257
 93
        1
300
CONTENTFORMAT
  1
CONTENTFORMAT_BEGIN
 90
        0
 91
        0
 92
      512
 93
        0
300

 40
0.0
140
1.0
 94
        5
 62
     0
340
10
144
4.5
309
CONTENTFORMAT_END
171
     1
301
MARGIN
  1
CELLMARGIN_BEGIN
 40
1.5
 40
1.5
 40
1.5
 40
1.5
 40
0.18
 40
0.18
309
CELLMARGIN_END
 94
        6
 95
        1
302
GRIDFORMAT
  1
GRIDFORMAT_BEGIN
 90
        0
 91
        1
 62
     0
 92
       -2
340
0
 93
        0
 40
1.125
309
GRIDFORMAT_END
 95
        2
302
GRIDFORMAT
  1
GRIDFORMAT_BEGIN
 90
        0
 91
        1
 62
     0
 92
       -2
340
0
 93
        0
 40
1.125
309
GRIDFORMAT_END
 95
        4
302
GRIDFORMAT
  1
GRIDFORMAT_BEGIN
 90
        0
 91
        1
 62
     0
 92
       -2
340
0
 93
        0
 40
1.125
309
GRIDFORMAT_END
 95
        8
302
GRIDFORMAT
  1
GRIDFORMAT_BEGIN
 90
        0
 91
        1
 62
     0
 92
       -2
340
0
 93
        0
 40
1.125
309
GRIDFORMAT_END
 95
       16
302
GRIDFORMAT
  1
GRIDFORMAT_BEGIN
 90
        0
 91
        1
 62
     0
 92
       -2
340
0
 93
        0
 40
1.125
309
GRIDFORMAT_END
 95
       32
302
GRIDFORMAT
  1
GRIDFORMAT_BEGIN
 90
        0
 91
        1
 62
     0
 92
       -2
340
0
 93
        0
 40
1.125
309
GRIDFORMAT_END
309
TABLEFORMAT_END
  1
CELLSTYLE_BEGIN
 90
        2
 91
        1
300
_HEADER
309
CELLSTYLE_END
300
CELLSTYLE
  1
TABLEFORMAT_BEGIN
 90
        5
170
     1
 91
        0
 92
        0
 62
   257
 93
        1
300
CONTENTFORMAT
  1
CONTENTFORMAT_BEGIN
 90
        0
 91
        0
 92
      512
 93
        0
300

 40
0.0
140
1.0
 94
        2
 62
     0
340
10
144
4.5
309
CONTENTFORMAT_END
171
     1
301
MARGIN
  1
CELLMARGIN_BEGIN
 40
1.5
 40
1.5
 40
1.5
 40
1.5
 40
0.18
 40
0.18
309
CELLMARGIN_END
 94
        6
 95
        1
302
GRIDFORMAT
  1
GRIDFORMAT_BEGIN
 90
        0
 91
        1
 62
     0
 92
       -2
340
0
 93
        0
 40
1.125
309
GRIDFORMAT_END
 95
        2
302
GRIDFORMAT
  1
GRIDFORMAT_BEGIN
 90
        0
 91
        1
 62
     0
 92
       -2
340
0
 93
        0
 40
1.125
309
GRIDFORMAT_END
 95
        4
302
GRIDFORMAT
  1
GRIDFORMAT_BEGIN
 90
        0
 91
        1
 62
     0
 92
       -2
340
0
 93
        0
 40
1.125
309
GRIDFORMAT_END
 95
        8
302
GRIDFORMAT
  1
GRIDFORMAT_BEGIN
 90
        0
 91
        1
 62
     0
 92
       -2
340
0
 93
        0
 40
1.125
309
GRIDFORMAT_END
 95
       16
302
GRIDFORMAT
  1
GRIDFORMAT_BEGIN
 90
        0
 91
        1
 62
     0
 92
       -2
340
0
 93
        0
 40
1.125
309
GRIDFORMAT_END
 95
       32
302
GRIDFORMAT
  1
GRIDFORMAT_BEGIN
 90
        0
 91
        1
 62
     0
 92
       -2
340
0
 93
        0
 40
1.125
309
GRIDFORMAT_END
309
TABLEFORMAT_END
  1
CELLSTYLE_BEGIN
 90
        3
 91
        2
300
_DATA
309
CELLSTYLE_END
  0
XRECORD
  5
67309
102
{ACAD_REACTORS
330
A2B5
102
}
330
A2B5
100
AcDbXrecord
280
     1
102
ACAD_ROUNDTRIP_PRE2007_TABLESTYLE
 90
      512
 91
        0
  1

 92
      512
 93
        0
  2

 94
      512
 95
        0
  3

  0
XRECORD
  5
672F4
102
{ACAD_REACTORS
330
672F3
102
}
330
672F3
100
AcDbXrecord
280
     1
102
RTVSPost2010Prop28
280
     1
102
RTVSPost2010PropOp28
 70
     1
102
RTVSPost2010Prop29
280
     1
102
RTVSPost2010PropOp29
 70
     1
102
RTVSPost2010Prop30
280
     0
102
RTVSPost2010PropOp30
 70
     1
102
RTVSPost2010Prop31
280
     0
102
RTVSPost2010PropOp31
 70
     1
102
RTVSPost2010Prop32
280
     0
102
RTVSPost2010PropOp32
 70
     1
102
RTVSPost2010Prop33
280
     0
102
RTVSPost2010PropOp33
 70
     1
102
RTVSPost2010Prop34
280
     0
102
RTVSPost2010PropOp34
 70
     1
102
RTVSPost2010Prop35
280
     0
102
RTVSPost2010PropOp35
 70
     1
102
RTVSPost2010Prop36
280
     0
102
RTVSPost2010PropOp36
 70
     1
102
RTVSPost2010Prop37
 90
       50
102
RTVSPost2010PropOp37
 70
     1
102
RTVSPost2010Prop38
140
0.0
102
RTVSPost2010PropOp38
 70
     1
102
RTVSPost2010Prop39
140
1.0
102
RTVSPost2010PropOp39
 70
     1
102
RTVSPost2010Prop40
 90
        0
102
RTVSPost2010PropOp40
 70
     1
102
RTVSPost2010Prop41ColorIndex
 90
       18
102
RTVSPost2010Prop41ColorRGB
 90
        0
102
RTVSPost2010PropOp41
 70
     1
102
RTVSPost2010Prop42
 90
       50
102
RTVSPost2010PropOp42
 70
     1
102
RTVSPost2010Prop43
 90
        3
102
RTVSPost2010PropOp43
 70
     1
102
RTVSPost2010Prop44ColorIndex
 90
        5
102
RTVSPost2010Prop44ColorRGB
 90
      255
102
RTVSPost2010PropOp44
 70
     1
102
RTVSPost2010Prop45
280
     0
102
RTVSPost2010PropOp45
 70
     1
102
RTVSPost2010Prop46
 90
       50
102
RTVSPost2010PropOp46
 70
     1
102
RTVSPost2010Prop47
 90
       50
102
RTVSPost2010PropOp47
 70
     1
102
RTVSPost2010Prop48
 90
       50
102
RTVSPost2010PropOp48
 70
     1
102
RTVSPost2010Prop49
280
     0
102
RTVSPost2010PropOp49
 70
     1
102
RTVSPost2010Prop50
 90
       50
102
RTVSPost2010PropOp50
 70
     1
102
RTVSPost2010Prop51ColorIndex
 90
      256
102
RTVSPost2010Prop51ColorRGB
 90
-16777216
102
RTVSPost2010PropOp51
 70
     0
102
RTVSPost2010Prop52
140
1.0
102
RTVSPost2010PropOp52
 70
     0
102
RTVSPost2010Prop53
 90
        2
102
RTVSPost2010PropOp53
 70
     1
102
RTVSPost2010Prop54
  1
strokes_ogs.tif
102
RTVSPost2010PropOp54
 70
     1
102
RTVSPost2010Prop55
280
     0
102
RTVSPost2010PropOp55
 70
     1
102
RTVSPost2010Prop56
140
1.0
102
RTVSPost2010PropOp56
 70
     1
102
RTVSPost2010Prop57
140
1.0
102
RTVSPost2010PropOp57
 70
     1
102
RTVSPropertyOp0
 70
     1
102
RTVSPropertyOp1
 70
     1
102
RTVSPropertyOp2
 70
     1
102
RTVSPropertyOp3
 70
     1
102
RTVSPropertyOp4
 70
     1
102
RTVSPropertyOp5
 70
     1
102
RTVSPropertyOp6
 70
     1
102
RTVSPropertyOp7
 70
     1
102
RTVSPropertyOp8
 70
     1
102
RTVSPropertyOp9
 70
     1
102
RTVSPropertyOp10
 70
     1
102
RTVSPropertyOp11
 70
     1
102
RTVSPropertyOp12
 70
     1
102
RTVSPropertyOp13
 70
     1
102
RTVSPropertyOp14
 70
     1
102
RTVSPropertyOp15
 70
     1
102
RTVSPropertyOp16
 70
     1
102
RTVSPropertyOp17
 70
     1
102
RTVSPropertyOp18
 70
     1
102
RTVSPropertyOp19
 70
     1
102
RTVSPropertyOp20
 70
     1
102
RTVSPropertyOp21
 70
     1
102
RTVSPropertyOp22
 70
     1
102
RTVSPropertyOp23
 70
     1
102
RTVSPropertyOp24
 70
     1
102
RTVSPropertyOp25
 70
     1
102
RTVSPropertyOp26
 70
     1
102
RTVSPropertyOp27
 70
     1
102
RTVSPropertyOp28
 70
     1
102
RTVSPropertyOp29
 70
     1
102
RTVSPropertyOp30
 70
     1
102
RTVSPropertyOp31
 70
     1
102
RTVSPropertyOp32
 70
     1
102
RTVSPropertyOp33
 70
     1
102
RTVSPropertyOp34
 70
     1
102
RTVSPropertyOp35
 70
     1
102
RTVSPropertyOp36
 70
     1
102
RTVSPropertyOp37
 70
     1
102
RTVSPropertyOp38
 70
     1
102
RTVSPropertyOp39
 70
     1
102
RTVSPropertyOp40
 70
     1
102
RTVSPropertyOp41
 70
     1
102
RTVSPropertyOp42
 70
     1
102
RTVSPropertyOp43
 70
     1
102
RTVSPropertyOp44
 70
     1
102
RTVSPropertyOp45
 70
     1
102
RTVSPropertyOp46
 70
     1
102
RTVSPropertyOp47
 70
     1
102
RTVSPropertyOp48
 70
     1
102
RTVSPropertyOp49
 70
     1
102
RTVSPropertyOp50
 70
     1
102
RTVSPropertyOp51
 70
     0
102
RTVSPropertyOp52
 70
     0
102
RTVSPropertyOp53
 70
     1
102
RTVSPropertyOp54
 70
     1
102
RTVSPropertyOp55
 70
     1
102
RTVSPropertyOp56
 70
     1
102
RTVSPropertyOp57
 70
     1
102
RTVSPropertyOp58
 70
     1
102
RTVSPropertyOp59
 70
     1
102
RTVSPropertyOp60
 70
     1
102
RTVSPropertyOp61
 70
     1
102
RTVSPropertyOp62
 70
     1
  0
XRECORD
  5
672F8
102
{ACAD_REACTORS
330
672F7
102
}
330
672F7
100
AcDbXrecord
280
     1
102
RTVSPost2010Prop28
280
     0
102
RTVSPost2010PropOp28
 70
     1
102
RTVSPost2010Prop29
280
     1
102
RTVSPost2010PropOp29
 70
     1
102
RTVSPost2010Prop30
280
     1
102
RTVSPost2010PropOp30
 70
     1
102
RTVSPost2010Prop31
280
     0
102
RTVSPost2010PropOp31
 70
     1
102
RTVSPost2010Prop32
280
     0
102
RTVSPost2010PropOp32
 70
     1
102
RTVSPost2010Prop33
280
     0
102
RTVSPost2010PropOp33
 70
     1
102
RTVSPost2010Prop34
280
     0
102
RTVSPost2010PropOp34
 70
     1
102
RTVSPost2010Prop35
280
     0
102
RTVSPost2010PropOp35
 70
     1
102
RTVSPost2010Prop36
280
     0
102
RTVSPost2010PropOp36
 70
     1
102
RTVSPost2010Prop37
 90
       50
102
RTVSPost2010PropOp37
 70
     1
102
RTVSPost2010Prop38
140
0.0
102
RTVSPost2010PropOp38
 70
     1
102
RTVSPost2010Prop39
140
1.0
102
RTVSPost2010PropOp39
 70
     1
102
RTVSPost2010Prop40
 90
        0
102
RTVSPost2010PropOp40
 70
     1
102
RTVSPost2010Prop41ColorIndex
 90
       18
102
RTVSPost2010Prop41ColorRGB
 90
        0
102
RTVSPost2010PropOp41
 70
     1
102
RTVSPost2010Prop42
 90
       50
102
RTVSPost2010PropOp42
 70
     1
102
RTVSPost2010Prop43
 90
        3
102
RTVSPost2010PropOp43
 70
     1
102
RTVSPost2010Prop44ColorIndex
 90
        5
102
RTVSPost2010Prop44ColorRGB
 90
      255
102
RTVSPost2010PropOp44
 70
     1
102
RTVSPost2010Prop45
280
     0
102
RTVSPost2010PropOp45
 70
     1
102
RTVSPost2010Prop46
 90
       50
102
RTVSPost2010PropOp46
 70
     1
102
RTVSPost2010Prop47
 90
       50
102
RTVSPost2010PropOp47
 70
     1
102
RTVSPost2010Prop48
 90
       50
102
RTVSPost2010PropOp48
 70
     1
102
RTVSPost2010Prop49
280
     0
102
RTVSPost2010PropOp49
 70
     1
102
RTVSPost2010Prop50
 90
       50
102
RTVSPost2010PropOp50
 70
     1
102
RTVSPost2010Prop51ColorIndex
 90
      256
102
RTVSPost2010Prop51ColorRGB
 90
-16777216
102
RTVSPost2010PropOp51
 70
     0
102
RTVSPost2010Prop52
140
1.0
102
RTVSPost2010PropOp52
 70
     0
102
RTVSPost2010Prop53
 90
        2
102
RTVSPost2010PropOp53
 70
     1
102
RTVSPost2010Prop54
  1
strokes_ogs.tif
102
RTVSPost2010PropOp54
 70
     1
102
RTVSPost2010Prop55
280
     0
102
RTVSPost2010PropOp55
 70
     1
102
RTVSPost2010Prop56
140
1.0
102
RTVSPost2010PropOp56
 70
     1
102
RTVSPost2010Prop57
140
1.0
102
RTVSPost2010PropOp57
 70
     1
102
RTVSPropertyOp0
 70
     1
102
RTVSPropertyOp1
 70
     1
102
RTVSPropertyOp2
 70
     1
102
RTVSPropertyOp3
 70
     1
102
RTVSPropertyOp4
 70
     1
102
RTVSPropertyOp5
 70
     1
102
RTVSPropertyOp6
 70
     1
102
RTVSPropertyOp7
 70
     1
102
RTVSPropertyOp8
 70
     1
102
RTVSPropertyOp9
 70
     1
102
RTVSPropertyOp10
 70
     1
102
RTVSPropertyOp11
 70
     1
102
RTVSPropertyOp12
 70
     1
102
RTVSPropertyOp13
 70
     1
102
RTVSPropertyOp14
 70
     1
102
RTVSPropertyOp15
 70
     1
102
RTVSPropertyOp16
 70
     1
102
RTVSPropertyOp17
 70
     1
102
RTVSPropertyOp18
 70
     1
102
RTVSPropertyOp19
 70
     1
102
RTVSPropertyOp20
 70
     1
102
RTVSPropertyOp21
 70
     1
102
RTVSPropertyOp22
 70
     1
102
RTVSPropertyOp23
 70
     1
102
RTVSPropertyOp24
 70
     1
102
RTVSPropertyOp25
 70
     1
102
RTVSPropertyOp26
 70
     1
102
RTVSPropertyOp27
 70
     1
102
RTVSPropertyOp28
 70
     1
102
RTVSPropertyOp29
 70
     1
102
RTVSPropertyOp30
 70
     1
102
RTVSPropertyOp31
 70
     1
102
RTVSPropertyOp32
 70
     1
102
RTVSPropertyOp33
 70
     1
102
RTVSPropertyOp34
 70
     1
102
RTVSPropertyOp35
 70
     1
102
RTVSPropertyOp36
 70
     1
102
RTVSPropertyOp37
 70
     1
102
RTVSPropertyOp38
 70
     1
102
RTVSPropertyOp39
 70
     1
102
RTVSPropertyOp40
 70
     1
102
RTVSPropertyOp41
 70
     1
102
RTVSPropertyOp42
 70
     1
102
RTVSPropertyOp43
 70
     1
102
RTVSPropertyOp44
 70
     1
102
RTVSPropertyOp45
 70
     1
102
RTVSPropertyOp46
 70
     1
102
RTVSPropertyOp47
 70
     1
102
RTVSPropertyOp48
 70
     1
102
RTVSPropertyOp49
 70
     1
102
RTVSPropertyOp50
 70
     1
102
RTVSPropertyOp51
 70
     0
102
RTVSPropertyOp52
 70
     0
102
RTVSPropertyOp53
 70
     1
102
RTVSPropertyOp54
 70
     1
102
RTVSPropertyOp55
 70
     1
102
RTVSPropertyOp56
 70
     1
102
RTVSPropertyOp57
 70
     1
102
RTVSPropertyOp58
 70
     1
102
RTVSPropertyOp59
 70
     1
102
RTVSPropertyOp60
 70
     1
102
RTVSPropertyOp61
 70
     1
102
RTVSPropertyOp62
 70
     1
  0
XRECORD
  5
672F6
102
{ACAD_REACTORS
330
672F5
102
}
330
672F5
100
AcDbXrecord
280
     1
102
RTVSPost2010Prop28
280
     0
102
RTVSPost2010PropOp28
 70
     1
102
RTVSPost2010Prop29
280
     1
102
RTVSPost2010PropOp29
 70
     1
102
RTVSPost2010Prop30
280
     1
102
RTVSPost2010PropOp30
 70
     1
102
RTVSPost2010Prop31
280
     0
102
RTVSPost2010PropOp31
 70
     1
102
RTVSPost2010Prop32
280
     0
102
RTVSPost2010PropOp32
 70
     1
102
RTVSPost2010Prop33
280
     0
102
RTVSPost2010PropOp33
 70
     1
102
RTVSPost2010Prop34
280
     0
102
RTVSPost2010PropOp34
 70
     1
102
RTVSPost2010Prop35
280
     0
102
RTVSPost2010PropOp35
 70
     1
102
RTVSPost2010Prop36
280
     0
102
RTVSPost2010PropOp36
 70
     1
102
RTVSPost2010Prop37
 90
       50
102
RTVSPost2010PropOp37
 70
     1
102
RTVSPost2010Prop38
140
0.0
102
RTVSPost2010PropOp38
 70
     1
102
RTVSPost2010Prop39
140
1.0
102
RTVSPost2010PropOp39
 70
     1
102
RTVSPost2010Prop40
 90
        0
102
RTVSPost2010PropOp40
 70
     1
102
RTVSPost2010Prop41ColorIndex
 90
       18
102
RTVSPost2010Prop41ColorRGB
 90
        0
102
RTVSPost2010PropOp41
 70
     1
102
RTVSPost2010Prop42
 90
       50
102
RTVSPost2010PropOp42
 70
     1
102
RTVSPost2010Prop43
 90
        3
102
RTVSPost2010PropOp43
 70
     1
102
RTVSPost2010Prop44ColorIndex
 90
        5
102
RTVSPost2010Prop44ColorRGB
 90
      255
102
RTVSPost2010PropOp44
 70
     1
102
RTVSPost2010Prop45
280
     0
102
RTVSPost2010PropOp45
 70
     1
102
RTVSPost2010Prop46
 90
       50
102
RTVSPost2010PropOp46
 70
     1
102
RTVSPost2010Prop47
 90
       50
102
RTVSPost2010PropOp47
 70
     1
102
RTVSPost2010Prop48
 90
       50
102
RTVSPost2010PropOp48
 70
     1
102
RTVSPost2010Prop49
280
     0
102
RTVSPost2010PropOp49
 70
     1
102
RTVSPost2010Prop50
 90
       50
102
RTVSPost2010PropOp50
 70
     1
102
RTVSPost2010Prop51ColorIndex
 90
      256
102
RTVSPost2010Prop51ColorRGB
 90
-16777216
102
RTVSPost2010PropOp51
 70
     0
102
RTVSPost2010Prop52
140
1.0
102
RTVSPost2010PropOp52
 70
     0
102
RTVSPost2010Prop53
 90
        2
102
RTVSPost2010PropOp53
 70
     1
102
RTVSPost2010Prop54
  1
strokes_ogs.tif
102
RTVSPost2010PropOp54
 70
     1
102
RTVSPost2010Prop55
280
     0
102
RTVSPost2010PropOp55
 70
     1
102
RTVSPost2010Prop56
140
1.0
102
RTVSPost2010PropOp56
 70
     1
102
RTVSPost2010Prop57
140
1.0
102
RTVSPost2010PropOp57
 70
     1
102
RTVSPropertyOp0
 70
     1
102
RTVSPropertyOp1
 70
     1
102
RTVSPropertyOp2
 70
     1
102
RTVSPropertyOp3
 70
     1
102
RTVSPropertyOp4
 70
     1
102
RTVSPropertyOp5
 70
     1
102
RTVSPropertyOp6
 70
     1
102
RTVSPropertyOp7
 70
     1
102
RTVSPropertyOp8
 70
     1
102
RTVSPropertyOp9
 70
     1
102
RTVSPropertyOp10
 70
     1
102
RTVSPropertyOp11
 70
     1
102
RTVSPropertyOp12
 70
     1
102
RTVSPropertyOp13
 70
     1
102
RTVSPropertyOp14
 70
     1
102
RTVSPropertyOp15
 70
     1
102
RTVSPropertyOp16
 70
     1
102
RTVSPropertyOp17
 70
     1
102
RTVSPropertyOp18
 70
     1
102
RTVSPropertyOp19
 70
     1
102
RTVSPropertyOp20
 70
     1
102
RTVSPropertyOp21
 70
     1
102
RTVSPropertyOp22
 70
     1
102
RTVSPropertyOp23
 70
     1
102
RTVSPropertyOp24
 70
     1
102
RTVSPropertyOp25
 70
     1
102
RTVSPropertyOp26
 70
     1
102
RTVSPropertyOp27
 70
     1
102
RTVSPropertyOp28
 70
     1
102
RTVSPropertyOp29
 70
     1
102
RTVSPropertyOp30
 70
     1
102
RTVSPropertyOp31
 70
     1
102
RTVSPropertyOp32
 70
     1
102
RTVSPropertyOp33
 70
     1
102
RTVSPropertyOp34
 70
     1
102
RTVSPropertyOp35
 70
     1
102
RTVSPropertyOp36
 70
     1
102
RTVSPropertyOp37
 70
     1
102
RTVSPropertyOp38
 70
     1
102
RTVSPropertyOp39
 70
     1
102
RTVSPropertyOp40
 70
     1
102
RTVSPropertyOp41
 70
     1
102
RTVSPropertyOp42
 70
     1
102
RTVSPropertyOp43
 70
     1
102
RTVSPropertyOp44
 70
     1
102
RTVSPropertyOp45
 70
     1
102
RTVSPropertyOp46
 70
     1
102
RTVSPropertyOp47
 70
     1
102
RTVSPropertyOp48
 70
     1
102
RTVSPropertyOp49
 70
     1
102
RTVSPropertyOp50
 70
     1
102
RTVSPropertyOp51
 70
     0
102
RTVSPropertyOp52
 70
     0
102
RTVSPropertyOp53
 70
     1
102
RTVSPropertyOp54
 70
     1
102
RTVSPropertyOp55
 70
     1
102
RTVSPropertyOp56
 70
     1
102
RTVSPropertyOp57
 70
     1
102
RTVSPropertyOp58
 70
     1
102
RTVSPropertyOp59
 70
     1
102
RTVSPropertyOp60
 70
     1
102
RTVSPropertyOp61
 70
     1
102
RTVSPropertyOp62
 70
     1
  0
XRECORD
  5
672F2
102
{ACAD_REACTORS
330
672F1
102
}
330
672F1
100
AcDbXrecord
280
     1
102
RTVSPost2010Prop28
280
     0
102
RTVSPost2010PropOp28
 70
     1
102
RTVSPost2010Prop29
280
     1
102
RTVSPost2010PropOp29
 70
     1
102
RTVSPost2010Prop30
280
     1
102
RTVSPost2010PropOp30
 70
     1
102
RTVSPost2010Prop31
280
     0
102
RTVSPost2010PropOp31
 70
     1
102
RTVSPost2010Prop32
280
     0
102
RTVSPost2010PropOp32
 70
     1
102
RTVSPost2010Prop33
280
     0
102
RTVSPost2010PropOp33
 70
     1
102
RTVSPost2010Prop34
280
     0
102
RTVSPost2010PropOp34
 70
     1
102
RTVSPost2010Prop35
280
     0
102
RTVSPost2010PropOp35
 70
     1
102
RTVSPost2010Prop36
280
     0
102
RTVSPost2010PropOp36
 70
     1
102
RTVSPost2010Prop37
 90
       50
102
RTVSPost2010PropOp37
 70
     1
102
RTVSPost2010Prop38
140
0.0
102
RTVSPost2010PropOp38
 70
     1
102
RTVSPost2010Prop39
140
1.0
102
RTVSPost2010PropOp39
 70
     1
102
RTVSPost2010Prop40
 90
        0
102
RTVSPost2010PropOp40
 70
     1
102
RTVSPost2010Prop41ColorIndex
 90
       18
102
RTVSPost2010Prop41ColorRGB
 90
        0
102
RTVSPost2010PropOp41
 70
     1
102
RTVSPost2010Prop42
 90
       50
102
RTVSPost2010PropOp42
 70
     1
102
RTVSPost2010Prop43
 90
        3
102
RTVSPost2010PropOp43
 70
     1
102
RTVSPost2010Prop44ColorIndex
 90
        5
102
RTVSPost2010Prop44ColorRGB
 90
      255
102
RTVSPost2010PropOp44
 70
     1
102
RTVSPost2010Prop45
280
     0
102
RTVSPost2010PropOp45
 70
     1
102
RTVSPost2010Prop46
 90
       50
102
RTVSPost2010PropOp46
 70
     1
102
RTVSPost2010Prop47
 90
       50
102
RTVSPost2010PropOp47
 70
     1
102
RTVSPost2010Prop48
 90
       50
102
RTVSPost2010PropOp48
 70
     1
102
RTVSPost2010Prop49
280
     0
102
RTVSPost2010PropOp49
 70
     1
102
RTVSPost2010Prop50
 90
       50
102
RTVSPost2010PropOp50
 70
     1
102
RTVSPost2010Prop51ColorIndex
 90
      256
102
RTVSPost2010Prop51ColorRGB
 90
-16777216
102
RTVSPost2010PropOp51
 70
     0
102
RTVSPost2010Prop52
140
1.0
102
RTVSPost2010PropOp52
 70
     0
102
RTVSPost2010Prop53
 90
        2
102
RTVSPost2010PropOp53
 70
     1
102
RTVSPost2010Prop54
  1
strokes_ogs.tif
102
RTVSPost2010PropOp54
 70
     1
102
RTVSPost2010Prop55
280
     0
102
RTVSPost2010PropOp55
 70
     1
102
RTVSPost2010Prop56
140
1.0
102
RTVSPost2010PropOp56
 70
     1
102
RTVSPost2010Prop57
140
1.0
102
RTVSPost2010PropOp57
 70
     1
102
RTVSPropertyOp0
 70
     1
102
RTVSPropertyOp1
 70
     1
102
RTVSPropertyOp2
 70
     1
102
RTVSPropertyOp3
 70
     1
102
RTVSPropertyOp4
 70
     1
102
RTVSPropertyOp5
 70
     1
102
RTVSPropertyOp6
 70
     1
102
RTVSPropertyOp7
 70
     1
102
RTVSPropertyOp8
 70
     1
102
RTVSPropertyOp9
 70
     1
102
RTVSPropertyOp10
 70
     1
102
RTVSPropertyOp11
 70
     1
102
RTVSPropertyOp12
 70
     1
102
RTVSPropertyOp13
 70
     1
102
RTVSPropertyOp14
 70
     1
102
RTVSPropertyOp15
 70
     1
102
RTVSPropertyOp16
 70
     1
102
RTVSPropertyOp17
 70
     1
102
RTVSPropertyOp18
 70
     1
102
RTVSPropertyOp19
 70
     1
102
RTVSPropertyOp20
 70
     1
102
RTVSPropertyOp21
 70
     1
102
RTVSPropertyOp22
 70
     1
102
RTVSPropertyOp23
 70
     1
102
RTVSPropertyOp24
 70
     1
102
RTVSPropertyOp25
 70
     1
102
RTVSPropertyOp26
 70
     1
102
RTVSPropertyOp27
 70
     1
102
RTVSPropertyOp28
 70
     1
102
RTVSPropertyOp29
 70
     1
102
RTVSPropertyOp30
 70
     1
102
RTVSPropertyOp31
 70
     1
102
RTVSPropertyOp32
 70
     1
102
RTVSPropertyOp33
 70
     1
102
RTVSPropertyOp34
 70
     1
102
RTVSPropertyOp35
 70
     1
102
RTVSPropertyOp36
 70
     1
102
RTVSPropertyOp37
 70
     1
102
RTVSPropertyOp38
 70
     1
102
RTVSPropertyOp39
 70
     1
102
RTVSPropertyOp40
 70
     1
102
RTVSPropertyOp41
 70
     1
102
RTVSPropertyOp42
 70
     1
102
RTVSPropertyOp43
 70
     1
102
RTVSPropertyOp44
 70
     1
102
RTVSPropertyOp45
 70
     1
102
RTVSPropertyOp46
 70
     1
102
RTVSPropertyOp47
 70
     1
102
RTVSPropertyOp48
 70
     1
102
RTVSPropertyOp49
 70
     1
102
RTVSPropertyOp50
 70
     1
102
RTVSPropertyOp51
 70
     0
102
RTVSPropertyOp52
 70
     0
102
RTVSPropertyOp53
 70
     1
102
RTVSPropertyOp54
 70
     1
102
RTVSPropertyOp55
 70
     1
102
RTVSPropertyOp56
 70
     1
102
RTVSPropertyOp57
 70
     1
102
RTVSPropertyOp58
 70
     1
102
RTVSPropertyOp59
 70
     1
102
RTVSPropertyOp60
 70
     1
102
RTVSPropertyOp61
 70
     1
102
RTVSPropertyOp62
 70
     1
  0
XRECORD
  5
67300
102
{ACAD_REACTORS
330
672FF
102
}
330
672FF
100
AcDbXrecord
280
     1
102
RTVSPost2010Prop28
280
     0
102
RTVSPost2010PropOp28
 70
     1
102
RTVSPost2010Prop29
280
     1
102
RTVSPost2010PropOp29
 70
     1
102
RTVSPost2010Prop30
280
     1
102
RTVSPost2010PropOp30
 70
     1
102
RTVSPost2010Prop31
280
     0
102
RTVSPost2010PropOp31
 70
     1
102
RTVSPost2010Prop32
280
     0
102
RTVSPost2010PropOp32
 70
     1
102
RTVSPost2010Prop33
280
     0
102
RTVSPost2010PropOp33
 70
     1
102
RTVSPost2010Prop34
280
     0
102
RTVSPost2010PropOp34
 70
     1
102
RTVSPost2010Prop35
280
     0
102
RTVSPost2010PropOp35
 70
     1
102
RTVSPost2010Prop36
280
     0
102
RTVSPost2010PropOp36
 70
     1
102
RTVSPost2010Prop37
 90
       50
102
RTVSPost2010PropOp37
 70
     1
102
RTVSPost2010Prop38
140
0.0
102
RTVSPost2010PropOp38
 70
     1
102
RTVSPost2010Prop39
140
1.0
102
RTVSPost2010PropOp39
 70
     1
102
RTVSPost2010Prop40
 90
        0
102
RTVSPost2010PropOp40
 70
     1
102
RTVSPost2010Prop41ColorIndex
 90
       18
102
RTVSPost2010Prop41ColorRGB
 90
        0
102
RTVSPost2010PropOp41
 70
     1
102
RTVSPost2010Prop42
 90
       50
102
RTVSPost2010PropOp42
 70
     1
102
RTVSPost2010Prop43
 90
        3
102
RTVSPost2010PropOp43
 70
     1
102
RTVSPost2010Prop44ColorIndex
 90
        5
102
RTVSPost2010Prop44ColorRGB
 90
      255
102
RTVSPost2010PropOp44
 70
     1
102
RTVSPost2010Prop45
280
     0
102
RTVSPost2010PropOp45
 70
     1
102
RTVSPost2010Prop46
 90
       50
102
RTVSPost2010PropOp46
 70
     1
102
RTVSPost2010Prop47
 90
       50
102
RTVSPost2010PropOp47
 70
     1
102
RTVSPost2010Prop48
 90
       50
102
RTVSPost2010PropOp48
 70
     1
102
RTVSPost2010Prop49
280
     0
102
RTVSPost2010PropOp49
 70
     1
102
RTVSPost2010Prop50
 90
       50
102
RTVSPost2010PropOp50
 70
     1
102
RTVSPost2010Prop51ColorIndex
 90
      256
102
RTVSPost2010Prop51ColorRGB
 90
-16777216
102
RTVSPost2010PropOp51
 70
     0
102
RTVSPost2010Prop52
140
1.0
102
RTVSPost2010PropOp52
 70
     0
102
RTVSPost2010Prop53
 90
        2
102
RTVSPost2010PropOp53
 70
     1
102
RTVSPost2010Prop54
  1
strokes_ogs.tif
102
RTVSPost2010PropOp54
 70
     1
102
RTVSPost2010Prop55
280
     0
102
RTVSPost2010PropOp55
 70
     1
102
RTVSPost2010Prop56
140
1.0
102
RTVSPost2010PropOp56
 70
     1
102
RTVSPost2010Prop57
140
1.0
102
RTVSPost2010PropOp57
 70
     1
102
RTVSPropertyOp0
 70
     1
102
RTVSPropertyOp1
 70
     1
102
RTVSPropertyOp2
 70
     1
102
RTVSPropertyOp3
 70
     1
102
RTVSPropertyOp4
 70
     1
102
RTVSPropertyOp5
 70
     1
102
RTVSPropertyOp6
 70
     1
102
RTVSPropertyOp7
 70
     1
102
RTVSPropertyOp8
 70
     1
102
RTVSPropertyOp9
 70
     1
102
RTVSPropertyOp10
 70
     1
102
RTVSPropertyOp11
 70
     1
102
RTVSPropertyOp12
 70
     1
102
RTVSPropertyOp13
 70
     1
102
RTVSPropertyOp14
 70
     1
102
RTVSPropertyOp15
 70
     1
102
RTVSPropertyOp16
 70
     1
102
RTVSPropertyOp17
 70
     1
102
RTVSPropertyOp18
 70
     1
102
RTVSPropertyOp19
 70
     1
102
RTVSPropertyOp20
 70
     1
102
RTVSPropertyOp21
 70
     1
102
RTVSPropertyOp22
 70
     1
102
RTVSPropertyOp23
 70
     1
102
RTVSPropertyOp24
 70
     1
102
RTVSPropertyOp25
 70
     1
102
RTVSPropertyOp26
 70
     1
102
RTVSPropertyOp27
 70
     1
102
RTVSPropertyOp28
 70
     1
102
RTVSPropertyOp29
 70
     1
102
RTVSPropertyOp30
 70
     1
102
RTVSPropertyOp31
 70
     1
102
RTVSPropertyOp32
 70
     1
102
RTVSPropertyOp33
 70
     1
102
RTVSPropertyOp34
 70
     1
102
RTVSPropertyOp35
 70
     1
102
RTVSPropertyOp36
 70
     1
102
RTVSPropertyOp37
 70
     1
102
RTVSPropertyOp38
 70
     1
102
RTVSPropertyOp39
 70
     1
102
RTVSPropertyOp40
 70
     1
102
RTVSPropertyOp41
 70
     1
102
RTVSPropertyOp42
 70
     1
102
RTVSPropertyOp43
 70
     1
102
RTVSPropertyOp44
 70
     1
102
RTVSPropertyOp45
 70
     1
102
RTVSPropertyOp46
 70
     1
102
RTVSPropertyOp47
 70
     1
102
RTVSPropertyOp48
 70
     1
102
RTVSPropertyOp49
 70
     1
102
RTVSPropertyOp50
 70
     1
102
RTVSPropertyOp51
 70
     0
102
RTVSPropertyOp52
 70
     0
102
RTVSPropertyOp53
 70
     1
102
RTVSPropertyOp54
 70
     1
102
RTVSPropertyOp55
 70
     1
102
RTVSPropertyOp56
 70
     1
102
RTVSPropertyOp57
 70
     1
102
RTVSPropertyOp58
 70
     1
102
RTVSPropertyOp59
 70
     1
102
RTVSPropertyOp60
 70
     1
102
RTVSPropertyOp61
 70
     1
102
RTVSPropertyOp62
 70
     1
  0
XRECORD
  5
67308
102
{ACAD_REACTORS
330
67307
102
}
330
67307
100
AcDbXrecord
280
     1
102
RTVSPost2010Prop28
280
     0
102
RTVSPost2010PropOp28
 70
     1
102
RTVSPost2010Prop29
280
     1
102
RTVSPost2010PropOp29
 70
     1
102
RTVSPost2010Prop30
280
     1
102
RTVSPost2010PropOp30
 70
     1
102
RTVSPost2010Prop31
280
     0
102
RTVSPost2010PropOp31
 70
     1
102
RTVSPost2010Prop32
280
     0
102
RTVSPost2010PropOp32
 70
     1
102
RTVSPost2010Prop33
280
     0
102
RTVSPost2010PropOp33
 70
     1
102
RTVSPost2010Prop34
280
     0
102
RTVSPost2010PropOp34
 70
     1
102
RTVSPost2010Prop35
280
     0
102
RTVSPost2010PropOp35
 70
     1
102
RTVSPost2010Prop36
280
     0
102
RTVSPost2010PropOp36
 70
     1
102
RTVSPost2010Prop37
 90
       50
102
RTVSPost2010PropOp37
 70
     1
102
RTVSPost2010Prop38
140
0.0
102
RTVSPost2010PropOp38
 70
     1
102
RTVSPost2010Prop39
140
1.0
102
RTVSPost2010PropOp39
 70
     1
102
RTVSPost2010Prop40
 90
        0
102
RTVSPost2010PropOp40
 70
     1
102
RTVSPost2010Prop41ColorIndex
 90
       18
102
RTVSPost2010Prop41ColorRGB
 90
        0
102
RTVSPost2010PropOp41
 70
     1
102
RTVSPost2010Prop42
 90
       50
102
RTVSPost2010PropOp42
 70
     1
102
RTVSPost2010Prop43
 90
        3
102
RTVSPost2010PropOp43
 70
     1
102
RTVSPost2010Prop44ColorIndex
 90
        5
102
RTVSPost2010Prop44ColorRGB
 90
      255
102
RTVSPost2010PropOp44
 70
     1
102
RTVSPost2010Prop45
280
     0
102
RTVSPost2010PropOp45
 70
     1
102
RTVSPost2010Prop46
 90
       50
102
RTVSPost2010PropOp46
 70
     1
102
RTVSPost2010Prop47
 90
       50
102
RTVSPost2010PropOp47
 70
     1
102
RTVSPost2010Prop48
 90
       50
102
RTVSPost2010PropOp48
 70
     1
102
RTVSPost2010Prop49
280
     0
102
RTVSPost2010PropOp49
 70
     1
102
RTVSPost2010Prop50
 90
       50
102
RTVSPost2010PropOp50
 70
     1
102
RTVSPost2010Prop51ColorIndex
 90
      256
102
RTVSPost2010Prop51ColorRGB
 90
-16777216
102
RTVSPost2010PropOp51
 70
     0
102
RTVSPost2010Prop52
140
1.0
102
RTVSPost2010PropOp52
 70
     0
102
RTVSPost2010Prop53
 90
        2
102
RTVSPost2010PropOp53
 70
     1
102
RTVSPost2010Prop54
  1
strokes_ogs.tif
102
RTVSPost2010PropOp54
 70
     1
102
RTVSPost2010Prop55
280
     0
102
RTVSPost2010PropOp55
 70
     1
102
RTVSPost2010Prop56
140
1.0
102
RTVSPost2010PropOp56
 70
     1
102
RTVSPost2010Prop57
140
1.0
102
RTVSPost2010PropOp57
 70
     1
102
RTVSPropertyOp0
 70
     1
102
RTVSPropertyOp1
 70
     1
102
RTVSPropertyOp2
 70
     1
102
RTVSPropertyOp3
 70
     1
102
RTVSPropertyOp4
 70
     1
102
RTVSPropertyOp5
 70
     1
102
RTVSPropertyOp6
 70
     1
102
RTVSPropertyOp7
 70
     1
102
RTVSPropertyOp8
 70
     1
102
RTVSPropertyOp9
 70
     1
102
RTVSPropertyOp10
 70
     1
102
RTVSPropertyOp11
 70
     1
102
RTVSPropertyOp12
 70
     1
102
RTVSPropertyOp13
 70
     1
102
RTVSPropertyOp14
 70
     1
102
RTVSPropertyOp15
 70
     1
102
RTVSPropertyOp16
 70
     1
102
RTVSPropertyOp17
 70
     1
102
RTVSPropertyOp18
 70
     1
102
RTVSPropertyOp19
 70
     1
102
RTVSPropertyOp20
 70
     1
102
RTVSPropertyOp21
 70
     1
102
RTVSPropertyOp22
 70
     1
102
RTVSPropertyOp23
 70
     1
102
RTVSPropertyOp24
 70
     1
102
RTVSPropertyOp25
 70
     1
102
RTVSPropertyOp26
 70
     1
102
RTVSPropertyOp27
 70
     1
102
RTVSPropertyOp28
 70
     1
102
RTVSPropertyOp29
 70
     1
102
RTVSPropertyOp30
 70
     1
102
RTVSPropertyOp31
 70
     1
102
RTVSPropertyOp32
 70
     1
102
RTVSPropertyOp33
 70
     1
102
RTVSPropertyOp34
 70
     1
102
RTVSPropertyOp35
 70
     1
102
RTVSPropertyOp36
 70
     1
102
RTVSPropertyOp37
 70
     1
102
RTVSPropertyOp38
 70
     1
102
RTVSPropertyOp39
 70
     1
102
RTVSPropertyOp40
 70
     1
102
RTVSPropertyOp41
 70
     1
102
RTVSPropertyOp42
 70
     1
102
RTVSPropertyOp43
 70
     1
102
RTVSPropertyOp44
 70
     1
102
RTVSPropertyOp45
 70
     1
102
RTVSPropertyOp46
 70
     1
102
RTVSPropertyOp47
 70
     1
102
RTVSPropertyOp48
 70
     1
102
RTVSPropertyOp49
 70
     1
102
RTVSPropertyOp50
 70
     1
102
RTVSPropertyOp51
 70
     0
102
RTVSPropertyOp52
 70
     0
102
RTVSPropertyOp53
 70
     1
102
RTVSPropertyOp54
 70
     1
102
RTVSPropertyOp55
 70
     1
102
RTVSPropertyOp56
 70
     1
102
RTVSPropertyOp57
 70
     1
102
RTVSPropertyOp58
 70
     1
102
RTVSPropertyOp59
 70
     1
102
RTVSPropertyOp60
 70
     1
102
RTVSPropertyOp61
 70
     1
102
RTVSPropertyOp62
 70
     1
  0
XRECORD
  5
672FA
102
{ACAD_REACTORS
330
672F9
102
}
330
672F9
100
AcDbXrecord
280
     1
102
RTVSPost2010Prop28
280
     0
102
RTVSPost2010PropOp28
 70
     1
102
RTVSPost2010Prop29
280
     1
102
RTVSPost2010PropOp29
 70
     1
102
RTVSPost2010Prop30
280
     1
102
RTVSPost2010PropOp30
 70
     1
102
RTVSPost2010Prop31
280
     0
102
RTVSPost2010PropOp31
 70
     1
102
RTVSPost2010Prop32
280
     0
102
RTVSPost2010PropOp32
 70
     1
102
RTVSPost2010Prop33
280
     0
102
RTVSPost2010PropOp33
 70
     1
102
RTVSPost2010Prop34
280
     0
102
RTVSPost2010PropOp34
 70
     1
102
RTVSPost2010Prop35
280
     0
102
RTVSPost2010PropOp35
 70
     1
102
RTVSPost2010Prop36
280
     0
102
RTVSPost2010PropOp36
 70
     1
102
RTVSPost2010Prop37
 90
       50
102
RTVSPost2010PropOp37
 70
     1
102
RTVSPost2010Prop38
140
0.0
102
RTVSPost2010PropOp38
 70
     1
102
RTVSPost2010Prop39
140
1.0
102
RTVSPost2010PropOp39
 70
     1
102
RTVSPost2010Prop40
 90
        0
102
RTVSPost2010PropOp40
 70
     1
102
RTVSPost2010Prop41ColorIndex
 90
       18
102
RTVSPost2010Prop41ColorRGB
 90
        0
102
RTVSPost2010PropOp41
 70
     1
102
RTVSPost2010Prop42
 90
       50
102
RTVSPost2010PropOp42
 70
     1
102
RTVSPost2010Prop43
 90
        3
102
RTVSPost2010PropOp43
 70
     1
102
RTVSPost2010Prop44ColorIndex
 90
        5
102
RTVSPost2010Prop44ColorRGB
 90
      255
102
RTVSPost2010PropOp44
 70
     1
102
RTVSPost2010Prop45
280
     0
102
RTVSPost2010PropOp45
 70
     1
102
RTVSPost2010Prop46
 90
       50
102
RTVSPost2010PropOp46
 70
     1
102
RTVSPost2010Prop47
 90
       50
102
RTVSPost2010PropOp47
 70
     1
102
RTVSPost2010Prop48
 90
       50
102
RTVSPost2010PropOp48
 70
     1
102
RTVSPost2010Prop49
280
     0
102
RTVSPost2010PropOp49
 70
     1
102
RTVSPost2010Prop50
 90
       50
102
RTVSPost2010PropOp50
 70
     1
102
RTVSPost2010Prop51ColorIndex
 90
      256
102
RTVSPost2010Prop51ColorRGB
 90
-16777216
102
RTVSPost2010PropOp51
 70
     0
102
RTVSPost2010Prop52
140
1.0
102
RTVSPost2010PropOp52
 70
     0
102
RTVSPost2010Prop53
 90
        2
102
RTVSPost2010PropOp53
 70
     1
102
RTVSPost2010Prop54
  1
strokes_ogs.tif
102
RTVSPost2010PropOp54
 70
     1
102
RTVSPost2010Prop55
280
     0
102
RTVSPost2010PropOp55
 70
     1
102
RTVSPost2010Prop56
140
1.0
102
RTVSPost2010PropOp56
 70
     1
102
RTVSPost2010Prop57
140
1.0
102
RTVSPost2010PropOp57
 70
     1
102
RTVSPropertyOp0
 70
     1
102
RTVSPropertyOp1
 70
     1
102
RTVSPropertyOp2
 70
     1
102
RTVSPropertyOp3
 70
     1
102
RTVSPropertyOp4
 70
     1
102
RTVSPropertyOp5
 70
     1
102
RTVSPropertyOp6
 70
     1
102
RTVSPropertyOp7
 70
     1
102
RTVSPropertyOp8
 70
     1
102
RTVSPropertyOp9
 70
     1
102
RTVSPropertyOp10
 70
     1
102
RTVSPropertyOp11
 70
     1
102
RTVSPropertyOp12
 70
     1
102
RTVSPropertyOp13
 70
     1
102
RTVSPropertyOp14
 70
     1
102
RTVSPropertyOp15
 70
     1
102
RTVSPropertyOp16
 70
     1
102
RTVSPropertyOp17
 70
     1
102
RTVSPropertyOp18
 70
     1
102
RTVSPropertyOp19
 70
     1
102
RTVSPropertyOp20
 70
     1
102
RTVSPropertyOp21
 70
     1
102
RTVSPropertyOp22
 70
     1
102
RTVSPropertyOp23
 70
     1
102
RTVSPropertyOp24
 70
     1
102
RTVSPropertyOp25
 70
     1
102
RTVSPropertyOp26
 70
     1
102
RTVSPropertyOp27
 70
     1
102
RTVSPropertyOp28
 70
     1
102
RTVSPropertyOp29
 70
     1
102
RTVSPropertyOp30
 70
     1
102
RTVSPropertyOp31
 70
     1
102
RTVSPropertyOp32
 70
     1
102
RTVSPropertyOp33
 70
     1
102
RTVSPropertyOp34
 70
     1
102
RTVSPropertyOp35
 70
     1
102
RTVSPropertyOp36
 70
     1
102
RTVSPropertyOp37
 70
     1
102
RTVSPropertyOp38
 70
     1
102
RTVSPropertyOp39
 70
     1
102
RTVSPropertyOp40
 70
     1
102
RTVSPropertyOp41
 70
     1
102
RTVSPropertyOp42
 70
     1
102
RTVSPropertyOp43
 70
     1
102
RTVSPropertyOp44
 70
     1
102
RTVSPropertyOp45
 70
     1
102
RTVSPropertyOp46
 70
     1
102
RTVSPropertyOp47
 70
     1
102
RTVSPropertyOp48
 70
     1
102
RTVSPropertyOp49
 70
     1
102
RTVSPropertyOp50
 70
     1
102
RTVSPropertyOp51
 70
     0
102
RTVSPropertyOp52
 70
     0
102
RTVSPropertyOp53
 70
     1
102
RTVSPropertyOp54
 70
     1
102
RTVSPropertyOp55
 70
     1
102
RTVSPropertyOp56
 70
     1
102
RTVSPropertyOp57
 70
     1
102
RTVSPropertyOp58
 70
     1
102
RTVSPropertyOp59
 70
     1
102
RTVSPropertyOp60
 70
     1
102
RTVSPropertyOp61
 70
     1
102
RTVSPropertyOp62
 70
     1
  0
XRECORD
  5
672FE
102
{ACAD_REACTORS
330
672FD
102
}
330
672FD
100
AcDbXrecord
280
     1
102
RTVSPost2010Prop28
280
     0
102
RTVSPost2010PropOp28
 70
     1
102
RTVSPost2010Prop29
280
     1
102
RTVSPost2010PropOp29
 70
     1
102
RTVSPost2010Prop30
280
     1
102
RTVSPost2010PropOp30
 70
     1
102
RTVSPost2010Prop31
280
     0
102
RTVSPost2010PropOp31
 70
     1
102
RTVSPost2010Prop32
280
     0
102
RTVSPost2010PropOp32
 70
     1
102
RTVSPost2010Prop33
280
     0
102
RTVSPost2010PropOp33
 70
     1
102
RTVSPost2010Prop34
280
     0
102
RTVSPost2010PropOp34
 70
     1
102
RTVSPost2010Prop35
280
     0
102
RTVSPost2010PropOp35
 70
     1
102
RTVSPost2010Prop36
280
     0
102
RTVSPost2010PropOp36
 70
     1
102
RTVSPost2010Prop37
 90
       50
102
RTVSPost2010PropOp37
 70
     1
102
RTVSPost2010Prop38
140
0.0
102
RTVSPost2010PropOp38
 70
     1
102
RTVSPost2010Prop39
140
1.0
102
RTVSPost2010PropOp39
 70
     1
102
RTVSPost2010Prop40
 90
        0
102
RTVSPost2010PropOp40
 70
     1
102
RTVSPost2010Prop41ColorIndex
 90
       18
102
RTVSPost2010Prop41ColorRGB
 90
        0
102
RTVSPost2010PropOp41
 70
     1
102
RTVSPost2010Prop42
 90
       50
102
RTVSPost2010PropOp42
 70
     1
102
RTVSPost2010Prop43
 90
        3
102
RTVSPost2010PropOp43
 70
     1
102
RTVSPost2010Prop44ColorIndex
 90
        5
102
RTVSPost2010Prop44ColorRGB
 90
      255
102
RTVSPost2010PropOp44
 70
     1
102
RTVSPost2010Prop45
280
     0
102
RTVSPost2010PropOp45
 70
     1
102
RTVSPost2010Prop46
 90
       50
102
RTVSPost2010PropOp46
 70
     1
102
RTVSPost2010Prop47
 90
       50
102
RTVSPost2010PropOp47
 70
     1
102
RTVSPost2010Prop48
 90
       50
102
RTVSPost2010PropOp48
 70
     1
102
RTVSPost2010Prop49
280
     0
102
RTVSPost2010PropOp49
 70
     1
102
RTVSPost2010Prop50
 90
       50
102
RTVSPost2010PropOp50
 70
     1
102
RTVSPost2010Prop51ColorIndex
 90
      256
102
RTVSPost2010Prop51ColorRGB
 90
-16777216
102
RTVSPost2010PropOp51
 70
     0
102
RTVSPost2010Prop52
140
1.0
102
RTVSPost2010PropOp52
 70
     0
102
RTVSPost2010Prop53
 90
        2
102
RTVSPost2010PropOp53
 70
     1
102
RTVSPost2010Prop54
  1
strokes_ogs.tif
102
RTVSPost2010PropOp54
 70
     1
102
RTVSPost2010Prop55
280
     0
102
RTVSPost2010PropOp55
 70
     1
102
RTVSPost2010Prop56
140
1.0
102
RTVSPost2010PropOp56
 70
     1
102
RTVSPost2010Prop57
140
1.0
102
RTVSPost2010PropOp57
 70
     1
102
RTVSPropertyOp0
 70
     1
102
RTVSPropertyOp1
 70
     1
102
RTVSPropertyOp2
 70
     1
102
RTVSPropertyOp3
 70
     1
102
RTVSPropertyOp4
 70
     1
102
RTVSPropertyOp5
 70
     1
102
RTVSPropertyOp6
 70
     1
102
RTVSPropertyOp7
 70
     1
102
RTVSPropertyOp8
 70
     1
102
RTVSPropertyOp9
 70
     1
102
RTVSPropertyOp10
 70
     1
102
RTVSPropertyOp11
 70
     1
102
RTVSPropertyOp12
 70
     1
102
RTVSPropertyOp13
 70
     1
102
RTVSPropertyOp14
 70
     1
102
RTVSPropertyOp15
 70
     1
102
RTVSPropertyOp16
 70
     1
102
RTVSPropertyOp17
 70
     1
102
RTVSPropertyOp18
 70
     1
102
RTVSPropertyOp19
 70
     1
102
RTVSPropertyOp20
 70
     1
102
RTVSPropertyOp21
 70
     1
102
RTVSPropertyOp22
 70
     1
102
RTVSPropertyOp23
 70
     1
102
RTVSPropertyOp24
 70
     1
102
RTVSPropertyOp25
 70
     1
102
RTVSPropertyOp26
 70
     1
102
RTVSPropertyOp27
 70
     1
102
RTVSPropertyOp28
 70
     1
102
RTVSPropertyOp29
 70
     1
102
RTVSPropertyOp30
 70
     1
102
RTVSPropertyOp31
 70
     1
102
RTVSPropertyOp32
 70
     1
102
RTVSPropertyOp33
 70
     1
102
RTVSPropertyOp34
 70
     1
102
RTVSPropertyOp35
 70
     1
102
RTVSPropertyOp36
 70
     1
102
RTVSPropertyOp37
 70
     1
102
RTVSPropertyOp38
 70
     1
102
RTVSPropertyOp39
 70
     1
102
RTVSPropertyOp40
 70
     1
102
RTVSPropertyOp41
 70
     1
102
RTVSPropertyOp42
 70
     1
102
RTVSPropertyOp43
 70
     1
102
RTVSPropertyOp44
 70
     1
102
RTVSPropertyOp45
 70
     1
102
RTVSPropertyOp46
 70
     1
102
RTVSPropertyOp47
 70
     1
102
RTVSPropertyOp48
 70
     1
102
RTVSPropertyOp49
 70
     1
102
RTVSPropertyOp50
 70
     1
102
RTVSPropertyOp51
 70
     0
102
RTVSPropertyOp52
 70
     0
102
RTVSPropertyOp53
 70
     1
102
RTVSPropertyOp54
 70
     1
102
RTVSPropertyOp55
 70
     1
102
RTVSPropertyOp56
 70
     1
102
RTVSPropertyOp57
 70
     1
102
RTVSPropertyOp58
 70
     1
102
RTVSPropertyOp59
 70
     1
102
RTVSPropertyOp60
 70
     1
102
RTVSPropertyOp61
 70
     1
102
RTVSPropertyOp62
 70
     1
  0
XRECORD
  5
6731D
102
{ACAD_REACTORS
330
6731C
102
}
330
6731C
100
AcDbXrecord
280
     1
102
RTVSPost2010Prop28
280
     0
102
RTVSPost2010PropOp28
 70
     1
102
RTVSPost2010Prop29
280
     1
102
RTVSPost2010PropOp29
 70
     1
102
RTVSPost2010Prop30
280
     1
102
RTVSPost2010PropOp30
 70
     1
102
RTVSPost2010Prop31
280
     0
102
RTVSPost2010PropOp31
 70
     1
102
RTVSPost2010Prop32
280
     0
102
RTVSPost2010PropOp32
 70
     1
102
RTVSPost2010Prop33
280
     0
102
RTVSPost2010PropOp33
 70
     1
102
RTVSPost2010Prop34
280
     0
102
RTVSPost2010PropOp34
 70
     1
102
RTVSPost2010Prop35
280
     0
102
RTVSPost2010PropOp35
 70
     1
102
RTVSPost2010Prop36
280
     0
102
RTVSPost2010PropOp36
 70
     1
102
RTVSPost2010Prop37
 90
       50
102
RTVSPost2010PropOp37
 70
     0
102
RTVSPost2010Prop38
140
0.0
102
RTVSPost2010PropOp38
 70
     0
102
RTVSPost2010Prop39
140
1.0
102
RTVSPost2010PropOp39
 70
     0
102
RTVSPost2010Prop40
 90
        0
102
RTVSPost2010PropOp40
 70
     0
102
RTVSPost2010Prop41ColorIndex
 90
       18
102
RTVSPost2010Prop41ColorRGB
 90
        0
102
RTVSPost2010PropOp41
 70
     0
102
RTVSPost2010Prop42
 90
       50
102
RTVSPost2010PropOp42
 70
     0
102
RTVSPost2010Prop43
 90
        3
102
RTVSPost2010PropOp43
 70
     0
102
RTVSPost2010Prop44ColorIndex
 90
        5
102
RTVSPost2010Prop44ColorRGB
 90
      255
102
RTVSPost2010PropOp44
 70
     0
102
RTVSPost2010Prop45
280
     0
102
RTVSPost2010PropOp45
 70
     1
102
RTVSPost2010Prop46
 90
       50
102
RTVSPost2010PropOp46
 70
     0
102
RTVSPost2010Prop47
 90
       50
102
RTVSPost2010PropOp47
 70
     0
102
RTVSPost2010Prop48
 90
       50
102
RTVSPost2010PropOp48
 70
     0
102
RTVSPost2010Prop49
280
     0
102
RTVSPost2010PropOp49
 70
     1
102
RTVSPost2010Prop50
 90
       50
102
RTVSPost2010PropOp50
 70
     0
102
RTVSPost2010Prop51ColorIndex
 90
      256
102
RTVSPost2010Prop51ColorRGB
 90
-16777216
102
RTVSPost2010PropOp51
 70
     0
102
RTVSPost2010Prop52
140
1.0
102
RTVSPost2010PropOp52
 70
     0
102
RTVSPost2010Prop53
 90
        2
102
RTVSPost2010PropOp53
 70
     0
102
RTVSPost2010Prop54
  1
strokes_ogs.tif
102
RTVSPost2010PropOp54
 70
     0
102
RTVSPost2010Prop55
280
     0
102
RTVSPost2010PropOp55
 70
     1
102
RTVSPost2010Prop56
140
1.0
102
RTVSPost2010PropOp56
 70
     0
102
RTVSPost2010Prop57
140
1.0
102
RTVSPost2010PropOp57
 70
     0
102
RTVSPropertyOp0
 70
     0
102
RTVSPropertyOp1
 70
     0
102
RTVSPropertyOp2
 70
     0
102
RTVSPropertyOp3
 70
     0
102
RTVSPropertyOp4
 70
     0
102
RTVSPropertyOp5
 70
     0
102
RTVSPropertyOp6
 70
     0
102
RTVSPropertyOp7
 70
     0
102
RTVSPropertyOp8
 70
     0
102
RTVSPropertyOp9
 70
     0
102
RTVSPropertyOp10
 70
     0
102
RTVSPropertyOp11
 70
     0
102
RTVSPropertyOp12
 70
     0
102
RTVSPropertyOp13
 70
     0
102
RTVSPropertyOp14
 70
     2
102
RTVSPropertyOp15
 70
     0
102
RTVSPropertyOp16
 70
     0
102
RTVSPropertyOp17
 70
     0
102
RTVSPropertyOp18
 70
     0
102
RTVSPropertyOp19
 70
     0
102
RTVSPropertyOp20
 70
     0
102
RTVSPropertyOp21
 70
     0
102
RTVSPropertyOp22
 70
     0
102
RTVSPropertyOp23
 70
     0
102
RTVSPropertyOp24
 70
     0
102
RTVSPropertyOp25
 70
     0
102
RTVSPropertyOp26
 70
     0
102
RTVSPropertyOp27
 70
     0
102
RTVSPropertyOp28
 70
     1
102
RTVSPropertyOp29
 70
     1
102
RTVSPropertyOp30
 70
     1
102
RTVSPropertyOp31
 70
     1
102
RTVSPropertyOp32
 70
     1
102
RTVSPropertyOp33
 70
     1
102
RTVSPropertyOp34
 70
     1
102
RTVSPropertyOp35
 70
     1
102
RTVSPropertyOp36
 70
     1
102
RTVSPropertyOp37
 70
     0
102
RTVSPropertyOp38
 70
     0
102
RTVSPropertyOp39
 70
     0
102
RTVSPropertyOp40
 70
     0
102
RTVSPropertyOp41
 70
     0
102
RTVSPropertyOp42
 70
     0
102
RTVSPropertyOp43
 70
     0
102
RTVSPropertyOp44
 70
     0
102
RTVSPropertyOp45
 70
     1
102
RTVSPropertyOp46
 70
     0
102
RTVSPropertyOp47
 70
     0
102
RTVSPropertyOp48
 70
     0
102
RTVSPropertyOp49
 70
     1
102
RTVSPropertyOp50
 70
     0
102
RTVSPropertyOp51
 70
     0
102
RTVSPropertyOp52
 70
     0
102
RTVSPropertyOp53
 70
     0
102
RTVSPropertyOp54
 70
     0
102
RTVSPropertyOp55
 70
     1
102
RTVSPropertyOp56
 70
     0
102
RTVSPropertyOp57
 70
     0
102
RTVSPropertyOp58
 70
     0
102
RTVSPropertyOp59
 70
     0
102
RTVSPropertyOp60
 70
     0
102
RTVSPropertyOp61
 70
     0
102
RTVSPropertyOp62
 70
     0
  0
XRECORD
  5
67306
102
{ACAD_REACTORS
330
67305
102
}
330
67305
100
AcDbXrecord
280
     1
102
RTVSPost2010Prop28
280
     0
102
RTVSPost2010PropOp28
 70
     1
102
RTVSPost2010Prop29
280
     1
102
RTVSPost2010PropOp29
 70
     1
102
RTVSPost2010Prop30
280
     1
102
RTVSPost2010PropOp30
 70
     1
102
RTVSPost2010Prop31
280
     0
102
RTVSPost2010PropOp31
 70
     1
102
RTVSPost2010Prop32
280
     0
102
RTVSPost2010PropOp32
 70
     1
102
RTVSPost2010Prop33
280
     0
102
RTVSPost2010PropOp33
 70
     1
102
RTVSPost2010Prop34
280
     0
102
RTVSPost2010PropOp34
 70
     1
102
RTVSPost2010Prop35
280
     0
102
RTVSPost2010PropOp35
 70
     1
102
RTVSPost2010Prop36
280
     0
102
RTVSPost2010PropOp36
 70
     1
102
RTVSPost2010Prop37
 90
       50
102
RTVSPost2010PropOp37
 70
     1
102
RTVSPost2010Prop38
140
0.0
102
RTVSPost2010PropOp38
 70
     1
102
RTVSPost2010Prop39
140
1.0
102
RTVSPost2010PropOp39
 70
     1
102
RTVSPost2010Prop40
 90
        0
102
RTVSPost2010PropOp40
 70
     1
102
RTVSPost2010Prop41ColorIndex
 90
       18
102
RTVSPost2010Prop41ColorRGB
 90
        0
102
RTVSPost2010PropOp41
 70
     1
102
RTVSPost2010Prop42
 90
       50
102
RTVSPost2010PropOp42
 70
     1
102
RTVSPost2010Prop43
 90
        3
102
RTVSPost2010PropOp43
 70
     1
102
RTVSPost2010Prop44ColorIndex
 90
        5
102
RTVSPost2010Prop44ColorRGB
 90
      255
102
RTVSPost2010PropOp44
 70
     1
102
RTVSPost2010Prop45
280
     0
102
RTVSPost2010PropOp45
 70
     1
102
RTVSPost2010Prop46
 90
       50
102
RTVSPost2010PropOp46
 70
     1
102
RTVSPost2010Prop47
 90
       50
102
RTVSPost2010PropOp47
 70
     1
102
RTVSPost2010Prop48
 90
       50
102
RTVSPost2010PropOp48
 70
     1
102
RTVSPost2010Prop49
280
     0
102
RTVSPost2010PropOp49
 70
     1
102
RTVSPost2010Prop50
 90
       50
102
RTVSPost2010PropOp50
 70
     1
102
RTVSPost2010Prop51ColorIndex
 90
      256
102
RTVSPost2010Prop51ColorRGB
 90
-16777216
102
RTVSPost2010PropOp51
 70
     0
102
RTVSPost2010Prop52
140
1.0
102
RTVSPost2010PropOp52
 70
     0
102
RTVSPost2010Prop53
 90
        2
102
RTVSPost2010PropOp53
 70
     1
102
RTVSPost2010Prop54
  1
strokes_ogs.tif
102
RTVSPost2010PropOp54
 70
     1
102
RTVSPost2010Prop55
280
     0
102
RTVSPost2010PropOp55
 70
     1
102
RTVSPost2010Prop56
140
1.0
102
RTVSPost2010PropOp56
 70
     1
102
RTVSPost2010Prop57
140
1.0
102
RTVSPost2010PropOp57
 70
     1
102
RTVSPropertyOp0
 70
     1
102
RTVSPropertyOp1
 70
     1
102
RTVSPropertyOp2
 70
     1
102
RTVSPropertyOp3
 70
     1
102
RTVSPropertyOp4
 70
     1
102
RTVSPropertyOp5
 70
     1
102
RTVSPropertyOp6
 70
     1
102
RTVSPropertyOp7
 70
     1
102
RTVSPropertyOp8
 70
     1
102
RTVSPropertyOp9
 70
     1
102
RTVSPropertyOp10
 70
     1
102
RTVSPropertyOp11
 70
     1
102
RTVSPropertyOp12
 70
     1
102
RTVSPropertyOp13
 70
     1
102
RTVSPropertyOp14
 70
     1
102
RTVSPropertyOp15
 70
     1
102
RTVSPropertyOp16
 70
     1
102
RTVSPropertyOp17
 70
     1
102
RTVSPropertyOp18
 70
     1
102
RTVSPropertyOp19
 70
     1
102
RTVSPropertyOp20
 70
     1
102
RTVSPropertyOp21
 70
     1
102
RTVSPropertyOp22
 70
     1
102
RTVSPropertyOp23
 70
     1
102
RTVSPropertyOp24
 70
     1
102
RTVSPropertyOp25
 70
     1
102
RTVSPropertyOp26
 70
     1
102
RTVSPropertyOp27
 70
     1
102
RTVSPropertyOp28
 70
     1
102
RTVSPropertyOp29
 70
     1
102
RTVSPropertyOp30
 70
     1
102
RTVSPropertyOp31
 70
     1
102
RTVSPropertyOp32
 70
     1
102
RTVSPropertyOp33
 70
     1
102
RTVSPropertyOp34
 70
     1
102
RTVSPropertyOp35
 70
     1
102
RTVSPropertyOp36
 70
     1
102
RTVSPropertyOp37
 70
     1
102
RTVSPropertyOp38
 70
     1
102
RTVSPropertyOp39
 70
     1
102
RTVSPropertyOp40
 70
     1
102
RTVSPropertyOp41
 70
     1
102
RTVSPropertyOp42
 70
     1
102
RTVSPropertyOp43
 70
     1
102
RTVSPropertyOp44
 70
     1
102
RTVSPropertyOp45
 70
     1
102
RTVSPropertyOp46
 70
     1
102
RTVSPropertyOp47
 70
     1
102
RTVSPropertyOp48
 70
     1
102
RTVSPropertyOp49
 70
     1
102
RTVSPropertyOp50
 70
     1
102
RTVSPropertyOp51
 70
     0
102
RTVSPropertyOp52
 70
     0
102
RTVSPropertyOp53
 70
     1
102
RTVSPropertyOp54
 70
     1
102
RTVSPropertyOp55
 70
     1
102
RTVSPropertyOp56
 70
     1
102
RTVSPropertyOp57
 70
     1
102
RTVSPropertyOp58
 70
     1
102
RTVSPropertyOp59
 70
     1
102
RTVSPropertyOp60
 70
     1
102
RTVSPropertyOp61
 70
     1
102
RTVSPropertyOp62
 70
     1
  0
XRECORD
  5
672EA
102
{ACAD_REACTORS
330
672E9
102
}
330
672E9
100
AcDbXrecord
280
     1
102
RTVSPost2010Prop28
280
     0
102
RTVSPost2010PropOp28
 70
     1
102
RTVSPost2010Prop29
280
     1
102
RTVSPost2010PropOp29
 70
     1
102
RTVSPost2010Prop30
280
     1
102
RTVSPost2010PropOp30
 70
     1
102
RTVSPost2010Prop31
280
     0
102
RTVSPost2010PropOp31
 70
     1
102
RTVSPost2010Prop32
280
     0
102
RTVSPost2010PropOp32
 70
     1
102
RTVSPost2010Prop33
280
     0
102
RTVSPost2010PropOp33
 70
     1
102
RTVSPost2010Prop34
280
     0
102
RTVSPost2010PropOp34
 70
     1
102
RTVSPost2010Prop35
280
     0
102
RTVSPost2010PropOp35
 70
     1
102
RTVSPost2010Prop36
280
     0
102
RTVSPost2010PropOp36
 70
     1
102
RTVSPost2010Prop37
 90
       50
102
RTVSPost2010PropOp37
 70
     1
102
RTVSPost2010Prop38
140
0.0
102
RTVSPost2010PropOp38
 70
     1
102
RTVSPost2010Prop39
140
1.0
102
RTVSPost2010PropOp39
 70
     1
102
RTVSPost2010Prop40
 90
        0
102
RTVSPost2010PropOp40
 70
     1
102
RTVSPost2010Prop41ColorIndex
 90
       18
102
RTVSPost2010Prop41ColorRGB
 90
        0
102
RTVSPost2010PropOp41
 70
     1
102
RTVSPost2010Prop42
 90
       50
102
RTVSPost2010PropOp42
 70
     1
102
RTVSPost2010Prop43
 90
        3
102
RTVSPost2010PropOp43
 70
     1
102
RTVSPost2010Prop44ColorIndex
 90
        5
102
RTVSPost2010Prop44ColorRGB
 90
      255
102
RTVSPost2010PropOp44
 70
     1
102
RTVSPost2010Prop45
280
     0
102
RTVSPost2010PropOp45
 70
     1
102
RTVSPost2010Prop46
 90
       50
102
RTVSPost2010PropOp46
 70
     1
102
RTVSPost2010Prop47
 90
       50
102
RTVSPost2010PropOp47
 70
     1
102
RTVSPost2010Prop48
 90
       50
102
RTVSPost2010PropOp48
 70
     1
102
RTVSPost2010Prop49
280
     0
102
RTVSPost2010PropOp49
 70
     1
102
RTVSPost2010Prop50
 90
       50
102
RTVSPost2010PropOp50
 70
     1
102
RTVSPost2010Prop51ColorIndex
 90
      256
102
RTVSPost2010Prop51ColorRGB
 90
-16777216
102
RTVSPost2010PropOp51
 70
     0
102
RTVSPost2010Prop52
140
1.0
102
RTVSPost2010PropOp52
 70
     0
102
RTVSPost2010Prop53
 90
        2
102
RTVSPost2010PropOp53
 70
     1
102
RTVSPost2010Prop54
  1
strokes_ogs.tif
102
RTVSPost2010PropOp54
 70
     1
102
RTVSPost2010Prop55
280
     0
102
RTVSPost2010PropOp55
 70
     1
102
RTVSPost2010Prop56
140
1.0
102
RTVSPost2010PropOp56
 70
     1
102
RTVSPost2010Prop57
140
1.0
102
RTVSPost2010PropOp57
 70
     1
102
RTVSPropertyOp0
 70
     1
102
RTVSPropertyOp1
 70
     1
102
RTVSPropertyOp2
 70
     1
102
RTVSPropertyOp3
 70
     1
102
RTVSPropertyOp4
 70
     1
102
RTVSPropertyOp5
 70
     1
102
RTVSPropertyOp6
 70
     1
102
RTVSPropertyOp7
 70
     1
102
RTVSPropertyOp8
 70
     1
102
RTVSPropertyOp9
 70
     1
102
RTVSPropertyOp10
 70
     1
102
RTVSPropertyOp11
 70
     1
102
RTVSPropertyOp12
 70
     1
102
RTVSPropertyOp13
 70
     1
102
RTVSPropertyOp14
 70
     1
102
RTVSPropertyOp15
 70
     1
102
RTVSPropertyOp16
 70
     1
102
RTVSPropertyOp17
 70
     1
102
RTVSPropertyOp18
 70
     1
102
RTVSPropertyOp19
 70
     1
102
RTVSPropertyOp20
 70
     1
102
RTVSPropertyOp21
 70
     1
102
RTVSPropertyOp22
 70
     1
102
RTVSPropertyOp23
 70
     1
102
RTVSPropertyOp24
 70
     1
102
RTVSPropertyOp25
 70
     1
102
RTVSPropertyOp26
 70
     1
102
RTVSPropertyOp27
 70
     1
102
RTVSPropertyOp28
 70
     1
102
RTVSPropertyOp29
 70
     1
102
RTVSPropertyOp30
 70
     1
102
RTVSPropertyOp31
 70
     1
102
RTVSPropertyOp32
 70
     1
102
RTVSPropertyOp33
 70
     1
102
RTVSPropertyOp34
 70
     1
102
RTVSPropertyOp35
 70
     1
102
RTVSPropertyOp36
 70
     1
102
RTVSPropertyOp37
 70
     1
102
RTVSPropertyOp38
 70
     1
102
RTVSPropertyOp39
 70
     1
102
RTVSPropertyOp40
 70
     1
102
RTVSPropertyOp41
 70
     1
102
RTVSPropertyOp42
 70
     1
102
RTVSPropertyOp43
 70
     1
102
RTVSPropertyOp44
 70
     1
102
RTVSPropertyOp45
 70
     1
102
RTVSPropertyOp46
 70
     1
102
RTVSPropertyOp47
 70
     1
102
RTVSPropertyOp48
 70
     1
102
RTVSPropertyOp49
 70
     1
102
RTVSPropertyOp50
 70
     1
102
RTVSPropertyOp51
 70
     0
102
RTVSPropertyOp52
 70
     0
102
RTVSPropertyOp53
 70
     1
102
RTVSPropertyOp54
 70
     1
102
RTVSPropertyOp55
 70
     1
102
RTVSPropertyOp56
 70
     1
102
RTVSPropertyOp57
 70
     1
102
RTVSPropertyOp58
 70
     1
102
RTVSPropertyOp59
 70
     1
102
RTVSPropertyOp60
 70
     1
102
RTVSPropertyOp61
 70
     1
102
RTVSPropertyOp62
 70
     1
  0
XRECORD
  5
672EC
102
{ACAD_REACTORS
330
672EB
102
}
330
672EB
100
AcDbXrecord
280
     1
102
RTVSPost2010Prop28
280
     0
102
RTVSPost2010PropOp28
 70
     1
102
RTVSPost2010Prop29
280
     1
102
RTVSPost2010PropOp29
 70
     1
102
RTVSPost2010Prop30
280
     1
102
RTVSPost2010PropOp30
 70
     1
102
RTVSPost2010Prop31
280
     0
102
RTVSPost2010PropOp31
 70
     1
102
RTVSPost2010Prop32
280
     0
102
RTVSPost2010PropOp32
 70
     1
102
RTVSPost2010Prop33
280
     0
102
RTVSPost2010PropOp33
 70
     1
102
RTVSPost2010Prop34
280
     0
102
RTVSPost2010PropOp34
 70
     1
102
RTVSPost2010Prop35
280
     0
102
RTVSPost2010PropOp35
 70
     1
102
RTVSPost2010Prop36
280
     0
102
RTVSPost2010PropOp36
 70
     1
102
RTVSPost2010Prop37
 90
       50
102
RTVSPost2010PropOp37
 70
     1
102
RTVSPost2010Prop38
140
0.0
102
RTVSPost2010PropOp38
 70
     1
102
RTVSPost2010Prop39
140
1.0
102
RTVSPost2010PropOp39
 70
     1
102
RTVSPost2010Prop40
 90
        0
102
RTVSPost2010PropOp40
 70
     1
102
RTVSPost2010Prop41ColorIndex
 90
       18
102
RTVSPost2010Prop41ColorRGB
 90
        0
102
RTVSPost2010PropOp41
 70
     1
102
RTVSPost2010Prop42
 90
       50
102
RTVSPost2010PropOp42
 70
     1
102
RTVSPost2010Prop43
 90
        3
102
RTVSPost2010PropOp43
 70
     1
102
RTVSPost2010Prop44ColorIndex
 90
        5
102
RTVSPost2010Prop44ColorRGB
 90
      255
102
RTVSPost2010PropOp44
 70
     1
102
RTVSPost2010Prop45
280
     0
102
RTVSPost2010PropOp45
 70
     1
102
RTVSPost2010Prop46
 90
       50
102
RTVSPost2010PropOp46
 70
     1
102
RTVSPost2010Prop47
 90
       50
102
RTVSPost2010PropOp47
 70
     1
102
RTVSPost2010Prop48
 90
       50
102
RTVSPost2010PropOp48
 70
     1
102
RTVSPost2010Prop49
280
     0
102
RTVSPost2010PropOp49
 70
     1
102
RTVSPost2010Prop50
 90
       50
102
RTVSPost2010PropOp50
 70
     1
102
RTVSPost2010Prop51ColorIndex
 90
      256
102
RTVSPost2010Prop51ColorRGB
 90
-16777216
102
RTVSPost2010PropOp51
 70
     0
102
RTVSPost2010Prop52
140
1.0
102
RTVSPost2010PropOp52
 70
     0
102
RTVSPost2010Prop53
 90
        2
102
RTVSPost2010PropOp53
 70
     1
102
RTVSPost2010Prop54
  1
strokes_ogs.tif
102
RTVSPost2010PropOp54
 70
     1
102
RTVSPost2010Prop55
280
     0
102
RTVSPost2010PropOp55
 70
     1
102
RTVSPost2010Prop56
140
1.0
102
RTVSPost2010PropOp56
 70
     1
102
RTVSPost2010Prop57
140
1.0
102
RTVSPost2010PropOp57
 70
     1
102
RTVSPropertyOp0
 70
     1
102
RTVSPropertyOp1
 70
     1
102
RTVSPropertyOp2
 70
     1
102
RTVSPropertyOp3
 70
     1
102
RTVSPropertyOp4
 70
     1
102
RTVSPropertyOp5
 70
     1
102
RTVSPropertyOp6
 70
     1
102
RTVSPropertyOp7
 70
     1
102
RTVSPropertyOp8
 70
     1
102
RTVSPropertyOp9
 70
     1
102
RTVSPropertyOp10
 70
     1
102
RTVSPropertyOp11
 70
     1
102
RTVSPropertyOp12
 70
     1
102
RTVSPropertyOp13
 70
     1
102
RTVSPropertyOp14
 70
     1
102
RTVSPropertyOp15
 70
     1
102
RTVSPropertyOp16
 70
     1
102
RTVSPropertyOp17
 70
     1
102
RTVSPropertyOp18
 70
     1
102
RTVSPropertyOp19
 70
     1
102
RTVSPropertyOp20
 70
     1
102
RTVSPropertyOp21
 70
     1
102
RTVSPropertyOp22
 70
     1
102
RTVSPropertyOp23
 70
     1
102
RTVSPropertyOp24
 70
     1
102
RTVSPropertyOp25
 70
     1
102
RTVSPropertyOp26
 70
     1
102
RTVSPropertyOp27
 70
     1
102
RTVSPropertyOp28
 70
     1
102
RTVSPropertyOp29
 70
     1
102
RTVSPropertyOp30
 70
     1
102
RTVSPropertyOp31
 70
     1
102
RTVSPropertyOp32
 70
     1
102
RTVSPropertyOp33
 70
     1
102
RTVSPropertyOp34
 70
     1
102
RTVSPropertyOp35
 70
     1
102
RTVSPropertyOp36
 70
     1
102
RTVSPropertyOp37
 70
     1
102
RTVSPropertyOp38
 70
     1
102
RTVSPropertyOp39
 70
     1
102
RTVSPropertyOp40
 70
     1
102
RTVSPropertyOp41
 70
     1
102
RTVSPropertyOp42
 70
     1
102
RTVSPropertyOp43
 70
     1
102
RTVSPropertyOp44
 70
     1
102
RTVSPropertyOp45
 70
     1
102
RTVSPropertyOp46
 70
     1
102
RTVSPropertyOp47
 70
     1
102
RTVSPropertyOp48
 70
     1
102
RTVSPropertyOp49
 70
     1
102
RTVSPropertyOp50
 70
     1
102
RTVSPropertyOp51
 70
     0
102
RTVSPropertyOp52
 70
     0
102
RTVSPropertyOp53
 70
     1
102
RTVSPropertyOp54
 70
     1
102
RTVSPropertyOp55
 70
     1
102
RTVSPropertyOp56
 70
     1
102
RTVSPropertyOp57
 70
     1
102
RTVSPropertyOp58
 70
     1
102
RTVSPropertyOp59
 70
     1
102
RTVSPropertyOp60
 70
     1
102
RTVSPropertyOp61
 70
     1
102
RTVSPropertyOp62
 70
     1
  0
XRECORD
  5
672EE
102
{ACAD_REACTORS
330
672ED
102
}
330
672ED
100
AcDbXrecord
280
     1
102
RTVSPost2010Prop28
280
     0
102
RTVSPost2010PropOp28
 70
     1
102
RTVSPost2010Prop29
280
     1
102
RTVSPost2010PropOp29
 70
     1
102
RTVSPost2010Prop30
280
     1
102
RTVSPost2010PropOp30
 70
     1
102
RTVSPost2010Prop31
280
     0
102
RTVSPost2010PropOp31
 70
     1
102
RTVSPost2010Prop32
280
     0
102
RTVSPost2010PropOp32
 70
     1
102
RTVSPost2010Prop33
280
     0
102
RTVSPost2010PropOp33
 70
     1
102
RTVSPost2010Prop34
280
     0
102
RTVSPost2010PropOp34
 70
     1
102
RTVSPost2010Prop35
280
     0
102
RTVSPost2010PropOp35
 70
     1
102
RTVSPost2010Prop36
280
     0
102
RTVSPost2010PropOp36
 70
     1
102
RTVSPost2010Prop37
 90
       50
102
RTVSPost2010PropOp37
 70
     1
102
RTVSPost2010Prop38
140
0.0
102
RTVSPost2010PropOp38
 70
     1
102
RTVSPost2010Prop39
140
1.0
102
RTVSPost2010PropOp39
 70
     1
102
RTVSPost2010Prop40
 90
        0
102
RTVSPost2010PropOp40
 70
     1
102
RTVSPost2010Prop41ColorIndex
 90
       18
102
RTVSPost2010Prop41ColorRGB
 90
        0
102
RTVSPost2010PropOp41
 70
     1
102
RTVSPost2010Prop42
 90
       50
102
RTVSPost2010PropOp42
 70
     1
102
RTVSPost2010Prop43
 90
        3
102
RTVSPost2010PropOp43
 70
     1
102
RTVSPost2010Prop44ColorIndex
 90
        5
102
RTVSPost2010Prop44ColorRGB
 90
      255
102
RTVSPost2010PropOp44
 70
     1
102
RTVSPost2010Prop45
280
     0
102
RTVSPost2010PropOp45
 70
     1
102
RTVSPost2010Prop46
 90
       50
102
RTVSPost2010PropOp46
 70
     1
102
RTVSPost2010Prop47
 90
       50
102
RTVSPost2010PropOp47
 70
     1
102
RTVSPost2010Prop48
 90
       50
102
RTVSPost2010PropOp48
 70
     1
102
RTVSPost2010Prop49
280
     0
102
RTVSPost2010PropOp49
 70
     1
102
RTVSPost2010Prop50
 90
       50
102
RTVSPost2010PropOp50
 70
     1
102
RTVSPost2010Prop51ColorIndex
 90
      256
102
RTVSPost2010Prop51ColorRGB
 90
-16777216
102
RTVSPost2010PropOp51
 70
     0
102
RTVSPost2010Prop52
140
1.0
102
RTVSPost2010PropOp52
 70
     0
102
RTVSPost2010Prop53
 90
        2
102
RTVSPost2010PropOp53
 70
     1
102
RTVSPost2010Prop54
  1
strokes_ogs.tif
102
RTVSPost2010PropOp54
 70
     1
102
RTVSPost2010Prop55
280
     0
102
RTVSPost2010PropOp55
 70
     1
102
RTVSPost2010Prop56
140
1.0
102
RTVSPost2010PropOp56
 70
     1
102
RTVSPost2010Prop57
140
1.0
102
RTVSPost2010PropOp57
 70
     1
102
RTVSPropertyOp0
 70
     1
102
RTVSPropertyOp1
 70
     1
102
RTVSPropertyOp2
 70
     1
102
RTVSPropertyOp3
 70
     1
102
RTVSPropertyOp4
 70
     1
102
RTVSPropertyOp5
 70
     1
102
RTVSPropertyOp6
 70
     1
102
RTVSPropertyOp7
 70
     1
102
RTVSPropertyOp8
 70
     1
102
RTVSPropertyOp9
 70
     1
102
RTVSPropertyOp10
 70
     1
102
RTVSPropertyOp11
 70
     1
102
RTVSPropertyOp12
 70
     1
102
RTVSPropertyOp13
 70
     1
102
RTVSPropertyOp14
 70
     1
102
RTVSPropertyOp15
 70
     1
102
RTVSPropertyOp16
 70
     1
102
RTVSPropertyOp17
 70
     1
102
RTVSPropertyOp18
 70
     1
102
RTVSPropertyOp19
 70
     1
102
RTVSPropertyOp20
 70
     1
102
RTVSPropertyOp21
 70
     1
102
RTVSPropertyOp22
 70
     1
102
RTVSPropertyOp23
 70
     1
102
RTVSPropertyOp24
 70
     1
102
RTVSPropertyOp25
 70
     1
102
RTVSPropertyOp26
 70
     1
102
RTVSPropertyOp27
 70
     1
102
RTVSPropertyOp28
 70
     1
102
RTVSPropertyOp29
 70
     1
102
RTVSPropertyOp30
 70
     1
102
RTVSPropertyOp31
 70
     1
102
RTVSPropertyOp32
 70
     1
102
RTVSPropertyOp33
 70
     1
102
RTVSPropertyOp34
 70
     1
102
RTVSPropertyOp35
 70
     1
102
RTVSPropertyOp36
 70
     1
102
RTVSPropertyOp37
 70
     1
102
RTVSPropertyOp38
 70
     1
102
RTVSPropertyOp39
 70
     1
102
RTVSPropertyOp40
 70
     1
102
RTVSPropertyOp41
 70
     1
102
RTVSPropertyOp42
 70
     1
102
RTVSPropertyOp43
 70
     1
102
RTVSPropertyOp44
 70
     1
102
RTVSPropertyOp45
 70
     1
102
RTVSPropertyOp46
 70
     1
102
RTVSPropertyOp47
 70
     1
102
RTVSPropertyOp48
 70
     1
102
RTVSPropertyOp49
 70
     1
102
RTVSPropertyOp50
 70
     1
102
RTVSPropertyOp51
 70
     0
102
RTVSPropertyOp52
 70
     0
102
RTVSPropertyOp53
 70
     1
102
RTVSPropertyOp54
 70
     1
102
RTVSPropertyOp55
 70
     1
102
RTVSPropertyOp56
 70
     1
102
RTVSPropertyOp57
 70
     1
102
RTVSPropertyOp58
 70
     1
102
RTVSPropertyOp59
 70
     1
102
RTVSPropertyOp60
 70
     1
102
RTVSPropertyOp61
 70
     1
102
RTVSPropertyOp62
 70
     1
  0
XRECORD
  5
672F0
102
{ACAD_REACTORS
330
672EF
102
}
330
672EF
100
AcDbXrecord
280
     1
102
RTVSPost2010Prop28
280
     0
102
RTVSPost2010PropOp28
 70
     1
102
RTVSPost2010Prop29
280
     1
102
RTVSPost2010PropOp29
 70
     1
102
RTVSPost2010Prop30
280
     1
102
RTVSPost2010PropOp30
 70
     1
102
RTVSPost2010Prop31
280
     0
102
RTVSPost2010PropOp31
 70
     1
102
RTVSPost2010Prop32
280
     0
102
RTVSPost2010PropOp32
 70
     1
102
RTVSPost2010Prop33
280
     0
102
RTVSPost2010PropOp33
 70
     1
102
RTVSPost2010Prop34
280
     0
102
RTVSPost2010PropOp34
 70
     1
102
RTVSPost2010Prop35
280
     0
102
RTVSPost2010PropOp35
 70
     1
102
RTVSPost2010Prop36
280
     0
102
RTVSPost2010PropOp36
 70
     1
102
RTVSPost2010Prop37
 90
       50
102
RTVSPost2010PropOp37
 70
     1
102
RTVSPost2010Prop38
140
0.0
102
RTVSPost2010PropOp38
 70
     1
102
RTVSPost2010Prop39
140
1.0
102
RTVSPost2010PropOp39
 70
     1
102
RTVSPost2010Prop40
 90
        0
102
RTVSPost2010PropOp40
 70
     1
102
RTVSPost2010Prop41ColorIndex
 90
       18
102
RTVSPost2010Prop41ColorRGB
 90
        0
102
RTVSPost2010PropOp41
 70
     1
102
RTVSPost2010Prop42
 90
       50
102
RTVSPost2010PropOp42
 70
     1
102
RTVSPost2010Prop43
 90
        3
102
RTVSPost2010PropOp43
 70
     1
102
RTVSPost2010Prop44ColorIndex
 90
        5
102
RTVSPost2010Prop44ColorRGB
 90
      255
102
RTVSPost2010PropOp44
 70
     1
102
RTVSPost2010Prop45
280
     0
102
RTVSPost2010PropOp45
 70
     1
102
RTVSPost2010Prop46
 90
       50
102
RTVSPost2010PropOp46
 70
     1
102
RTVSPost2010Prop47
 90
       50
102
RTVSPost2010PropOp47
 70
     1
102
RTVSPost2010Prop48
 90
       50
102
RTVSPost2010PropOp48
 70
     1
102
RTVSPost2010Prop49
280
     0
102
RTVSPost2010PropOp49
 70
     1
102
RTVSPost2010Prop50
 90
       50
102
RTVSPost2010PropOp50
 70
     1
102
RTVSPost2010Prop51ColorIndex
 90
      256
102
RTVSPost2010Prop51ColorRGB
 90
-16777216
102
RTVSPost2010PropOp51
 70
     0
102
RTVSPost2010Prop52
140
1.0
102
RTVSPost2010PropOp52
 70
     0
102
RTVSPost2010Prop53
 90
        2
102
RTVSPost2010PropOp53
 70
     1
102
RTVSPost2010Prop54
  1
strokes_ogs.tif
102
RTVSPost2010PropOp54
 70
     1
102
RTVSPost2010Prop55
280
     0
102
RTVSPost2010PropOp55
 70
     1
102
RTVSPost2010Prop56
140
1.0
102
RTVSPost2010PropOp56
 70
     1
102
RTVSPost2010Prop57
140
1.0
102
RTVSPost2010PropOp57
 70
     1
102
RTVSPropertyOp0
 70
     1
102
RTVSPropertyOp1
 70
     1
102
RTVSPropertyOp2
 70
     1
102
RTVSPropertyOp3
 70
     1
102
RTVSPropertyOp4
 70
     1
102
RTVSPropertyOp5
 70
     1
102
RTVSPropertyOp6
 70
     1
102
RTVSPropertyOp7
 70
     1
102
RTVSPropertyOp8
 70
     1
102
RTVSPropertyOp9
 70
     1
102
RTVSPropertyOp10
 70
     1
102
RTVSPropertyOp11
 70
     1
102
RTVSPropertyOp12
 70
     1
102
RTVSPropertyOp13
 70
     1
102
RTVSPropertyOp14
 70
     1
102
RTVSPropertyOp15
 70
     1
102
RTVSPropertyOp16
 70
     1
102
RTVSPropertyOp17
 70
     1
102
RTVSPropertyOp18
 70
     1
102
RTVSPropertyOp19
 70
     1
102
RTVSPropertyOp20
 70
     1
102
RTVSPropertyOp21
 70
     1
102
RTVSPropertyOp22
 70
     1
102
RTVSPropertyOp23
 70
     1
102
RTVSPropertyOp24
 70
     1
102
RTVSPropertyOp25
 70
     1
102
RTVSPropertyOp26
 70
     1
102
RTVSPropertyOp27
 70
     1
102
RTVSPropertyOp28
 70
     1
102
RTVSPropertyOp29
 70
     1
102
RTVSPropertyOp30
 70
     1
102
RTVSPropertyOp31
 70
     1
102
RTVSPropertyOp32
 70
     1
102
RTVSPropertyOp33
 70
     1
102
RTVSPropertyOp34
 70
     1
102
RTVSPropertyOp35
 70
     1
102
RTVSPropertyOp36
 70
     1
102
RTVSPropertyOp37
 70
     1
102
RTVSPropertyOp38
 70
     1
102
RTVSPropertyOp39
 70
     1
102
RTVSPropertyOp40
 70
     1
102
RTVSPropertyOp41
 70
     1
102
RTVSPropertyOp42
 70
     1
102
RTVSPropertyOp43
 70
     1
102
RTVSPropertyOp44
 70
     1
102
RTVSPropertyOp45
 70
     1
102
RTVSPropertyOp46
 70
     1
102
RTVSPropertyOp47
 70
     1
102
RTVSPropertyOp48
 70
     1
102
RTVSPropertyOp49
 70
     1
102
RTVSPropertyOp50
 70
     1
102
RTVSPropertyOp51
 70
     0
102
RTVSPropertyOp52
 70
     0
102
RTVSPropertyOp53
 70
     1
102
RTVSPropertyOp54
 70
     1
102
RTVSPropertyOp55
 70
     1
102
RTVSPropertyOp56
 70
     1
102
RTVSPropertyOp57
 70
     1
102
RTVSPropertyOp58
 70
     1
102
RTVSPropertyOp59
 70
     1
102
RTVSPropertyOp60
 70
     1
102
RTVSPropertyOp61
 70
     1
102
RTVSPropertyOp62
 70
     1
  0
XRECORD
  5
6730D
102
{ACAD_REACTORS
330
6730C
102
}
330
6730C
100
AcDbXrecord
280
     1
102
RTVSPost2010Prop28
280
     0
102
RTVSPost2010PropOp28
 70
     1
102
RTVSPost2010Prop29
280
     1
102
RTVSPost2010PropOp29
 70
     1
102
RTVSPost2010Prop30
280
     1
102
RTVSPost2010PropOp30
 70
     1
102
RTVSPost2010Prop31
280
     0
102
RTVSPost2010PropOp31
 70
     1
102
RTVSPost2010Prop32
280
     0
102
RTVSPost2010PropOp32
 70
     1
102
RTVSPost2010Prop33
280
     0
102
RTVSPost2010PropOp33
 70
     1
102
RTVSPost2010Prop34
280
     0
102
RTVSPost2010PropOp34
 70
     1
102
RTVSPost2010Prop35
280
     0
102
RTVSPost2010PropOp35
 70
     1
102
RTVSPost2010Prop36
280
     0
102
RTVSPost2010PropOp36
 70
     1
102
RTVSPost2010Prop37
 90
       50
102
RTVSPost2010PropOp37
 70
     1
102
RTVSPost2010Prop38
140
0.0
102
RTVSPost2010PropOp38
 70
     1
102
RTVSPost2010Prop39
140
1.0
102
RTVSPost2010PropOp39
 70
     1
102
RTVSPost2010Prop40
 90
        0
102
RTVSPost2010PropOp40
 70
     1
102
RTVSPost2010Prop41ColorIndex
 90
       18
102
RTVSPost2010Prop41ColorRGB
 90
        0
102
RTVSPost2010PropOp41
 70
     1
102
RTVSPost2010Prop42
 90
       50
102
RTVSPost2010PropOp42
 70
     1
102
RTVSPost2010Prop43
 90
        3
102
RTVSPost2010PropOp43
 70
     1
102
RTVSPost2010Prop44ColorIndex
 90
        5
102
RTVSPost2010Prop44ColorRGB
 90
      255
102
RTVSPost2010PropOp44
 70
     1
102
RTVSPost2010Prop45
280
     0
102
RTVSPost2010PropOp45
 70
     1
102
RTVSPost2010Prop46
 90
       50
102
RTVSPost2010PropOp46
 70
     1
102
RTVSPost2010Prop47
 90
       50
102
RTVSPost2010PropOp47
 70
     1
102
RTVSPost2010Prop48
 90
       50
102
RTVSPost2010PropOp48
 70
     1
102
RTVSPost2010Prop49
280
     0
102
RTVSPost2010PropOp49
 70
     1
102
RTVSPost2010Prop50
 90
       50
102
RTVSPost2010PropOp50
 70
     1
102
RTVSPost2010Prop51ColorIndex
 90
      256
102
RTVSPost2010Prop51ColorRGB
 90
-16777216
102
RTVSPost2010PropOp51
 70
     0
102
RTVSPost2010Prop52
140
1.0
102
RTVSPost2010PropOp52
 70
     0
102
RTVSPost2010Prop53
 90
        2
102
RTVSPost2010PropOp53
 70
     1
102
RTVSPost2010Prop54
  1
strokes_ogs.tif
102
RTVSPost2010PropOp54
 70
     1
102
RTVSPost2010Prop55
280
     0
102
RTVSPost2010PropOp55
 70
     1
102
RTVSPost2010Prop56
140
1.0
102
RTVSPost2010PropOp56
 70
     1
102
RTVSPost2010Prop57
140
1.0
102
RTVSPost2010PropOp57
 70
     1
102
RTVSPropertyOp0
 70
     1
102
RTVSPropertyOp1
 70
     1
102
RTVSPropertyOp2
 70
     1
102
RTVSPropertyOp3
 70
     1
102
RTVSPropertyOp4
 70
     1
102
RTVSPropertyOp5
 70
     1
102
RTVSPropertyOp6
 70
     1
102
RTVSPropertyOp7
 70
     1
102
RTVSPropertyOp8
 70
     1
102
RTVSPropertyOp9
 70
     1
102
RTVSPropertyOp10
 70
     1
102
RTVSPropertyOp11
 70
     1
102
RTVSPropertyOp12
 70
     1
102
RTVSPropertyOp13
 70
     1
102
RTVSPropertyOp14
 70
     1
102
RTVSPropertyOp15
 70
     1
102
RTVSPropertyOp16
 70
     1
102
RTVSPropertyOp17
 70
     1
102
RTVSPropertyOp18
 70
     1
102
RTVSPropertyOp19
 70
     1
102
RTVSPropertyOp20
 70
     1
102
RTVSPropertyOp21
 70
     1
102
RTVSPropertyOp22
 70
     1
102
RTVSPropertyOp23
 70
     1
102
RTVSPropertyOp24
 70
     1
102
RTVSPropertyOp25
 70
     1
102
RTVSPropertyOp26
 70
     1
102
RTVSPropertyOp27
 70
     1
102
RTVSPropertyOp28
 70
     1
102
RTVSPropertyOp29
 70
     1
102
RTVSPropertyOp30
 70
     1
102
RTVSPropertyOp31
 70
     1
102
RTVSPropertyOp32
 70
     1
102
RTVSPropertyOp33
 70
     1
102
RTVSPropertyOp34
 70
     1
102
RTVSPropertyOp35
 70
     1
102
RTVSPropertyOp36
 70
     1
102
RTVSPropertyOp37
 70
     1
102
RTVSPropertyOp38
 70
     1
102
RTVSPropertyOp39
 70
     1
102
RTVSPropertyOp40
 70
     1
102
RTVSPropertyOp41
 70
     1
102
RTVSPropertyOp42
 70
     1
102
RTVSPropertyOp43
 70
     1
102
RTVSPropertyOp44
 70
     1
102
RTVSPropertyOp45
 70
     1
102
RTVSPropertyOp46
 70
     1
102
RTVSPropertyOp47
 70
     1
102
RTVSPropertyOp48
 70
     1
102
RTVSPropertyOp49
 70
     1
102
RTVSPropertyOp50
 70
     1
102
RTVSPropertyOp51
 70
     0
102
RTVSPropertyOp52
 70
     0
102
RTVSPropertyOp53
 70
     1
102
RTVSPropertyOp54
 70
     1
102
RTVSPropertyOp55
 70
     1
102
RTVSPropertyOp56
 70
     1
102
RTVSPropertyOp57
 70
     1
102
RTVSPropertyOp58
 70
     1
102
RTVSPropertyOp59
 70
     1
102
RTVSPropertyOp60
 70
     1
102
RTVSPropertyOp61
 70
     1
102
RTVSPropertyOp62
 70
     1
  0
XRECORD
  5
67319
102
{ACAD_REACTORS
330
67318
102
}
330
67318
100
AcDbXrecord
280
     1
102
RTVSPost2010Prop28
280
     0
102
RTVSPost2010PropOp28
 70
     1
102
RTVSPost2010Prop29
280
     1
102
RTVSPost2010PropOp29
 70
     1
102
RTVSPost2010Prop30
280
     1
102
RTVSPost2010PropOp30
 70
     1
102
RTVSPost2010Prop31
280
     0
102
RTVSPost2010PropOp31
 70
     1
102
RTVSPost2010Prop32
280
     0
102
RTVSPost2010PropOp32
 70
     1
102
RTVSPost2010Prop33
280
     0
102
RTVSPost2010PropOp33
 70
     1
102
RTVSPost2010Prop34
280
     0
102
RTVSPost2010PropOp34
 70
     1
102
RTVSPost2010Prop35
280
     0
102
RTVSPost2010PropOp35
 70
     1
102
RTVSPost2010Prop36
280
     0
102
RTVSPost2010PropOp36
 70
     1
102
RTVSPost2010Prop37
 90
       50
102
RTVSPost2010PropOp37
 70
     0
102
RTVSPost2010Prop38
140
0.0
102
RTVSPost2010PropOp38
 70
     0
102
RTVSPost2010Prop39
140
1.0
102
RTVSPost2010PropOp39
 70
     0
102
RTVSPost2010Prop40
 90
        0
102
RTVSPost2010PropOp40
 70
     0
102
RTVSPost2010Prop41ColorIndex
 90
       18
102
RTVSPost2010Prop41ColorRGB
 90
        0
102
RTVSPost2010PropOp41
 70
     0
102
RTVSPost2010Prop42
 90
       50
102
RTVSPost2010PropOp42
 70
     0
102
RTVSPost2010Prop43
 90
        3
102
RTVSPost2010PropOp43
 70
     0
102
RTVSPost2010Prop44ColorIndex
 90
        5
102
RTVSPost2010Prop44ColorRGB
 90
      255
102
RTVSPost2010PropOp44
 70
     0
102
RTVSPost2010Prop45
280
     0
102
RTVSPost2010PropOp45
 70
     1
102
RTVSPost2010Prop46
 90
       50
102
RTVSPost2010PropOp46
 70
     0
102
RTVSPost2010Prop47
 90
       50
102
RTVSPost2010PropOp47
 70
     0
102
RTVSPost2010Prop48
 90
       50
102
RTVSPost2010PropOp48
 70
     0
102
RTVSPost2010Prop49
280
     0
102
RTVSPost2010PropOp49
 70
     1
102
RTVSPost2010Prop50
 90
       50
102
RTVSPost2010PropOp50
 70
     0
102
RTVSPost2010Prop51ColorIndex
 90
      256
102
RTVSPost2010Prop51ColorRGB
 90
-16777216
102
RTVSPost2010PropOp51
 70
     0
102
RTVSPost2010Prop52
140
1.0
102
RTVSPost2010PropOp52
 70
     0
102
RTVSPost2010Prop53
 90
        2
102
RTVSPost2010PropOp53
 70
     0
102
RTVSPost2010Prop54
  1
strokes_ogs.tif
102
RTVSPost2010PropOp54
 70
     0
102
RTVSPost2010Prop55
280
     0
102
RTVSPost2010PropOp55
 70
     1
102
RTVSPost2010Prop56
140
1.0
102
RTVSPost2010PropOp56
 70
     0
102
RTVSPost2010Prop57
140
1.0
102
RTVSPost2010PropOp57
 70
     0
102
RTVSPropertyOp0
 70
     0
102
RTVSPropertyOp1
 70
     0
102
RTVSPropertyOp2
 70
     0
102
RTVSPropertyOp3
 70
     0
102
RTVSPropertyOp4
 70
     0
102
RTVSPropertyOp5
 70
     0
102
RTVSPropertyOp6
 70
     0
102
RTVSPropertyOp7
 70
     0
102
RTVSPropertyOp8
 70
     0
102
RTVSPropertyOp9
 70
     0
102
RTVSPropertyOp10
 70
     0
102
RTVSPropertyOp11
 70
     0
102
RTVSPropertyOp12
 70
     0
102
RTVSPropertyOp13
 70
     0
102
RTVSPropertyOp14
 70
     2
102
RTVSPropertyOp15
 70
     0
102
RTVSPropertyOp16
 70
     0
102
RTVSPropertyOp17
 70
     0
102
RTVSPropertyOp18
 70
     0
102
RTVSPropertyOp19
 70
     0
102
RTVSPropertyOp20
 70
     0
102
RTVSPropertyOp21
 70
     0
102
RTVSPropertyOp22
 70
     0
102
RTVSPropertyOp23
 70
     0
102
RTVSPropertyOp24
 70
     0
102
RTVSPropertyOp25
 70
     0
102
RTVSPropertyOp26
 70
     0
102
RTVSPropertyOp27
 70
     0
102
RTVSPropertyOp28
 70
     1
102
RTVSPropertyOp29
 70
     1
102
RTVSPropertyOp30
 70
     1
102
RTVSPropertyOp31
 70
     1
102
RTVSPropertyOp32
 70
     1
102
RTVSPropertyOp33
 70
     1
102
RTVSPropertyOp34
 70
     1
102
RTVSPropertyOp35
 70
     1
102
RTVSPropertyOp36
 70
     1
102
RTVSPropertyOp37
 70
     0
102
RTVSPropertyOp38
 70
     0
102
RTVSPropertyOp39
 70
     0
102
RTVSPropertyOp40
 70
     0
102
RTVSPropertyOp41
 70
     0
102
RTVSPropertyOp42
 70
     0
102
RTVSPropertyOp43
 70
     0
102
RTVSPropertyOp44
 70
     0
102
RTVSPropertyOp45
 70
     1
102
RTVSPropertyOp46
 70
     0
102
RTVSPropertyOp47
 70
     0
102
RTVSPropertyOp48
 70
     0
102
RTVSPropertyOp49
 70
     1
102
RTVSPropertyOp50
 70
     0
102
RTVSPropertyOp51
 70
     0
102
RTVSPropertyOp52
 70
     0
102
RTVSPropertyOp53
 70
     0
102
RTVSPropertyOp54
 70
     0
102
RTVSPropertyOp55
 70
     1
102
RTVSPropertyOp56
 70
     0
102
RTVSPropertyOp57
 70
     0
102
RTVSPropertyOp58
 70
     0
102
RTVSPropertyOp59
 70
     0
102
RTVSPropertyOp60
 70
     0
102
RTVSPropertyOp61
 70
     0
102
RTVSPropertyOp62
 70
     0
  0
XRECORD
  5
67304
102
{ACAD_REACTORS
330
67303
102
}
330
67303
100
AcDbXrecord
280
     1
102
RTVSPost2010Prop28
280
     0
102
RTVSPost2010PropOp28
 70
     1
102
RTVSPost2010Prop29
280
     1
102
RTVSPost2010PropOp29
 70
     1
102
RTVSPost2010Prop30
280
     1
102
RTVSPost2010PropOp30
 70
     1
102
RTVSPost2010Prop31
280
     0
102
RTVSPost2010PropOp31
 70
     1
102
RTVSPost2010Prop32
280
     0
102
RTVSPost2010PropOp32
 70
     1
102
RTVSPost2010Prop33
280
     0
102
RTVSPost2010PropOp33
 70
     1
102
RTVSPost2010Prop34
280
     0
102
RTVSPost2010PropOp34
 70
     1
102
RTVSPost2010Prop35
280
     0
102
RTVSPost2010PropOp35
 70
     1
102
RTVSPost2010Prop36
280
     0
102
RTVSPost2010PropOp36
 70
     1
102
RTVSPost2010Prop37
 90
       50
102
RTVSPost2010PropOp37
 70
     1
102
RTVSPost2010Prop38
140
0.0
102
RTVSPost2010PropOp38
 70
     1
102
RTVSPost2010Prop39
140
1.0
102
RTVSPost2010PropOp39
 70
     1
102
RTVSPost2010Prop40
 90
        0
102
RTVSPost2010PropOp40
 70
     1
102
RTVSPost2010Prop41ColorIndex
 90
       18
102
RTVSPost2010Prop41ColorRGB
 90
        0
102
RTVSPost2010PropOp41
 70
     1
102
RTVSPost2010Prop42
 90
       50
102
RTVSPost2010PropOp42
 70
     1
102
RTVSPost2010Prop43
 90
        3
102
RTVSPost2010PropOp43
 70
     1
102
RTVSPost2010Prop44ColorIndex
 90
        5
102
RTVSPost2010Prop44ColorRGB
 90
      255
102
RTVSPost2010PropOp44
 70
     1
102
RTVSPost2010Prop45
280
     0
102
RTVSPost2010PropOp45
 70
     1
102
RTVSPost2010Prop46
 90
       50
102
RTVSPost2010PropOp46
 70
     1
102
RTVSPost2010Prop47
 90
       50
102
RTVSPost2010PropOp47
 70
     1
102
RTVSPost2010Prop48
 90
       50
102
RTVSPost2010PropOp48
 70
     1
102
RTVSPost2010Prop49
280
     0
102
RTVSPost2010PropOp49
 70
     1
102
RTVSPost2010Prop50
 90
       50
102
RTVSPost2010PropOp50
 70
     1
102
RTVSPost2010Prop51ColorIndex
 90
      256
102
RTVSPost2010Prop51ColorRGB
 90
-16777216
102
RTVSPost2010PropOp51
 70
     0
102
RTVSPost2010Prop52
140
1.0
102
RTVSPost2010PropOp52
 70
     0
102
RTVSPost2010Prop53
 90
        2
102
RTVSPost2010PropOp53
 70
     1
102
RTVSPost2010Prop54
  1
strokes_ogs.tif
102
RTVSPost2010PropOp54
 70
     1
102
RTVSPost2010Prop55
280
     0
102
RTVSPost2010PropOp55
 70
     1
102
RTVSPost2010Prop56
140
1.0
102
RTVSPost2010PropOp56
 70
     1
102
RTVSPost2010Prop57
140
1.0
102
RTVSPost2010PropOp57
 70
     1
102
RTVSPropertyOp0
 70
     1
102
RTVSPropertyOp1
 70
     1
102
RTVSPropertyOp2
 70
     1
102
RTVSPropertyOp3
 70
     1
102
RTVSPropertyOp4
 70
     1
102
RTVSPropertyOp5
 70
     1
102
RTVSPropertyOp6
 70
     1
102
RTVSPropertyOp7
 70
     1
102
RTVSPropertyOp8
 70
     1
102
RTVSPropertyOp9
 70
     1
102
RTVSPropertyOp10
 70
     1
102
RTVSPropertyOp11
 70
     1
102
RTVSPropertyOp12
 70
     1
102
RTVSPropertyOp13
 70
     1
102
RTVSPropertyOp14
 70
     1
102
RTVSPropertyOp15
 70
     1
102
RTVSPropertyOp16
 70
     1
102
RTVSPropertyOp17
 70
     1
102
RTVSPropertyOp18
 70
     1
102
RTVSPropertyOp19
 70
     1
102
RTVSPropertyOp20
 70
     1
102
RTVSPropertyOp21
 70
     1
102
RTVSPropertyOp22
 70
     1
102
RTVSPropertyOp23
 70
     1
102
RTVSPropertyOp24
 70
     1
102
RTVSPropertyOp25
 70
     1
102
RTVSPropertyOp26
 70
     1
102
RTVSPropertyOp27
 70
     1
102
RTVSPropertyOp28
 70
     1
102
RTVSPropertyOp29
 70
     1
102
RTVSPropertyOp30
 70
     1
102
RTVSPropertyOp31
 70
     1
102
RTVSPropertyOp32
 70
     1
102
RTVSPropertyOp33
 70
     1
102
RTVSPropertyOp34
 70
     1
102
RTVSPropertyOp35
 70
     1
102
RTVSPropertyOp36
 70
     1
102
RTVSPropertyOp37
 70
     1
102
RTVSPropertyOp38
 70
     1
102
RTVSPropertyOp39
 70
     1
102
RTVSPropertyOp40
 70
     1
102
RTVSPropertyOp41
 70
     1
102
RTVSPropertyOp42
 70
     1
102
RTVSPropertyOp43
 70
     1
102
RTVSPropertyOp44
 70
     1
102
RTVSPropertyOp45
 70
     1
102
RTVSPropertyOp46
 70
     1
102
RTVSPropertyOp47
 70
     1
102
RTVSPropertyOp48
 70
     1
102
RTVSPropertyOp49
 70
     1
102
RTVSPropertyOp50
 70
     1
102
RTVSPropertyOp51
 70
     0
102
RTVSPropertyOp52
 70
     0
102
RTVSPropertyOp53
 70
     1
102
RTVSPropertyOp54
 70
     1
102
RTVSPropertyOp55
 70
     1
102
RTVSPropertyOp56
 70
     1
102
RTVSPropertyOp57
 70
     1
102
RTVSPropertyOp58
 70
     1
102
RTVSPropertyOp59
 70
     1
102
RTVSPropertyOp60
 70
     1
102
RTVSPropertyOp61
 70
     1
102
RTVSPropertyOp62
 70
     1
  0
XRECORD
  5
6731B
102
{ACAD_REACTORS
330
6731A
102
}
330
6731A
100
AcDbXrecord
280
     1
102
RTVSPost2010Prop28
280
     0
102
RTVSPost2010PropOp28
 70
     1
102
RTVSPost2010Prop29
280
     1
102
RTVSPost2010PropOp29
 70
     1
102
RTVSPost2010Prop30
280
     1
102
RTVSPost2010PropOp30
 70
     1
102
RTVSPost2010Prop31
280
     0
102
RTVSPost2010PropOp31
 70
     1
102
RTVSPost2010Prop32
280
     0
102
RTVSPost2010PropOp32
 70
     1
102
RTVSPost2010Prop33
280
     0
102
RTVSPost2010PropOp33
 70
     1
102
RTVSPost2010Prop34
280
     0
102
RTVSPost2010PropOp34
 70
     1
102
RTVSPost2010Prop35
280
     0
102
RTVSPost2010PropOp35
 70
     1
102
RTVSPost2010Prop36
280
     0
102
RTVSPost2010PropOp36
 70
     1
102
RTVSPost2010Prop37
 90
       50
102
RTVSPost2010PropOp37
 70
     0
102
RTVSPost2010Prop38
140
0.0
102
RTVSPost2010PropOp38
 70
     0
102
RTVSPost2010Prop39
140
1.0
102
RTVSPost2010PropOp39
 70
     0
102
RTVSPost2010Prop40
 90
        0
102
RTVSPost2010PropOp40
 70
     0
102
RTVSPost2010Prop41ColorIndex
 90
       18
102
RTVSPost2010Prop41ColorRGB
 90
        0
102
RTVSPost2010PropOp41
 70
     0
102
RTVSPost2010Prop42
 90
       50
102
RTVSPost2010PropOp42
 70
     0
102
RTVSPost2010Prop43
 90
        3
102
RTVSPost2010PropOp43
 70
     0
102
RTVSPost2010Prop44ColorIndex
 90
        5
102
RTVSPost2010Prop44ColorRGB
 90
      255
102
RTVSPost2010PropOp44
 70
     0
102
RTVSPost2010Prop45
280
     0
102
RTVSPost2010PropOp45
 70
     1
102
RTVSPost2010Prop46
 90
       50
102
RTVSPost2010PropOp46
 70
     0
102
RTVSPost2010Prop47
 90
       50
102
RTVSPost2010PropOp47
 70
     0
102
RTVSPost2010Prop48
 90
       50
102
RTVSPost2010PropOp48
 70
     0
102
RTVSPost2010Prop49
280
     0
102
RTVSPost2010PropOp49
 70
     1
102
RTVSPost2010Prop50
 90
       50
102
RTVSPost2010PropOp50
 70
     0
102
RTVSPost2010Prop51ColorIndex
 90
      256
102
RTVSPost2010Prop51ColorRGB
 90
-16777216
102
RTVSPost2010PropOp51
 70
     0
102
RTVSPost2010Prop52
140
1.0
102
RTVSPost2010PropOp52
 70
     0
102
RTVSPost2010Prop53
 90
        2
102
RTVSPost2010PropOp53
 70
     0
102
RTVSPost2010Prop54
  1
strokes_ogs.tif
102
RTVSPost2010PropOp54
 70
     0
102
RTVSPost2010Prop55
280
     0
102
RTVSPost2010PropOp55
 70
     1
102
RTVSPost2010Prop56
140
1.0
102
RTVSPost2010PropOp56
 70
     0
102
RTVSPost2010Prop57
140
1.0
102
RTVSPost2010PropOp57
 70
     0
102
RTVSPropertyOp0
 70
     0
102
RTVSPropertyOp1
 70
     0
102
RTVSPropertyOp2
 70
     0
102
RTVSPropertyOp3
 70
     0
102
RTVSPropertyOp4
 70
     0
102
RTVSPropertyOp5
 70
     0
102
RTVSPropertyOp6
 70
     0
102
RTVSPropertyOp7
 70
     0
102
RTVSPropertyOp8
 70
     0
102
RTVSPropertyOp9
 70
     0
102
RTVSPropertyOp10
 70
     0
102
RTVSPropertyOp11
 70
     0
102
RTVSPropertyOp12
 70
     0
102
RTVSPropertyOp13
 70
     0
102
RTVSPropertyOp14
 70
     2
102
RTVSPropertyOp15
 70
     0
102
RTVSPropertyOp16
 70
     0
102
RTVSPropertyOp17
 70
     0
102
RTVSPropertyOp18
 70
     0
102
RTVSPropertyOp19
 70
     0
102
RTVSPropertyOp20
 70
     0
102
RTVSPropertyOp21
 70
     0
102
RTVSPropertyOp22
 70
     0
102
RTVSPropertyOp23
 70
     0
102
RTVSPropertyOp24
 70
     0
102
RTVSPropertyOp25
 70
     0
102
RTVSPropertyOp26
 70
     0
102
RTVSPropertyOp27
 70
     0
102
RTVSPropertyOp28
 70
     1
102
RTVSPropertyOp29
 70
     1
102
RTVSPropertyOp30
 70
     1
102
RTVSPropertyOp31
 70
     1
102
RTVSPropertyOp32
 70
     1
102
RTVSPropertyOp33
 70
     1
102
RTVSPropertyOp34
 70
     1
102
RTVSPropertyOp35
 70
     1
102
RTVSPropertyOp36
 70
     1
102
RTVSPropertyOp37
 70
     0
102
RTVSPropertyOp38
 70
     0
102
RTVSPropertyOp39
 70
     0
102
RTVSPropertyOp40
 70
     0
102
RTVSPropertyOp41
 70
     0
102
RTVSPropertyOp42
 70
     0
102
RTVSPropertyOp43
 70
     0
102
RTVSPropertyOp44
 70
     0
102
RTVSPropertyOp45
 70
     1
102
RTVSPropertyOp46
 70
     0
102
RTVSPropertyOp47
 70
     0
102
RTVSPropertyOp48
 70
     0
102
RTVSPropertyOp49
 70
     1
102
RTVSPropertyOp50
 70
     0
102
RTVSPropertyOp51
 70
     0
102
RTVSPropertyOp52
 70
     0
102
RTVSPropertyOp53
 70
     0
102
RTVSPropertyOp54
 70
     0
102
RTVSPropertyOp55
 70
     1
102
RTVSPropertyOp56
 70
     0
102
RTVSPropertyOp57
 70
     0
102
RTVSPropertyOp58
 70
     0
102
RTVSPropertyOp59
 70
     0
102
RTVSPropertyOp60
 70
     0
102
RTVSPropertyOp61
 70
     0
102
RTVSPropertyOp62
 70
     0
  0
XRECORD
  5
672FC
102
{ACAD_REACTORS
330
672FB
102
}
330
672FB
100
AcDbXrecord
280
     1
102
RTVSPost2010Prop28
280
     0
102
RTVSPost2010PropOp28
 70
     1
102
RTVSPost2010Prop29
280
     1
102
RTVSPost2010PropOp29
 70
     1
102
RTVSPost2010Prop30
280
     1
102
RTVSPost2010PropOp30
 70
     1
102
RTVSPost2010Prop31
280
     0
102
RTVSPost2010PropOp31
 70
     1
102
RTVSPost2010Prop32
280
     0
102
RTVSPost2010PropOp32
 70
     1
102
RTVSPost2010Prop33
280
     0
102
RTVSPost2010PropOp33
 70
     1
102
RTVSPost2010Prop34
280
     0
102
RTVSPost2010PropOp34
 70
     1
102
RTVSPost2010Prop35
280
     0
102
RTVSPost2010PropOp35
 70
     1
102
RTVSPost2010Prop36
280
     0
102
RTVSPost2010PropOp36
 70
     1
102
RTVSPost2010Prop37
 90
       50
102
RTVSPost2010PropOp37
 70
     1
102
RTVSPost2010Prop38
140
0.0
102
RTVSPost2010PropOp38
 70
     1
102
RTVSPost2010Prop39
140
1.0
102
RTVSPost2010PropOp39
 70
     1
102
RTVSPost2010Prop40
 90
        0
102
RTVSPost2010PropOp40
 70
     1
102
RTVSPost2010Prop41ColorIndex
 90
       18
102
RTVSPost2010Prop41ColorRGB
 90
        0
102
RTVSPost2010PropOp41
 70
     1
102
RTVSPost2010Prop42
 90
       50
102
RTVSPost2010PropOp42
 70
     1
102
RTVSPost2010Prop43
 90
        3
102
RTVSPost2010PropOp43
 70
     1
102
RTVSPost2010Prop44ColorIndex
 90
        5
102
RTVSPost2010Prop44ColorRGB
 90
      255
102
RTVSPost2010PropOp44
 70
     1
102
RTVSPost2010Prop45
280
     0
102
RTVSPost2010PropOp45
 70
     1
102
RTVSPost2010Prop46
 90
       50
102
RTVSPost2010PropOp46
 70
     1
102
RTVSPost2010Prop47
 90
       50
102
RTVSPost2010PropOp47
 70
     1
102
RTVSPost2010Prop48
 90
       50
102
RTVSPost2010PropOp48
 70
     1
102
RTVSPost2010Prop49
280
     0
102
RTVSPost2010PropOp49
 70
     1
102
RTVSPost2010Prop50
 90
       50
102
RTVSPost2010PropOp50
 70
     1
102
RTVSPost2010Prop51ColorIndex
 90
      256
102
RTVSPost2010Prop51ColorRGB
 90
-16777216
102
RTVSPost2010PropOp51
 70
     0
102
RTVSPost2010Prop52
140
1.0
102
RTVSPost2010PropOp52
 70
     0
102
RTVSPost2010Prop53
 90
        2
102
RTVSPost2010PropOp53
 70
     1
102
RTVSPost2010Prop54
  1
strokes_ogs.tif
102
RTVSPost2010PropOp54
 70
     1
102
RTVSPost2010Prop55
280
     0
102
RTVSPost2010PropOp55
 70
     1
102
RTVSPost2010Prop56
140
1.0
102
RTVSPost2010PropOp56
 70
     1
102
RTVSPost2010Prop57
140
1.0
102
RTVSPost2010PropOp57
 70
     1
102
RTVSPropertyOp0
 70
     1
102
RTVSPropertyOp1
 70
     1
102
RTVSPropertyOp2
 70
     1
102
RTVSPropertyOp3
 70
     1
102
RTVSPropertyOp4
 70
     1
102
RTVSPropertyOp5
 70
     1
102
RTVSPropertyOp6
 70
     1
102
RTVSPropertyOp7
 70
     1
102
RTVSPropertyOp8
 70
     1
102
RTVSPropertyOp9
 70
     1
102
RTVSPropertyOp10
 70
     1
102
RTVSPropertyOp11
 70
     1
102
RTVSPropertyOp12
 70
     1
102
RTVSPropertyOp13
 70
     1
102
RTVSPropertyOp14
 70
     1
102
RTVSPropertyOp15
 70
     1
102
RTVSPropertyOp16
 70
     1
102
RTVSPropertyOp17
 70
     1
102
RTVSPropertyOp18
 70
     1
102
RTVSPropertyOp19
 70
     1
102
RTVSPropertyOp20
 70
     1
102
RTVSPropertyOp21
 70
     1
102
RTVSPropertyOp22
 70
     1
102
RTVSPropertyOp23
 70
     1
102
RTVSPropertyOp24
 70
     1
102
RTVSPropertyOp25
 70
     1
102
RTVSPropertyOp26
 70
     1
102
RTVSPropertyOp27
 70
     1
102
RTVSPropertyOp28
 70
     1
102
RTVSPropertyOp29
 70
     1
102
RTVSPropertyOp30
 70
     1
102
RTVSPropertyOp31
 70
     1
102
RTVSPropertyOp32
 70
     1
102
RTVSPropertyOp33
 70
     1
102
RTVSPropertyOp34
 70
     1
102
RTVSPropertyOp35
 70
     1
102
RTVSPropertyOp36
 70
     1
102
RTVSPropertyOp37
 70
     1
102
RTVSPropertyOp38
 70
     1
102
RTVSPropertyOp39
 70
     1
102
RTVSPropertyOp40
 70
     1
102
RTVSPropertyOp41
 70
     1
102
RTVSPropertyOp42
 70
     1
102
RTVSPropertyOp43
 70
     1
102
RTVSPropertyOp44
 70
     1
102
RTVSPropertyOp45
 70
     1
102
RTVSPropertyOp46
 70
     1
102
RTVSPropertyOp47
 70
     1
102
RTVSPropertyOp48
 70
     1
102
RTVSPropertyOp49
 70
     1
102
RTVSPropertyOp50
 70
     1
102
RTVSPropertyOp51
 70
     0
102
RTVSPropertyOp52
 70
     0
102
RTVSPropertyOp53
 70
     1
102
RTVSPropertyOp54
 70
     1
102
RTVSPropertyOp55
 70
     1
102
RTVSPropertyOp56
 70
     1
102
RTVSPropertyOp57
 70
     1
102
RTVSPropertyOp58
 70
     1
102
RTVSPropertyOp59
 70
     1
102
RTVSPropertyOp60
 70
     1
102
RTVSPropertyOp61
 70
     1
102
RTVSPropertyOp62
 70
     1
  0
XRECORD
  5
67317
102
{ACAD_REACTORS
330
67316
102
}
330
67316
100
AcDbXrecord
280
     1
102
RTVSPost2010Prop28
280
     0
102
RTVSPost2010PropOp28
 70
     1
102
RTVSPost2010Prop29
280
     1
102
RTVSPost2010PropOp29
 70
     1
102
RTVSPost2010Prop30
280
     1
102
RTVSPost2010PropOp30
 70
     1
102
RTVSPost2010Prop31
280
     0
102
RTVSPost2010PropOp31
 70
     1
102
RTVSPost2010Prop32
280
     0
102
RTVSPost2010PropOp32
 70
     1
102
RTVSPost2010Prop33
280
     0
102
RTVSPost2010PropOp33
 70
     1
102
RTVSPost2010Prop34
280
     0
102
RTVSPost2010PropOp34
 70
     1
102
RTVSPost2010Prop35
280
     0
102
RTVSPost2010PropOp35
 70
     1
102
RTVSPost2010Prop36
280
     0
102
RTVSPost2010PropOp36
 70
     1
102
RTVSPost2010Prop37
 90
       50
102
RTVSPost2010PropOp37
 70
     1
102
RTVSPost2010Prop38
140
0.0
102
RTVSPost2010PropOp38
 70
     1
102
RTVSPost2010Prop39
140
1.0
102
RTVSPost2010PropOp39
 70
     1
102
RTVSPost2010Prop40
 90
        0
102
RTVSPost2010PropOp40
 70
     1
102
RTVSPost2010Prop41ColorIndex
 90
       18
102
RTVSPost2010Prop41ColorRGB
 90
        0
102
RTVSPost2010PropOp41
 70
     1
102
RTVSPost2010Prop42
 90
       50
102
RTVSPost2010PropOp42
 70
     1
102
RTVSPost2010Prop43
 90
        3
102
RTVSPost2010PropOp43
 70
     1
102
RTVSPost2010Prop44ColorIndex
 90
        5
102
RTVSPost2010Prop44ColorRGB
 90
      255
102
RTVSPost2010PropOp44
 70
     1
102
RTVSPost2010Prop45
280
     0
102
RTVSPost2010PropOp45
 70
     1
102
RTVSPost2010Prop46
 90
       50
102
RTVSPost2010PropOp46
 70
     1
102
RTVSPost2010Prop47
 90
       50
102
RTVSPost2010PropOp47
 70
     1
102
RTVSPost2010Prop48
 90
       50
102
RTVSPost2010PropOp48
 70
     1
102
RTVSPost2010Prop49
280
     0
102
RTVSPost2010PropOp49
 70
     1
102
RTVSPost2010Prop50
 90
       50
102
RTVSPost2010PropOp50
 70
     1
102
RTVSPost2010Prop51ColorIndex
 90
      256
102
RTVSPost2010Prop51ColorRGB
 90
-16777216
102
RTVSPost2010PropOp51
 70
     0
102
RTVSPost2010Prop52
140
1.0
102
RTVSPost2010PropOp52
 70
     0
102
RTVSPost2010Prop53
 90
        2
102
RTVSPost2010PropOp53
 70
     1
102
RTVSPost2010Prop54
  1
strokes_ogs.tif
102
RTVSPost2010PropOp54
 70
     1
102
RTVSPost2010Prop55
280
     0
102
RTVSPost2010PropOp55
 70
     1
102
RTVSPost2010Prop56
140
1.0
102
RTVSPost2010PropOp56
 70
     1
102
RTVSPost2010Prop57
140
1.0
102
RTVSPost2010PropOp57
 70
     1
102
RTVSPropertyOp0
 70
     1
102
RTVSPropertyOp1
 70
     1
102
RTVSPropertyOp2
 70
     1
102
RTVSPropertyOp3
 70
     1
102
RTVSPropertyOp4
 70
     1
102
RTVSPropertyOp5
 70
     1
102
RTVSPropertyOp6
 70
     1
102
RTVSPropertyOp7
 70
     1
102
RTVSPropertyOp8
 70
     1
102
RTVSPropertyOp9
 70
     1
102
RTVSPropertyOp10
 70
     1
102
RTVSPropertyOp11
 70
     1
102
RTVSPropertyOp12
 70
     1
102
RTVSPropertyOp13
 70
     1
102
RTVSPropertyOp14
 70
     1
102
RTVSPropertyOp15
 70
     1
102
RTVSPropertyOp16
 70
     1
102
RTVSPropertyOp17
 70
     1
102
RTVSPropertyOp18
 70
     1
102
RTVSPropertyOp19
 70
     1
102
RTVSPropertyOp20
 70
     1
102
RTVSPropertyOp21
 70
     1
102
RTVSPropertyOp22
 70
     1
102
RTVSPropertyOp23
 70
     1
102
RTVSPropertyOp24
 70
     1
102
RTVSPropertyOp25
 70
     1
102
RTVSPropertyOp26
 70
     1
102
RTVSPropertyOp27
 70
     1
102
RTVSPropertyOp28
 70
     1
102
RTVSPropertyOp29
 70
     1
102
RTVSPropertyOp30
 70
     1
102
RTVSPropertyOp31
 70
     1
102
RTVSPropertyOp32
 70
     1
102
RTVSPropertyOp33
 70
     1
102
RTVSPropertyOp34
 70
     1
102
RTVSPropertyOp35
 70
     1
102
RTVSPropertyOp36
 70
     1
102
RTVSPropertyOp37
 70
     1
102
RTVSPropertyOp38
 70
     1
102
RTVSPropertyOp39
 70
     1
102
RTVSPropertyOp40
 70
     1
102
RTVSPropertyOp41
 70
     1
102
RTVSPropertyOp42
 70
     1
102
RTVSPropertyOp43
 70
     1
102
RTVSPropertyOp44
 70
     1
102
RTVSPropertyOp45
 70
     1
102
RTVSPropertyOp46
 70
     1
102
RTVSPropertyOp47
 70
     1
102
RTVSPropertyOp48
 70
     1
102
RTVSPropertyOp49
 70
     1
102
RTVSPropertyOp50
 70
     1
102
RTVSPropertyOp51
 70
     0
102
RTVSPropertyOp52
 70
     0
102
RTVSPropertyOp53
 70
     1
102
RTVSPropertyOp54
 70
     1
102
RTVSPropertyOp55
 70
     1
102
RTVSPropertyOp56
 70
     1
102
RTVSPropertyOp57
 70
     1
102
RTVSPropertyOp58
 70
     1
102
RTVSPropertyOp59
 70
     1
102
RTVSPropertyOp60
 70
     1
102
RTVSPropertyOp61
 70
     1
102
RTVSPropertyOp62
 70
     1
  0
XRECORD
  5
67315
102
{ACAD_REACTORS
330
67314
102
}
330
67314
100
AcDbXrecord
280
     1
102
RTVSPost2010Prop28
280
     0
102
RTVSPost2010PropOp28
 70
     1
102
RTVSPost2010Prop29
280
     1
102
RTVSPost2010PropOp29
 70
     1
102
RTVSPost2010Prop30
280
     1
102
RTVSPost2010PropOp30
 70
     1
102
RTVSPost2010Prop31
280
     0
102
RTVSPost2010PropOp31
 70
     1
102
RTVSPost2010Prop32
280
     0
102
RTVSPost2010PropOp32
 70
     1
102
RTVSPost2010Prop33
280
     0
102
RTVSPost2010PropOp33
 70
     1
102
RTVSPost2010Prop34
280
     0
102
RTVSPost2010PropOp34
 70
     1
102
RTVSPost2010Prop35
280
     0
102
RTVSPost2010PropOp35
 70
     1
102
RTVSPost2010Prop36
280
     0
102
RTVSPost2010PropOp36
 70
     1
102
RTVSPost2010Prop37
 90
       50
102
RTVSPost2010PropOp37
 70
     1
102
RTVSPost2010Prop38
140
0.0
102
RTVSPost2010PropOp38
 70
     1
102
RTVSPost2010Prop39
140
1.0
102
RTVSPost2010PropOp39
 70
     1
102
RTVSPost2010Prop40
 90
        0
102
RTVSPost2010PropOp40
 70
     1
102
RTVSPost2010Prop41ColorIndex
 90
       18
102
RTVSPost2010Prop41ColorRGB
 90
        0
102
RTVSPost2010PropOp41
 70
     1
102
RTVSPost2010Prop42
 90
       50
102
RTVSPost2010PropOp42
 70
     1
102
RTVSPost2010Prop43
 90
        3
102
RTVSPost2010PropOp43
 70
     1
102
RTVSPost2010Prop44ColorIndex
 90
        5
102
RTVSPost2010Prop44ColorRGB
 90
      255
102
RTVSPost2010PropOp44
 70
     1
102
RTVSPost2010Prop45
280
     0
102
RTVSPost2010PropOp45
 70
     1
102
RTVSPost2010Prop46
 90
       50
102
RTVSPost2010PropOp46
 70
     1
102
RTVSPost2010Prop47
 90
       50
102
RTVSPost2010PropOp47
 70
     1
102
RTVSPost2010Prop48
 90
       50
102
RTVSPost2010PropOp48
 70
     1
102
RTVSPost2010Prop49
280
     0
102
RTVSPost2010PropOp49
 70
     1
102
RTVSPost2010Prop50
 90
       50
102
RTVSPost2010PropOp50
 70
     1
102
RTVSPost2010Prop51ColorIndex
 90
      256
102
RTVSPost2010Prop51ColorRGB
 90
-16777216
102
RTVSPost2010PropOp51
 70
     0
102
RTVSPost2010Prop52
140
1.0
102
RTVSPost2010PropOp52
 70
     0
102
RTVSPost2010Prop53
 90
        2
102
RTVSPost2010PropOp53
 70
     1
102
RTVSPost2010Prop54
  1
strokes_ogs.tif
102
RTVSPost2010PropOp54
 70
     1
102
RTVSPost2010Prop55
280
     0
102
RTVSPost2010PropOp55
 70
     1
102
RTVSPost2010Prop56
140
1.0
102
RTVSPost2010PropOp56
 70
     1
102
RTVSPost2010Prop57
140
1.0
102
RTVSPost2010PropOp57
 70
     1
102
RTVSPropertyOp0
 70
     1
102
RTVSPropertyOp1
 70
     1
102
RTVSPropertyOp2
 70
     1
102
RTVSPropertyOp3
 70
     1
102
RTVSPropertyOp4
 70
     1
102
RTVSPropertyOp5
 70
     1
102
RTVSPropertyOp6
 70
     1
102
RTVSPropertyOp7
 70
     1
102
RTVSPropertyOp8
 70
     1
102
RTVSPropertyOp9
 70
     1
102
RTVSPropertyOp10
 70
     1
102
RTVSPropertyOp11
 70
     1
102
RTVSPropertyOp12
 70
     1
102
RTVSPropertyOp13
 70
     1
102
RTVSPropertyOp14
 70
     1
102
RTVSPropertyOp15
 70
     1
102
RTVSPropertyOp16
 70
     1
102
RTVSPropertyOp17
 70
     1
102
RTVSPropertyOp18
 70
     1
102
RTVSPropertyOp19
 70
     1
102
RTVSPropertyOp20
 70
     1
102
RTVSPropertyOp21
 70
     1
102
RTVSPropertyOp22
 70
     1
102
RTVSPropertyOp23
 70
     1
102
RTVSPropertyOp24
 70
     1
102
RTVSPropertyOp25
 70
     1
102
RTVSPropertyOp26
 70
     1
102
RTVSPropertyOp27
 70
     1
102
RTVSPropertyOp28
 70
     1
102
RTVSPropertyOp29
 70
     1
102
RTVSPropertyOp30
 70
     1
102
RTVSPropertyOp31
 70
     1
102
RTVSPropertyOp32
 70
     1
102
RTVSPropertyOp33
 70
     1
102
RTVSPropertyOp34
 70
     1
102
RTVSPropertyOp35
 70
     1
102
RTVSPropertyOp36
 70
     1
102
RTVSPropertyOp37
 70
     1
102
RTVSPropertyOp38
 70
     1
102
RTVSPropertyOp39
 70
     1
102
RTVSPropertyOp40
 70
     1
102
RTVSPropertyOp41
 70
     1
102
RTVSPropertyOp42
 70
     1
102
RTVSPropertyOp43
 70
     1
102
RTVSPropertyOp44
 70
     1
102
RTVSPropertyOp45
 70
     1
102
RTVSPropertyOp46
 70
     1
102
RTVSPropertyOp47
 70
     1
102
RTVSPropertyOp48
 70
     1
102
RTVSPropertyOp49
 70
     1
102
RTVSPropertyOp50
 70
     1
102
RTVSPropertyOp51
 70
     0
102
RTVSPropertyOp52
 70
     0
102
RTVSPropertyOp53
 70
     1
102
RTVSPropertyOp54
 70
     1
102
RTVSPropertyOp55
 70
     1
102
RTVSPropertyOp56
 70
     1
102
RTVSPropertyOp57
 70
     1
102
RTVSPropertyOp58
 70
     1
102
RTVSPropertyOp59
 70
     1
102
RTVSPropertyOp60
 70
     1
102
RTVSPropertyOp61
 70
     1
102
RTVSPropertyOp62
 70
     1
  0
XRECORD
  5
6730F
102
{ACAD_REACTORS
330
6730E
102
}
330
6730E
100
AcDbXrecord
280
     1
102
RTVSPost2010Prop28
280
     0
102
RTVSPost2010PropOp28
 70
     1
102
RTVSPost2010Prop29
280
     1
102
RTVSPost2010PropOp29
 70
     1
102
RTVSPost2010Prop30
280
     1
102
RTVSPost2010PropOp30
 70
     1
102
RTVSPost2010Prop31
280
     0
102
RTVSPost2010PropOp31
 70
     1
102
RTVSPost2010Prop32
280
     0
102
RTVSPost2010PropOp32
 70
     1
102
RTVSPost2010Prop33
280
     0
102
RTVSPost2010PropOp33
 70
     1
102
RTVSPost2010Prop34
280
     0
102
RTVSPost2010PropOp34
 70
     1
102
RTVSPost2010Prop35
280
     0
102
RTVSPost2010PropOp35
 70
     1
102
RTVSPost2010Prop36
280
     0
102
RTVSPost2010PropOp36
 70
     1
102
RTVSPost2010Prop37
 90
       50
102
RTVSPost2010PropOp37
 70
     1
102
RTVSPost2010Prop38
140
0.0
102
RTVSPost2010PropOp38
 70
     1
102
RTVSPost2010Prop39
140
1.0
102
RTVSPost2010PropOp39
 70
     1
102
RTVSPost2010Prop40
 90
        0
102
RTVSPost2010PropOp40
 70
     1
102
RTVSPost2010Prop41ColorIndex
 90
       18
102
RTVSPost2010Prop41ColorRGB
 90
        0
102
RTVSPost2010PropOp41
 70
     1
102
RTVSPost2010Prop42
 90
       50
102
RTVSPost2010PropOp42
 70
     1
102
RTVSPost2010Prop43
 90
        3
102
RTVSPost2010PropOp43
 70
     1
102
RTVSPost2010Prop44ColorIndex
 90
        5
102
RTVSPost2010Prop44ColorRGB
 90
      255
102
RTVSPost2010PropOp44
 70
     1
102
RTVSPost2010Prop45
280
     0
102
RTVSPost2010PropOp45
 70
     1
102
RTVSPost2010Prop46
 90
       50
102
RTVSPost2010PropOp46
 70
     1
102
RTVSPost2010Prop47
 90
       50
102
RTVSPost2010PropOp47
 70
     1
102
RTVSPost2010Prop48
 90
       50
102
RTVSPost2010PropOp48
 70
     1
102
RTVSPost2010Prop49
280
     0
102
RTVSPost2010PropOp49
 70
     1
102
RTVSPost2010Prop50
 90
       50
102
RTVSPost2010PropOp50
 70
     1
102
RTVSPost2010Prop51ColorIndex
 90
      256
102
RTVSPost2010Prop51ColorRGB
 90
-16777216
102
RTVSPost2010PropOp51
 70
     0
102
RTVSPost2010Prop52
140
1.0
102
RTVSPost2010PropOp52
 70
     0
102
RTVSPost2010Prop53
 90
        2
102
RTVSPost2010PropOp53
 70
     1
102
RTVSPost2010Prop54
  1
strokes_ogs.tif
102
RTVSPost2010PropOp54
 70
     1
102
RTVSPost2010Prop55
280
     0
102
RTVSPost2010PropOp55
 70
     1
102
RTVSPost2010Prop56
140
1.0
102
RTVSPost2010PropOp56
 70
     1
102
RTVSPost2010Prop57
140
1.0
102
RTVSPost2010PropOp57
 70
     1
102
RTVSPropertyOp0
 70
     1
102
RTVSPropertyOp1
 70
     1
102
RTVSPropertyOp2
 70
     1
102
RTVSPropertyOp3
 70
     1
102
RTVSPropertyOp4
 70
     1
102
RTVSPropertyOp5
 70
     1
102
RTVSPropertyOp6
 70
     1
102
RTVSPropertyOp7
 70
     1
102
RTVSPropertyOp8
 70
     1
102
RTVSPropertyOp9
 70
     1
102
RTVSPropertyOp10
 70
     1
102
RTVSPropertyOp11
 70
     1
102
RTVSPropertyOp12
 70
     1
102
RTVSPropertyOp13
 70
     1
102
RTVSPropertyOp14
 70
     1
102
RTVSPropertyOp15
 70
     1
102
RTVSPropertyOp16
 70
     1
102
RTVSPropertyOp17
 70
     1
102
RTVSPropertyOp18
 70
     1
102
RTVSPropertyOp19
 70
     1
102
RTVSPropertyOp20
 70
     1
102
RTVSPropertyOp21
 70
     1
102
RTVSPropertyOp22
 70
     1
102
RTVSPropertyOp23
 70
     1
102
RTVSPropertyOp24
 70
     1
102
RTVSPropertyOp25
 70
     1
102
RTVSPropertyOp26
 70
     1
102
RTVSPropertyOp27
 70
     1
102
RTVSPropertyOp28
 70
     1
102
RTVSPropertyOp29
 70
     1
102
RTVSPropertyOp30
 70
     1
102
RTVSPropertyOp31
 70
     1
102
RTVSPropertyOp32
 70
     1
102
RTVSPropertyOp33
 70
     1
102
RTVSPropertyOp34
 70
     1
102
RTVSPropertyOp35
 70
     1
102
RTVSPropertyOp36
 70
     1
102
RTVSPropertyOp37
 70
     1
102
RTVSPropertyOp38
 70
     1
102
RTVSPropertyOp39
 70
     1
102
RTVSPropertyOp40
 70
     1
102
RTVSPropertyOp41
 70
     1
102
RTVSPropertyOp42
 70
     1
102
RTVSPropertyOp43
 70
     1
102
RTVSPropertyOp44
 70
     1
102
RTVSPropertyOp45
 70
     1
102
RTVSPropertyOp46
 70
     1
102
RTVSPropertyOp47
 70
     1
102
RTVSPropertyOp48
 70
     1
102
RTVSPropertyOp49
 70
     1
102
RTVSPropertyOp50
 70
     1
102
RTVSPropertyOp51
 70
     0
102
RTVSPropertyOp52
 70
     0
102
RTVSPropertyOp53
 70
     1
102
RTVSPropertyOp54
 70
     1
102
RTVSPropertyOp55
 70
     1
102
RTVSPropertyOp56
 70
     1
102
RTVSPropertyOp57
 70
     1
102
RTVSPropertyOp58
 70
     1
102
RTVSPropertyOp59
 70
     1
102
RTVSPropertyOp60
 70
     1
102
RTVSPropertyOp61
 70
     1
102
RTVSPropertyOp62
 70
     1
  0
XRECORD
  5
67311
102
{ACAD_REACTORS
330
67310
102
}
330
67310
100
AcDbXrecord
280
     1
102
RTVSPost2010Prop28
280
     0
102
RTVSPost2010PropOp28
 70
     1
102
RTVSPost2010Prop29
280
     1
102
RTVSPost2010PropOp29
 70
     1
102
RTVSPost2010Prop30
280
     1
102
RTVSPost2010PropOp30
 70
     1
102
RTVSPost2010Prop31
280
     0
102
RTVSPost2010PropOp31
 70
     1
102
RTVSPost2010Prop32
280
     0
102
RTVSPost2010PropOp32
 70
     1
102
RTVSPost2010Prop33
280
     0
102
RTVSPost2010PropOp33
 70
     1
102
RTVSPost2010Prop34
280
     0
102
RTVSPost2010PropOp34
 70
     1
102
RTVSPost2010Prop35
280
     0
102
RTVSPost2010PropOp35
 70
     1
102
RTVSPost2010Prop36
280
     0
102
RTVSPost2010PropOp36
 70
     1
102
RTVSPost2010Prop37
 90
       50
102
RTVSPost2010PropOp37
 70
     1
102
RTVSPost2010Prop38
140
0.0
102
RTVSPost2010PropOp38
 70
     1
102
RTVSPost2010Prop39
140
1.0
102
RTVSPost2010PropOp39
 70
     1
102
RTVSPost2010Prop40
 90
        0
102
RTVSPost2010PropOp40
 70
     1
102
RTVSPost2010Prop41ColorIndex
 90
       18
102
RTVSPost2010Prop41ColorRGB
 90
        0
102
RTVSPost2010PropOp41
 70
     1
102
RTVSPost2010Prop42
 90
       50
102
RTVSPost2010PropOp42
 70
     1
102
RTVSPost2010Prop43
 90
        3
102
RTVSPost2010PropOp43
 70
     1
102
RTVSPost2010Prop44ColorIndex
 90
        5
102
RTVSPost2010Prop44ColorRGB
 90
      255
102
RTVSPost2010PropOp44
 70
     1
102
RTVSPost2010Prop45
280
     0
102
RTVSPost2010PropOp45
 70
     1
102
RTVSPost2010Prop46
 90
       50
102
RTVSPost2010PropOp46
 70
     1
102
RTVSPost2010Prop47
 90
       50
102
RTVSPost2010PropOp47
 70
     1
102
RTVSPost2010Prop48
 90
       50
102
RTVSPost2010PropOp48
 70
     1
102
RTVSPost2010Prop49
280
     0
102
RTVSPost2010PropOp49
 70
     1
102
RTVSPost2010Prop50
 90
       50
102
RTVSPost2010PropOp50
 70
     1
102
RTVSPost2010Prop51ColorIndex
 90
      256
102
RTVSPost2010Prop51ColorRGB
 90
-16777216
102
RTVSPost2010PropOp51
 70
     0
102
RTVSPost2010Prop52
140
1.0
102
RTVSPost2010PropOp52
 70
     0
102
RTVSPost2010Prop53
 90
        2
102
RTVSPost2010PropOp53
 70
     1
102
RTVSPost2010Prop54
  1
strokes_ogs.tif
102
RTVSPost2010PropOp54
 70
     1
102
RTVSPost2010Prop55
280
     0
102
RTVSPost2010PropOp55
 70
     1
102
RTVSPost2010Prop56
140
1.0
102
RTVSPost2010PropOp56
 70
     1
102
RTVSPost2010Prop57
140
1.0
102
RTVSPost2010PropOp57
 70
     1
102
RTVSPropertyOp0
 70
     1
102
RTVSPropertyOp1
 70
     1
102
RTVSPropertyOp2
 70
     1
102
RTVSPropertyOp3
 70
     1
102
RTVSPropertyOp4
 70
     1
102
RTVSPropertyOp5
 70
     1
102
RTVSPropertyOp6
 70
     1
102
RTVSPropertyOp7
 70
     1
102
RTVSPropertyOp8
 70
     1
102
RTVSPropertyOp9
 70
     1
102
RTVSPropertyOp10
 70
     1
102
RTVSPropertyOp11
 70
     1
102
RTVSPropertyOp12
 70
     1
102
RTVSPropertyOp13
 70
     1
102
RTVSPropertyOp14
 70
     1
102
RTVSPropertyOp15
 70
     1
102
RTVSPropertyOp16
 70
     1
102
RTVSPropertyOp17
 70
     1
102
RTVSPropertyOp18
 70
     1
102
RTVSPropertyOp19
 70
     1
102
RTVSPropertyOp20
 70
     1
102
RTVSPropertyOp21
 70
     1
102
RTVSPropertyOp22
 70
     1
102
RTVSPropertyOp23
 70
     1
102
RTVSPropertyOp24
 70
     1
102
RTVSPropertyOp25
 70
     1
102
RTVSPropertyOp26
 70
     1
102
RTVSPropertyOp27
 70
     1
102
RTVSPropertyOp28
 70
     1
102
RTVSPropertyOp29
 70
     1
102
RTVSPropertyOp30
 70
     1
102
RTVSPropertyOp31
 70
     1
102
RTVSPropertyOp32
 70
     1
102
RTVSPropertyOp33
 70
     1
102
RTVSPropertyOp34
 70
     1
102
RTVSPropertyOp35
 70
     1
102
RTVSPropertyOp36
 70
     1
102
RTVSPropertyOp37
 70
     1
102
RTVSPropertyOp38
 70
     1
102
RTVSPropertyOp39
 70
     1
102
RTVSPropertyOp40
 70
     1
102
RTVSPropertyOp41
 70
     1
102
RTVSPropertyOp42
 70
     1
102
RTVSPropertyOp43
 70
     1
102
RTVSPropertyOp44
 70
     1
102
RTVSPropertyOp45
 70
     1
102
RTVSPropertyOp46
 70
     1
102
RTVSPropertyOp47
 70
     1
102
RTVSPropertyOp48
 70
     1
102
RTVSPropertyOp49
 70
     1
102
RTVSPropertyOp50
 70
     1
102
RTVSPropertyOp51
 70
     0
102
RTVSPropertyOp52
 70
     0
102
RTVSPropertyOp53
 70
     1
102
RTVSPropertyOp54
 70
     1
102
RTVSPropertyOp55
 70
     1
102
RTVSPropertyOp56
 70
     1
102
RTVSPropertyOp57
 70
     1
102
RTVSPropertyOp58
 70
     1
102
RTVSPropertyOp59
 70
     1
102
RTVSPropertyOp60
 70
     1
102
RTVSPropertyOp61
 70
     1
102
RTVSPropertyOp62
 70
     1
  0
XRECORD
  5
67302
102
{ACAD_REACTORS
330
67301
102
}
330
67301
100
AcDbXrecord
280
     1
102
RTVSPost2010Prop28
280
     0
102
RTVSPost2010PropOp28
 70
     1
102
RTVSPost2010Prop29
280
     1
102
RTVSPost2010PropOp29
 70
     1
102
RTVSPost2010Prop30
280
     1
102
RTVSPost2010PropOp30
 70
     1
102
RTVSPost2010Prop31
280
     0
102
RTVSPost2010PropOp31
 70
     1
102
RTVSPost2010Prop32
280
     0
102
RTVSPost2010PropOp32
 70
     1
102
RTVSPost2010Prop33
280
     0
102
RTVSPost2010PropOp33
 70
     1
102
RTVSPost2010Prop34
280
     0
102
RTVSPost2010PropOp34
 70
     1
102
RTVSPost2010Prop35
280
     0
102
RTVSPost2010PropOp35
 70
     1
102
RTVSPost2010Prop36
280
     0
102
RTVSPost2010PropOp36
 70
     1
102
RTVSPost2010Prop37
 90
       50
102
RTVSPost2010PropOp37
 70
     1
102
RTVSPost2010Prop38
140
0.0
102
RTVSPost2010PropOp38
 70
     1
102
RTVSPost2010Prop39
140
1.0
102
RTVSPost2010PropOp39
 70
     1
102
RTVSPost2010Prop40
 90
        0
102
RTVSPost2010PropOp40
 70
     1
102
RTVSPost2010Prop41ColorIndex
 90
       18
102
RTVSPost2010Prop41ColorRGB
 90
        0
102
RTVSPost2010PropOp41
 70
     1
102
RTVSPost2010Prop42
 90
       50
102
RTVSPost2010PropOp42
 70
     1
102
RTVSPost2010Prop43
 90
        3
102
RTVSPost2010PropOp43
 70
     1
102
RTVSPost2010Prop44ColorIndex
 90
        5
102
RTVSPost2010Prop44ColorRGB
 90
      255
102
RTVSPost2010PropOp44
 70
     1
102
RTVSPost2010Prop45
280
     0
102
RTVSPost2010PropOp45
 70
     1
102
RTVSPost2010Prop46
 90
       50
102
RTVSPost2010PropOp46
 70
     1
102
RTVSPost2010Prop47
 90
       50
102
RTVSPost2010PropOp47
 70
     1
102
RTVSPost2010Prop48
 90
       50
102
RTVSPost2010PropOp48
 70
     1
102
RTVSPost2010Prop49
280
     0
102
RTVSPost2010PropOp49
 70
     1
102
RTVSPost2010Prop50
 90
       50
102
RTVSPost2010PropOp50
 70
     1
102
RTVSPost2010Prop51ColorIndex
 90
      256
102
RTVSPost2010Prop51ColorRGB
 90
-16777216
102
RTVSPost2010PropOp51
 70
     0
102
RTVSPost2010Prop52
140
1.0
102
RTVSPost2010PropOp52
 70
     0
102
RTVSPost2010Prop53
 90
        2
102
RTVSPost2010PropOp53
 70
     1
102
RTVSPost2010Prop54
  1
strokes_ogs.tif
102
RTVSPost2010PropOp54
 70
     1
102
RTVSPost2010Prop55
280
     0
102
RTVSPost2010PropOp55
 70
     1
102
RTVSPost2010Prop56
140
1.0
102
RTVSPost2010PropOp56
 70
     1
102
RTVSPost2010Prop57
140
1.0
102
RTVSPost2010PropOp57
 70
     1
102
RTVSPropertyOp0
 70
     1
102
RTVSPropertyOp1
 70
     1
102
RTVSPropertyOp2
 70
     1
102
RTVSPropertyOp3
 70
     1
102
RTVSPropertyOp4
 70
     1
102
RTVSPropertyOp5
 70
     1
102
RTVSPropertyOp6
 70
     1
102
RTVSPropertyOp7
 70
     1
102
RTVSPropertyOp8
 70
     1
102
RTVSPropertyOp9
 70
     1
102
RTVSPropertyOp10
 70
     1
102
RTVSPropertyOp11
 70
     1
102
RTVSPropertyOp12
 70
     1
102
RTVSPropertyOp13
 70
     1
102
RTVSPropertyOp14
 70
     1
102
RTVSPropertyOp15
 70
     1
102
RTVSPropertyOp16
 70
     1
102
RTVSPropertyOp17
 70
     1
102
RTVSPropertyOp18
 70
     1
102
RTVSPropertyOp19
 70
     1
102
RTVSPropertyOp20
 70
     1
102
RTVSPropertyOp21
 70
     1
102
RTVSPropertyOp22
 70
     1
102
RTVSPropertyOp23
 70
     1
102
RTVSPropertyOp24
 70
     1
102
RTVSPropertyOp25
 70
     1
102
RTVSPropertyOp26
 70
     1
102
RTVSPropertyOp27
 70
     1
102
RTVSPropertyOp28
 70
     1
102
RTVSPropertyOp29
 70
     1
102
RTVSPropertyOp30
 70
     1
102
RTVSPropertyOp31
 70
     1
102
RTVSPropertyOp32
 70
     1
102
RTVSPropertyOp33
 70
     1
102
RTVSPropertyOp34
 70
     1
102
RTVSPropertyOp35
 70
     1
102
RTVSPropertyOp36
 70
     1
102
RTVSPropertyOp37
 70
     1
102
RTVSPropertyOp38
 70
     1
102
RTVSPropertyOp39
 70
     1
102
RTVSPropertyOp40
 70
     1
102
RTVSPropertyOp41
 70
     1
102
RTVSPropertyOp42
 70
     1
102
RTVSPropertyOp43
 70
     1
102
RTVSPropertyOp44
 70
     1
102
RTVSPropertyOp45
 70
     1
102
RTVSPropertyOp46
 70
     1
102
RTVSPropertyOp47
 70
     1
102
RTVSPropertyOp48
 70
     1
102
RTVSPropertyOp49
 70
     1
102
RTVSPropertyOp50
 70
     1
102
RTVSPropertyOp51
 70
     0
102
RTVSPropertyOp52
 70
     0
102
RTVSPropertyOp53
 70
     1
102
RTVSPropertyOp54
 70
     1
102
RTVSPropertyOp55
 70
     1
102
RTVSPropertyOp56
 70
     1
102
RTVSPropertyOp57
 70
     1
102
RTVSPropertyOp58
 70
     1
102
RTVSPropertyOp59
 70
     1
102
RTVSPropertyOp60
 70
     1
102
RTVSPropertyOp61
 70
     1
102
RTVSPropertyOp62
 70
     1
  0
XRECORD
  5
6730B
102
{ACAD_REACTORS
330
6730A
102
}
330
6730A
100
AcDbXrecord
280
     1
102
RTVSPost2010Prop28
280
     0
102
RTVSPost2010PropOp28
 70
     1
102
RTVSPost2010Prop29
280
     1
102
RTVSPost2010PropOp29
 70
     1
102
RTVSPost2010Prop30
280
     1
102
RTVSPost2010PropOp30
 70
     1
102
RTVSPost2010Prop31
280
     0
102
RTVSPost2010PropOp31
 70
     1
102
RTVSPost2010Prop32
280
     0
102
RTVSPost2010PropOp32
 70
     1
102
RTVSPost2010Prop33
280
     0
102
RTVSPost2010PropOp33
 70
     1
102
RTVSPost2010Prop34
280
     0
102
RTVSPost2010PropOp34
 70
     1
102
RTVSPost2010Prop35
280
     0
102
RTVSPost2010PropOp35
 70
     1
102
RTVSPost2010Prop36
280
     0
102
RTVSPost2010PropOp36
 70
     1
102
RTVSPost2010Prop37
 90
       50
102
RTVSPost2010PropOp37
 70
     1
102
RTVSPost2010Prop38
140
0.0
102
RTVSPost2010PropOp38
 70
     1
102
RTVSPost2010Prop39
140
1.0
102
RTVSPost2010PropOp39
 70
     1
102
RTVSPost2010Prop40
 90
        0
102
RTVSPost2010PropOp40
 70
     1
102
RTVSPost2010Prop41ColorIndex
 90
       18
102
RTVSPost2010Prop41ColorRGB
 90
        0
102
RTVSPost2010PropOp41
 70
     1
102
RTVSPost2010Prop42
 90
       50
102
RTVSPost2010PropOp42
 70
     1
102
RTVSPost2010Prop43
 90
        3
102
RTVSPost2010PropOp43
 70
     1
102
RTVSPost2010Prop44ColorIndex
 90
        5
102
RTVSPost2010Prop44ColorRGB
 90
      255
102
RTVSPost2010PropOp44
 70
     1
102
RTVSPost2010Prop45
280
     0
102
RTVSPost2010PropOp45
 70
     1
102
RTVSPost2010Prop46
 90
       50
102
RTVSPost2010PropOp46
 70
     1
102
RTVSPost2010Prop47
 90
       50
102
RTVSPost2010PropOp47
 70
     1
102
RTVSPost2010Prop48
 90
       50
102
RTVSPost2010PropOp48
 70
     1
102
RTVSPost2010Prop49
280
     0
102
RTVSPost2010PropOp49
 70
     1
102
RTVSPost2010Prop50
 90
       50
102
RTVSPost2010PropOp50
 70
     1
102
RTVSPost2010Prop51ColorIndex
 90
      256
102
RTVSPost2010Prop51ColorRGB
 90
-16777216
102
RTVSPost2010PropOp51
 70
     0
102
RTVSPost2010Prop52
140
1.0
102
RTVSPost2010PropOp52
 70
     0
102
RTVSPost2010Prop53
 90
        2
102
RTVSPost2010PropOp53
 70
     1
102
RTVSPost2010Prop54
  1
strokes_ogs.tif
102
RTVSPost2010PropOp54
 70
     1
102
RTVSPost2010Prop55
280
     0
102
RTVSPost2010PropOp55
 70
     1
102
RTVSPost2010Prop56
140
1.0
102
RTVSPost2010PropOp56
 70
     1
102
RTVSPost2010Prop57
140
1.0
102
RTVSPost2010PropOp57
 70
     1
102
RTVSPropertyOp0
 70
     1
102
RTVSPropertyOp1
 70
     1
102
RTVSPropertyOp2
 70
     1
102
RTVSPropertyOp3
 70
     1
102
RTVSPropertyOp4
 70
     1
102
RTVSPropertyOp5
 70
     1
102
RTVSPropertyOp6
 70
     1
102
RTVSPropertyOp7
 70
     1
102
RTVSPropertyOp8
 70
     1
102
RTVSPropertyOp9
 70
     1
102
RTVSPropertyOp10
 70
     1
102
RTVSPropertyOp11
 70
     1
102
RTVSPropertyOp12
 70
     1
102
RTVSPropertyOp13
 70
     1
102
RTVSPropertyOp14
 70
     1
102
RTVSPropertyOp15
 70
     1
102
RTVSPropertyOp16
 70
     1
102
RTVSPropertyOp17
 70
     1
102
RTVSPropertyOp18
 70
     1
102
RTVSPropertyOp19
 70
     1
102
RTVSPropertyOp20
 70
     1
102
RTVSPropertyOp21
 70
     1
102
RTVSPropertyOp22
 70
     1
102
RTVSPropertyOp23
 70
     1
102
RTVSPropertyOp24
 70
     1
102
RTVSPropertyOp25
 70
     1
102
RTVSPropertyOp26
 70
     1
102
RTVSPropertyOp27
 70
     1
102
RTVSPropertyOp28
 70
     1
102
RTVSPropertyOp29
 70
     1
102
RTVSPropertyOp30
 70
     1
102
RTVSPropertyOp31
 70
     1
102
RTVSPropertyOp32
 70
     1
102
RTVSPropertyOp33
 70
     1
102
RTVSPropertyOp34
 70
     1
102
RTVSPropertyOp35
 70
     1
102
RTVSPropertyOp36
 70
     1
102
RTVSPropertyOp37
 70
     1
102
RTVSPropertyOp38
 70
     1
102
RTVSPropertyOp39
 70
     1
102
RTVSPropertyOp40
 70
     1
102
RTVSPropertyOp41
 70
     1
102
RTVSPropertyOp42
 70
     1
102
RTVSPropertyOp43
 70
     1
102
RTVSPropertyOp44
 70
     1
102
RTVSPropertyOp45
 70
     1
102
RTVSPropertyOp46
 70
     1
102
RTVSPropertyOp47
 70
     1
102
RTVSPropertyOp48
 70
     1
102
RTVSPropertyOp49
 70
     1
102
RTVSPropertyOp50
 70
     1
102
RTVSPropertyOp51
 70
     0
102
RTVSPropertyOp52
 70
     0
102
RTVSPropertyOp53
 70
     1
102
RTVSPropertyOp54
 70
     1
102
RTVSPropertyOp55
 70
     1
102
RTVSPropertyOp56
 70
     1
102
RTVSPropertyOp57
 70
     1
102
RTVSPropertyOp58
 70
     1
102
RTVSPropertyOp59
 70
     1
102
RTVSPropertyOp60
 70
     1
102
RTVSPropertyOp61
 70
     1
102
RTVSPropertyOp62
 70
     1
  0
XRECORD
  5
67313
102
{ACAD_REACTORS
330
67312
102
}
330
67312
100
AcDbXrecord
280
     1
102
RTVSPost2010Prop28
280
     0
102
RTVSPost2010PropOp28
 70
     1
102
RTVSPost2010Prop29
280
     1
102
RTVSPost2010PropOp29
 70
     1
102
RTVSPost2010Prop30
280
     1
102
RTVSPost2010PropOp30
 70
     1
102
RTVSPost2010Prop31
280
     0
102
RTVSPost2010PropOp31
 70
     1
102
RTVSPost2010Prop32
280
     0
102
RTVSPost2010PropOp32
 70
     1
102
RTVSPost2010Prop33
280
     0
102
RTVSPost2010PropOp33
 70
     1
102
RTVSPost2010Prop34
280
     0
102
RTVSPost2010PropOp34
 70
     1
102
RTVSPost2010Prop35
280
     0
102
RTVSPost2010PropOp35
 70
     1
102
RTVSPost2010Prop36
280
     0
102
RTVSPost2010PropOp36
 70
     1
102
RTVSPost2010Prop37
 90
       50
102
RTVSPost2010PropOp37
 70
     1
102
RTVSPost2010Prop38
140
0.0
102
RTVSPost2010PropOp38
 70
     1
102
RTVSPost2010Prop39
140
1.0
102
RTVSPost2010PropOp39
 70
     1
102
RTVSPost2010Prop40
 90
        0
102
RTVSPost2010PropOp40
 70
     1
102
RTVSPost2010Prop41ColorIndex
 90
       18
102
RTVSPost2010Prop41ColorRGB
 90
        0
102
RTVSPost2010PropOp41
 70
     1
102
RTVSPost2010Prop42
 90
       50
102
RTVSPost2010PropOp42
 70
     1
102
RTVSPost2010Prop43
 90
        3
102
RTVSPost2010PropOp43
 70
     1
102
RTVSPost2010Prop44ColorIndex
 90
        5
102
RTVSPost2010Prop44ColorRGB
 90
      255
102
RTVSPost2010PropOp44
 70
     1
102
RTVSPost2010Prop45
280
     0
102
RTVSPost2010PropOp45
 70
     1
102
RTVSPost2010Prop46
 90
       50
102
RTVSPost2010PropOp46
 70
     1
102
RTVSPost2010Prop47
 90
       50
102
RTVSPost2010PropOp47
 70
     1
102
RTVSPost2010Prop48
 90
       50
102
RTVSPost2010PropOp48
 70
     1
102
RTVSPost2010Prop49
280
     0
102
RTVSPost2010PropOp49
 70
     1
102
RTVSPost2010Prop50
 90
       50
102
RTVSPost2010PropOp50
 70
     1
102
RTVSPost2010Prop51ColorIndex
 90
      256
102
RTVSPost2010Prop51ColorRGB
 90
-16777216
102
RTVSPost2010PropOp51
 70
     0
102
RTVSPost2010Prop52
140
1.0
102
RTVSPost2010PropOp52
 70
     0
102
RTVSPost2010Prop53
 90
        2
102
RTVSPost2010PropOp53
 70
     1
102
RTVSPost2010Prop54
  1
strokes_ogs.tif
102
RTVSPost2010PropOp54
 70
     1
102
RTVSPost2010Prop55
280
     0
102
RTVSPost2010PropOp55
 70
     1
102
RTVSPost2010Prop56
140
1.0
102
RTVSPost2010PropOp56
 70
     1
102
RTVSPost2010Prop57
140
1.0
102
RTVSPost2010PropOp57
 70
     1
102
RTVSPropertyOp0
 70
     1
102
RTVSPropertyOp1
 70
     1
102
RTVSPropertyOp2
 70
     1
102
RTVSPropertyOp3
 70
     1
102
RTVSPropertyOp4
 70
     1
102
RTVSPropertyOp5
 70
     1
102
RTVSPropertyOp6
 70
     1
102
RTVSPropertyOp7
 70
     1
102
RTVSPropertyOp8
 70
     1
102
RTVSPropertyOp9
 70
     1
102
RTVSPropertyOp10
 70
     1
102
RTVSPropertyOp11
 70
     1
102
RTVSPropertyOp12
 70
     1
102
RTVSPropertyOp13
 70
     1
102
RTVSPropertyOp14
 70
     1
102
RTVSPropertyOp15
 70
     1
102
RTVSPropertyOp16
 70
     1
102
RTVSPropertyOp17
 70
     1
102
RTVSPropertyOp18
 70
     1
102
RTVSPropertyOp19
 70
     1
102
RTVSPropertyOp20
 70
     1
102
RTVSPropertyOp21
 70
     1
102
RTVSPropertyOp22
 70
     1
102
RTVSPropertyOp23
 70
     1
102
RTVSPropertyOp24
 70
     1
102
RTVSPropertyOp25
 70
     1
102
RTVSPropertyOp26
 70
     1
102
RTVSPropertyOp27
 70
     1
102
RTVSPropertyOp28
 70
     1
102
RTVSPropertyOp29
 70
     1
102
RTVSPropertyOp30
 70
     1
102
RTVSPropertyOp31
 70
     1
102
RTVSPropertyOp32
 70
     1
102
RTVSPropertyOp33
 70
     1
102
RTVSPropertyOp34
 70
     1
102
RTVSPropertyOp35
 70
     1
102
RTVSPropertyOp36
 70
     1
102
RTVSPropertyOp37
 70
     1
102
RTVSPropertyOp38
 70
     1
102
RTVSPropertyOp39
 70
     1
102
RTVSPropertyOp40
 70
     1
102
RTVSPropertyOp41
 70
     1
102
RTVSPropertyOp42
 70
     1
102
RTVSPropertyOp43
 70
     1
102
RTVSPropertyOp44
 70
     1
102
RTVSPropertyOp45
 70
     1
102
RTVSPropertyOp46
 70
     1
102
RTVSPropertyOp47
 70
     1
102
RTVSPropertyOp48
 70
     1
102
RTVSPropertyOp49
 70
     1
102
RTVSPropertyOp50
 70
     1
102
RTVSPropertyOp51
 70
     0
102
RTVSPropertyOp52
 70
     0
102
RTVSPropertyOp53
 70
     1
102
RTVSPropertyOp54
 70
     1
102
RTVSPropertyOp55
 70
     1
102
RTVSPropertyOp56
 70
     1
102
RTVSPropertyOp57
 70
     1
102
RTVSPropertyOp58
 70
     1
102
RTVSPropertyOp59
 70
     1
102
RTVSPropertyOp60
 70
     1
102
RTVSPropertyOp61
 70
     1
102
RTVSPropertyOp62
 70
     1
  0
ENDSEC
  0
EOF
