  0
SECTION
  2
HEADER
  9
$ACADVER
  1
AC1014
999
I-DEAS 13 NX Not Encoded
  9
$EXTMIN
 10
0.0
 20
0.0
  9
$EXTMAX
 10
2.97E+002
 20
2.1E+002
  9
$TEXTSIZE
 40
1.25E-001
  9
$LTSCALE
 40
1.0
  9
$CLAYER
  8
1
  9
$CECOLOR
 62
1
  9
$DIMASZ
 40
1.25E-001
  9
$DIMEXO
 40
6.25E-002
  9
$DIMDLI
 40
2.5E-001
  9
$DIMEXE
 40
1.25E-001
  9
$DIMTP
 40
5.0E-003
  9
$DIMTM
 40
-5.0E-003
  9
$DIMTXT
 40
3.0
  9
$DIMLIM
 70
0
  9
$DIMTIH
 70
1
  9
$DIMTOH
 70
1
  9
$DIMSE1
 70
0
  9
$DIMSE2
 70
0
  9
$DIMTAD
 70
0
  9
$DIMASO
 70
1
  9
$DIMALT
 70
0
  9
$DIMALTD
 70
0
  9
$DIMTOFL
 70
1
  9
$DIMTIX
 70
0
  9
$DIMSAH
 70
0
  9
$DIMSTYLE
  2
DSTYLE1
  9
$DIMTFAC
 40
1.0
  9
$DIMGAP
 40
6.25E-002
  9
$LUNITS
 70
2
  9
$LUPREC
 70
3
  9
$FILLETRAD
 40
7.0E-001
  9
$AUNITS
 70
0
  9
$AUPREC
 70
1
  9
$CHAMFERA
 40
1.0
  9
$CHAMFERB
 40
1.0
  9
$ANGBASE
 50
0.0
  9
$ANGDIR
 70
0
  9
$PEXTMIN
 10
0.0
 20
0.0
 30
0.0
  9
$PEXTMAX
 10
2.97E+002
 20
2.1E+002
 30
0.0
  9
$PLIMMIN
 10
0.0
 20
0.0
  9
$PLIMMAX
 10
2.97E+002
 20
2.1E+002
  9
$PDMODE
 70
2
  9
$PDSIZE
 40
-1.0E-002
  9
$SPLINETYPE
 70
6
  9
$TILEMODE
 70
0
  9
$HANDLING
 70
1
  9
$HANDSEED
  5
f4240
  0
ENDSEC
  0
SECTION
  2
TABLES
  0
TABLE
  2
VPORT
  5
64
100
AcDbSymbolTable
 70
2
  0
VPORT
  5
65
100
AcDbSymbolTableRecord
100
AcDbViewportTableRecord
  2
*Active
 70
0
 10
0.0
 20
0.0
 11
2.97E+002
 21
2.1E+002
 12
1.485E+002
 22
1.05E+002
 13
0.0
 23
0.0
 14
1.0
 24
1.0
 15
0.0
 25
0.0
 16
0.0
 26
0.0
 36
1.0
 17
0.0
 27
0.0
 37
0.0
 40
2.1E+002
 41
1.4142857
 42
5.0E+001
 43
0.0
 44
0.0
 50
0.0
 51
0.0
 71
0
 72
1000
 73
1
 74
3
 75
0
 76
0
 77
0
 78
0
  0
ENDTAB
  0
TABLE
  2
LTYPE
  5
66
100
AcDbSymbolTable
 70
7
  0
LTYPE
  5
67
100
AcDbSymbolTableRecord
100
AcDbLinetypeTableRecord
  2
BYBLOCK
 70
0
  3

 72
65
 73
0
 40
0.0
  0
LTYPE
  5
68
100
AcDbSymbolTableRecord
100
AcDbLinetypeTableRecord
  2
BYLAYER
 70
0
  3

 72
65
 73
0
 40
0.0
  0
LTYPE
  5
69
100
AcDbSymbolTableRecord
100
AcDbLinetypeTableRecord
  2
CONTINUOUS
 70
0
  3

 72
65
 73
0
 40
0.0
  0
LTYPE
  5
6a
100
AcDbSymbolTableRecord
100
AcDbLinetypeTableRecord
  2
HIDDENNEW0
  3
_ 
 70
64
 72
65
 73
3
 40
4.5
 49
1.5
 74
0
 49
-1.5
 74
0
 49
1.5
 74
0
  0
LTYPE
  5
6b
100
AcDbSymbolTableRecord
100
AcDbLinetypeTableRecord
  2
HIDDENNEW1
  3
_ 
 70
64
 72
65
 73
3
 40
4.5
 49
1.5
 74
0
 49
-1.5
 74
0
 49
1.5
 74
0
  0
LTYPE
  5
6c
100
AcDbSymbolTableRecord
100
AcDbLinetypeTableRecord
  2
HIDDEN
  3
_ 
 70
64
 72
65
 73
3
 40
4.5
 49
1.5
 74
0
 49
-1.5
 74
0
 49
1.5
 74
0
  0
LTYPE
  5
6d
100
AcDbSymbolTableRecord
100
AcDbLinetypeTableRecord
  2
CENTERLINE
  3
_ 
 70
64
 72
65
 73
5
 40
3.0E+001
 49
1.2E+001
 74
0
 49
-1.5
 74
0
 49
3.0
 74
0
 49
-1.5
 74
0
 49
1.2E+001
 74
0
  0
LTYPE
  5
6e
100
AcDbSymbolTableRecord
100
AcDbLinetypeTableRecord
  2
PHANTOM
  3
_ 
 70
64
 72
65
 73
7
 40
2.95E+001
 49
9.5
 74
0
 49
-1.5
 74
0
 49
3.0
 74
0
 49
-1.5
 74
0
 49
3.0
 74
0
 49
-1.5
 74
0
 49
9.5
 74
0
  0
LTYPE
  5
6f
100
AcDbSymbolTableRecord
100
AcDbLinetypeTableRecord
  2
SHORT_DASH
  3
_ 
 70
64
 72
65
 73
3
 40
3.0
 49
7.5E-001
 74
0
 49
-1.5
 74
0
 49
7.5E-001
 74
0
  0
LTYPE
  5
70
100
AcDbSymbolTableRecord
100
AcDbLinetypeTableRecord
  2
LONG_DASH
  3
_ 
 70
64
 72
65
 73
3
 40
9.0
 49
2.25
 74
0
 49
-4.5
 74
0
 49
2.25
 74
0
  0
ENDTAB
  0
TABLE
  2
LAYER
  5
71
100
AcDbSymbolTable
 70
258
  0
LAYER
  5
72
100
AcDbSymbolTableRecord
100
AcDbLayerTableRecord
  2
0
 70
0
 62
7
  6
CONTINUOUS
  0
LAYER
  5
73
100
AcDbSymbolTableRecord
100
AcDbLayerTableRecord
  2
1
 70
0
 62
7
  6
CONTINUOUS
  0
LAYER
  5
74
100
AcDbSymbolTableRecord
100
AcDbLayerTableRecord
  2
AM_VIEWS
 70
0
 62
3
  6
CONTINUOUS
  0
LAYER
  5
75
100
AcDbSymbolTableRecord
100
AcDbLayerTableRecord
  2
Drafting_Hidden_Entities
 70
1
 62
7
  6
CONTINUOUS
  0
ENDTAB
  0
TABLE
  2
STYLE
  5
76
100
AcDbSymbolTable
 70
1
  0
STYLE
  5
77
100
AcDbSymbolTableRecord
100
AcDbTextStyleTableRecord
  2
STANDARD
 70
64
 40
0.0
 41
1.0
 50
0.0
 71
0
 42
1.0
  3
monotxt.shx
  4
bigfont.shx
  0
ENDTAB
  0
TABLE
  2
VIEW
  5
78
100
AcDbSymbolTable
 70
0
  0
ENDTAB
  0
TABLE
  2
UCS
  5
79
100
AcDbSymbolTable
 70
0
  0
ENDTAB
  0
TABLE
  2
APPID
  5
7a
100
AcDbSymbolTable
 70
1
  0
APPID
  5
7b
100
AcDbSymbolTableRecord
100
AcDbRegAppTableRecord
  2
ACAD
 70
1
  0
ENDTAB
  0
TABLE
  2
DIMSTYLE
  5
7c
100
AcDbSymbolTable
 70
6
  0
DIMSTYLE
105
7d
100
AcDbSymbolTableRecord
100
AcDbDimStyleTableRecord
  2
DSTYLE1
 70
0
  3

  4

  5

  6

  7

 40
1.0
 41
1.5
 42
5.0E-001
 43
3.8E-001
 44
6.0E-001
 45
1.0E-001
 46
0.0
 47
1.0
 48
1.0
 71
0
 72
0
 73
0
 74
0
 75
1
 76
1
 77
1
 78
11
140
3.0
141
9.0E-002
142
0.0
143
3.9370079E-002
144
1.0
145
0.0
146
1.0
147
5.0E-001
170
0
171
2
172
0
173
0
174
0
175
0
176
0
177
0
178
0
270
2
271
1
272
4
273
2
274
2
275
0
280
0
281
0
282
0
283
1
284
0
285
0
286
0
287
3
288
0
  0
DIMSTYLE
105
7e
100
AcDbSymbolTableRecord
100
AcDbDimStyleTableRecord
  2
DSTYLE2
 70
0
  3

  4

  5

  6

  7

 40
1.0
 41
1.5
 42
0.0
 43
3.8E-001
 44
6.0E-001
 45
1.0E-001
 46
0.0
 47
1.0
 48
1.0
 71
0
 72
0
 73
0
 74
0
 75
1
 76
0
 77
1
 78
11
140
3.0
141
9.0E-002
142
0.0
143
3.9370079E-002
144
1.0
145
0.0
146
1.0
147
5.0E-001
170
0
171
2
172
0
173
0
174
0
175
0
176
0
177
0
178
0
270
2
271
1
272
4
273
2
274
2
275
0
280
0
281
0
282
0
283
1
284
0
285
0
286
0
287
3
288
0
  0
DIMSTYLE
105
7f
100
AcDbSymbolTableRecord
100
AcDbDimStyleTableRecord
  2
DSTYLE3
 70
0
  3

  4

  5

  6

  7

 40
1.0
 41
1.5
 42
0.0
 43
3.8E-001
 44
6.0E-001
 45
1.0E-001
 46
0.0
 47
1.0
 48
1.0
 71
0
 72
0
 73
0
 74
0
 75
0
 76
0
 77
1
 78
11
140
3.0
141
9.0E-002
142
0.0
143
3.9370079E-002
144
1.0
145
0.0
146
1.0
147
5.0E-001
170
0
171
2
172
0
173
0
174
0
175
0
176
0
177
0
178
0
270
2
271
1
272
4
273
2
274
2
275
0
280
0
281
0
282
0
283
1
284
0
285
0
286
0
287
3
288
0
  0
DIMSTYLE
105
80
100
AcDbSymbolTableRecord
100
AcDbDimStyleTableRecord
  2
DSTYLE4
 70
0
  3

  4

  5

  6

  7

 40
1.0
 41
1.5
 42
0.0
 43
3.8E-001
 44
6.0E-001
 45
0.0
 46
0.0
 47
1.0
 48
1.0
 71
0
 72
0
 73
0
 74
0
 75
0
 76
0
 77
1
 78
11
140
3.0
141
9.0E-002
142
0.0
143
3.9370079E-002
144
1.0
145
0.0
146
1.0
147
5.0E-001
170
0
171
2
172
0
173
0
174
0
175
0
176
0
177
0
178
0
270
2
271
0
272
4
273
2
274
2
275
0
280
0
281
0
282
0
283
1
284
0
285
0
286
0
287
3
288
0
  0
DIMSTYLE
105
81
100
AcDbSymbolTableRecord
100
AcDbDimStyleTableRecord
  2
DSTYLE5
 70
0
  3

  4

  5

  6

  7

 40
1.0
 41
1.5
 42
0.0
 43
3.8E-001
 44
6.0E-001
 45
1.0E-002
 46
0.0
 47
1.0
 48
1.0
 71
0
 72
0
 73
0
 74
0
 75
0
 76
0
 77
1
 78
11
140
3.0
141
9.0E-002
142
0.0
143
3.9370079E-002
144
1.0
145
0.0
146
1.0
147
5.0E-001
170
0
171
2
172
0
173
0
174
0
175
0
176
0
177
0
178
0
270
2
271
2
272
4
273
2
274
2
275
0
280
0
281
0
282
0
283
1
284
0
285
0
286
0
287
3
288
0
  0
DIMSTYLE
105
82
100
AcDbSymbolTableRecord
100
AcDbDimStyleTableRecord
  2
DSTYLE6
 70
0
  3

  4

  5

  6

  7

 40
1.0
 41
2.0
 42
0.0
 43
3.8E-001
 44
5.0
 45
0.0
 46
0.0
 47
0.0
 48
0.0
 71
0
 72
0
 73
1
 74
1
 75
1
 76
0
 77
1
 78
3
140
3.0
141
9.0E-002
142
0.0
143
1.0
144
1.0
145
0.0
146
1.0
147
5.0E-001
170
0
171
2
172
0
173
0
174
0
175
0
176
0
177
0
178
0
270
2
271
0
272
4
273
2
274
2
275
0
280
0
281
0
282
0
283
1
284
0
285
0
286
0
287
3
288
0
  0
ENDTAB
  0
TABLE
  2
BLOCK_RECORD
  5
83
100
AcDbSymbolTable
 70
0
  0
BLOCK_RECORD
  5
84
100
AcDbSymbolTableRecord
100
AcDbBlockTableRecord
  2
*MODEL_SPACE
  0
BLOCK_RECORD
  5
85
100
AcDbSymbolTableRecord
100
AcDbBlockTableRecord
  2
*PAPER_SPACE
  0
BLOCK_RECORD
  5
86
100
AcDbSymbolTableRecord
100
AcDbBlockTableRecord
  2
*D1041
  0
BLOCK_RECORD
  5
87
100
AcDbSymbolTableRecord
100
AcDbBlockTableRecord
  2
*D1042
  0
BLOCK_RECORD
  5
88
100
AcDbSymbolTableRecord
100
AcDbBlockTableRecord
  2
*D1105
  0
BLOCK_RECORD
  5
89
100
AcDbSymbolTableRecord
100
AcDbBlockTableRecord
  2
*D1129
  0
BLOCK_RECORD
  5
8a
100
AcDbSymbolTableRecord
100
AcDbBlockTableRecord
  2
*D1130
  0
BLOCK_RECORD
  5
8b
100
AcDbSymbolTableRecord
100
AcDbBlockTableRecord
  2
*D1132
  0
BLOCK_RECORD
  5
8c
100
AcDbSymbolTableRecord
100
AcDbBlockTableRecord
  2
*D1227
  0
BLOCK_RECORD
  5
8d
100
AcDbSymbolTableRecord
100
AcDbBlockTableRecord
  2
*D1228
  0
BLOCK_RECORD
  5
8e
100
AcDbSymbolTableRecord
100
AcDbBlockTableRecord
  2
*D1230
  0
BLOCK_RECORD
  5
8f
100
AcDbSymbolTableRecord
100
AcDbBlockTableRecord
  2
*D2119
  0
BLOCK_RECORD
  5
90
100
AcDbSymbolTableRecord
100
AcDbBlockTableRecord
  2
_AH1
  0
BLOCK_RECORD
  5
91
100
AcDbSymbolTableRecord
100
AcDbBlockTableRecord
  2
_AH2
  0
BLOCK_RECORD
  5
92
100
AcDbSymbolTableRecord
100
AcDbBlockTableRecord
  2
_AH12
  3
_AH
  0
BLOCK_RECORD
  5
93
100
AcDbSymbolTableRecord
100
AcDbBlockTableRecord
  2
_AH13
  3
_AH
  0
BLOCK_RECORD
  5
94
100
AcDbSymbolTableRecord
100
AcDbBlockTableRecord
  2
_AH14
  3
_AH
  0
BLOCK_RECORD
  5
95
100
AcDbSymbolTableRecord
100
AcDbBlockTableRecord
  2
_AH15
  3
_AH
  0
BLOCK_RECORD
  5
96
100
AcDbSymbolTableRecord
100
AcDbBlockTableRecord
  2
_AH16
  3
_AH
  0
BLOCK_RECORD
  5
97
100
AcDbSymbolTableRecord
100
AcDbBlockTableRecord
  2
_AH17
  3
_AH
  0
BLOCK_RECORD
  5
98
100
AcDbSymbolTableRecord
100
AcDbBlockTableRecord
  2
_AH18
  3
_AH
  0
BLOCK_RECORD
  5
99
100
AcDbSymbolTableRecord
100
AcDbBlockTableRecord
  2
_AH19
  3
_AH
  0
BLOCK_RECORD
  5
9a
100
AcDbSymbolTableRecord
100
AcDbBlockTableRecord
  2
_AH20
  3
_AH
  0
BLOCK_RECORD
  5
9b
100
AcDbSymbolTableRecord
100
AcDbBlockTableRecord
  2
_AH21
  3
_AH
  0
BLOCK_RECORD
  5
9c
100
AcDbSymbolTableRecord
100
AcDbBlockTableRecord
  2
*XH23
  3
*XH
  0
BLOCK_RECORD
  5
9d
100
AcDbSymbolTableRecord
100
AcDbBlockTableRecord
  2
*XH24
  3
*XH
  0
BLOCK_RECORD
  5
9e
100
AcDbSymbolTableRecord
100
AcDbBlockTableRecord
  2
SINKO_CATALPG_WHITE
  0
BLOCK_RECORD
  5
9f
100
AcDbSymbolTableRecord
100
AcDbBlockTableRecord
  2
*XH81
  3
*XH
  0
BLOCK_RECORD
  5
a0
100
AcDbSymbolTableRecord
100
AcDbBlockTableRecord
  2
*XH83
  3
*XH
  0
BLOCK_RECORD
  5
a1
100
AcDbSymbolTableRecord
100
AcDbBlockTableRecord
  2
*XH84
  3
*XH
  0
BLOCK_RECORD
  5
a2
100
AcDbSymbolTableRecord
100
AcDbBlockTableRecord
  2
*XH85
  3
*XH
  0
ENDTAB
  0
ENDSEC
  0
SECTION
  2
BLOCKS
  0
BLOCK
  5
a3
100
AcDbEntity
100
AcDbBlockBegin
  2
*MODEL_SPACE
 70
0
 10
0.0
 20
0.0
 30
0.0
  3
*MODEL_SPACE
  1

  0
ENDBLK
  5
a4
100
AcDbEntity
100
AcDbBlockEnd
  0
BLOCK
  5
a5
100
AcDbEntity
100
AcDbBlockBegin
  2
*PAPER_SPACE
 70
0
 10
0.0
 20
0.0
 30
0.0
  3
*PAPER_SPACE
  1

  0
ENDBLK
  5
a6
100
AcDbEntity
100
AcDbBlockEnd
  0
BLOCK
  5
a7
100
AcDbEntity
100
AcDbBlockBegin
  2
_AH12
  3
_AH
 10
0.0
 20
0.0
 70
64
  0
LINE
  5
a8
100
AcDbEntity
  8
0
100
AcDbLine
  6
CONTINUOUS
 62
0
 10
0.0
 20
0.0
 11
1.0
 21
0.0
  0
LINE
  5
a9
100
AcDbEntity
  8
0
100
AcDbLine
  6
CONTINUOUS
 62
0
 10
0.0
 20
0.0
 11
-1.0
 21
0.0
  0
ENDBLK
  5
aa
100
AcDbEntity
100
AcDbBlockEnd
  0
BLOCK
  5
ab
100
AcDbEntity
100
AcDbBlockBegin
  2
_AH13
  3
_AH
 10
0.0
 20
0.0
 70
64
  0
SOLID
  5
ac
100
AcDbEntity
  8
0
100
AcDbTrace
  6
CONTINUOUS
 62
0
 10
0.0
 20
0.0
 11
1.0
 21
-1.66667E-001
 12
1.0
 22
1.66667E-001
 13
0.0
 23
0.0
  0
ENDBLK
  5
ad
100
AcDbEntity
100
AcDbBlockEnd
  0
BLOCK
  5
ae
100
AcDbEntity
100
AcDbBlockBegin
  2
_AH14
  3
_AH
 10
0.0
 20
0.0
 70
64
  0
ENDBLK
  5
af
100
AcDbEntity
100
AcDbBlockEnd
  0
BLOCK
  5
b0
100
AcDbEntity
100
AcDbBlockBegin
  2
_AH15
  3
_AH
 10
0.0
 20
0.0
 70
64
  0
CIRCLE
  5
b1
100
AcDbEntity
  8
0
100
AcDbCircle
  6
CONTINUOUS
 62
0
 10
0.0
 20
0.0
 40
1.66667E-001
  0
LINE
  5
b2
100
AcDbEntity
  8
0
100
AcDbLine
  6
CONTINUOUS
 62
0
 10
0.0
 20
0.0
 11
-1.0
 21
0.0
  0
ENDBLK
  5
b3
100
AcDbEntity
100
AcDbBlockEnd
  0
BLOCK
  5
b4
100
AcDbEntity
100
AcDbBlockBegin
  2
_AH16
  3
_AH
 10
0.0
 20
0.0
 70
64
  0
POLYLINE
  5
b5
100
AcDbEntity
  8
0
100
AcDb2dPolyline
  6
CONTINUOUS
 62
0
 66
1
 40
1.66667E-001
 41
1.66667E-001
 70
0
  0
VERTEX
  5
b6
100
AcDbEntity
  8
0
100
AcDbVertex
100
AcDb2dVertex
 42
1.0
 10
8.3335E-002
 20
0.0
 70
0
  0
VERTEX
  5
b7
100
AcDbEntity
  8
0
100
AcDbVertex
100
AcDb2dVertex
 42
1.0
 10
-8.3335E-002
 20
0.0
 70
0
  0
VERTEX
  5
b8
100
AcDbEntity
  8
0
100
AcDbVertex
100
AcDb2dVertex
 42
0.0
 10
8.3335E-002
 20
0.0
 70
0
  0
SEQEND
  5
b9
100
AcDbEntity
  0
LINE
  5
ba
100
AcDbEntity
  8
0
100
AcDbLine
  6
CONTINUOUS
 62
0
 10
0.0
 20
0.0
 11
-1.0
 21
0.0
  0
ENDBLK
  5
bb
100
AcDbEntity
100
AcDbBlockEnd
  0
BLOCK
  5
bc
100
AcDbEntity
100
AcDbBlockBegin
  2
_AH17
  3
_AH
 10
0.0
 20
0.0
 70
64
  0
LINE
  5
bd
100
AcDbEntity
  8
0
100
AcDbLine
  6
CONTINUOUS
 62
0
 10
-1.66667E-001
 20
-1.66667E-001
 11
1.66667E-001
 21
-1.66667E-001
  0
LINE
  5
be
100
AcDbEntity
  8
0
100
AcDbLine
  6
CONTINUOUS
 62
0
 10
1.66667E-001
 20
-1.66667E-001
 11
1.66667E-001
 21
1.66667E-001
  0
LINE
  5
bf
100
AcDbEntity
  8
0
100
AcDbLine
  6
CONTINUOUS
 62
0
 10
1.66667E-001
 20
1.66667E-001
 11
-1.66667E-001
 21
1.66667E-001
  0
LINE
  5
c0
100
AcDbEntity
  8
0
100
AcDbLine
  6
CONTINUOUS
 62
0
 10
-1.66667E-001
 20
1.66667E-001
 11
-1.66667E-001
 21
-1.66667E-001
  0
LINE
  5
c1
100
AcDbEntity
  8
0
100
AcDbLine
  6
CONTINUOUS
 62
0
 10
0.0
 20
0.0
 11
-1.0
 21
0.0
  0
ENDBLK
  5
c2
100
AcDbEntity
100
AcDbBlockEnd
  0
BLOCK
  5
c3
100
AcDbEntity
100
AcDbBlockBegin
  2
_AH18
  3
_AH
 10
0.0
 20
0.0
 70
64
  0
SOLID
  5
c4
100
AcDbEntity
  8
0
100
AcDbTrace
  6
CONTINUOUS
 62
0
 10
-1.66667E-001
 20
-1.66667E-001
 11
1.66667E-001
 21
-1.66667E-001
 12
-1.66667E-001
 22
1.66667E-001
 13
1.66667E-001
 23
1.66667E-001
  0
LINE
  5
c5
100
AcDbEntity
  8
0
100
AcDbLine
  6
CONTINUOUS
 62
0
 10
0.0
 20
0.0
 11
-1.0
 21
0.0
  0
ENDBLK
  5
c6
100
AcDbEntity
100
AcDbBlockEnd
  0
BLOCK
  5
c7
100
AcDbEntity
100
AcDbBlockBegin
  2
_AH19
  3
_AH
 10
0.0
 20
0.0
 70
64
  0
LINE
  5
c8
100
AcDbEntity
  8
0
100
AcDbLine
  6
CONTINUOUS
 62
0
 10
-5.0E-001
 20
-5.0E-001
 11
5.0E-001
 21
5.0E-001
  0
LINE
  5
c9
100
AcDbEntity
  8
0
100
AcDbLine
  6
CONTINUOUS
 62
0
 10
0.0
 20
0.0
 11
-1.0
 21
0.0
  0
ENDBLK
  5
ca
100
AcDbEntity
100
AcDbBlockEnd
  0
BLOCK
  5
cb
100
AcDbEntity
100
AcDbBlockBegin
  2
_AH20
  3
_AH
 10
0.0
 20
0.0
 70
64
  0
POLYLINE
  5
cc
100
AcDbEntity
  8
0
100
AcDb2dPolyline
  6
CONTINUOUS
 62
0
 66
1
 40
5.0E-001
 41
5.0E-001
 70
0
  0
VERTEX
  5
cd
100
AcDbEntity
  8
0
100
AcDbVertex
100
AcDb2dVertex
 42
4.1421356E-001
 10
-1.66667E-001
 20
-1.66667E-001
 70
0
  0
VERTEX
  5
ce
100
AcDbEntity
  8
0
100
AcDbVertex
100
AcDb2dVertex
 42
0.0
 10
0.0
 20
0.0
 70
0
  0
SEQEND
  5
cf
100
AcDbEntity
  0
POLYLINE
  5
d0
100
AcDbEntity
  8
0
100
AcDb2dPolyline
  6
CONTINUOUS
 62
0
 66
1
 40
5.0E-001
 41
5.0E-001
 70
0
  0
VERTEX
  5
d1
100
AcDbEntity
  8
0
100
AcDbVertex
100
AcDb2dVertex
 42
4.1421356E-001
 10
1.66667E-001
 20
1.66667E-001
 70
0
  0
VERTEX
  5
d2
100
AcDbEntity
  8
0
100
AcDbVertex
100
AcDb2dVertex
 42
0.0
 10
0.0
 20
0.0
 70
0
  0
SEQEND
  5
d3
100
AcDbEntity
  0
LINE
  5
d4
100
AcDbEntity
  8
0
100
AcDbLine
  6
CONTINUOUS
 62
0
 10
0.0
 20
0.0
 11
-1.0
 21
0.0
  0
ENDBLK
  5
d5
100
AcDbEntity
100
AcDbBlockEnd
  0
BLOCK
  5
d6
100
AcDbEntity
100
AcDbBlockBegin
  2
_AH21
  3
_AH
 10
0.0
 20
0.0
 70
64
  0
LINE
  5
d7
100
AcDbEntity
  8
0
100
AcDbLine
  6
CONTINUOUS
 62
0
 10
0.0
 20
0.0
 11
-1.0
 21
-1.66667E-001
  0
LINE
  5
d8
100
AcDbEntity
  8
0
100
AcDbLine
  6
CONTINUOUS
 62
0
 10
-1.0
 20
-1.66667E-001
 11
-1.0
 21
1.66667E-001
  0
LINE
  5
d9
100
AcDbEntity
  8
0
100
AcDbLine
  6
CONTINUOUS
 62
0
 10
-1.0
 20
1.66667E-001
 11
0.0
 21
0.0
  0
ENDBLK
  5
da
100
AcDbEntity
100
AcDbBlockEnd
  0
BLOCK
  5
db
100
AcDbEntity
100
AcDbBlockBegin
  2
*XH23
  3
*XH
 10
0.0
 20
0.0
 70
65
  0
LINE
  5
dc
100
AcDbEntity
  8
1
100
AcDbLine
  6
CONTINUOUS
 62
7
 10
-7.0710678E-001
 20
-7.0710678E-001
 11
7.0710678E-001
 21
7.0710678E-001
  0
LINE
  5
dd
100
AcDbEntity
  8
1
100
AcDbLine
  6
CONTINUOUS
 62
7
 10
-3.5355339
 20
-7.0710678E-001
 11
7.0710678E-001
 21
3.5355339
  0
LINE
  5
de
100
AcDbEntity
  8
1
100
AcDbLine
  6
CONTINUOUS
 62
7
 10
-6.363961
 20
-7.0710678E-001
 11
7.0710678E-001
 21
6.363961
  0
LINE
  5
df
100
AcDbEntity
  8
1
100
AcDbLine
  6
CONTINUOUS
 62
7
 10
-9.1923882
 20
-7.0710678E-001
 11
7.0710678E-001
 21
9.1923882
  0
LINE
  5
e0
100
AcDbEntity
  8
1
100
AcDbLine
  6
CONTINUOUS
 62
7
 10
-9.2928932
 20
2.0208153
 11
7.0710678E-001
 21
1.2020815E+001
  0
LINE
  5
e1
100
AcDbEntity
  8
1
100
AcDbLine
  6
CONTINUOUS
 62
7
 10
-9.2928932
 20
4.8492424
 11
7.0710678E-001
 21
1.4849242E+001
  0
LINE
  5
e2
100
AcDbEntity
  8
1
100
AcDbLine
  6
CONTINUOUS
 62
7
 10
-9.2928932
 20
7.6776695
 11
7.0710678E-001
 21
1.767767E+001
  0
LINE
  5
e3
100
AcDbEntity
  8
1
100
AcDbLine
  6
CONTINUOUS
 62
7
 10
-9.2928932
 20
1.0506097E+001
 11
7.0710678E-001
 21
2.0506097E+001
  0
LINE
  5
e4
100
AcDbEntity
  8
1
100
AcDbLine
  6
CONTINUOUS
 62
7
 10
-9.2928932
 20
1.3334524E+001
 11
7.0710678E-001
 21
2.3334524E+001
  0
LINE
  5
e5
100
AcDbEntity
  8
1
100
AcDbLine
  6
CONTINUOUS
 62
7
 10
-9.2928932
 20
1.6162951E+001
 11
7.0710678E-001
 21
2.6162951E+001
  0
LINE
  5
e6
100
AcDbEntity
  8
1
100
AcDbLine
  6
CONTINUOUS
 62
7
 10
-9.2928932
 20
1.8991378E+001
 11
-9.9137803E-001
 21
2.7292893E+001
  0
LINE
  5
e7
100
AcDbEntity
  8
1
100
AcDbLine
  6
CONTINUOUS
 62
7
 10
-9.2928932
 20
2.1819805E+001
 11
-3.8198052
 21
2.7292893E+001
  0
LINE
  5
e8
100
AcDbEntity
  8
1
100
AcDbLine
  6
CONTINUOUS
 62
7
 10
-9.2928932
 20
2.4648232E+001
 11
-6.6482323
 21
2.7292893E+001
  0
ENDBLK
  5
e9
100
AcDbEntity
100
AcDbBlockEnd
  0
BLOCK
  5
ea
100
AcDbEntity
100
AcDbBlockBegin
  2
*XH24
  3
*XH
 10
0.0
 20
0.0
 70
65
  0
LINE
  5
eb
100
AcDbEntity
  8
1
100
AcDbLine
  6
CONTINUOUS
 62
7
 10
-7.0710678E-001
 20
-7.0710678E-001
 11
7.0710678E-001
 21
7.0710678E-001
  0
LINE
  5
ec
100
AcDbEntity
  8
1
100
AcDbLine
  6
CONTINUOUS
 62
7
 10
-3.5355339
 20
-7.0710678E-001
 11
7.0710678E-001
 21
3.5355339
  0
LINE
  5
ed
100
AcDbEntity
  8
1
100
AcDbLine
  6
CONTINUOUS
 62
7
 10
-6.363961
 20
-7.0710678E-001
 11
7.0710678E-001
 21
6.363961
  0
LINE
  5
ee
100
AcDbEntity
  8
1
100
AcDbLine
  6
CONTINUOUS
 62
7
 10
-9.1923882
 20
-7.0710678E-001
 11
7.0710678E-001
 21
9.1923882
  0
LINE
  5
ef
100
AcDbEntity
  8
1
100
AcDbLine
  6
CONTINUOUS
 62
7
 10
-9.2928932
 20
2.0208153
 11
7.0710678E-001
 21
1.2020815E+001
  0
LINE
  5
f0
100
AcDbEntity
  8
1
100
AcDbLine
  6
CONTINUOUS
 62
7
 10
-9.2928932
 20
4.8492424
 11
7.0710678E-001
 21
1.4849242E+001
  0
LINE
  5
f1
100
AcDbEntity
  8
1
100
AcDbLine
  6
CONTINUOUS
 62
7
 10
-9.2928932
 20
7.6776695
 11
7.0710678E-001
 21
1.767767E+001
  0
LINE
  5
f2
100
AcDbEntity
  8
1
100
AcDbLine
  6
CONTINUOUS
 62
7
 10
-9.2928932
 20
1.0506097E+001
 11
7.0710678E-001
 21
2.0506097E+001
  0
LINE
  5
f3
100
AcDbEntity
  8
1
100
AcDbLine
  6
CONTINUOUS
 62
7
 10
-9.2928932
 20
1.3334524E+001
 11
7.0710678E-001
 21
2.3334524E+001
  0
LINE
  5
f4
100
AcDbEntity
  8
1
100
AcDbLine
  6
CONTINUOUS
 62
7
 10
-9.2928932
 20
1.6162951E+001
 11
7.0710678E-001
 21
2.6162951E+001
  0
LINE
  5
f5
100
AcDbEntity
  8
1
100
AcDbLine
  6
CONTINUOUS
 62
7
 10
-9.2928932
 20
1.8991378E+001
 11
-9.9137803E-001
 21
2.7292893E+001
  0
LINE
  5
f6
100
AcDbEntity
  8
1
100
AcDbLine
  6
CONTINUOUS
 62
7
 10
-9.2928932
 20
2.1819805E+001
 11
-3.8198052
 21
2.7292893E+001
  0
LINE
  5
f7
100
AcDbEntity
  8
1
100
AcDbLine
  6
CONTINUOUS
 62
7
 10
-9.2928932
 20
2.4648232E+001
 11
-6.6482323
 21
2.7292893E+001
  0
ENDBLK
  5
f8
100
AcDbEntity
100
AcDbBlockEnd
  0
BLOCK
  5
f9
100
AcDbEntity
100
AcDbBlockBegin
  2
SINKO_CATALPG_WHITE
 10
0.0
 20
0.0
 70
0
  0
LINE
  5
fa
100
AcDbEntity
  8
1
100
AcDbLine
  6
CONTINUOUS
 62
7
 10
7.68
 20
0.0
 11
-1.2997855E+001
 21
0.0
  0
LINE
  5
fb
100
AcDbEntity
  8
1
100
AcDbLine
  6
CONTINUOUS
 62
7
 10
-1.2997855E+001
 20
0.0
 11
-7.3446902
 21
1.3095677
  0
LINE
  5
fc
100
AcDbEntity
  8
1
100
AcDbLine
  6
CONTINUOUS
 62
7
 10
-7.3446902
 20
1.3095677
 11
-7.3446902
 21
0.0
  0
TEXT
  5
fd
100
AcDbEntity
  8
1
100
AcDbText
  6
CONTINUOUS
 62
7
 10
1.1325736E+001
 20
-2.115744E-001
 40
2.4
  1
進行方向
 41
1.3333333
100
AcDbText
  0
LINE
  5
fe
100
AcDbEntity
  8
1
100
AcDbLine
  6
CONTINUOUS
 62
7
 10
7.68
 20
0.0
 11
9.2910713
 21
1.92
  0
LINE
  5
ff
100
AcDbEntity
  8
1
100
AcDbLine
  6
CONTINUOUS
 62
7
 10
9.2907853
 20
1.92
 11
1.6110713
 21
1.92
  0
LINE
  5
100
100
AcDbEntity
  8
1
100
AcDbLine
  6
CONTINUOUS
 62
7
 10
5.12
 20
0.0
 11
6.7310713
 21
1.92
  0
LINE
  5
101
100
AcDbEntity
  8
1
100
AcDbLine
  6
CONTINUOUS
 62
7
 10
2.56
 20
0.0
 11
4.1710713
 21
1.92
  0
LINE
  5
102
100
AcDbEntity
  8
1
100
AcDbLine
  6
CONTINUOUS
 62
7
 10
0.0
 20
0.0
 11
1.6110713
 21
1.92
  0
POINT
  5
103
100
AcDbEntity
  8
Drafting_Hidden_Entities
100
AcDbPoint
  6
CONTINUOUS
 62
1
 10
0.0
 20
0.0
  0
ENDBLK
  5
104
100
AcDbEntity
100
AcDbBlockEnd
  0
BLOCK
  5
105
100
AcDbEntity
100
AcDbBlockBegin
  2
*XH81
  3
*XH
 10
0.0
 20
0.0
 70
65
  0
LINE
  5
106
100
AcDbEntity
  8
1
100
AcDbLine
  6
CONTINUOUS
 62
7
 10
-9.1011102E-001
 20
-9.1011102E-001
 11
9.1011102E-001
 21
9.1011102E-001
  0
LINE
  5
107
100
AcDbEntity
  8
1
100
AcDbLine
  6
CONTINUOUS
 62
7
 10
-4.3554262
 20
-8.1989227E-001
 11
-3.3676264E-001
 21
3.1987713
  0
LINE
  5
108
100
AcDbEntity
  8
1
100
AcDbLine
  6
CONTINUOUS
 62
7
 10
-6.339889
 20
7.3117883E-001
 11
-3.5722965
 21
3.4987713
  0
ENDBLK
  5
109
100
AcDbEntity
100
AcDbBlockEnd
  0
BLOCK
  5
10a
100
AcDbEntity
100
AcDbBlockBegin
  2
*XH83
  3
*XH
 10
0.0
 20
0.0
 70
65
  0
LINE
  5
10b
100
AcDbEntity
  8
1
100
AcDbLine
  6
CONTINUOUS
 62
7
 10
-1.3411165
 20
-1.3411165
 11
1.3411165
 21
1.3411165
  0
LINE
  5
10c
100
AcDbEntity
  8
1
100
AcDbLine
  6
CONTINUOUS
 62
7
 10
-4.8766504
 20
-1.3411165
 11
-4.6746328E-001
 21
3.0680706
  0
LINE
  5
10d
100
AcDbEntity
  8
1
100
AcDbLine
  6
CONTINUOUS
 62
7
 10
-5.9088835
 20
1.1621843
 11
-4.0980679
 21
2.9729999
  0
ENDBLK
  5
10e
100
AcDbEntity
100
AcDbBlockEnd
  0
BLOCK
  5
10f
100
AcDbEntity
100
AcDbBlockBegin
  2
*XH84
  3
*XH
 10
0.0
 20
0.0
 70
65
  0
LINE
  5
110
100
AcDbEntity
  8
1
100
AcDbLine
  6
CONTINUOUS
 62
7
 10
-9.1106677E-001
 20
-9.1106677E-001
 11
9.1106677E-001
 21
9.1106677E-001
  0
LINE
  5
111
100
AcDbEntity
  8
1
100
AcDbLine
  6
CONTINUOUS
 62
7
 10
-3.7264671
 20
-1.9093315E-001
 11
3.3993288E-003
 21
3.5389332
  0
ENDBLK
  5
112
100
AcDbEntity
100
AcDbBlockEnd
  0
BLOCK
  5
113
100
AcDbEntity
100
AcDbBlockBegin
  2
*XH85
  3
*XH
 10
0.0
 20
0.0
 70
65
  0
LINE
  5
114
100
AcDbEntity
  8
1
100
AcDbLine
  6
CONTINUOUS
 62
7
 10
-5.6552774E-002
 20
-5.6552774E-002
 11
5.6552774E-002
 21
5.6552774E-002
  0
LINE
  5
115
100
AcDbEntity
  8
1
100
AcDbLine
  6
CONTINUOUS
 62
7
 10
-3.5920867
 20
-5.6552774E-002
 11
-2.6513875E-001
 21
3.2703952
  0
LINE
  5
116
100
AcDbEntity
  8
1
100
AcDbLine
  6
CONTINUOUS
 62
7
 10
-5.3679962
 20
1.7030716
 11
-2.6776206
 21
4.3934472
  0
ENDBLK
  5
117
100
AcDbEntity
100
AcDbBlockEnd
  0
BLOCK
  5
118
100
AcDbEntity
100
AcDbBlockBegin
  2
_AH1
 70
0
 10
0.0
 20
0.0
  3
_AH1
  0
LINE
  5
119
100
AcDbEntity
  8
0
100
AcDbLine
  6
CONTINUOUS
 62
0
 10
-1.0
 20
1.66667E-001
 11
0.0
 21
0.0
  0
LINE
  5
11a
100
AcDbEntity
  8
0
100
AcDbLine
  6
CONTINUOUS
 62
0
 10
0.0
 20
0.0
 11
-1.0
 21
-1.66667E-001
  0
LINE
  5
11b
100
AcDbEntity
  8
0
100
AcDbLine
  6
CONTINUOUS
 62
0
 10
-1.0
 20
1.66667E-001
 11
-1.0
 21
-1.66667E-001
  0
LINE
  5
11c
100
AcDbEntity
  8
0
100
AcDbLine
  6
CONTINUOUS
 62
0
 10
0.0
 20
0.0
 11
-1.0
 21
0.0
  0
ENDBLK
  5
11d
100
AcDbEntity
100
AcDbBlockEnd
  0
BLOCK
  5
11e
100
AcDbEntity
100
AcDbBlockBegin
  2
_AH2
 70
0
 10
0.0
 20
0.0
  3
_AH2
  0
LINE
  5
11f
100
AcDbEntity
  8
0
100
AcDbLine
  6
CONTINUOUS
 62
0
 10
-1.0
 20
1.66667E-001
 11
0.0
 21
0.0
  0
LINE
  5
120
100
AcDbEntity
  8
0
100
AcDbLine
  6
CONTINUOUS
 62
0
 10
0.0
 20
0.0
 11
-1.0
 21
-1.66667E-001
  0
LINE
  5
121
100
AcDbEntity
  8
0
100
AcDbLine
  6
CONTINUOUS
 62
0
 10
0.0
 20
0.0
 11
-1.0
 21
0.0
  0
ENDBLK
  5
122
100
AcDbEntity
100
AcDbBlockEnd
  0
BLOCK
  5
123
100
AcDbEntity
100
AcDbBlockBegin
  2
*D1041
  3
*D
 10
0.0
 20
0.0
 70
65
  0
LINE
  5
124
100
AcDbEntity
  8
1
100
AcDbLine
  6
CONTINUOUS
 62
1
 10
1.5403647E+002
 20
1.8154063E+002
 11
1.5403647E+002
 21
1.9352045E+002
  0
LINE
  5
125
100
AcDbEntity
  8
1
100
AcDbLine
  6
CONTINUOUS
 62
1
 10
1.5403647E+002
 20
1.7634063E+002
 11
1.5403647E+002
 21
1.8154063E+002
  0
TEXT
  5
126
100
AcDbEntity
  8
1
100
AcDbText
  6
CONTINUOUS
 62
1
 10
1.5353547E+002
 20
1.8482045E+002
 40
3.0
  1
3.2
 41
8.0E-001
 50
9.0E+001
100
AcDbText
  0
INSERT
  5
127
100
AcDbEntity
100
AcDbBlockReference
  2
_AH2
  8
1
 62
1
 10
1.5403647E+002
 20
1.8154063E+002
 41
1.5
 42
1.5
 43
1.5
 50
2.7E+002
  0
INSERT
  5
128
100
AcDbEntity
100
AcDbBlockReference
  2
_AH2
  8
1
 62
1
 10
1.5403647E+002
 20
1.7834063E+002
 41
1.5
 42
1.5
 43
1.5
 50
9.0E+001
  0
ENDBLK
  5
129
100
AcDbEntity
100
AcDbBlockEnd
  0
BLOCK
  5
12a
100
AcDbEntity
100
AcDbBlockBegin
  2
*D1042
  3
*D
 10
0.0
 20
0.0
 70
65
  0
LINE
  5
12b
100
AcDbEntity
  8
1
100
AcDbLine
  6
CONTINUOUS
 62
1
 10
1.7638087E+002
 20
1.5894063E+002
 11
1.9607324E+002
 21
1.5894063E+002
  0
LINE
  5
12c
100
AcDbEntity
  8
1
100
AcDbLine
  6
CONTINUOUS
 62
1
 10
1.9547324E+002
 20
1.6794063E+002
 11
1.9547324E+002
 21
1.6384183E+002
  0
LINE
  5
12d
100
AcDbEntity
  8
1
100
AcDbLine
  6
CONTINUOUS
 62
1
 10
1.9547324E+002
 20
1.5894063E+002
 11
1.9547324E+002
 21
1.6384183E+002
  0
TEXT
  5
12e
100
AcDbEntity
  8
1
100
AcDbText
  6
CONTINUOUS
 62
1
 10
1.9497224E+002
 20
1.6264183E+002
 40
3.0
  1
9
 41
8.0E-001
 50
9.0E+001
100
AcDbText
  0
INSERT
  5
12f
100
AcDbEntity
100
AcDbBlockReference
  2
_AH2
  8
1
 62
1
 10
1.9547324E+002
 20
1.6794063E+002
 41
1.5
 42
1.5
 43
1.5
 50
9.0E+001
  0
INSERT
  5
130
100
AcDbEntity
100
AcDbBlockReference
  2
_AH2
  8
1
 62
1
 10
1.9547324E+002
 20
1.5894063E+002
 41
1.5
 42
1.5
 43
1.5
 50
2.7E+002
  0
ENDBLK
  5
131
100
AcDbEntity
100
AcDbBlockEnd
  0
BLOCK
  5
132
100
AcDbEntity
100
AcDbBlockBegin
  2
*D1105
  3
*D
 10
0.0
 20
0.0
 70
65
  0
LINE
  5
133
100
AcDbEntity
  8
1
100
AcDbLine
  6
CONTINUOUS
 62
1
 10
5.7840177E+001
 20
1.1280103E+002
 11
3.3661961E+001
 21
1.1280103E+002
  0
LINE
  5
134
100
AcDbEntity
  8
1
100
AcDbLine
  6
CONTINUOUS
 62
1
 10
5.8686993E+001
 20
3.0201031E+001
 11
3.3661961E+001
 21
3.0201031E+001
  0
LINE
  5
135
100
AcDbEntity
  8
1
100
AcDbLine
  6
CONTINUOUS
 62
1
 10
3.4261961E+001
 20
1.1280103E+002
 11
3.4261961E+001
 21
7.1912771E+001
  0
LINE
  5
136
100
AcDbEntity
  8
1
100
AcDbLine
  6
CONTINUOUS
 62
1
 10
3.4261961E+001
 20
3.0201031E+001
 11
3.4261961E+001
 21
7.1912771E+001
  0
TEXT
  5
137
100
AcDbEntity
  8
1
100
AcDbText
  6
CONTINUOUS
 62
1
 10
3.3760961E+001
 20
6.7112771E+001
 40
3.0
  1
82.6
 41
8.0E-001
 50
9.0E+001
100
AcDbText
  0
INSERT
  5
138
100
AcDbEntity
100
AcDbBlockReference
  2
_AH2
  8
1
 62
1
 10
3.4261961E+001
 20
1.1280103E+002
 41
1.5
 42
1.5
 43
1.5
 50
9.0E+001
  0
INSERT
  5
139
100
AcDbEntity
100
AcDbBlockReference
  2
_AH2
  8
1
 62
1
 10
3.4261961E+001
 20
3.0201031E+001
 41
1.5
 42
1.5
 43
1.5
 50
2.7E+002
  0
ENDBLK
  5
13a
100
AcDbEntity
100
AcDbBlockEnd
  0
BLOCK
  5
13b
100
AcDbEntity
100
AcDbBlockBegin
  2
*D1129
  3
*D
 10
0.0
 20
0.0
 70
65
  0
LINE
  5
13c
100
AcDbEntity
  8
1
100
AcDbLine
  6
CONTINUOUS
 62
1
 10
5.4770694E+001
 20
8.6501031E+001
 11
4.4479549E+001
 21
8.6501031E+001
  0
LINE
  5
13d
100
AcDbEntity
  8
1
100
AcDbLine
  6
CONTINUOUS
 62
1
 10
5.4770694E+001
 20
5.6501031E+001
 11
4.4479549E+001
 21
5.6501031E+001
  0
LINE
  5
13e
100
AcDbEntity
  8
1
100
AcDbLine
  6
CONTINUOUS
 62
1
 10
4.5079549E+001
 20
8.6501031E+001
 11
4.5079549E+001
 21
7.1501031E+001
  0
LINE
  5
13f
100
AcDbEntity
  8
1
100
AcDbLine
  6
CONTINUOUS
 62
1
 10
4.5079549E+001
 20
5.6501031E+001
 11
4.5079549E+001
 21
7.1501031E+001
  0
TEXT
  5
140
100
AcDbEntity
  8
1
100
AcDbText
  6
CONTINUOUS
 62
1
 10
4.4578549E+001
 20
6.9101031E+001
 40
3.0
  1
30
 41
8.0E-001
 50
9.0E+001
100
AcDbText
  0
INSERT
  5
141
100
AcDbEntity
100
AcDbBlockReference
  2
_AH2
  8
1
 62
1
 10
4.5079549E+001
 20
8.6501031E+001
 41
1.5
 42
1.5
 43
1.5
 50
9.0E+001
  0
INSERT
  5
142
100
AcDbEntity
100
AcDbBlockReference
  2
_AH2
  8
1
 62
1
 10
4.5079549E+001
 20
5.6501031E+001
 41
1.5
 42
1.5
 43
1.5
 50
2.7E+002
  0
ENDBLK
  5
143
100
AcDbEntity
100
AcDbBlockEnd
  0
BLOCK
  5
144
100
AcDbEntity
100
AcDbBlockBegin
  2
*D1130
  3
*D
 10
0.0
 20
0.0
 70
65
  0
LINE
  5
145
100
AcDbEntity
  8
1
100
AcDbLine
  6
CONTINUOUS
 62
1
 10
1.8507069E+002
 20
7.7851031E+001
 11
1.9261798E+002
 21
7.7851031E+001
  0
LINE
  5
146
100
AcDbEntity
  8
1
100
AcDbLine
  6
CONTINUOUS
 62
1
 10
1.8507069E+002
 20
6.5151031E+001
 11
1.9261798E+002
 21
6.5151031E+001
  0
LINE
  5
147
100
AcDbEntity
  8
1
100
AcDbLine
  6
CONTINUOUS
 62
1
 10
1.9201798E+002
 20
7.7851031E+001
 11
1.9201798E+002
 21
7.1501031E+001
  0
LINE
  5
148
100
AcDbEntity
  8
1
100
AcDbLine
  6
CONTINUOUS
 62
1
 10
1.9201798E+002
 20
6.5151031E+001
 11
1.9201798E+002
 21
7.1501031E+001
  0
TEXT
  5
149
100
AcDbEntity
  8
1
100
AcDbText
  6
CONTINUOUS
 62
1
 10
1.9151698E+002
 20
6.6701031E+001
 40
3.0
  1
12.7
 41
8.0E-001
 50
9.0E+001
100
AcDbText
  0
INSERT
  5
14a
100
AcDbEntity
100
AcDbBlockReference
  2
_AH2
  8
1
 62
1
 10
1.9201798E+002
 20
7.7851031E+001
 41
1.5
 42
1.5
 43
1.5
 50
9.0E+001
  0
INSERT
  5
14b
100
AcDbEntity
100
AcDbBlockReference
  2
_AH2
  8
1
 62
1
 10
1.9201798E+002
 20
6.5151031E+001
 41
1.5
 42
1.5
 43
1.5
 50
2.7E+002
  0
ENDBLK
  5
14c
100
AcDbEntity
100
AcDbBlockEnd
  0
BLOCK
  5
14d
100
AcDbEntity
100
AcDbBlockBegin
  2
*D1132
  3
*D
 10
0.0
 20
0.0
 70
65
  0
LINE
  5
14e
100
AcDbEntity
  8
1
100
AcDbLine
  6
CONTINUOUS
 62
1
 10
1.7111569E+002
 20
6.5901031E+001
 11
1.7111569E+002
 21
4.6614737E+001
  0
LINE
  5
14f
100
AcDbEntity
  8
1
100
AcDbLine
  6
CONTINUOUS
 62
1
 10
1.8302569E+002
 20
6.5901031E+001
 11
1.8302569E+002
 21
4.6614737E+001
  0
LINE
  5
150
100
AcDbEntity
  8
1
100
AcDbLine
  6
CONTINUOUS
 62
1
 10
1.8302569E+002
 20
4.7214737E+001
 11
1.7111569E+002
 21
4.7214737E+001
  0
LINE
  5
151
100
AcDbEntity
  8
1
100
AcDbLine
  6
CONTINUOUS
 62
1
 10
1.8302569E+002
 20
4.7214737E+001
 11
2.0054593E+002
 21
4.7214737E+001
  0
TEXT
  5
152
100
AcDbEntity
  8
1
100
AcDbText
  6
CONTINUOUS
 62
1
 10
1.8464593E+002
 20
4.7715737E+001
 40
3.0
  1
%%c11.91
 41
8.0E-001
100
AcDbText
  0
INSERT
  5
153
100
AcDbEntity
100
AcDbBlockReference
  2
_AH2
  8
1
 62
1
 10
1.7111569E+002
 20
4.7214737E+001
 41
1.5
 42
1.5
 43
1.5
 50
1.8E+002
  0
INSERT
  5
154
100
AcDbEntity
100
AcDbBlockReference
  2
_AH2
  8
1
 62
1
 10
1.8302569E+002
 20
4.7214737E+001
 41
1.5
 42
1.5
 43
1.5
 50
0.0
  0
ENDBLK
  5
155
100
AcDbEntity
100
AcDbBlockEnd
  0
BLOCK
  5
156
100
AcDbEntity
100
AcDbBlockBegin
  2
*D1227
  3
*D
 10
0.0
 20
0.0
 70
65
  0
LINE
  5
157
100
AcDbEntity
  8
1
100
AcDbLine
  6
CONTINUOUS
 62
1
 10
6.2770694E+001
 20
1.5603918E+002
 11
6.2770694E+001
 21
1.4688274E+002
  0
LINE
  5
158
100
AcDbEntity
  8
1
100
AcDbLine
  6
CONTINUOUS
 62
1
 10
1.0087069E+002
 20
1.5603918E+002
 11
1.0087069E+002
 21
1.4688274E+002
  0
LINE
  5
159
100
AcDbEntity
  8
1
100
AcDbLine
  6
CONTINUOUS
 62
1
 10
6.2770694E+001
 20
1.4748274E+002
 11
8.1820694E+001
 21
1.4748274E+002
  0
LINE
  5
15a
100
AcDbEntity
  8
1
100
AcDbLine
  6
CONTINUOUS
 62
1
 10
1.0087069E+002
 20
1.4748274E+002
 11
8.1820694E+001
 21
1.4748274E+002
  0
TEXT
  5
15b
100
AcDbEntity
  8
1
100
AcDbText
  6
CONTINUOUS
 62
1
 10
7.7020694E+001
 20
1.4798374E+002
 40
3.0
  1
38.1
 41
8.0E-001
100
AcDbText
  0
INSERT
  5
15c
100
AcDbEntity
100
AcDbBlockReference
  2
_AH2
  8
1
 62
1
 10
6.2770694E+001
 20
1.4748274E+002
 41
1.5
 42
1.5
 43
1.5
 50
1.8E+002
  0
INSERT
  5
15d
100
AcDbEntity
100
AcDbBlockReference
  2
_AH2
  8
1
 62
1
 10
1.0087069E+002
 20
1.4748274E+002
 41
1.5
 42
1.5
 43
1.5
 50
0.0
  0
ENDBLK
  5
15e
100
AcDbEntity
100
AcDbBlockEnd
  0
BLOCK
  5
15f
100
AcDbEntity
100
AcDbBlockBegin
  2
*D1228
  3
*D
 10
0.0
 20
0.0
 70
65
  0
LINE
  5
160
100
AcDbEntity
  8
1
100
AcDbLine
  6
CONTINUOUS
 62
1
 10
1.3897069E+002
 20
1.5603918E+002
 11
1.3897069E+002
 21
1.4688274E+002
  0
LINE
  5
161
100
AcDbEntity
  8
1
100
AcDbLine
  6
CONTINUOUS
 62
1
 10
1.0087069E+002
 20
1.4748274E+002
 11
1.1992069E+002
 21
1.4748274E+002
  0
LINE
  5
162
100
AcDbEntity
  8
1
100
AcDbLine
  6
CONTINUOUS
 62
1
 10
1.3897069E+002
 20
1.4748274E+002
 11
1.1992069E+002
 21
1.4748274E+002
  0
TEXT
  5
163
100
AcDbEntity
  8
1
100
AcDbText
  6
CONTINUOUS
 62
1
 10
1.1512069E+002
 20
1.4798374E+002
 40
3.0
  1
38.1
 41
8.0E-001
100
AcDbText
  0
INSERT
  5
164
100
AcDbEntity
100
AcDbBlockReference
  2
_AH2
  8
1
 62
1
 10
1.0087069E+002
 20
1.4748274E+002
 41
1.5
 42
1.5
 43
1.5
 50
1.8E+002
  0
INSERT
  5
165
100
AcDbEntity
100
AcDbBlockReference
  2
_AH2
  8
1
 62
1
 10
1.3897069E+002
 20
1.4748274E+002
 41
1.5
 42
1.5
 43
1.5
 50
0.0
  0
ENDBLK
  5
166
100
AcDbEntity
100
AcDbBlockEnd
  0
BLOCK
  5
167
100
AcDbEntity
100
AcDbBlockBegin
  2
*D1230
  3
*D
 10
0.0
 20
0.0
 70
65
  0
LINE
  5
168
100
AcDbEntity
  8
1
100
AcDbLine
  6
CONTINUOUS
 62
1
 10
1.8612569E+002
 20
1.6794063E+002
 11
1.9607324E+002
 21
1.6794063E+002
  0
LINE
  5
169
100
AcDbEntity
  8
1
100
AcDbLine
  6
CONTINUOUS
 62
1
 10
1.7993347E+002
 20
1.8154063E+002
 11
1.9607324E+002
 21
1.8154063E+002
  0
LINE
  5
16a
100
AcDbEntity
  8
1
100
AcDbLine
  6
CONTINUOUS
 62
1
 10
1.9547324E+002
 20
1.6794063E+002
 11
1.9547324E+002
 21
1.7474063E+002
  0
LINE
  5
16b
100
AcDbEntity
  8
1
100
AcDbLine
  6
CONTINUOUS
 62
1
 10
1.9547324E+002
 20
1.8154063E+002
 11
1.9547324E+002
 21
1.7474063E+002
  0
TEXT
  5
16c
100
AcDbEntity
  8
1
100
AcDbText
  6
CONTINUOUS
 62
1
 10
1.9497224E+002
 20
1.6994063E+002
 40
3.0
  1
13.6
 41
8.0E-001
 50
9.0E+001
100
AcDbText
  0
INSERT
  5
16d
100
AcDbEntity
100
AcDbBlockReference
  2
_AH2
  8
1
 62
1
 10
1.9547324E+002
 20
1.6794063E+002
 41
1.5
 42
1.5
 43
1.5
 50
2.7E+002
  0
INSERT
  5
16e
100
AcDbEntity
100
AcDbBlockReference
  2
_AH2
  8
1
 62
1
 10
1.9547324E+002
 20
1.8154063E+002
 41
1.5
 42
1.5
 43
1.5
 50
9.0E+001
  0
ENDBLK
  5
16f
100
AcDbEntity
100
AcDbBlockEnd
  0
BLOCK
  5
170
100
AcDbEntity
100
AcDbBlockBegin
  2
*D2119
  3
*D
 10
0.0
 20
0.0
 70
65
  0
LINE
  5
171
100
AcDbEntity
  8
1
100
AcDbLine
  6
CONTINUOUS
 62
1
 10
2.4807325E+002
 20
1.0563906E+002
 11
2.4072932E+002
 21
1.2000928E+002
  0
LINE
  5
172
100
AcDbEntity
  8
1
100
AcDbLine
  6
CONTINUOUS
 62
1
 10
2.4807325E+002
 20
1.0563906E+002
 11
2.4745993E+002
 21
1.0757166E+002
  0
LINE
  5
173
100
AcDbEntity
  8
1
100
AcDbLine
  6
CONTINUOUS
 62
1
 10
2.4807325E+002
 20
1.0563906E+002
 11
2.4686629E+002
 21
1.0726828E+002
  0
LINE
  5
174
100
AcDbEntity
  8
1
100
AcDbLine
  6
CONTINUOUS
 62
1
 10
2.2172932E+002
 20
1.2000928E+002
 11
2.4072932E+002
 21
1.2000928E+002
  0
TEXT
  5
175
100
AcDbEntity
  8
1
100
AcDbText
  6
CONTINUOUS
 62
1
 10
2.2222932E+002
 20
1.2050928E+002
 40
3.0
  1
走行レール
100
AcDbText
  0
ENDBLK
  5
176
100
AcDbEntity
100
AcDbBlockEnd
  0
ENDSEC
  0
SECTION
  2
ENTITIES
  0
ARC
  5
177
100
AcDbEntity
  8
1
100
AcDbCircle
  6
CONTINUOUS
 62
7
 10
2.3967325E+002
 20
8.0851031E+001
 40
1.0
100
AcDbArc
 50
9.0E+001
 51
1.8E+002
  0
TEXT
  5
178
100
AcDbEntity
  8
1
100
AcDbText
  6
CONTINUOUS
 62
7
 10
1.1945143E+002
 20
1.9797732E+002
 40
4.0
  1

 41
8.0E-001
100
AcDbText
  0
ARC
  5
179
100
AcDbEntity
  8
1
100
AcDbCircle
  6
CONTINUOUS
 62
7
 10
2.6027325E+002
 20
8.0851031E+001
 40
1.0
100
AcDbArc
 50
0.0
 51
9.0E+001
  0
ARC
  5
17a
100
AcDbEntity
  8
1
100
AcDbCircle
  6
CONTINUOUS
 62
7
 10
2.6027325E+002
 20
6.2151031E+001
 40
1.0
100
AcDbArc
 50
2.7E+002
 51
3.6E+002
  0
ARC
  5
17b
100
AcDbEntity
  8
1
100
AcDbCircle
  6
CONTINUOUS
 62
7
 10
2.3967325E+002
 20
6.2151031E+001
 40
1.0
100
AcDbArc
 50
1.8E+002
 51
2.7E+002
  0
INSERT
  5
17c
100
AcDbEntity
100
AcDbBlockReference
  2
*XH23
  8
1
 10
2.5736614E+002
 20
8.7958138E+001
  0
INSERT
  5
17d
100
AcDbEntity
100
AcDbBlockReference
  2
*XH24
  8
1
 10
2.5736614E+002
 20
2.8458138E+001
  0
DIMENSION
  5
17e
100
AcDbEntity
  8
1
100
AcDbDimension
  6
CONTINUOUS
 62
1
  2
*D1041
  3
DSTYLE1
 10
1.5403647E+002
 20
1.7834063E+002
 11
1.5203547E+002
 21
1.8842045E+002
 70
128
100
AcDbAlignedDimension
 13
1.7993347E+002
 23
1.8154063E+002
 14
1.6732069E+002
 24
1.7834063E+002
 40
3.0
 50
9.0E+001
100
AcDbRotatedDimension
1001
ACAD
1000
DSTYLE
1002
{
1070
173
1070
0
1070
5
1000
_AH2
1002
}
  0
DIMENSION
  5
17f
100
AcDbEntity
  8
1
100
AcDbDimension
  6
CONTINUOUS
 62
1
  2
*D1042
  3
DSTYLE2
 10
1.9547324E+002
 20
1.5894063E+002
 11
1.9347224E+002
 21
1.6384183E+002
 70
128
100
AcDbAlignedDimension
 13
1.8612569E+002
 23
1.6794063E+002
 14
1.7638087E+002
 24
1.5894063E+002
 40
3.0
 50
2.7E+002
100
AcDbRotatedDimension
1001
ACAD
1000
DSTYLE
1002
{
1070
173
1070
0
1070
5
1000
_AH2
1002
}
  0
LINE
  5
180
100
AcDbEntity
  8
1
100
AcDbLine
  6
CENTERLINE
 62
6
 10
1.7707069E+002
 20
5.8151031E+001
 11
1.7707069E+002
 21
8.4851031E+001
  0
LINE
  5
181
100
AcDbEntity
  8
1
100
AcDbLine
  6
CENTERLINE
 62
6
 10
5.0770694E+001
 20
7.1501031E+001
 11
1.8602569E+002
 21
7.1501031E+001
  0
LINE
  5
182
100
AcDbEntity
  8
1
100
AcDbLine
  6
CENTERLINE
 62
6
 10
6.2770694E+001
 20
5.3501031E+001
 11
6.2770694E+001
 21
8.9501031E+001
  0
LINE
  5
183
100
AcDbEntity
  8
1
100
AcDbLine
  6
CONTINUOUS
 62
7
 10
5.9020694E+001
 20
8.6501031E+001
 11
5.9020694E+001
 21
8.6201031E+001
  0
LINE
  5
184
100
AcDbEntity
  8
1
100
AcDbLine
  6
CONTINUOUS
 62
7
 10
6.6520694E+001
 20
8.6501031E+001
 11
6.6520694E+001
 21
8.6201031E+001
  0
LINE
  5
185
100
AcDbEntity
  8
1
100
AcDbLine
  6
CONTINUOUS
 62
7
 10
6.1020694E+001
 20
6.4201031E+001
 11
6.1020694E+001
 21
7.8801031E+001
  0
LINE
  5
186
100
AcDbEntity
  8
1
100
AcDbLine
  6
CONTINUOUS
 62
7
 10
6.1020694E+001
 20
6.4201031E+001
 11
6.0867141E+001
 21
6.4047478E+001
  0
ARC
  5
187
100
AcDbEntity
  8
1
100
AcDbCircle
  6
CONTINUOUS
 62
7
 10
6.1220694E+001
 20
6.3693924E+001
 40
5.0E-001
100
AcDbArc
 50
1.35E+002
 51
1.8E+002
  0
LINE
  5
188
100
AcDbEntity
  8
1
100
AcDbLine
  6
CONTINUOUS
 62
7
 10
6.0720694E+001
 20
6.1708138E+001
 11
6.0720694E+001
 21
6.3693924E+001
  0
LINE
  5
189
100
AcDbEntity
  8
1
100
AcDbLine
  6
CONTINUOUS
 62
7
 10
6.1020694E+001
 20
6.0951031E+001
 11
6.1020694E+001
 21
5.8001031E+001
  0
ARC
  5
18a
100
AcDbEntity
  8
1
100
AcDbCircle
  6
CONTINUOUS
 62
7
 10
6.1220694E+001
 20
6.1708138E+001
 40
5.0E-001
100
AcDbArc
 50
1.8E+002
 51
2.25E+002
  0
LINE
  5
18b
100
AcDbEntity
  8
1
100
AcDbLine
  6
CONTINUOUS
 62
7
 10
6.1020694E+001
 20
6.1201031E+001
 11
6.0867141E+001
 21
6.1354584E+001
  0
LINE
  5
18c
100
AcDbEntity
  8
1
100
AcDbLine
  6
CONTINUOUS
 62
7
 10
6.1020694E+001
 20
6.0951031E+001
 11
6.1020694E+001
 21
6.1201031E+001
  0
LINE
  5
18d
100
AcDbEntity
  8
1
100
AcDbLine
  6
CONTINUOUS
 62
7
 10
6.0770694E+001
 20
6.0951031E+001
 11
6.1020694E+001
 21
6.0951031E+001
  0
ARC
  5
18e
100
AcDbEntity
  8
1
100
AcDbCircle
  6
CONTINUOUS
 62
7
 10
6.1220694E+001
 20
7.9308138E+001
 40
5.0E-001
100
AcDbArc
 50
1.8E+002
 51
2.25E+002
  0
LINE
  5
18f
100
AcDbEntity
  8
1
100
AcDbLine
  6
CONTINUOUS
 62
7
 10
6.0770694E+001
 20
8.2051031E+001
 11
6.1020694E+001
 21
8.2051031E+001
  0
LINE
  5
190
100
AcDbEntity
  8
1
100
AcDbLine
  6
CONTINUOUS
 62
7
 10
6.0720694E+001
 20
8.1293924E+001
 11
6.0720694E+001
 21
7.9308138E+001
  0
LINE
  5
191
100
AcDbEntity
  8
1
100
AcDbLine
  6
CONTINUOUS
 62
7
 10
6.1020694E+001
 20
8.1801031E+001
 11
6.0867141E+001
 21
8.1647478E+001
  0
LINE
  5
192
100
AcDbEntity
  8
1
100
AcDbLine
  6
CONTINUOUS
 62
7
 10
6.1020694E+001
 20
7.8801031E+001
 11
6.0867141E+001
 21
7.8954584E+001
  0
ARC
  5
193
100
AcDbEntity
  8
1
100
AcDbCircle
  6
CONTINUOUS
 62
7
 10
6.1220694E+001
 20
8.1293924E+001
 40
5.0E-001
100
AcDbArc
 50
1.35E+002
 51
1.8E+002
  0
LINE
  5
194
100
AcDbEntity
  8
1
100
AcDbLine
  6
CONTINUOUS
 62
7
 10
6.5720694E+001
 20
5.6801031E+001
 11
6.5720694E+001
 21
5.8001031E+001
  0
ARC
  5
195
100
AcDbEntity
  8
1
100
AcDbCircle
  6
CONTINUOUS
 62
7
 10
6.2020694E+001
 20
5.8001031E+001
 40
1.0
100
AcDbArc
 50
1.8E+002
 51
2.331301E+002
  0
LINE
  5
196
100
AcDbEntity
  8
1
100
AcDbLine
  6
CONTINUOUS
 62
7
 10
6.1420694E+001
 20
5.7201031E+001
 11
6.5320694E+001
 21
5.7201031E+001
  0
ARC
  5
197
100
AcDbEntity
  8
1
100
AcDbCircle
  6
CONTINUOUS
 62
7
 10
6.4720694E+001
 20
5.8001031E+001
 40
1.0
100
AcDbArc
 50
3.068699E+002
 51
3.6E+002
  0
ARC
  5
198
100
AcDbEntity
  8
1
100
AcDbCircle
  6
CONTINUOUS
 62
7
 10
6.2020694E+001
 20
8.5001031E+001
 40
1.0
100
AcDbArc
 50
1.268699E+002
 51
1.8E+002
  0
LINE
  5
199
100
AcDbEntity
  8
1
100
AcDbLine
  6
CONTINUOUS
 62
7
 10
6.1420694E+001
 20
8.5801031E+001
 11
6.5320694E+001
 21
8.5801031E+001
  0
ARC
  5
19a
100
AcDbEntity
  8
1
100
AcDbCircle
  6
CONTINUOUS
 62
7
 10
6.4720694E+001
 20
8.5001031E+001
 40
1.0
100
AcDbArc
 50
0.0
 51
5.3130102E+001
  0
LINE
  5
19b
100
AcDbEntity
  8
1
100
AcDbLine
  6
CONTINUOUS
 62
7
 10
5.9020694E+001
 20
8.6201031E+001
 11
6.6520694E+001
 21
8.6201031E+001
  0
LINE
  5
19c
100
AcDbEntity
  8
1
100
AcDbLine
  6
CONTINUOUS
 62
7
 10
5.9020694E+001
 20
5.6501031E+001
 11
5.9020694E+001
 21
5.6801031E+001
  0
LINE
  5
19d
100
AcDbEntity
  8
1
100
AcDbLine
  6
CONTINUOUS
 62
7
 10
6.6520694E+001
 20
5.6501031E+001
 11
6.6520694E+001
 21
5.6801031E+001
  0
LINE
  5
19e
100
AcDbEntity
  8
1
100
AcDbLine
  6
CONTINUOUS
 62
7
 10
5.9020694E+001
 20
5.6801031E+001
 11
6.6520694E+001
 21
5.6801031E+001
  0
LINE
  5
19f
100
AcDbEntity
  8
1
100
AcDbLine
  6
CONTINUOUS
 62
7
 10
7.0178837E+001
 20
6.0951031E+001
 11
7.0853254E+001
 21
5.9776239E+001
  0
LINE
  5
1a0
100
AcDbEntity
  8
1
100
AcDbLine
  6
CONTINUOUS
 62
7
 10
7.0853254E+001
 20
5.9776239E+001
 11
6.9904063E+001
 21
5.853499E+001
  0
LINE
  5
1a1
100
AcDbEntity
  8
1
100
AcDbLine
  6
CONTINUOUS
 62
7
 10
6.9904063E+001
 20
5.853499E+001
 11
7.1218328E+001
 21
5.6501031E+001
  0
LINE
  5
1a2
100
AcDbEntity
  8
1
100
AcDbLine
  6
CONTINUOUS
 62
7
 10
7.0178837E+001
 20
8.2051031E+001
 11
7.0853254E+001
 21
8.3225823E+001
  0
LINE
  5
1a3
100
AcDbEntity
  8
1
100
AcDbLine
  6
CONTINUOUS
 62
7
 10
7.0853254E+001
 20
8.3225823E+001
 11
6.9904063E+001
 21
8.4467072E+001
  0
LINE
  5
1a4
100
AcDbEntity
  8
1
100
AcDbLine
  6
CONTINUOUS
 62
7
 10
6.9904063E+001
 20
8.4467072E+001
 11
7.1218328E+001
 21
8.6501031E+001
  0
INSERT
  5
1a5
100
AcDbEntity
100
AcDbBlockReference
  2
*XH81
  8
1
 10
6.0110583E+001
 20
8.300226E+001
  0
INSERT
  5
1a6
100
AcDbEntity
100
AcDbBlockReference
  2
*XH83
  8
1
 10
5.9679578E+001
 20
5.7842148E+001
  0
INSERT
  5
1a7
100
AcDbEntity
100
AcDbBlockReference
  2
*XH84
  8
1
 10
6.9447162E+001
 20
8.2962098E+001
  0
INSERT
  5
1a8
100
AcDbEntity
100
AcDbBlockReference
  2
*XH85
  8
1
 10
7.1088691E+001
 20
5.6557584E+001
  0
LINE
  5
1a9
100
AcDbEntity
  8
1
100
AcDbLine
  6
CONTINUOUS
 62
7
 10
5.8172618E+001
 20
1.8104063E+002
 11
9.5220694E+001
 21
1.8104063E+002
  0
LINE
  5
1aa
100
AcDbEntity
  8
1
100
AcDbLine
  6
CONTINUOUS
 62
7
 10
9.6272618E+001
 20
1.8104063E+002
 11
1.3332069E+002
 21
1.8104063E+002
  0
LINE
  5
1ab
100
AcDbEntity
  8
1
100
AcDbLine
  6
CONTINUOUS
 62
7
 10
1.3437262E+002
 20
1.8104063E+002
 11
1.7142069E+002
 21
1.8104063E+002
  0
LINE
  5
1ac
100
AcDbEntity
  8
1
100
AcDbLine
  6
CONTINUOUS
 62
7
 10
5.6840177E+001
 20
1.1180103E+002
 11
5.6840177E+001
 21
8.6501031E+001
  0
LINE
  5
1ad
100
AcDbEntity
  8
1
100
AcDbLine
  6
CONTINUOUS
 62
7
 10
9.4940177E+001
 20
1.1180103E+002
 11
9.4940177E+001
 21
8.6501031E+001
  0
LINE
  5
1ae
100
AcDbEntity
  8
1
100
AcDbLine
  6
CONTINUOUS
 62
7
 10
1.7147069E+002
 20
1.1180103E+002
 11
1.7147069E+002
 21
8.2601031E+001
  0
DIMENSION
  5
1af
100
AcDbEntity
  8
1
100
AcDbDimension
  6
CONTINUOUS
 62
1
  2
*D1105
  3
DSTYLE3
 10
3.4261961E+001
 20
3.0201031E+001
 11
3.2260961E+001
 21
7.1912771E+001
 70
128
100
AcDbAlignedDimension
 13
5.7840177E+001
 23
1.1280103E+002
 14
5.8686993E+001
 24
3.0201031E+001
 40
3.0
 50
9.0E+001
100
AcDbRotatedDimension
1001
ACAD
1000
DSTYLE
1002
{
1070
173
1070
0
1070
5
1000
_AH2
1002
}
  0
LINE
  5
1b0
100
AcDbEntity
  8
1
100
AcDbLine
  6
CONTINUOUS
 62
7
 10
1.3304018E+002
 20
1.1180103E+002
 11
1.3304018E+002
 21
8.6501031E+001
  0
ARC
  5
1b1
100
AcDbEntity
  8
1
100
AcDbCircle
  6
CONTINUOUS
 62
7
 10
9.5940177E+001
 20
1.1180103E+002
 40
1.0
100
AcDbArc
 50
9.0E+001
 51
1.8E+002
  0
ARC
  5
1b2
100
AcDbEntity
  8
1
100
AcDbCircle
  6
CONTINUOUS
 62
7
 10
1.3404018E+002
 20
1.1180103E+002
 40
1.0
100
AcDbArc
 50
9.0E+001
 51
1.8E+002
  0
ARC
  5
1b3
100
AcDbEntity
  8
1
100
AcDbCircle
  6
CONTINUOUS
 62
7
 10
5.7840177E+001
 20
1.1180103E+002
 40
1.0
100
AcDbArc
 50
9.0E+001
 51
1.8E+002
  0
ARC
  5
1b4
100
AcDbEntity
  8
1
100
AcDbCircle
  6
CONTINUOUS
 62
7
 10
9.5940177E+001
 20
3.1201031E+001
 40
1.0
100
AcDbArc
 50
1.8E+002
 51
2.7E+002
  0
ARC
  5
1b5
100
AcDbEntity
  8
1
100
AcDbCircle
  6
CONTINUOUS
 62
7
 10
1.3404018E+002
 20
3.1201031E+001
 40
1.0
100
AcDbArc
 50
1.8E+002
 51
2.7E+002
  0
ARC
  5
1b6
100
AcDbEntity
  8
1
100
AcDbCircle
  6
CONTINUOUS
 62
7
 10
5.7840177E+001
 20
3.1201031E+001
 40
1.0
100
AcDbArc
 50
1.8E+002
 51
2.7E+002
  0
LINE
  5
1b7
100
AcDbEntity
  8
1
100
AcDbLine
  6
CONTINUOUS
 62
7
 10
5.7840177E+001
 20
3.0201031E+001
 11
9.4270694E+001
 21
3.0201031E+001
  0
LINE
  5
1b8
100
AcDbEntity
  8
1
100
AcDbLine
  6
CONTINUOUS
 62
7
 10
9.5940177E+001
 20
3.0201031E+001
 11
1.3237069E+002
 21
3.0201031E+001
  0
LINE
  5
1b9
100
AcDbEntity
  8
1
100
AcDbLine
  6
CONTINUOUS
 62
7
 10
1.3404018E+002
 20
3.0201031E+001
 11
1.7047069E+002
 21
3.0201031E+001
  0
LINE
  5
1ba
100
AcDbEntity
  8
1
100
AcDbLine
  6
CONTINUOUS
 62
7
 10
1.7147069E+002
 20
3.1201031E+001
 11
1.7147069E+002
 21
6.0401031E+001
  0
LINE
  5
1bb
100
AcDbEntity
  8
1
100
AcDbLine
  6
CONTINUOUS
 62
7
 10
2.5857325E+002
 20
1.1280103E+002
 11
2.6077325E+002
 21
1.1280103E+002
  0
LINE
  5
1bc
100
AcDbEntity
  8
1
100
AcDbLine
  6
CONTINUOUS
 62
7
 10
2.5857325E+002
 20
3.0201031E+001
 11
2.6077325E+002
 21
3.0201031E+001
  0
ARC
  5
1bd
100
AcDbEntity
  8
1
100
AcDbCircle
  6
CONTINUOUS
 62
7
 10
2.6077325E+002
 20
1.1230103E+002
 40
5.0E-001
100
AcDbArc
 50
0.0
 51
9.0E+001
  0
ARC
  5
1be
100
AcDbEntity
  8
1
100
AcDbCircle
  6
CONTINUOUS
 62
7
 10
2.6077325E+002
 20
3.0701031E+001
 40
5.0E-001
100
AcDbArc
 50
2.7E+002
 51
3.6E+002
  0
ARC
  5
1bf
100
AcDbEntity
  8
1
100
AcDbCircle
  6
CONTINUOUS
 62
7
 10
2.5857325E+002
 20
1.1230103E+002
 40
5.0E-001
100
AcDbArc
 50
9.0E+001
 51
1.8E+002
  0
ARC
  5
1c0
100
AcDbEntity
  8
1
100
AcDbCircle
  6
CONTINUOUS
 62
7
 10
2.5857325E+002
 20
3.0701031E+001
 40
5.0E-001
100
AcDbArc
 50
1.8E+002
 51
2.7E+002
  0
DIMENSION
  5
1c1
100
AcDbEntity
  8
1
100
AcDbDimension
  6
CONTINUOUS
 62
1
  2
*D1129
  3
DSTYLE4
 10
4.5079549E+001
 20
5.6501031E+001
 11
4.3078549E+001
 21
7.1501031E+001
 70
128
100
AcDbAlignedDimension
 13
5.4770694E+001
 23
8.6501031E+001
 14
5.4770694E+001
 24
5.6501031E+001
 40
3.0
 50
9.0E+001
100
AcDbRotatedDimension
1001
ACAD
1000
DSTYLE
1002
{
1070
173
1070
0
1070
5
1000
_AH2
1002
}
  0
DIMENSION
  5
1c2
100
AcDbEntity
  8
1
100
AcDbDimension
  6
CONTINUOUS
 62
1
  2
*D1130
  3
DSTYLE3
 10
1.9201798E+002
 20
6.5151031E+001
 11
1.9001698E+002
 21
7.1501031E+001
 70
128
100
AcDbAlignedDimension
 13
1.8507069E+002
 23
7.7851031E+001
 14
1.8507069E+002
 24
6.5151031E+001
 40
3.0
 50
9.0E+001
100
AcDbRotatedDimension
1001
ACAD
1000
DSTYLE
1002
{
1070
173
1070
0
1070
5
1000
_AH2
1002
}
  0
DIMENSION
  5
1c3
100
AcDbEntity
  8
1
100
AcDbDimension
  6
CONTINUOUS
 62
1
  2
*D1132
  3
DSTYLE5
 10
1.8302569E+002
 20
4.7214737E+001
 11
1.9184593E+002
 21
4.9215737E+001
 70
128
100
AcDbAlignedDimension
 13
1.7111569E+002
 23
6.5901031E+001
 14
1.8302569E+002
 24
6.5901031E+001
 40
3.0
 50
0.0
100
AcDbRotatedDimension
1001
ACAD
1000
DSTYLE
1002
{
1070
173
1070
0
1070
5
1000
_AH2
1002
}
  0
LINE
  5
1c4
100
AcDbEntity
  8
1
100
AcDbLine
  6
CONTINUOUS
 62
7
 10
2.5977037E+002
 20
7.7851031E+001
 11
2.5977037E+002
 21
6.5151031E+001
  0
ARC
  5
1c5
100
AcDbEntity
  8
1
100
AcDbCircle
  6
CONTINUOUS
 62
7
 10
5.7840177E+001
 20
1.7934063E+002
 40
1.0
100
AcDbArc
 50
1.8E+002
 51
2.7E+002
  0
ARC
  5
1c6
100
AcDbEntity
  8
1
100
AcDbCircle
  6
CONTINUOUS
 62
7
 10
8.6070694E+001
 20
1.5969063E+002
 40
7.5E-001
100
AcDbArc
 50
2.7E+002
 51
3.6E+002
  0
LINE
  5
1c7
100
AcDbEntity
  8
1
100
AcDbLine
  6
CENTERLINE
 62
6
 10
6.2770694E+001
 20
1.8415729E+002
 11
6.2770694E+001
 21
1.5603918E+002
  0
LINE
  5
1c8
100
AcDbEntity
  8
1
100
AcDbLine
  6
CONTINUOUS
 62
7
 10
2.6077325E+002
 20
3.0201031E+001
 11
2.6077325E+002
 21
5.6501031E+001
  0
LINE
  5
1c9
100
AcDbEntity
  8
1
100
AcDbLine
  6
CONTINUOUS
 62
7
 10
2.6077325E+002
 20
1.1280103E+002
 11
2.6077325E+002
 21
8.6501031E+001
  0
ARC
  5
1ca
100
AcDbEntity
  8
1
100
AcDbCircle
  6
CONTINUOUS
 62
7
 10
1.0097465E+002
 20
1.6784017E+002
 40
1.44E+001
100
AcDbArc
 50
1.1355195E+002
 51
1.6939326E+002
  0
LINE
  5
1cb
100
AcDbEntity
  8
1
100
AcDbLine
  6
CENTERLINE
 62
6
 10
1.0087069E+002
 20
1.8415729E+002
 11
1.0087069E+002
 21
1.5603918E+002
  0
ARC
  5
1cc
100
AcDbEntity
  8
1
100
AcDbCircle
  6
CONTINUOUS
 62
7
 10
6.2770694E+001
 20
1.6794063E+002
 40
9.0
100
AcDbArc
 50
1.8E+002
 51
2.7E+002
  0
LINE
  5
1cd
100
AcDbEntity
  8
1
100
AcDbLine
  6
CONTINUOUS
 62
7
 10
5.3770694E+001
 20
1.7454063E+002
 11
5.3770694E+001
 21
1.6794063E+002
  0
LINE
  5
1ce
100
AcDbEntity
  8
1
100
AcDbLine
  6
CONTINUOUS
 62
7
 10
6.0770694E+001
 20
1.8154063E+002
 11
9.8870694E+001
 21
1.8154063E+002
  0
LINE
  5
1cf
100
AcDbEntity
  8
1
100
AcDbLine
  6
CONTINUOUS
 62
7
 10
6.2770694E+001
 20
1.5894063E+002
 11
1.0018087E+002
 21
1.5894063E+002
  0
ARC
  5
1d0
100
AcDbEntity
  8
1
100
AcDbCircle
  6
CONTINUOUS
 62
7
 10
9.6020694E+001
 20
8.2601031E+001
 40
7.5E-001
100
AcDbArc
 50
2.1700944E+002
 51
2.7E+002
  0
LINE
  5
1d1
100
AcDbEntity
  8
1
100
AcDbLine
  6
CONTINUOUS
 62
7
 10
5.7840177E+001
 20
1.7834063E+002
 11
9.1120694E+001
 21
1.7834063E+002
  0
ARC
  5
1d2
100
AcDbEntity
  8
1
100
AcDbCircle
  6
CONTINUOUS
 62
7
 10
9.6020694E+001
 20
6.0401031E+001
 40
7.5E-001
100
AcDbArc
 50
9.0E+001
 51
1.4299056E+002
  0
LINE
  5
1d3
100
AcDbEntity
  8
1
100
AcDbLine
  6
CONTINUOUS
 62
7
 10
8.6820694E+001
 20
1.7049074E+002
 11
8.6820694E+001
 21
1.5969063E+002
  0
ARC
  5
1d4
100
AcDbEntity
  8
1
100
AcDbCircle
  6
CONTINUOUS
 62
7
 10
9.4720694E+001
 20
1.8104063E+002
 40
5.0E-001
100
AcDbArc
 50
0.0
 51
9.0E+001
  0
LINE
  5
1d5
100
AcDbEntity
  8
1
100
AcDbLine
  6
CONTINUOUS
 62
7
 10
5.6840177E+001
 20
1.8033295E+002
 11
5.6840177E+001
 21
1.7934063E+002
  0
ARC
  5
1d6
100
AcDbEntity
  8
1
100
AcDbCircle
  6
CONTINUOUS
 62
7
 10
6.0770694E+001
 20
1.7454063E+002
 40
7.0
100
AcDbArc
 50
9.0E+001
 51
1.8E+002
  0
ARC
  5
1d7
100
AcDbEntity
  8
1
100
AcDbCircle
  6
CONTINUOUS
 62
7
 10
6.2770694E+001
 20
1.6794063E+002
 40
2.95
100
AcDbArc
 50
2.4429465E+002
 51
4.729545E+002
  0
LINE
  5
1d8
100
AcDbEntity
  8
1
100
AcDbLine
  6
CONTINUOUS
 62
7
 10
6.1040694E+001
 20
1.6609063E+002
 11
6.1040694E+001
 21
1.6978226E+002
  0
ARC
  5
1d9
100
AcDbEntity
  8
1
100
AcDbCircle
  6
CONTINUOUS
 62
7
 10
6.1990694E+001
 20
1.6609063E+002
 40
9.5E-001
100
AcDbArc
 50
1.8E+002
 51
2.3827559E+002
  0
ARC
  5
1da
100
AcDbEntity
  8
1
100
AcDbCircle
  6
CONTINUOUS
 62
7
 10
6.1990694E+001
 20
1.6978226E+002
 40
9.5E-001
100
AcDbArc
 50
1.129545E+002
 51
1.8E+002
  0
LINE
  5
1db
100
AcDbEntity
  8
1
100
AcDbLine
  6
CONTINUOUS
 62
7
 10
6.8270694E+001
 20
8.1051031E+001
 11
6.8270694E+001
 21
6.1951031E+001
  0
CIRCLE
  5
1dc
100
AcDbEntity
  8
1
100
AcDbCircle
  6
CONTINUOUS
 62
7
 10
6.2770694E+001
 20
1.6794063E+002
 40
3.75
  0
LINE
  5
1dd
100
AcDbEntity
  8
1
100
AcDbLine
  6
CENTERLINE
 62
6
 10
5.0770694E+001
 20
1.6794063E+002
 11
1.8602569E+002
 21
1.6794063E+002
  0
ARC
  5
1de
100
AcDbEntity
  8
1
100
AcDbCircle
  6
CONTINUOUS
 62
7
 10
9.5940177E+001
 20
1.7934063E+002
 40
1.0
100
AcDbArc
 50
1.8E+002
 51
2.7E+002
  0
ARC
  5
1df
100
AcDbEntity
  8
1
100
AcDbCircle
  6
CONTINUOUS
 62
7
 10
1.2417069E+002
 20
1.5969063E+002
 40
7.5E-001
100
AcDbArc
 50
2.7E+002
 51
3.6E+002
  0
LINE
  5
1e0
100
AcDbEntity
  8
1
100
AcDbLine
  6
CONTINUOUS
 62
7
 10
7.2470694E+001
 20
8.2051031E+001
 11
7.2470694E+001
 21
6.0951031E+001
  0
ARC
  5
1e1
100
AcDbEntity
  8
1
100
AcDbCircle
  6
CONTINUOUS
 62
7
 10
1.3907465E+002
 20
1.6784017E+002
 40
1.44E+001
100
AcDbArc
 50
1.1355195E+002
 51
1.6939326E+002
  0
LINE
  5
1e2
100
AcDbEntity
  8
1
100
AcDbLine
  6
CENTERLINE
 62
6
 10
1.3897069E+002
 20
1.8415729E+002
 11
1.3897069E+002
 21
1.5603918E+002
  0
ARC
  5
1e3
100
AcDbEntity
  8
1
100
AcDbCircle
  6
CONTINUOUS
 62
7
 10
1.0087069E+002
 20
1.6794063E+002
 40
9.0
100
AcDbArc
 50
1.8E+002
 51
2.7E+002
  0
LINE
  5
1e4
100
AcDbEntity
  8
1
100
AcDbLine
  6
CONTINUOUS
 62
7
 10
9.1870694E+001
 20
1.7454063E+002
 11
9.1870694E+001
 21
1.6794063E+002
  0
LINE
  5
1e5
100
AcDbEntity
  8
1
100
AcDbLine
  6
CONTINUOUS
 62
7
 10
9.8870694E+001
 20
1.8154063E+002
 11
1.3697069E+002
 21
1.8154063E+002
  0
LINE
  5
1e6
100
AcDbEntity
  8
1
100
AcDbLine
  6
CONTINUOUS
 62
7
 10
1.0087069E+002
 20
1.5894063E+002
 11
1.3828087E+002
 21
1.5894063E+002
  0
LINE
  5
1e7
100
AcDbEntity
  8
1
100
AcDbLine
  6
CONTINUOUS
 62
7
 10
9.5940177E+001
 20
1.7834063E+002
 11
1.2922069E+002
 21
1.7834063E+002
  0
LINE
  5
1e8
100
AcDbEntity
  8
1
100
AcDbLine
  6
CONTINUOUS
 62
7
 10
1.2492069E+002
 20
1.7049074E+002
 11
1.2492069E+002
 21
1.5969063E+002
  0
ARC
  5
1e9
100
AcDbEntity
  8
1
100
AcDbCircle
  6
CONTINUOUS
 62
7
 10
1.3282069E+002
 20
1.8104063E+002
 40
5.0E-001
100
AcDbArc
 50
0.0
 51
9.0E+001
  0
LINE
  5
1ea
100
AcDbEntity
  8
1
100
AcDbLine
  6
CONTINUOUS
 62
7
 10
9.4940177E+001
 20
1.8033295E+002
 11
9.4940177E+001
 21
1.7934063E+002
  0
ARC
  5
1eb
100
AcDbEntity
  8
1
100
AcDbCircle
  6
CONTINUOUS
 62
7
 10
9.8870694E+001
 20
1.7454063E+002
 40
7.0
100
AcDbArc
 50
9.0E+001
 51
1.8E+002
  0
ARC
  5
1ec
100
AcDbEntity
  8
1
100
AcDbCircle
  6
CONTINUOUS
 62
7
 10
1.0087069E+002
 20
1.6794063E+002
 40
2.95
100
AcDbArc
 50
2.4429465E+002
 51
4.729545E+002
  0
LINE
  5
1ed
100
AcDbEntity
  8
1
100
AcDbLine
  6
CONTINUOUS
 62
7
 10
9.9140694E+001
 20
1.6609063E+002
 11
9.9140694E+001
 21
1.6978226E+002
  0
ARC
  5
1ee
100
AcDbEntity
  8
1
100
AcDbCircle
  6
CONTINUOUS
 62
7
 10
1.0009069E+002
 20
1.6609063E+002
 40
9.5E-001
100
AcDbArc
 50
1.8E+002
 51
2.3827559E+002
  0
ARC
  5
1ef
100
AcDbEntity
  8
1
100
AcDbCircle
  6
CONTINUOUS
 62
7
 10
1.0009069E+002
 20
1.6978226E+002
 40
9.5E-001
100
AcDbArc
 50
1.129545E+002
 51
1.8E+002
  0
LINE
  5
1f0
100
AcDbEntity
  8
1
100
AcDbLine
  6
CONTINUOUS
 62
7
 10
2.6127325E+002
 20
1.1230103E+002
 11
2.6127325E+002
 21
3.0701031E+001
  0
ARC
  5
1f1
100
AcDbEntity
  8
1
100
AcDbCircle
  6
CONTINUOUS
 62
7
 10
6.7270694E+001
 20
8.1051031E+001
 40
1.0
100
AcDbArc
 50
0.0
 51
9.0E+001
  0
CIRCLE
  5
1f2
100
AcDbEntity
  8
1
100
AcDbCircle
  6
CONTINUOUS
 62
7
 10
1.0087069E+002
 20
1.6794063E+002
 40
3.75
  0
ARC
  5
1f3
100
AcDbEntity
  8
1
100
AcDbCircle
  6
CONTINUOUS
 62
7
 10
6.7270694E+001
 20
6.1951031E+001
 40
1.0
100
AcDbArc
 50
2.7E+002
 51
3.6E+002
  0
LINE
  5
1f4
100
AcDbEntity
  8
1
100
AcDbLine
  6
CENTERLINE
 62
6
 10
2.6388991E+002
 20
7.1501031E+001
 11
2.357718E+002
 21
7.1501031E+001
  0
ARC
  5
1f5
100
AcDbEntity
  8
1
100
AcDbCircle
  6
CONTINUOUS
 62
7
 10
5.4770694E+001
 20
8.3222868E+001
 40
1.0
100
AcDbArc
 50
1.8E+002
 51
2.6836342E+002
  0
ARC
  5
1f6
100
AcDbEntity
  8
1
100
AcDbCircle
  6
CONTINUOUS
 62
7
 10
5.4770694E+001
 20
5.9779194E+001
 40
1.0
100
AcDbArc
 50
9.1636577E+001
 51
1.8E+002
  0
ARC
  5
1f7
100
AcDbEntity
  8
1
100
AcDbCircle
  6
CONTINUOUS
 62
7
 10
1.3404018E+002
 20
1.7934063E+002
 40
1.0
100
AcDbArc
 50
1.8E+002
 51
2.7E+002
  0
ARC
  5
1f8
100
AcDbEntity
  8
1
100
AcDbCircle
  6
CONTINUOUS
 62
7
 10
1.6227069E+002
 20
1.5969063E+002
 40
7.5E-001
100
AcDbArc
 50
2.7E+002
 51
3.6E+002
  0
LINE
  5
1f9
100
AcDbEntity
  8
1
100
AcDbLine
  6
CENTERLINE
 62
6
 10
1.0087069E+002
 20
5.3501031E+001
 11
1.0087069E+002
 21
8.9501031E+001
  0
LINE
  5
1fa
100
AcDbEntity
  8
1
100
AcDbLine
  6
CONTINUOUS
 62
7
 10
8.8020694E+001
 20
8.1851031E+001
 11
1.0087069E+002
 21
8.1851031E+001
  0
LINE
  5
1fb
100
AcDbEntity
  8
1
100
AcDbLine
  6
CONTINUOUS
 62
7
 10
8.7520694E+001
 20
7.7851031E+001
 11
1.0887069E+002
 21
7.7851031E+001
  0
ARC
  5
1fc
100
AcDbEntity
  8
1
100
AcDbCircle
  6
CONTINUOUS
 62
7
 10
1.7717465E+002
 20
1.6784017E+002
 40
1.44E+001
100
AcDbArc
 50
1.1355195E+002
 51
1.6939326E+002
  0
LINE
  5
1fd
100
AcDbEntity
  8
1
100
AcDbLine
  6
CENTERLINE
 62
6
 10
1.7707069E+002
 20
1.8415729E+002
 11
1.7707069E+002
 21
1.5603918E+002
  0
ARC
  5
1fe
100
AcDbEntity
  8
1
100
AcDbCircle
  6
CONTINUOUS
 62
7
 10
1.3897069E+002
 20
1.6794063E+002
 40
9.0
100
AcDbArc
 50
1.8E+002
 51
2.7E+002
  0
LINE
  5
1ff
100
AcDbEntity
  8
1
100
AcDbLine
  6
CONTINUOUS
 62
7
 10
1.2997069E+002
 20
1.7454063E+002
 11
1.2997069E+002
 21
1.6794063E+002
  0
LINE
  5
200
100
AcDbEntity
  8
1
100
AcDbLine
  6
CONTINUOUS
 62
7
 10
1.3697069E+002
 20
1.8154063E+002
 11
1.7993347E+002
 21
1.8154063E+002
  0
LINE
  5
201
100
AcDbEntity
  8
1
100
AcDbLine
  6
CONTINUOUS
 62
7
 10
1.3897069E+002
 20
1.5894063E+002
 11
1.7638087E+002
 21
1.5894063E+002
  0
LINE
  5
202
100
AcDbEntity
  8
1
100
AcDbLine
  6
CONTINUOUS
 62
7
 10
9.4915694E+001
 20
6.5901031E+001
 11
9.4915694E+001
 21
7.7101031E+001
  0
LINE
  5
203
100
AcDbEntity
  8
1
100
AcDbLine
  6
CONTINUOUS
 62
7
 10
1.3404018E+002
 20
1.7834063E+002
 11
1.6732069E+002
 21
1.7834063E+002
  0
LINE
  5
204
100
AcDbEntity
  8
1
100
AcDbLine
  6
CONTINUOUS
 62
7
 10
1.0682569E+002
 20
6.5901031E+001
 11
1.0682569E+002
 21
7.7101031E+001
  0
LINE
  5
205
100
AcDbEntity
  8
1
100
AcDbLine
  6
CONTINUOUS
 62
7
 10
1.6302069E+002
 20
1.7049074E+002
 11
1.6302069E+002
 21
1.5969063E+002
  0
ARC
  5
206
100
AcDbEntity
  8
1
100
AcDbCircle
  6
CONTINUOUS
 62
7
 10
1.7092069E+002
 20
1.8104063E+002
 40
5.0E-001
100
AcDbArc
 50
0.0
 51
9.0E+001
  0
LINE
  5
207
100
AcDbEntity
  8
1
100
AcDbLine
  6
CONTINUOUS
 62
7
 10
1.3304018E+002
 20
1.8033295E+002
 11
1.3304018E+002
 21
1.7934063E+002
  0
ARC
  5
208
100
AcDbEntity
  8
1
100
AcDbCircle
  6
CONTINUOUS
 62
7
 10
1.3697069E+002
 20
1.7454063E+002
 40
7.0
100
AcDbArc
 50
9.0E+001
 51
1.8E+002
  0
ARC
  5
209
100
AcDbEntity
  8
1
100
AcDbCircle
  6
CONTINUOUS
 62
7
 10
1.3897069E+002
 20
1.6794063E+002
 40
2.95
100
AcDbArc
 50
2.4429465E+002
 51
4.729545E+002
  0
LINE
  5
20a
100
AcDbEntity
  8
1
100
AcDbLine
  6
CONTINUOUS
 62
7
 10
1.3724069E+002
 20
1.6609063E+002
 11
1.3724069E+002
 21
1.6978226E+002
  0
ARC
  5
20b
100
AcDbEntity
  8
1
100
AcDbCircle
  6
CONTINUOUS
 62
7
 10
1.3819069E+002
 20
1.6609063E+002
 40
9.5E-001
100
AcDbArc
 50
1.8E+002
 51
2.3827559E+002
  0
ARC
  5
20c
100
AcDbEntity
  8
1
100
AcDbCircle
  6
CONTINUOUS
 62
7
 10
1.3819069E+002
 20
1.6978226E+002
 40
9.5E-001
100
AcDbArc
 50
1.129545E+002
 51
1.8E+002
  0
LINE
  5
20d
100
AcDbEntity
  8
1
100
AcDbLine
  6
CONTINUOUS
 62
7
 10
5.4770694E+001
 20
8.6501031E+001
 11
9.0420694E+001
 21
8.6501031E+001
  0
LINE
  5
20e
100
AcDbEntity
  8
1
100
AcDbLine
  6
CONTINUOUS
 62
7
 10
5.3770694E+001
 20
8.5501031E+001
 11
5.3770694E+001
 21
8.3222868E+001
  0
CIRCLE
  5
20f
100
AcDbEntity
  8
1
100
AcDbCircle
  6
CONTINUOUS
 62
7
 10
1.3897069E+002
 20
1.6794063E+002
 40
3.75
  0
LINE
  5
210
100
AcDbEntity
  8
1
100
AcDbLine
  6
CONTINUOUS
 62
7
 10
1.0987069E+002
 20
8.0673006E+001
 11
1.0987069E+002
 21
7.8851031E+001
  0
LINE
  5
211
100
AcDbEntity
  8
1
100
AcDbLine
  6
CONTINUOUS
 62
7
 10
6.0770694E+001
 20
8.2051031E+001
 11
6.1020694E+001
 21
8.2051031E+001
  0
ARC
  5
212
100
AcDbEntity
  8
1
100
AcDbCircle
  6
CONTINUOUS
 62
7
 10
1.7993347E+002
 20
1.7854063E+002
 40
3.0
100
AcDbArc
 50
5.5E+001
 51
9.0E+001
  0
LINE
  5
213
100
AcDbEntity
  8
1
100
AcDbLine
  6
CONTINUOUS
 62
7
 10
8.7020694E+001
 20
8.5501031E+001
 11
8.7020694E+001
 21
8.2851031E+001
  0
LINE
  5
214
100
AcDbEntity
  8
1
100
AcDbLine
  6
CONTINUOUS
 62
7
 10
1.8516785E+002
 20
1.785378E+002
 11
1.8165419E+002
 21
1.8099808E+002
  0
ARC
  5
215
100
AcDbEntity
  8
1
100
AcDbCircle
  6
CONTINUOUS
 62
7
 10
1.8402069E+002
 20
1.7689949E+002
 40
2.0
100
AcDbArc
 50
0.0
 51
5.5E+001
  0
CIRCLE
  5
216
100
AcDbEntity
  8
1
100
AcDbCircle
  6
CONTINUOUS
 62
7
 10
1.7707069E+002
 20
1.6794063E+002
 40
3.05
  0
LINE
  5
217
100
AcDbEntity
  8
1
100
AcDbLine
  6
CONTINUOUS
 62
7
 10
1.8602069E+002
 20
1.7689949E+002
 11
1.8602069E+002
 21
1.7554063E+002
  0
LINE
  5
218
100
AcDbEntity
  8
1
100
AcDbLine
  6
CONTINUOUS
 62
7
 10
1.8602069E+002
 20
1.7554063E+002
 11
1.8425933E+002
 21
1.6555144E+002
  0
ARC
  5
219
100
AcDbEntity
  8
1
100
AcDbCircle
  6
CONTINUOUS
 62
7
 10
1.7638087E+002
 20
1.6694063E+002
 40
8.0
100
AcDbArc
 50
2.7E+002
 51
3.5E+002
  0
CIRCLE
  5
21a
100
AcDbEntity
  8
1
100
AcDbCircle
  6
CONTINUOUS
 62
7
 10
1.7707069E+002
 20
1.6794063E+002
 40
3.55
  0
LINE
  5
21b
100
AcDbEntity
  8
1
100
AcDbLine
  6
CONTINUOUS
 62
7
 10
8.2520694E+001
 20
8.0051031E+001
 11
8.2520694E+001
 21
7.9204805E+001
  0
DIMENSION
  5
21c
100
AcDbEntity
  8
1
100
AcDbDimension
  6
CONTINUOUS
 62
1
  2
*D1227
  3
DSTYLE3
 10
1.0087069E+002
 20
1.4748274E+002
 11
8.1820694E+001
 21
1.4948374E+002
 70
128
100
AcDbAlignedDimension
 13
6.2770694E+001
 23
1.5603918E+002
 14
1.0087069E+002
 24
1.5603918E+002
 40
3.0
 50
0.0
100
AcDbRotatedDimension
1001
ACAD
1000
DSTYLE
1002
{
1070
173
1070
0
1070
5
1000
_AH2
1002
}
  0
DIMENSION
  5
21d
100
AcDbEntity
  8
1
100
AcDbDimension
  6
CONTINUOUS
 62
1
  2
*D1228
  3
DSTYLE2
 10
1.3897069E+002
 20
1.4748274E+002
 11
1.1992069E+002
 21
1.4948374E+002
 70
128
100
AcDbAlignedDimension
 13
1.0087069E+002
 23
1.5603918E+002
 14
1.3897069E+002
 24
1.5603918E+002
 40
3.0
 50
0.0
100
AcDbRotatedDimension
1001
ACAD
1000
DSTYLE
1002
{
1070
173
1070
0
1070
5
1000
_AH2
1002
}
  0
ARC
  5
21e
100
AcDbEntity
  8
1
100
AcDbCircle
  6
CONTINUOUS
 62
7
 10
5.4770694E+001
 20
8.5501031E+001
 40
1.0
100
AcDbArc
 50
9.0E+001
 51
1.8E+002
  0
DIMENSION
  5
21f
100
AcDbEntity
  8
1
100
AcDbDimension
  6
CONTINUOUS
 62
1
  2
*D1230
  3
DSTYLE3
 10
1.9547324E+002
 20
1.8154063E+002
 11
1.9347224E+002
 21
1.7474063E+002
 70
128
100
AcDbAlignedDimension
 13
1.8612569E+002
 23
1.6794063E+002
 14
1.7993347E+002
 24
1.8154063E+002
 40
3.0
 50
9.0E+001
100
AcDbRotatedDimension
1001
ACAD
1000
DSTYLE
1002
{
1070
173
1070
0
1070
5
1000
_AH2
1002
}
  0
ARC
  5
220
100
AcDbEntity
  8
1
100
AcDbCircle
  6
CONTINUOUS
 62
7
 10
8.6020694E+001
 20
8.5501031E+001
 40
1.0
100
AcDbArc
 50
0.0
 51
9.0E+001
  0
ARC
  5
221
100
AcDbEntity
  8
1
100
AcDbCircle
  6
CONTINUOUS
 62
7
 10
8.8020694E+001
 20
8.2851031E+001
 40
1.0
100
AcDbArc
 50
1.8E+002
 51
2.7E+002
  0
ARC
  5
222
100
AcDbEntity
  8
1
100
AcDbCircle
  6
CONTINUOUS
 62
7
 10
1.0887069E+002
 20
7.8851031E+001
 40
1.0
100
AcDbArc
 50
2.7E+002
 51
3.6E+002
  0
LINE
  5
223
100
AcDbEntity
  8
1
100
AcDbLine
  6
CONTINUOUS
 62
7
 10
8.8020694E+001
 20
6.1151031E+001
 11
1.0087069E+002
 21
6.1151031E+001
  0
LINE
  5
224
100
AcDbEntity
  8
1
100
AcDbLine
  6
CONTINUOUS
 62
7
 10
8.7520694E+001
 20
6.5151031E+001
 11
1.0887069E+002
 21
6.5151031E+001
  0
LINE
  5
225
100
AcDbEntity
  8
1
100
AcDbLine
  6
CONTINUOUS
 62
7
 10
5.4770694E+001
 20
5.6501031E+001
 11
9.0420694E+001
 21
5.6501031E+001
  0
LINE
  5
226
100
AcDbEntity
  8
1
100
AcDbLine
  6
CONTINUOUS
 62
7
 10
5.3770694E+001
 20
5.7501031E+001
 11
5.3770694E+001
 21
5.9779194E+001
  0
LINE
  5
227
100
AcDbEntity
  8
1
100
AcDbLine
  6
CONTINUOUS
 62
7
 10
1.0987069E+002
 20
6.2329056E+001
 11
1.0987069E+002
 21
6.4151031E+001
  0
LINE
  5
228
100
AcDbEntity
  8
1
100
AcDbLine
  6
CONTINUOUS
 62
7
 10
8.7020694E+001
 20
5.7501031E+001
 11
8.7020694E+001
 21
6.0151031E+001
  0
LINE
  5
229
100
AcDbEntity
  8
1
100
AcDbLine
  6
CONTINUOUS
 62
7
 10
8.2520694E+001
 20
6.2951031E+001
 11
8.2520694E+001
 21
6.3797257E+001
  0
ARC
  5
22a
100
AcDbEntity
  8
1
100
AcDbCircle
  6
CONTINUOUS
 62
7
 10
5.4770694E+001
 20
5.7501031E+001
 40
1.0
100
AcDbArc
 50
1.8E+002
 51
2.7E+002
  0
ARC
  5
22b
100
AcDbEntity
  8
1
100
AcDbCircle
  6
CONTINUOUS
 62
7
 10
8.6020694E+001
 20
5.7501031E+001
 40
1.0
100
AcDbArc
 50
2.7E+002
 51
3.6E+002
  0
ARC
  5
22c
100
AcDbEntity
  8
1
100
AcDbCircle
  6
CONTINUOUS
 62
7
 10
8.8020694E+001
 20
6.0151031E+001
 40
1.0
100
AcDbArc
 50
9.0E+001
 51
1.8E+002
  0
ARC
  5
22d
100
AcDbEntity
  8
1
100
AcDbCircle
  6
CONTINUOUS
 62
7
 10
1.0887069E+002
 20
6.4151031E+001
 40
1.0
100
AcDbArc
 50
0.0
 51
9.0E+001
  0
LINE
  5
22e
100
AcDbEntity
  8
1
100
AcDbLine
  6
CONTINUOUS
 62
7
 10
5.7840177E+001
 20
1.1280103E+002
 11
9.4270694E+001
 21
1.1280103E+002
  0
LINE
  5
22f
100
AcDbEntity
  8
1
100
AcDbLine
  6
CONTINUOUS
 62
7
 10
2.5807325E+002
 20
1.1230103E+002
 11
2.5807325E+002
 21
8.7251031E+001
  0
LINE
  5
230
100
AcDbEntity
  8
1
100
AcDbLine
  6
CONTINUOUS
 62
7
 10
5.6840177E+001
 20
5.6501031E+001
 11
5.6840177E+001
 21
3.1201031E+001
  0
LINE
  5
231
100
AcDbEntity
  8
1
100
AcDbLine
  6
CONTINUOUS
 62
7
 10
8.7520694E+001
 20
7.7851031E+001
 11
8.3433539E+001
 21
7.8208611E+001
  0
ARC
  5
232
100
AcDbEntity
  8
1
100
AcDbCircle
  6
CONTINUOUS
 62
7
 10
8.3520694E+001
 20
7.9204805E+001
 40
1.0
100
AcDbArc
 50
1.8E+002
 51
2.65E+002
  0
LINE
  5
233
100
AcDbEntity
  8
1
100
AcDbLine
  6
CONTINUOUS
 62
7
 10
8.7520694E+001
 20
6.5151031E+001
 11
8.3433539E+001
 21
6.4793451E+001
  0
ARC
  5
234
100
AcDbEntity
  8
1
100
AcDbCircle
  6
CONTINUOUS
 62
7
 10
8.3520694E+001
 20
6.3797257E+001
 40
1.0
100
AcDbArc
 50
9.5E+001
 51
1.8E+002
  0
ARC
  5
235
100
AcDbEntity
  8
1
100
AcDbCircle
  6
CONTINUOUS
 62
7
 10
8.0520694E+001
 20
8.0051031E+001
 40
2.0
100
AcDbArc
 50
0.0
 51
9.0E+001
  0
ARC
  5
236
100
AcDbEntity
  8
1
100
AcDbCircle
  6
CONTINUOUS
 62
7
 10
8.0520694E+001
 20
6.2951031E+001
 40
2.0
100
AcDbArc
 50
2.7E+002
 51
3.6E+002
  0
LINE
  5
237
100
AcDbEntity
  8
1
100
AcDbLine
  6
CONTINUOUS
 62
7
 10
9.1170694E+001
 20
8.7251031E+001
 11
9.1170694E+001
 21
1.1280103E+002
  0
LINE
  5
238
100
AcDbEntity
  8
1
100
AcDbLine
  6
CONTINUOUS
 62
7
 10
2.5732325E+002
 20
5.6501031E+001
 11
2.3967325E+002
 21
5.6501031E+001
  0
LINE
  5
239
100
AcDbEntity
  8
1
100
AcDbLine
  6
CONTINUOUS
 62
7
 10
9.1170694E+001
 20
5.5751031E+001
 11
9.1170694E+001
 21
3.0201031E+001
  0
LINE
  5
23a
100
AcDbEntity
  8
1
100
AcDbLine
  6
CONTINUOUS
 62
7
 10
2.5732325E+002
 20
8.6501031E+001
 11
2.3967325E+002
 21
8.6501031E+001
  0
LINE
  5
23b
100
AcDbEntity
  8
1
100
AcDbLine
  6
CONTINUOUS
 62
7
 10
2.3867325E+002
 20
8.5501031E+001
 11
2.3867325E+002
 21
7.8851031E+001
  0
LINE
  5
23c
100
AcDbEntity
  8
1
100
AcDbLine
  6
CONTINUOUS
 62
7
 10
2.6027325E+002
 20
6.1151031E+001
 11
2.3967325E+002
 21
6.1151031E+001
  0
LINE
  5
23d
100
AcDbEntity
  8
1
100
AcDbLine
  6
CONTINUOUS
 62
7
 10
2.6027325E+002
 20
8.1851031E+001
 11
2.3967325E+002
 21
8.1851031E+001
  0
LINE
  5
23e
100
AcDbEntity
  8
1
100
AcDbLine
  6
CONTINUOUS
 62
7
 10
2.5977037E+002
 20
6.5151031E+001
 11
2.3967325E+002
 21
6.5151031E+001
  0
LINE
  5
23f
100
AcDbEntity
  8
1
100
AcDbLine
  6
CONTINUOUS
 62
7
 10
2.5977037E+002
 20
7.7851031E+001
 11
2.3967325E+002
 21
7.7851031E+001
  0
LINE
  5
240
100
AcDbEntity
  8
1
100
AcDbLine
  6
CONTINUOUS
 62
7
 10
2.3867325E+002
 20
6.4151031E+001
 11
2.3867325E+002
 21
5.7501031E+001
  0
LINE
  5
241
100
AcDbEntity
  8
1
100
AcDbLine
  6
CENTERLINE
 62
6
 10
2.4767325E+002
 20
8.881946E+001
 11
2.4767325E+002
 21
5.4008208E+001
  0
LINE
  5
242
100
AcDbEntity
  8
1
100
AcDbLine
  6
CONTINUOUS
 62
7
 10
2.4171825E+002
 20
7.7101031E+001
 11
2.4171825E+002
 21
6.5901031E+001
  0
LINE
  5
243
100
AcDbEntity
  8
1
100
AcDbLine
  6
CONTINUOUS
 62
7
 10
2.5807325E+002
 20
5.5751031E+001
 11
2.5807325E+002
 21
3.0701031E+001
  0
LINE
  5
244
100
AcDbEntity
  8
1
100
AcDbLine
  6
CONTINUOUS
 62
7
 10
2.5732325E+002
 20
8.6501031E+001
 11
2.6077325E+002
 21
8.6501031E+001
  0
LINE
  5
245
100
AcDbEntity
  8
1
100
AcDbLine
  6
CONTINUOUS
 62
7
 10
2.5732325E+002
 20
5.6501031E+001
 11
2.6077325E+002
 21
5.6501031E+001
  0
ARC
  5
246
100
AcDbEntity
  8
1
100
AcDbCircle
  6
CONTINUOUS
 62
7
 10
2.3967325E+002
 20
8.5501031E+001
 40
1.0
100
AcDbArc
 50
9.0E+001
 51
1.8E+002
  0
ARC
  5
247
100
AcDbEntity
  8
1
100
AcDbCircle
  6
CONTINUOUS
 62
7
 10
9.0420694E+001
 20
5.5751031E+001
 40
7.5E-001
100
AcDbArc
 50
0.0
 51
9.0E+001
  0
ARC
  5
248
100
AcDbEntity
  8
1
100
AcDbCircle
  6
CONTINUOUS
 62
7
 10
9.0420694E+001
 20
8.7251031E+001
 40
7.5E-001
100
AcDbArc
 50
2.7E+002
 51
3.6E+002
  0
LINE
  5
249
100
AcDbEntity
  8
1
100
AcDbLine
  6
CONTINUOUS
 62
7
 10
1.0087069E+002
 20
8.1851031E+001
 11
1.0889291E+002
 21
8.167276E+001
  0
ARC
  5
24a
100
AcDbEntity
  8
1
100
AcDbCircle
  6
CONTINUOUS
 62
7
 10
1.0887069E+002
 20
8.0673006E+001
 40
1.0
100
AcDbArc
 50
0.0
 51
8.872697E+001
  0
LINE
  5
24b
100
AcDbEntity
  8
1
100
AcDbLine
  6
CONTINUOUS
 62
7
 10
1.0087069E+002
 20
6.1151031E+001
 11
1.0889291E+002
 21
6.1329302E+001
  0
ARC
  5
24c
100
AcDbEntity
  8
1
100
AcDbCircle
  6
CONTINUOUS
 62
7
 10
1.0887069E+002
 20
6.2329056E+001
 40
1.0
100
AcDbArc
 50
2.7127303E+002
 51
3.6E+002
  0
LINE
  5
24d
100
AcDbEntity
  8
1
100
AcDbLine
  6
CONTINUOUS
 62
7
 10
6.0770694E+001
 20
8.2051031E+001
 11
5.4742135E+001
 21
8.2223276E+001
  0
LINE
  5
24e
100
AcDbEntity
  8
1
100
AcDbLine
  6
CONTINUOUS
 62
7
 10
6.0770694E+001
 20
6.0951031E+001
 11
5.4742135E+001
 21
6.0778786E+001
  0
ARC
  5
24f
100
AcDbEntity
  8
1
100
AcDbCircle
  6
CONTINUOUS
 62
7
 10
1.0757569E+002
 20
7.7101031E+001
 40
7.5E-001
100
AcDbArc
 50
9.0E+001
 51
1.8E+002
  0
ARC
  5
250
100
AcDbEntity
  8
1
100
AcDbCircle
  6
CONTINUOUS
 62
7
 10
1.0757569E+002
 20
6.5901031E+001
 40
7.5E-001
100
AcDbArc
 50
1.8E+002
 51
2.7E+002
  0
ARC
  5
251
100
AcDbEntity
  8
1
100
AcDbCircle
  6
CONTINUOUS
 62
7
 10
9.4165694E+001
 20
6.5901031E+001
 40
7.5E-001
100
AcDbArc
 50
2.7E+002
 51
3.6E+002
  0
ARC
  5
252
100
AcDbEntity
  8
1
100
AcDbCircle
  6
CONTINUOUS
 62
7
 10
9.4165694E+001
 20
7.7101031E+001
 40
7.5E-001
100
AcDbArc
 50
0.0
 51
9.0E+001
  0
LINE
  5
253
100
AcDbEntity
  8
1
100
AcDbLine
  6
CONTINUOUS
 62
7
 10
6.5720694E+001
 20
8.2051031E+001
 11
8.0520694E+001
 21
8.2051031E+001
  0
LINE
  5
254
100
AcDbEntity
  8
1
100
AcDbLine
  6
CONTINUOUS
 62
7
 10
6.5720694E+001
 20
6.0951031E+001
 11
8.0520694E+001
 21
6.0951031E+001
  0
ARC
  5
255
100
AcDbEntity
  8
1
100
AcDbCircle
  6
CONTINUOUS
 62
7
 10
1.3412069E+002
 20
8.2601031E+001
 40
7.5E-001
100
AcDbArc
 50
2.1700944E+002
 51
2.7E+002
  0
ARC
  5
256
100
AcDbEntity
  8
1
100
AcDbCircle
  6
CONTINUOUS
 62
7
 10
1.3412069E+002
 20
6.0401031E+001
 40
7.5E-001
100
AcDbArc
 50
9.0E+001
 51
1.4299056E+002
  0
ARC
  5
257
100
AcDbEntity
  8
1
100
AcDbCircle
  6
CONTINUOUS
 62
7
 10
2.3967325E+002
 20
7.8851031E+001
 40
1.0
100
AcDbArc
 50
1.8E+002
 51
2.7E+002
  0
LINE
  5
258
100
AcDbEntity
  8
1
100
AcDbLine
  6
CONTINUOUS
 62
7
 10
1.1057069E+002
 20
8.2051031E+001
 11
1.1057069E+002
 21
6.0951031E+001
  0
ARC
  5
259
100
AcDbEntity
  8
1
100
AcDbCircle
  6
CONTINUOUS
 62
7
 10
2.3967325E+002
 20
6.4151031E+001
 40
1.0
100
AcDbArc
 50
9.0E+001
 51
1.8E+002
  0
ARC
  5
25a
100
AcDbEntity
  8
1
100
AcDbCircle
  6
CONTINUOUS
 62
7
 10
2.3967325E+002
 20
5.7501031E+001
 40
1.0
100
AcDbArc
 50
1.8E+002
 51
2.7E+002
  0
ARC
  5
25b
100
AcDbEntity
  8
1
100
AcDbCircle
  6
CONTINUOUS
 62
7
 10
1.0537069E+002
 20
8.1051031E+001
 40
1.0
100
AcDbArc
 50
4.3140114E+001
 51
9.0E+001
  0
ARC
  5
25c
100
AcDbEntity
  8
1
100
AcDbCircle
  6
CONTINUOUS
 62
7
 10
1.0537069E+002
 20
6.1951031E+001
 40
1.0
100
AcDbArc
 50
2.7E+002
 51
3.1685989E+002
  0
ARC
  5
25d
100
AcDbEntity
  8
1
100
AcDbCircle
  6
CONTINUOUS
 62
7
 10
9.2870694E+001
 20
8.3222868E+001
 40
1.0
100
AcDbArc
 50
1.8E+002
 51
2.6836342E+002
  0
ARC
  5
25e
100
AcDbEntity
  8
1
100
AcDbCircle
  6
CONTINUOUS
 62
7
 10
9.2870694E+001
 20
5.9779194E+001
 40
1.0
100
AcDbArc
 50
9.1636577E+001
 51
1.8E+002
  0
LINE
  5
25f
100
AcDbEntity
  8
1
100
AcDbLine
  6
CENTERLINE
 62
6
 10
1.3897069E+002
 20
5.3501031E+001
 11
1.3897069E+002
 21
8.9501031E+001
  0
LINE
  5
260
100
AcDbEntity
  8
1
100
AcDbLine
  6
CONTINUOUS
 62
7
 10
1.2612069E+002
 20
8.1851031E+001
 11
1.3897069E+002
 21
8.1851031E+001
  0
LINE
  5
261
100
AcDbEntity
  8
1
100
AcDbLine
  6
CONTINUOUS
 62
7
 10
1.2562069E+002
 20
7.7851031E+001
 11
1.4697069E+002
 21
7.7851031E+001
  0
LINE
  5
262
100
AcDbEntity
  8
1
100
AcDbLine
  6
CONTINUOUS
 62
7
 10
1.3301569E+002
 20
6.5901031E+001
 11
1.3301569E+002
 21
7.7101031E+001
  0
LINE
  5
263
100
AcDbEntity
  8
1
100
AcDbLine
  6
CONTINUOUS
 62
7
 10
1.4492569E+002
 20
6.5901031E+001
 11
1.4492569E+002
 21
7.7101031E+001
  0
LINE
  5
264
100
AcDbEntity
  8
1
100
AcDbLine
  6
CONTINUOUS
 62
7
 10
9.2870694E+001
 20
8.6501031E+001
 11
1.2852069E+002
 21
8.6501031E+001
  0
LINE
  5
265
100
AcDbEntity
  8
1
100
AcDbLine
  6
CONTINUOUS
 62
7
 10
9.1870694E+001
 20
8.5501031E+001
 11
9.1870694E+001
 21
8.3222868E+001
  0
LINE
  5
266
100
AcDbEntity
  8
1
100
AcDbLine
  6
CONTINUOUS
 62
7
 10
1.4797069E+002
 20
8.0673006E+001
 11
1.4797069E+002
 21
7.8851031E+001
  0
LINE
  5
267
100
AcDbEntity
  8
1
100
AcDbLine
  6
CONTINUOUS
 62
7
 10
1.2512069E+002
 20
8.5501031E+001
 11
1.2512069E+002
 21
8.2851031E+001
  0
LINE
  5
268
100
AcDbEntity
  8
1
100
AcDbLine
  6
CONTINUOUS
 62
7
 10
1.2062069E+002
 20
8.0051031E+001
 11
1.2062069E+002
 21
7.9204805E+001
  0
ARC
  5
269
100
AcDbEntity
  8
1
100
AcDbCircle
  6
CONTINUOUS
 62
7
 10
9.2870694E+001
 20
8.5501031E+001
 40
1.0
100
AcDbArc
 50
9.0E+001
 51
1.8E+002
  0
ARC
  5
26a
100
AcDbEntity
  8
1
100
AcDbCircle
  6
CONTINUOUS
 62
7
 10
1.2412069E+002
 20
8.5501031E+001
 40
1.0
100
AcDbArc
 50
0.0
 51
9.0E+001
  0
ARC
  5
26b
100
AcDbEntity
  8
1
100
AcDbCircle
  6
CONTINUOUS
 62
7
 10
1.2612069E+002
 20
8.2851031E+001
 40
1.0
100
AcDbArc
 50
1.8E+002
 51
2.7E+002
  0
ARC
  5
26c
100
AcDbEntity
  8
1
100
AcDbCircle
  6
CONTINUOUS
 62
7
 10
1.4697069E+002
 20
7.8851031E+001
 40
1.0
100
AcDbArc
 50
2.7E+002
 51
3.6E+002
  0
LINE
  5
26d
100
AcDbEntity
  8
1
100
AcDbLine
  6
CONTINUOUS
 62
7
 10
1.2612069E+002
 20
6.1151031E+001
 11
1.3897069E+002
 21
6.1151031E+001
  0
LINE
  5
26e
100
AcDbEntity
  8
1
100
AcDbLine
  6
CONTINUOUS
 62
7
 10
1.2562069E+002
 20
6.5151031E+001
 11
1.4697069E+002
 21
6.5151031E+001
  0
LINE
  5
26f
100
AcDbEntity
  8
1
100
AcDbLine
  6
CONTINUOUS
 62
7
 10
9.2870694E+001
 20
5.6501031E+001
 11
1.2852069E+002
 21
5.6501031E+001
  0
LINE
  5
270
100
AcDbEntity
  8
1
100
AcDbLine
  6
CONTINUOUS
 62
7
 10
9.1870694E+001
 20
5.7501031E+001
 11
9.1870694E+001
 21
5.9779194E+001
  0
LINE
  5
271
100
AcDbEntity
  8
1
100
AcDbLine
  6
CONTINUOUS
 62
7
 10
1.4797069E+002
 20
6.2329056E+001
 11
1.4797069E+002
 21
6.4151031E+001
  0
LINE
  5
272
100
AcDbEntity
  8
1
100
AcDbLine
  6
CONTINUOUS
 62
7
 10
1.2512069E+002
 20
5.7501031E+001
 11
1.2512069E+002
 21
6.0151031E+001
  0
LINE
  5
273
100
AcDbEntity
  8
1
100
AcDbLine
  6
CONTINUOUS
 62
7
 10
1.2062069E+002
 20
6.2951031E+001
 11
1.2062069E+002
 21
6.3797257E+001
  0
ARC
  5
274
100
AcDbEntity
  8
1
100
AcDbCircle
  6
CONTINUOUS
 62
7
 10
9.2870694E+001
 20
5.7501031E+001
 40
1.0
100
AcDbArc
 50
1.8E+002
 51
2.7E+002
  0
ARC
  5
275
100
AcDbEntity
  8
1
100
AcDbCircle
  6
CONTINUOUS
 62
7
 10
1.2412069E+002
 20
5.7501031E+001
 40
1.0
100
AcDbArc
 50
2.7E+002
 51
3.6E+002
  0
ARC
  5
276
100
AcDbEntity
  8
1
100
AcDbCircle
  6
CONTINUOUS
 62
7
 10
1.2612069E+002
 20
6.0151031E+001
 40
1.0
100
AcDbArc
 50
9.0E+001
 51
1.8E+002
  0
ARC
  5
277
100
AcDbEntity
  8
1
100
AcDbCircle
  6
CONTINUOUS
 62
7
 10
1.4697069E+002
 20
6.4151031E+001
 40
1.0
100
AcDbArc
 50
0.0
 51
9.0E+001
  0
LINE
  5
278
100
AcDbEntity
  8
1
100
AcDbLine
  6
CONTINUOUS
 62
7
 10
9.5940177E+001
 20
1.1280103E+002
 11
1.3237069E+002
 21
1.1280103E+002
  0
ARC
  5
279
100
AcDbEntity
  8
1
100
AcDbCircle
  6
CONTINUOUS
 62
7
 10
2.5732325E+002
 20
5.5751031E+001
 40
7.5E-001
100
AcDbArc
 50
0.0
 51
9.0E+001
  0
LINE
  5
27a
100
AcDbEntity
  8
1
100
AcDbLine
  6
CONTINUOUS
 62
7
 10
9.4940177E+001
 20
5.6501031E+001
 11
9.4940177E+001
 21
3.1201031E+001
  0
LINE
  5
27b
100
AcDbEntity
  8
1
100
AcDbLine
  6
CONTINUOUS
 62
7
 10
1.2562069E+002
 20
7.7851031E+001
 11
1.2153354E+002
 21
7.8208611E+001
  0
ARC
  5
27c
100
AcDbEntity
  8
1
100
AcDbCircle
  6
CONTINUOUS
 62
7
 10
1.2162069E+002
 20
7.9204805E+001
 40
1.0
100
AcDbArc
 50
1.8E+002
 51
2.65E+002
  0
LINE
  5
27d
100
AcDbEntity
  8
1
100
AcDbLine
  6
CONTINUOUS
 62
7
 10
1.2562069E+002
 20
6.5151031E+001
 11
1.2153354E+002
 21
6.4793451E+001
  0
ARC
  5
27e
100
AcDbEntity
  8
1
100
AcDbCircle
  6
CONTINUOUS
 62
7
 10
1.2162069E+002
 20
6.3797257E+001
 40
1.0
100
AcDbArc
 50
9.5E+001
 51
1.8E+002
  0
ARC
  5
27f
100
AcDbEntity
  8
1
100
AcDbCircle
  6
CONTINUOUS
 62
7
 10
1.1862069E+002
 20
8.0051031E+001
 40
2.0
100
AcDbArc
 50
0.0
 51
9.0E+001
  0
ARC
  5
280
100
AcDbEntity
  8
1
100
AcDbCircle
  6
CONTINUOUS
 62
7
 10
1.1862069E+002
 20
6.2951031E+001
 40
2.0
100
AcDbArc
 50
2.7E+002
 51
3.6E+002
  0
LINE
  5
281
100
AcDbEntity
  8
1
100
AcDbLine
  6
CONTINUOUS
 62
7
 10
1.2927069E+002
 20
8.7251031E+001
 11
1.2927069E+002
 21
1.1280103E+002
  0
ARC
  5
282
100
AcDbEntity
  8
1
100
AcDbCircle
  6
CONTINUOUS
 62
7
 10
2.5732325E+002
 20
8.7251031E+001
 40
7.5E-001
100
AcDbArc
 50
2.7E+002
 51
3.6E+002
  0
LINE
  5
283
100
AcDbEntity
  8
1
100
AcDbLine
  6
CONTINUOUS
 62
7
 10
1.2927069E+002
 20
5.5751031E+001
 11
1.2927069E+002
 21
3.0201031E+001
  0
ARC
  5
284
100
AcDbEntity
  8
1
100
AcDbCircle
  6
CONTINUOUS
 62
7
 10
2.4096825E+002
 20
7.7101031E+001
 40
7.5E-001
100
AcDbArc
 50
0.0
 51
9.0E+001
  0
ARC
  5
285
100
AcDbEntity
  8
1
100
AcDbCircle
  6
CONTINUOUS
 62
7
 10
2.4096825E+002
 20
6.5901031E+001
 40
7.5E-001
100
AcDbArc
 50
2.7E+002
 51
3.6E+002
  0
ARC
  5
286
100
AcDbEntity
  8
1
100
AcDbCircle
  6
CONTINUOUS
 62
7
 10
1.2852069E+002
 20
5.5751031E+001
 40
7.5E-001
100
AcDbArc
 50
0.0
 51
9.0E+001
  0
ARC
  5
287
100
AcDbEntity
  8
1
100
AcDbCircle
  6
CONTINUOUS
 62
7
 10
1.2852069E+002
 20
8.7251031E+001
 40
7.5E-001
100
AcDbArc
 50
2.7E+002
 51
3.6E+002
  0
LINE
  5
288
100
AcDbEntity
  8
1
100
AcDbLine
  6
CONTINUOUS
 62
7
 10
1.3897069E+002
 20
8.1851031E+001
 11
1.4699291E+002
 21
8.167276E+001
  0
ARC
  5
289
100
AcDbEntity
  8
1
100
AcDbCircle
  6
CONTINUOUS
 62
7
 10
1.4697069E+002
 20
8.0673006E+001
 40
1.0
100
AcDbArc
 50
0.0
 51
8.872697E+001
  0
LINE
  5
28a
100
AcDbEntity
  8
1
100
AcDbLine
  6
CONTINUOUS
 62
7
 10
1.3897069E+002
 20
6.1151031E+001
 11
1.4699291E+002
 21
6.1329302E+001
  0
ARC
  5
28b
100
AcDbEntity
  8
1
100
AcDbCircle
  6
CONTINUOUS
 62
7
 10
1.4697069E+002
 20
6.2329056E+001
 40
1.0
100
AcDbArc
 50
2.7127303E+002
 51
3.6E+002
  0
LINE
  5
28c
100
AcDbEntity
  8
1
100
AcDbLine
  6
CONTINUOUS
 62
7
 10
9.8870694E+001
 20
8.2051031E+001
 11
9.2842135E+001
 21
8.2223276E+001
  0
LINE
  5
28d
100
AcDbEntity
  8
1
100
AcDbLine
  6
CONTINUOUS
 62
7
 10
9.8870694E+001
 20
6.0951031E+001
 11
9.2842135E+001
 21
6.0778786E+001
  0
ARC
  5
28e
100
AcDbEntity
  8
1
100
AcDbCircle
  6
CONTINUOUS
 62
7
 10
1.4567569E+002
 20
7.7101031E+001
 40
7.5E-001
100
AcDbArc
 50
9.0E+001
 51
1.8E+002
  0
ARC
  5
28f
100
AcDbEntity
  8
1
100
AcDbCircle
  6
CONTINUOUS
 62
7
 10
1.4567569E+002
 20
6.5901031E+001
 40
7.5E-001
100
AcDbArc
 50
1.8E+002
 51
2.7E+002
  0
ARC
  5
290
100
AcDbEntity
  8
1
100
AcDbCircle
  6
CONTINUOUS
 62
7
 10
1.3226569E+002
 20
6.5901031E+001
 40
7.5E-001
100
AcDbArc
 50
2.7E+002
 51
3.6E+002
  0
ARC
  5
291
100
AcDbEntity
  8
1
100
AcDbCircle
  6
CONTINUOUS
 62
7
 10
1.3226569E+002
 20
7.7101031E+001
 40
7.5E-001
100
AcDbArc
 50
0.0
 51
9.0E+001
  0
LINE
  5
292
100
AcDbEntity
  8
1
100
AcDbLine
  6
CONTINUOUS
 62
7
 10
9.8870694E+001
 20
8.2051031E+001
 11
1.1862069E+002
 21
8.2051031E+001
  0
LINE
  5
293
100
AcDbEntity
  8
1
100
AcDbLine
  6
CONTINUOUS
 62
7
 10
9.8870694E+001
 20
6.0951031E+001
 11
1.1862069E+002
 21
6.0951031E+001
  0
LINE
  5
294
100
AcDbEntity
  8
1
100
AcDbLine
  6
CONTINUOUS
 62
7
 10
1.4867069E+002
 20
8.2051031E+001
 11
1.4867069E+002
 21
6.0951031E+001
  0
ARC
  5
295
100
AcDbEntity
  8
1
100
AcDbCircle
  6
CONTINUOUS
 62
7
 10
1.4347069E+002
 20
8.1051031E+001
 40
1.0
100
AcDbArc
 50
4.3140114E+001
 51
9.0E+001
  0
ARC
  5
296
100
AcDbEntity
  8
1
100
AcDbCircle
  6
CONTINUOUS
 62
7
 10
1.4347069E+002
 20
6.1951031E+001
 40
1.0
100
AcDbArc
 50
2.7E+002
 51
3.1685989E+002
  0
ARC
  5
297
100
AcDbEntity
  8
1
100
AcDbCircle
  6
CONTINUOUS
 62
7
 10
1.3097069E+002
 20
8.3222868E+001
 40
1.0
100
AcDbArc
 50
1.8E+002
 51
2.6836342E+002
  0
ARC
  5
298
100
AcDbEntity
  8
1
100
AcDbCircle
  6
CONTINUOUS
 62
7
 10
1.3097069E+002
 20
5.9779194E+001
 40
1.0
100
AcDbArc
 50
9.1636577E+001
 51
1.8E+002
  0
LINE
  5
299
100
AcDbEntity
  8
1
100
AcDbLine
  6
CONTINUOUS
 62
7
 10
1.6422069E+002
 20
8.1851031E+001
 11
1.7707069E+002
 21
8.1851031E+001
  0
LINE
  5
29a
100
AcDbEntity
  8
1
100
AcDbLine
  6
CONTINUOUS
 62
7
 10
1.6372069E+002
 20
7.7851031E+001
 11
1.8507069E+002
 21
7.7851031E+001
  0
LINE
  5
29b
100
AcDbEntity
  8
1
100
AcDbLine
  6
CONTINUOUS
 62
7
 10
1.7111569E+002
 20
6.5901031E+001
 11
1.7111569E+002
 21
7.7101031E+001
  0
LINE
  5
29c
100
AcDbEntity
  8
1
100
AcDbLine
  6
CONTINUOUS
 62
7
 10
1.8302569E+002
 20
6.5901031E+001
 11
1.8302569E+002
 21
7.7101031E+001
  0
LINE
  5
29d
100
AcDbEntity
  8
1
100
AcDbLine
  6
CONTINUOUS
 62
7
 10
1.3097069E+002
 20
8.6501031E+001
 11
1.6662069E+002
 21
8.6501031E+001
  0
LINE
  5
29e
100
AcDbEntity
  8
1
100
AcDbLine
  6
CONTINUOUS
 62
7
 10
1.2997069E+002
 20
8.5501031E+001
 11
1.2997069E+002
 21
8.3222868E+001
  0
LINE
  5
29f
100
AcDbEntity
  8
1
100
AcDbLine
  6
CONTINUOUS
 62
7
 10
1.8607069E+002
 20
8.0673006E+001
 11
1.8607069E+002
 21
7.8851031E+001
  0
LINE
  5
2a0
100
AcDbEntity
  8
1
100
AcDbLine
  6
CONTINUOUS
 62
7
 10
1.6322069E+002
 20
8.5501031E+001
 11
1.6322069E+002
 21
8.2851031E+001
  0
LINE
  5
2a1
100
AcDbEntity
  8
1
100
AcDbLine
  6
CONTINUOUS
 62
7
 10
1.5872069E+002
 20
8.0051031E+001
 11
1.5872069E+002
 21
7.9204805E+001
  0
ARC
  5
2a2
100
AcDbEntity
  8
1
100
AcDbCircle
  6
CONTINUOUS
 62
7
 10
1.3097069E+002
 20
8.5501031E+001
 40
1.0
100
AcDbArc
 50
9.0E+001
 51
1.8E+002
  0
ARC
  5
2a3
100
AcDbEntity
  8
1
100
AcDbCircle
  6
CONTINUOUS
 62
7
 10
1.6222069E+002
 20
8.5501031E+001
 40
1.0
100
AcDbArc
 50
0.0
 51
9.0E+001
  0
ARC
  5
2a4
100
AcDbEntity
  8
1
100
AcDbCircle
  6
CONTINUOUS
 62
7
 10
1.6422069E+002
 20
8.2851031E+001
 40
1.0
100
AcDbArc
 50
1.8E+002
 51
2.7E+002
  0
ARC
  5
2a5
100
AcDbEntity
  8
1
100
AcDbCircle
  6
CONTINUOUS
 62
7
 10
1.8507069E+002
 20
7.8851031E+001
 40
1.0
100
AcDbArc
 50
2.7E+002
 51
3.6E+002
  0
LINE
  5
2a6
100
AcDbEntity
  8
1
100
AcDbLine
  6
CONTINUOUS
 62
7
 10
1.6422069E+002
 20
6.1151031E+001
 11
1.7707069E+002
 21
6.1151031E+001
  0
LINE
  5
2a7
100
AcDbEntity
  8
1
100
AcDbLine
  6
CONTINUOUS
 62
7
 10
1.6372069E+002
 20
6.5151031E+001
 11
1.8507069E+002
 21
6.5151031E+001
  0
LINE
  5
2a8
100
AcDbEntity
  8
1
100
AcDbLine
  6
CONTINUOUS
 62
7
 10
1.3097069E+002
 20
5.6501031E+001
 11
1.6662069E+002
 21
5.6501031E+001
  0
LINE
  5
2a9
100
AcDbEntity
  8
1
100
AcDbLine
  6
CONTINUOUS
 62
7
 10
1.2997069E+002
 20
5.7501031E+001
 11
1.2997069E+002
 21
5.9779194E+001
  0
LINE
  5
2aa
100
AcDbEntity
  8
1
100
AcDbLine
  6
CONTINUOUS
 62
7
 10
1.8607069E+002
 20
6.2329056E+001
 11
1.8607069E+002
 21
6.4151031E+001
  0
LINE
  5
2ab
100
AcDbEntity
  8
1
100
AcDbLine
  6
CONTINUOUS
 62
7
 10
1.6322069E+002
 20
5.7501031E+001
 11
1.6322069E+002
 21
6.0151031E+001
  0
LINE
  5
2ac
100
AcDbEntity
  8
1
100
AcDbLine
  6
CONTINUOUS
 62
7
 10
1.5872069E+002
 20
6.2951031E+001
 11
1.5872069E+002
 21
6.3797257E+001
  0
ARC
  5
2ad
100
AcDbEntity
  8
1
100
AcDbCircle
  6
CONTINUOUS
 62
7
 10
1.3097069E+002
 20
5.7501031E+001
 40
1.0
100
AcDbArc
 50
1.8E+002
 51
2.7E+002
  0
ARC
  5
2ae
100
AcDbEntity
  8
1
100
AcDbCircle
  6
CONTINUOUS
 62
7
 10
1.6222069E+002
 20
5.7501031E+001
 40
1.0
100
AcDbArc
 50
2.7E+002
 51
3.6E+002
  0
ARC
  5
2af
100
AcDbEntity
  8
1
100
AcDbCircle
  6
CONTINUOUS
 62
7
 10
1.6422069E+002
 20
6.0151031E+001
 40
1.0
100
AcDbArc
 50
9.0E+001
 51
1.8E+002
  0
ARC
  5
2b0
100
AcDbEntity
  8
1
100
AcDbCircle
  6
CONTINUOUS
 62
7
 10
1.8507069E+002
 20
6.4151031E+001
 40
1.0
100
AcDbArc
 50
0.0
 51
9.0E+001
  0
LINE
  5
2b1
100
AcDbEntity
  8
1
100
AcDbLine
  6
CONTINUOUS
 62
7
 10
1.3404018E+002
 20
1.1280103E+002
 11
1.7047069E+002
 21
1.1280103E+002
  0
LINE
  5
2b2
100
AcDbEntity
  8
1
100
AcDbLine
  6
CONTINUOUS
 62
7
 10
1.3304018E+002
 20
5.6501031E+001
 11
1.3304018E+002
 21
3.1201031E+001
  0
LINE
  5
2b3
100
AcDbEntity
  8
1
100
AcDbLine
  6
CONTINUOUS
 62
7
 10
1.6372069E+002
 20
7.7851031E+001
 11
1.5963354E+002
 21
7.8208611E+001
  0
ARC
  5
2b4
100
AcDbEntity
  8
1
100
AcDbCircle
  6
CONTINUOUS
 62
7
 10
1.5972069E+002
 20
7.9204805E+001
 40
1.0
100
AcDbArc
 50
1.8E+002
 51
2.65E+002
  0
LINE
  5
2b5
100
AcDbEntity
  8
1
100
AcDbLine
  6
CONTINUOUS
 62
7
 10
1.6372069E+002
 20
6.5151031E+001
 11
1.5963354E+002
 21
6.4793451E+001
  0
ARC
  5
2b6
100
AcDbEntity
  8
1
100
AcDbCircle
  6
CONTINUOUS
 62
7
 10
1.5972069E+002
 20
6.3797257E+001
 40
1.0
100
AcDbArc
 50
9.5E+001
 51
1.8E+002
  0
ARC
  5
2b7
100
AcDbEntity
  8
1
100
AcDbCircle
  6
CONTINUOUS
 62
7
 10
1.5672069E+002
 20
8.0051031E+001
 40
2.0
100
AcDbArc
 50
0.0
 51
9.0E+001
  0
ARC
  5
2b8
100
AcDbEntity
  8
1
100
AcDbCircle
  6
CONTINUOUS
 62
7
 10
1.5672069E+002
 20
6.2951031E+001
 40
2.0
100
AcDbArc
 50
2.7E+002
 51
3.6E+002
  0
LINE
  5
2b9
100
AcDbEntity
  8
1
100
AcDbLine
  6
CONTINUOUS
 62
7
 10
1.6737069E+002
 20
8.7251031E+001
 11
1.6737069E+002
 21
1.1280103E+002
  0
LINE
  5
2ba
100
AcDbEntity
  8
1
100
AcDbLine
  6
CONTINUOUS
 62
7
 10
1.6737069E+002
 20
5.5751031E+001
 11
1.6737069E+002
 21
3.0201031E+001
  0
ARC
  5
2bb
100
AcDbEntity
  8
1
100
AcDbCircle
  6
CONTINUOUS
 62
7
 10
1.6662069E+002
 20
5.5751031E+001
 40
7.5E-001
100
AcDbArc
 50
0.0
 51
9.0E+001
  0
ARC
  5
2bc
100
AcDbEntity
  8
1
100
AcDbCircle
  6
CONTINUOUS
 62
7
 10
1.6662069E+002
 20
8.7251031E+001
 40
7.5E-001
100
AcDbArc
 50
2.7E+002
 51
3.6E+002
  0
LINE
  5
2bd
100
AcDbEntity
  8
1
100
AcDbLine
  6
CONTINUOUS
 62
7
 10
1.7707069E+002
 20
8.1851031E+001
 11
1.8509291E+002
 21
8.167276E+001
  0
ARC
  5
2be
100
AcDbEntity
  8
1
100
AcDbCircle
  6
CONTINUOUS
 62
7
 10
1.8507069E+002
 20
8.0673006E+001
 40
1.0
100
AcDbArc
 50
0.0
 51
8.872697E+001
  0
LINE
  5
2bf
100
AcDbEntity
  8
1
100
AcDbLine
  6
CONTINUOUS
 62
7
 10
1.7707069E+002
 20
6.1151031E+001
 11
1.8509291E+002
 21
6.1329302E+001
  0
ARC
  5
2c0
100
AcDbEntity
  8
1
100
AcDbCircle
  6
CONTINUOUS
 62
7
 10
1.8507069E+002
 20
6.2329056E+001
 40
1.0
100
AcDbArc
 50
2.7127303E+002
 51
3.6E+002
  0
LINE
  5
2c1
100
AcDbEntity
  8
1
100
AcDbLine
  6
CONTINUOUS
 62
7
 10
1.3697069E+002
 20
8.2051031E+001
 11
1.3094213E+002
 21
8.2223276E+001
  0
LINE
  5
2c2
100
AcDbEntity
  8
1
100
AcDbLine
  6
CONTINUOUS
 62
7
 10
1.3697069E+002
 20
6.0951031E+001
 11
1.3094213E+002
 21
6.0778786E+001
  0
ARC
  5
2c3
100
AcDbEntity
  8
1
100
AcDbCircle
  6
CONTINUOUS
 62
7
 10
1.8377569E+002
 20
7.7101031E+001
 40
7.5E-001
100
AcDbArc
 50
9.0E+001
 51
1.8E+002
  0
ARC
  5
2c4
100
AcDbEntity
  8
1
100
AcDbCircle
  6
CONTINUOUS
 62
7
 10
1.8377569E+002
 20
6.5901031E+001
 40
7.5E-001
100
AcDbArc
 50
1.8E+002
 51
2.7E+002
  0
ARC
  5
2c5
100
AcDbEntity
  8
1
100
AcDbCircle
  6
CONTINUOUS
 62
7
 10
1.7036569E+002
 20
6.5901031E+001
 40
7.5E-001
100
AcDbArc
 50
2.7E+002
 51
3.6E+002
  0
ARC
  5
2c6
100
AcDbEntity
  8
1
100
AcDbCircle
  6
CONTINUOUS
 62
7
 10
1.7036569E+002
 20
7.7101031E+001
 40
7.5E-001
100
AcDbArc
 50
0.0
 51
9.0E+001
  0
LINE
  5
2c7
100
AcDbEntity
  8
1
100
AcDbLine
  6
CONTINUOUS
 62
7
 10
1.3697069E+002
 20
8.2051031E+001
 11
1.5672069E+002
 21
8.2051031E+001
  0
LINE
  5
2c8
100
AcDbEntity
  8
1
100
AcDbLine
  6
CONTINUOUS
 62
7
 10
1.3697069E+002
 20
6.0951031E+001
 11
1.5672069E+002
 21
6.0951031E+001
  0
ARC
  5
2c9
100
AcDbEntity
  8
1
100
AcDbCircle
  6
CONTINUOUS
 62
7
 10
1.7222069E+002
 20
8.2601031E+001
 40
7.5E-001
100
AcDbArc
 50
1.8E+002
 51
2.7E+002
  0
ARC
  5
2ca
100
AcDbEntity
  8
1
100
AcDbCircle
  6
CONTINUOUS
 62
7
 10
1.7222069E+002
 20
6.0401031E+001
 40
7.5E-001
100
AcDbArc
 50
9.0E+001
 51
1.8E+002
  0
LINE
  5
2cb
100
AcDbEntity
  8
1
100
AcDbLine
  6
CONTINUOUS
 62
7
 10
2.5807325E+002
 20
8.7251031E+001
 11
2.5807325E+002
 21
1.1525103E+002
  0
LINE
  5
2cc
100
AcDbEntity
  8
1
100
AcDbLine
  6
CONTINUOUS
 62
7
 10
2.4807325E+002
 20
8.7251031E+001
 11
2.4807325E+002
 21
1.1525103E+002
  0
LINE
  5
2cd
100
AcDbEntity
  8
1
100
AcDbLine
  6
CONTINUOUS
 62
7
 10
2.5807325E+002
 20
1.1525103E+002
 11
2.4807325E+002
 21
1.1525103E+002
  0
LINE
  5
2ce
100
AcDbEntity
  8
1
100
AcDbLine
  6
CONTINUOUS
 62
7
 10
2.4807325E+002
 20
8.7251031E+001
 11
2.5807325E+002
 21
8.7251031E+001
  0
LINE
  5
2cf
100
AcDbEntity
  8
1
100
AcDbLine
  6
CONTINUOUS
 62
7
 10
2.5807325E+002
 20
2.7751031E+001
 11
2.4807325E+002
 21
2.7751031E+001
  0
LINE
  5
2d0
100
AcDbEntity
  8
1
100
AcDbLine
  6
CONTINUOUS
 62
7
 10
2.4807325E+002
 20
5.5751031E+001
 11
2.4807325E+002
 21
2.7751031E+001
  0
LINE
  5
2d1
100
AcDbEntity
  8
1
100
AcDbLine
  6
CONTINUOUS
 62
7
 10
2.5807325E+002
 20
5.5751031E+001
 11
2.5807325E+002
 21
2.7751031E+001
  0
LINE
  5
2d2
100
AcDbEntity
  8
1
100
AcDbLine
  6
CONTINUOUS
 62
7
 10
2.4807325E+002
 20
5.5751031E+001
 11
2.5807325E+002
 21
5.5751031E+001
  0
LINE
  5
2d3
100
AcDbEntity
  8
1
100
AcDbLine
  6
CONTINUOUS
 62
7
 10
2.0
 20
2.0
 11
2.95E+002
 21
2.0
  0
LINE
  5
2d4
100
AcDbEntity
  8
1
100
AcDbLine
  6
CONTINUOUS
 62
7
 10
2.95E+002
 20
2.0
 11
2.95E+002
 21
2.08E+002
  0
LINE
  5
2d5
100
AcDbEntity
  8
1
100
AcDbLine
  6
CONTINUOUS
 62
7
 10
2.95E+002
 20
2.08E+002
 11
2.0
 21
2.08E+002
  0
LINE
  5
2d6
100
AcDbEntity
  8
1
100
AcDbLine
  6
CONTINUOUS
 62
7
 10
2.0
 20
2.08E+002
 11
2.0
 21
2.0
  0
TEXT
  5
2d7
100
AcDbEntity
  8
1
100
AcDbText
  6
CONTINUOUS
 62
7
 10
2.6192921E+002
 20
3.580985
 40
3.0
  1
DATE2020.5.1
 41
8.0E-001
 72
2
 11
2.9312921E+002
 21
3.580985
100
AcDbText
  0
LINE
  5
2d8
100
AcDbEntity
  8
1
100
AcDbLine
  6
CONTINUOUS
 62
7
 10
6.1020694E+001
 20
8.5001031E+001
 11
6.1020694E+001
 21
8.1801031E+001
  0
LINE
  5
2d9
100
AcDbEntity
  8
1
100
AcDbLine
  6
CONTINUOUS
 62
7
 10
6.5720694E+001
 20
8.5001031E+001
 11
6.5720694E+001
 21
8.6201031E+001
  0
LINE
  5
2da
100
AcDbEntity
  8
1
100
AcDbLine
  6
CONTINUOUS
 62
7
 10
6.5720694E+001
 20
5.8001031E+001
 11
6.5720694E+001
 21
8.5001031E+001
  0
LINE
  5
2db
100
AcDbEntity
  8
1
100
AcDbLine
  6
CONTINUOUS
 62
7
 10
6.1040694E+001
 20
8.5901031E+001
 11
6.1040694E+001
 21
8.5200028E+001
  0
ARC
  5
2dc
100
AcDbEntity
  8
1
100
AcDbCircle
  6
CONTINUOUS
 62
7
 10
6.0740694E+001
 20
8.5901031E+001
 40
3.0E-001
100
AcDbArc
 50
0.0
 51
9.0E+001
  0
LINE
  5
2dd
100
AcDbEntity
  8
1
100
AcDbLine
  6
CONTINUOUS
 62
7
 10
6.1040694E+001
 20
5.7101031E+001
 11
6.1040694E+001
 21
5.7802034E+001
  0
ARC
  5
2de
100
AcDbEntity
  8
1
100
AcDbCircle
  6
CONTINUOUS
 62
7
 10
6.0740694E+001
 20
5.7101031E+001
 40
3.0E-001
100
AcDbArc
 50
2.7E+002
 51
3.6E+002
  0
ARC
  5
2df
100
AcDbEntity
  8
1
100
AcDbCircle
  6
CONTINUOUS
 62
7
 10
1.7047069E+002
 20
1.1180103E+002
 40
1.0
100
AcDbArc
 50
0.0
 51
9.0E+001
  0
ARC
  5
2e0
100
AcDbEntity
  8
1
100
AcDbCircle
  6
CONTINUOUS
 62
7
 10
1.7047069E+002
 20
3.1201031E+001
 40
1.0
100
AcDbArc
 50
2.7E+002
 51
3.6E+002
  0
ARC
  5
2e1
100
AcDbEntity
  8
1
100
AcDbCircle
  6
CONTINUOUS
 62
7
 10
1.3237069E+002
 20
1.1180103E+002
 40
1.0
100
AcDbArc
 50
3.341108E+001
 51
9.0E+001
  0
ARC
  5
2e2
100
AcDbEntity
  8
1
100
AcDbCircle
  6
CONTINUOUS
 62
7
 10
9.4270694E+001
 20
1.1180103E+002
 40
1.0
100
AcDbArc
 50
3.341108E+001
 51
9.0E+001
  0
ARC
  5
2e3
100
AcDbEntity
  8
1
100
AcDbCircle
  6
CONTINUOUS
 62
7
 10
1.3237069E+002
 20
3.1201031E+001
 40
1.0
100
AcDbArc
 50
2.7E+002
 51
3.2658892E+002
  0
ARC
  5
2e4
100
AcDbEntity
  8
1
100
AcDbCircle
  6
CONTINUOUS
 62
7
 10
9.4270694E+001
 20
3.1201031E+001
 40
1.0
100
AcDbArc
 50
2.7E+002
 51
3.2658892E+002
  0
INSERT
  5
2e5
100
AcDbEntity
100
AcDbBlockReference
  2
*D2119
  8
1
 62
1
 10
0.0
 20
0.0
  0
INSERT
  5
2e6
100
AcDbEntity
100
AcDbBlockReference
  2
SINKO_CATALPG_WHITE
  8
1
 10
1.1280103E+002
 20
1.7904926E+001
  0
VIEWPORT
  5
2e7
100
AcDbEntity
 67
1
  8
0
  6
CONTINUOUS
 62
3
100
AcDbViewport
 10
1.485E+002
 20
1.05E+002
 30
0.0
 40
2.1E+002
 41
2.1E+002
 68
1
 69
1
1001
ACAD
1000
MVIEW
1002
{
1070
16
1010
0.0
1020
0.0
1030
0.0
1010
0.0
1020
0.0
1030
1.0
1040
0.0
1040
2.1E+002
1040
8.1675E+001
1040
1.05E+002
1040
5.0E+001
1040
0.0
1040
0.0
1070
0
1070
1000
1070
1
1070
0
1070
0
1070
0
1070
0
1070
0
1040
0.0
1040
0.0
1040
0.0
1040
5.0E-001
1040
5.0E-001
1040
5.0E-001
1040
5.0E-001
1070
0
1002
{
1002
}
1002
}
  0
VIEWPORT
  5
2e8
100
AcDbEntity
 67
1
  8
0
100
AcDbViewport
 62
3
 10
1.485E+002
 20
1.05E+002
 30
0.0
 40
2.97E+002
 41
2.1E+002
 68
2
 69
2
1001
ACAD
1000
MVIEW
1002
{
1070
16
1010
0.0
1020
0.0
1030
0.0
1010
0.0
1020
0.0
1030
1.0
1040
0.0
1040
2.1E+002
1040
1.485E+002
1040
1.05E+002
1040
5.0E+001
1040
0.0
1040
0.0
1070
0
1070
1000
1070
1
1070
0
1070
0
1070
0
1070
0
1070
0
1040
0.0
1040
0.0
1040
0.0
1040
5.0E-001
1040
5.0E-001
1040
5.0E-001
1040
5.0E-001
1070
0
1002
{
1002
}
1002
}
  0
ENDSEC
  0
SECTION
  2
OBJECTS
  0
DICTIONARY
  5
2e9
100
AcDbDictionary
  3
ACAD_GROUP
350
2ea
  3
ACAD_MLINESTYLE
350
2eb
  0
DICTIONARY
  5
2ea
102
{ACAD_REACTORS
330
2e9
102
}
100
AcDbDictionary
  0
DICTIONARY
  5
2eb
102
{ACAD_REACTORS
330
2e9
102
}
100
AcDbDictionary
  3
STANDARD
350
2ec
  0
MLINESTYLE
  5
2ec
102
{ACAD_REACTORS
330
2eb
102
}
100
AcDbMlineStyle
  2
STANDARD
 70
0
  3

 62
256
 51
9.0E+001
 52
9.0E+001
 71
2
 49
5.0E-001
 62
256
  6
BYLAYER
 49
-5.0E-001
 62
256
  6
BYLAYER
  0
ENDSEC
  0
EOF
