  0
SECTION
  2
HEADER
  9
$ACADVER
  1
AC1014
999
I-DEAS 13 NX Not Encoded
  9
$EXTMIN
 10
0.0
 20
0.0
  9
$EXTMAX
 10
2.97E+002
 20
2.1E+002
  9
$TEXTSIZE
 40
1.25E-001
  9
$LTSCALE
 40
1.0
  9
$CLAYER
  8
1
  9
$CECOLOR
 62
7
  9
$DIMASZ
 40
1.25E-001
  9
$DIMEXO
 40
6.25E-002
  9
$DIMDLI
 40
2.5E-001
  9
$DIMEXE
 40
1.25E-001
  9
$DIMTP
 40
5.0E-003
  9
$DIMTM
 40
-5.0E-003
  9
$DIMTXT
 40
3.0
  9
$DIMLIM
 70
0
  9
$DIMTIH
 70
1
  9
$DIMTOH
 70
1
  9
$DIMSE1
 70
0
  9
$DIMSE2
 70
0
  9
$DIMTAD
 70
0
  9
$DIMASO
 70
1
  9
$DIMALT
 70
0
  9
$DIMALTD
 70
0
  9
$DIMTOFL
 70
1
  9
$DIMTIX
 70
0
  9
$DIMSAH
 70
0
  9
$DIMSTYLE
  2
DSTYLE1
  9
$DIMTFAC
 40
1.0
  9
$DIMGAP
 40
6.25E-002
  9
$LUNITS
 70
2
  9
$LUPREC
 70
3
  9
$FILLETRAD
 40
7.0E-001
  9
$AUNITS
 70
0
  9
$AUPREC
 70
1
  9
$CHAMFERA
 40
1.0
  9
$CHAMFERB
 40
1.0
  9
$ANGBASE
 50
0.0
  9
$ANGDIR
 70
0
  9
$PEXTMIN
 10
0.0
 20
0.0
 30
0.0
  9
$PEXTMAX
 10
2.97E+002
 20
2.1E+002
 30
0.0
  9
$PLIMMIN
 10
0.0
 20
0.0
  9
$PLIMMAX
 10
2.97E+002
 20
2.1E+002
  9
$PDMODE
 70
2
  9
$PDSIZE
 40
-1.0E-002
  9
$SPLINETYPE
 70
6
  9
$TILEMODE
 70
0
  9
$HANDLING
 70
1
  9
$HANDSEED
  5
f4240
  0
ENDSEC
  0
SECTION
  2
TABLES
  0
TABLE
  2
VPORT
  5
64
100
AcDbSymbolTable
 70
2
  0
VPORT
  5
65
100
AcDbSymbolTableRecord
100
AcDbViewportTableRecord
  2
*Active
 70
0
 10
0.0
 20
0.0
 11
2.97E+002
 21
2.1E+002
 12
1.485E+002
 22
1.05E+002
 13
0.0
 23
0.0
 14
1.0
 24
1.0
 15
0.0
 25
0.0
 16
0.0
 26
0.0
 36
1.0
 17
0.0
 27
0.0
 37
0.0
 40
2.1E+002
 41
1.4142857
 42
5.0E+001
 43
0.0
 44
0.0
 50
0.0
 51
0.0
 71
0
 72
1000
 73
1
 74
3
 75
0
 76
0
 77
0
 78
0
  0
ENDTAB
  0
TABLE
  2
LTYPE
  5
66
100
AcDbSymbolTable
 70
7
  0
LTYPE
  5
67
100
AcDbSymbolTableRecord
100
AcDbLinetypeTableRecord
  2
BYBLOCK
 70
0
  3

 72
65
 73
0
 40
0.0
  0
LTYPE
  5
68
100
AcDbSymbolTableRecord
100
AcDbLinetypeTableRecord
  2
BYLAYER
 70
0
  3

 72
65
 73
0
 40
0.0
  0
LTYPE
  5
69
100
AcDbSymbolTableRecord
100
AcDbLinetypeTableRecord
  2
CONTINUOUS
 70
0
  3

 72
65
 73
0
 40
0.0
  0
LTYPE
  5
6a
100
AcDbSymbolTableRecord
100
AcDbLinetypeTableRecord
  2
HIDDENNEW0
  3
_ 
 70
64
 72
65
 73
3
 40
4.5
 49
1.5
 74
0
 49
-1.5
 74
0
 49
1.5
 74
0
  0
LTYPE
  5
6b
100
AcDbSymbolTableRecord
100
AcDbLinetypeTableRecord
  2
HIDDENNEW1
  3
_ 
 70
64
 72
65
 73
3
 40
4.5
 49
1.5
 74
0
 49
-1.5
 74
0
 49
1.5
 74
0
  0
LTYPE
  5
6c
100
AcDbSymbolTableRecord
100
AcDbLinetypeTableRecord
  2
HIDDEN
  3
_ 
 70
64
 72
65
 73
3
 40
4.5
 49
1.5
 74
0
 49
-1.5
 74
0
 49
1.5
 74
0
  0
LTYPE
  5
6d
100
AcDbSymbolTableRecord
100
AcDbLinetypeTableRecord
  2
CENTERLINE
  3
_ 
 70
64
 72
65
 73
5
 40
3.0E+001
 49
1.2E+001
 74
0
 49
-1.5
 74
0
 49
3.0
 74
0
 49
-1.5
 74
0
 49
1.2E+001
 74
0
  0
LTYPE
  5
6e
100
AcDbSymbolTableRecord
100
AcDbLinetypeTableRecord
  2
PHANTOM
  3
_ 
 70
64
 72
65
 73
7
 40
2.95E+001
 49
9.5
 74
0
 49
-1.5
 74
0
 49
3.0
 74
0
 49
-1.5
 74
0
 49
3.0
 74
0
 49
-1.5
 74
0
 49
9.5
 74
0
  0
LTYPE
  5
6f
100
AcDbSymbolTableRecord
100
AcDbLinetypeTableRecord
  2
SHORT_DASH
  3
_ 
 70
64
 72
65
 73
3
 40
3.0
 49
7.5E-001
 74
0
 49
-1.5
 74
0
 49
7.5E-001
 74
0
  0
LTYPE
  5
70
100
AcDbSymbolTableRecord
100
AcDbLinetypeTableRecord
  2
LONG_DASH
  3
_ 
 70
64
 72
65
 73
3
 40
9.0
 49
2.25
 74
0
 49
-4.5
 74
0
 49
2.25
 74
0
  0
ENDTAB
  0
TABLE
  2
LAYER
  5
71
100
AcDbSymbolTable
 70
258
  0
LAYER
  5
72
100
AcDbSymbolTableRecord
100
AcDbLayerTableRecord
  2
0
 70
0
 62
7
  6
CONTINUOUS
  0
LAYER
  5
73
100
AcDbSymbolTableRecord
100
AcDbLayerTableRecord
  2
1
 70
0
 62
7
  6
CONTINUOUS
  0
LAYER
  5
74
100
AcDbSymbolTableRecord
100
AcDbLayerTableRecord
  2
AM_VIEWS
 70
0
 62
3
  6
CONTINUOUS
  0
LAYER
  5
75
100
AcDbSymbolTableRecord
100
AcDbLayerTableRecord
  2
Drafting_Hidden_Entities
 70
1
 62
7
  6
CONTINUOUS
  0
ENDTAB
  0
TABLE
  2
STYLE
  5
76
100
AcDbSymbolTable
 70
1
  0
STYLE
  5
77
100
AcDbSymbolTableRecord
100
AcDbTextStyleTableRecord
  2
STANDARD
 70
64
 40
0.0
 41
1.0
 50
0.0
 71
0
 42
1.0
  3
monotxt.shx
  4
bigfont.shx
  0
ENDTAB
  0
TABLE
  2
VIEW
  5
78
100
AcDbSymbolTable
 70
0
  0
ENDTAB
  0
TABLE
  2
UCS
  5
79
100
AcDbSymbolTable
 70
0
  0
ENDTAB
  0
TABLE
  2
APPID
  5
7a
100
AcDbSymbolTable
 70
1
  0
APPID
  5
7b
100
AcDbSymbolTableRecord
100
AcDbRegAppTableRecord
  2
ACAD
 70
1
  0
ENDTAB
  0
TABLE
  2
DIMSTYLE
  5
7c
100
AcDbSymbolTable
 70
7
  0
DIMSTYLE
105
7d
100
AcDbSymbolTableRecord
100
AcDbDimStyleTableRecord
  2
DSTYLE1
 70
0
  3

  4

  5

  6

  7

 40
1.0
 41
1.5
 42
5.0E-001
 43
3.8E-001
 44
5.0E-001
 45
1.0E-002
 46
0.0
 47
1.0
 48
1.0
 71
0
 72
0
 73
0
 74
0
 75
0
 76
0
 77
1
 78
11
140
3.0
141
9.0E-002
142
0.0
143
3.9370079E-002
144
1.0
145
0.0
146
1.0
147
5.0E-001
170
0
171
2
172
0
173
0
174
0
175
0
176
0
177
0
178
0
270
2
271
2
272
4
273
2
274
2
275
0
280
0
281
0
282
0
283
1
284
0
285
0
286
0
287
3
288
0
  0
DIMSTYLE
105
7e
100
AcDbSymbolTableRecord
100
AcDbDimStyleTableRecord
  2
DSTYLE2
 70
0
  3

  4

  5

  6

  7

 40
1.0
 41
1.5
 42
5.0E-001
 43
3.8E-001
 44
5.0E-001
 45
1.0E-003
 46
0.0
 47
1.0
 48
1.0
 71
0
 72
0
 73
0
 74
0
 75
0
 76
1
 77
1
 78
11
140
3.0
141
9.0E-002
142
0.0
143
3.9370079E-002
144
1.0
145
0.0
146
1.0
147
5.0E-001
170
0
171
2
172
0
173
0
174
0
175
0
176
0
177
0
178
0
270
2
271
3
272
4
273
2
274
2
275
0
280
0
281
0
282
0
283
1
284
0
285
0
286
0
287
3
288
0
  0
DIMSTYLE
105
7f
100
AcDbSymbolTableRecord
100
AcDbDimStyleTableRecord
  2
DSTYLE3
 70
0
  3

  4

  5

  6

  7

 40
1.0
 41
1.5
 42
5.0E-001
 43
3.8E-001
 44
5.0E-001
 45
1.0E-003
 46
0.0
 47
1.0
 48
1.0
 71
0
 72
0
 73
0
 74
0
 75
0
 76
0
 77
1
 78
11
140
3.0
141
9.0E-002
142
0.0
143
3.9370079E-002
144
1.0
145
0.0
146
1.0
147
5.0E-001
170
0
171
2
172
0
173
0
174
0
175
0
176
0
177
0
178
0
270
2
271
3
272
4
273
2
274
2
275
0
280
0
281
0
282
0
283
1
284
0
285
0
286
0
287
3
288
0
  0
DIMSTYLE
105
80
100
AcDbSymbolTableRecord
100
AcDbDimStyleTableRecord
  2
DSTYLE4
 70
0
  3

  4

  5

  6

  7

 40
1.0
 41
1.5
 42
5.0E-001
 43
3.8E-001
 44
5.0E-001
 45
1.0E-002
 46
0.0
 47
1.0
 48
1.0
 71
0
 72
0
 73
0
 74
0
 75
0
 76
1
 77
1
 78
11
140
3.0
141
9.0E-002
142
0.0
143
3.9370079E-002
144
1.0
145
0.0
146
1.0
147
5.0E-001
170
0
171
2
172
0
173
0
174
0
175
0
176
0
177
0
178
0
270
2
271
2
272
4
273
2
274
2
275
0
280
0
281
0
282
0
283
1
284
0
285
0
286
0
287
3
288
0
  0
DIMSTYLE
105
81
100
AcDbSymbolTableRecord
100
AcDbDimStyleTableRecord
  2
DSTYLE5
 70
0
  3

  4

  5

  6

  7

 40
1.0
 41
1.5
 42
5.0E-001
 43
3.8E-001
 44
5.0E-001
 45
1.0E-002
 46
0.0
 47
1.0
 48
1.0
 71
0
 72
0
 73
0
 74
0
 75
1
 76
0
 77
1
 78
11
140
3.0
141
9.0E-002
142
0.0
143
3.9370079E-002
144
1.0
145
0.0
146
1.0
147
5.0E-001
170
0
171
2
172
0
173
0
174
0
175
0
176
0
177
0
178
0
270
2
271
2
272
4
273
2
274
2
275
0
280
0
281
0
282
0
283
1
284
0
285
0
286
0
287
3
288
0
  0
DIMSTYLE
105
82
100
AcDbSymbolTableRecord
100
AcDbDimStyleTableRecord
  2
DSTYLE6
 70
0
  3

  4

  5

  6

  7

 40
1.0
 41
1.5
 42
5.0E-001
 43
3.8E-001
 44
5.0E-001
 45
1.0E-001
 46
0.0
 47
1.0
 48
1.0
 71
0
 72
0
 73
0
 74
0
 75
1
 76
1
 77
1
 78
11
140
3.0
141
9.0E-002
142
0.0
143
3.9370079E-002
144
1.0
145
0.0
146
1.0
147
5.0E-001
170
0
171
2
172
0
173
0
174
0
175
0
176
0
177
0
178
0
270
2
271
1
272
4
273
2
274
2
275
0
280
0
281
0
282
0
283
1
284
0
285
0
286
0
287
3
288
0
  0
DIMSTYLE
105
83
100
AcDbSymbolTableRecord
100
AcDbDimStyleTableRecord
  2
DSTYLE7
 70
0
  3

  4

  5

  6

  7

 40
1.0
 41
2.0
 42
0.0
 43
3.8E-001
 44
5.0
 45
0.0
 46
0.0
 47
0.0
 48
0.0
 71
0
 72
0
 73
1
 74
1
 75
1
 76
0
 77
1
 78
3
140
3.0
141
9.0E-002
142
0.0
143
1.0
144
1.0
145
0.0
146
1.0
147
5.0E-001
170
0
171
2
172
0
173
0
174
0
175
0
176
0
177
0
178
0
270
2
271
0
272
4
273
2
274
2
275
0
280
0
281
0
282
0
283
1
284
0
285
0
286
0
287
3
288
0
  0
ENDTAB
  0
TABLE
  2
BLOCK_RECORD
  5
84
100
AcDbSymbolTable
 70
0
  0
BLOCK_RECORD
  5
85
100
AcDbSymbolTableRecord
100
AcDbBlockTableRecord
  2
*MODEL_SPACE
  0
BLOCK_RECORD
  5
86
100
AcDbSymbolTableRecord
100
AcDbBlockTableRecord
  2
*PAPER_SPACE
  0
BLOCK_RECORD
  5
87
100
AcDbSymbolTableRecord
100
AcDbBlockTableRecord
  2
*D1024
  0
BLOCK_RECORD
  5
88
100
AcDbSymbolTableRecord
100
AcDbBlockTableRecord
  2
*D1026
  0
BLOCK_RECORD
  5
89
100
AcDbSymbolTableRecord
100
AcDbBlockTableRecord
  2
*D1028
  0
BLOCK_RECORD
  5
8a
100
AcDbSymbolTableRecord
100
AcDbBlockTableRecord
  2
*D1029
  0
BLOCK_RECORD
  5
8b
100
AcDbSymbolTableRecord
100
AcDbBlockTableRecord
  2
*D1030
  0
BLOCK_RECORD
  5
8c
100
AcDbSymbolTableRecord
100
AcDbBlockTableRecord
  2
*D1031
  0
BLOCK_RECORD
  5
8d
100
AcDbSymbolTableRecord
100
AcDbBlockTableRecord
  2
*D1032
  0
BLOCK_RECORD
  5
8e
100
AcDbSymbolTableRecord
100
AcDbBlockTableRecord
  2
*D1033
  0
BLOCK_RECORD
  5
8f
100
AcDbSymbolTableRecord
100
AcDbBlockTableRecord
  2
*D1034
  0
BLOCK_RECORD
  5
90
100
AcDbSymbolTableRecord
100
AcDbBlockTableRecord
  2
*D1035
  0
BLOCK_RECORD
  5
91
100
AcDbSymbolTableRecord
100
AcDbBlockTableRecord
  2
*D1038
  0
BLOCK_RECORD
  5
92
100
AcDbSymbolTableRecord
100
AcDbBlockTableRecord
  2
*D1039
  0
BLOCK_RECORD
  5
93
100
AcDbSymbolTableRecord
100
AcDbBlockTableRecord
  2
*D1041
  0
BLOCK_RECORD
  5
94
100
AcDbSymbolTableRecord
100
AcDbBlockTableRecord
  2
*D1068
  0
BLOCK_RECORD
  5
95
100
AcDbSymbolTableRecord
100
AcDbBlockTableRecord
  2
_AH1
  0
BLOCK_RECORD
  5
96
100
AcDbSymbolTableRecord
100
AcDbBlockTableRecord
  2
_AH2
  0
BLOCK_RECORD
  5
97
100
AcDbSymbolTableRecord
100
AcDbBlockTableRecord
  2
_AH12
  3
_AH
  0
BLOCK_RECORD
  5
98
100
AcDbSymbolTableRecord
100
AcDbBlockTableRecord
  2
_AH13
  3
_AH
  0
BLOCK_RECORD
  5
99
100
AcDbSymbolTableRecord
100
AcDbBlockTableRecord
  2
_AH14
  3
_AH
  0
BLOCK_RECORD
  5
9a
100
AcDbSymbolTableRecord
100
AcDbBlockTableRecord
  2
_AH15
  3
_AH
  0
BLOCK_RECORD
  5
9b
100
AcDbSymbolTableRecord
100
AcDbBlockTableRecord
  2
_AH16
  3
_AH
  0
BLOCK_RECORD
  5
9c
100
AcDbSymbolTableRecord
100
AcDbBlockTableRecord
  2
_AH17
  3
_AH
  0
BLOCK_RECORD
  5
9d
100
AcDbSymbolTableRecord
100
AcDbBlockTableRecord
  2
_AH18
  3
_AH
  0
BLOCK_RECORD
  5
9e
100
AcDbSymbolTableRecord
100
AcDbBlockTableRecord
  2
_AH19
  3
_AH
  0
BLOCK_RECORD
  5
9f
100
AcDbSymbolTableRecord
100
AcDbBlockTableRecord
  2
_AH20
  3
_AH
  0
BLOCK_RECORD
  5
a0
100
AcDbSymbolTableRecord
100
AcDbBlockTableRecord
  2
_AH21
  3
_AH
  0
BLOCK_RECORD
  5
a1
100
AcDbSymbolTableRecord
100
AcDbBlockTableRecord
  2
*XH23
  3
*XH
  0
BLOCK_RECORD
  5
a2
100
AcDbSymbolTableRecord
100
AcDbBlockTableRecord
  2
*XH27
  3
*XH
  0
BLOCK_RECORD
  5
a3
100
AcDbSymbolTableRecord
100
AcDbBlockTableRecord
  2
SINKO_CATALPG_WHITE
  0
BLOCK_RECORD
  5
a4
100
AcDbSymbolTableRecord
100
AcDbBlockTableRecord
  2
*XH138
  3
*XH
  0
BLOCK_RECORD
  5
a5
100
AcDbSymbolTableRecord
100
AcDbBlockTableRecord
  2
*XH139
  3
*XH
  0
BLOCK_RECORD
  5
a6
100
AcDbSymbolTableRecord
100
AcDbBlockTableRecord
  2
*XH140
  3
*XH
  0
BLOCK_RECORD
  5
a7
100
AcDbSymbolTableRecord
100
AcDbBlockTableRecord
  2
*XH142
  3
*XH
  0
BLOCK_RECORD
  5
a8
100
AcDbSymbolTableRecord
100
AcDbBlockTableRecord
  2
*XH143
  3
*XH
  0
BLOCK_RECORD
  5
a9
100
AcDbSymbolTableRecord
100
AcDbBlockTableRecord
  2
*XH144
  3
*XH
  0
ENDTAB
  0
ENDSEC
  0
SECTION
  2
BLOCKS
  0
BLOCK
  5
aa
100
AcDbEntity
100
AcDbBlockBegin
  2
*MODEL_SPACE
 70
0
 10
0.0
 20
0.0
 30
0.0
  3
*MODEL_SPACE
  1

  0
ENDBLK
  5
ab
100
AcDbEntity
100
AcDbBlockEnd
  0
BLOCK
  5
ac
100
AcDbEntity
100
AcDbBlockBegin
  2
*PAPER_SPACE
 70
0
 10
0.0
 20
0.0
 30
0.0
  3
*PAPER_SPACE
  1

  0
ENDBLK
  5
ad
100
AcDbEntity
100
AcDbBlockEnd
  0
BLOCK
  5
ae
100
AcDbEntity
100
AcDbBlockBegin
  2
_AH12
  3
_AH
 10
0.0
 20
0.0
 70
64
  0
LINE
  5
af
100
AcDbEntity
  8
0
100
AcDbLine
  6
CONTINUOUS
 62
0
 10
0.0
 20
0.0
 11
1.0
 21
0.0
  0
LINE
  5
b0
100
AcDbEntity
  8
0
100
AcDbLine
  6
CONTINUOUS
 62
0
 10
0.0
 20
0.0
 11
-1.0
 21
0.0
  0
ENDBLK
  5
b1
100
AcDbEntity
100
AcDbBlockEnd
  0
BLOCK
  5
b2
100
AcDbEntity
100
AcDbBlockBegin
  2
_AH13
  3
_AH
 10
0.0
 20
0.0
 70
64
  0
SOLID
  5
b3
100
AcDbEntity
  8
0
100
AcDbTrace
  6
CONTINUOUS
 62
0
 10
0.0
 20
0.0
 11
1.0
 21
-1.66667E-001
 12
1.0
 22
1.66667E-001
 13
0.0
 23
0.0
  0
ENDBLK
  5
b4
100
AcDbEntity
100
AcDbBlockEnd
  0
BLOCK
  5
b5
100
AcDbEntity
100
AcDbBlockBegin
  2
_AH14
  3
_AH
 10
0.0
 20
0.0
 70
64
  0
ENDBLK
  5
b6
100
AcDbEntity
100
AcDbBlockEnd
  0
BLOCK
  5
b7
100
AcDbEntity
100
AcDbBlockBegin
  2
_AH15
  3
_AH
 10
0.0
 20
0.0
 70
64
  0
CIRCLE
  5
b8
100
AcDbEntity
  8
0
100
AcDbCircle
  6
CONTINUOUS
 62
0
 10
0.0
 20
0.0
 40
1.66667E-001
  0
LINE
  5
b9
100
AcDbEntity
  8
0
100
AcDbLine
  6
CONTINUOUS
 62
0
 10
0.0
 20
0.0
 11
-1.0
 21
0.0
  0
ENDBLK
  5
ba
100
AcDbEntity
100
AcDbBlockEnd
  0
BLOCK
  5
bb
100
AcDbEntity
100
AcDbBlockBegin
  2
_AH16
  3
_AH
 10
0.0
 20
0.0
 70
64
  0
POLYLINE
  5
bc
100
AcDbEntity
  8
0
100
AcDb2dPolyline
  6
CONTINUOUS
 62
0
 66
1
 40
1.66667E-001
 41
1.66667E-001
 70
0
  0
VERTEX
  5
bd
100
AcDbEntity
  8
0
100
AcDbVertex
100
AcDb2dVertex
 42
1.0
 10
8.3335E-002
 20
0.0
 70
0
  0
VERTEX
  5
be
100
AcDbEntity
  8
0
100
AcDbVertex
100
AcDb2dVertex
 42
1.0
 10
-8.3335E-002
 20
0.0
 70
0
  0
VERTEX
  5
bf
100
AcDbEntity
  8
0
100
AcDbVertex
100
AcDb2dVertex
 42
0.0
 10
8.3335E-002
 20
0.0
 70
0
  0
SEQEND
  5
c0
100
AcDbEntity
  0
LINE
  5
c1
100
AcDbEntity
  8
0
100
AcDbLine
  6
CONTINUOUS
 62
0
 10
0.0
 20
0.0
 11
-1.0
 21
0.0
  0
ENDBLK
  5
c2
100
AcDbEntity
100
AcDbBlockEnd
  0
BLOCK
  5
c3
100
AcDbEntity
100
AcDbBlockBegin
  2
_AH17
  3
_AH
 10
0.0
 20
0.0
 70
64
  0
LINE
  5
c4
100
AcDbEntity
  8
0
100
AcDbLine
  6
CONTINUOUS
 62
0
 10
-1.66667E-001
 20
-1.66667E-001
 11
1.66667E-001
 21
-1.66667E-001
  0
LINE
  5
c5
100
AcDbEntity
  8
0
100
AcDbLine
  6
CONTINUOUS
 62
0
 10
1.66667E-001
 20
-1.66667E-001
 11
1.66667E-001
 21
1.66667E-001
  0
LINE
  5
c6
100
AcDbEntity
  8
0
100
AcDbLine
  6
CONTINUOUS
 62
0
 10
1.66667E-001
 20
1.66667E-001
 11
-1.66667E-001
 21
1.66667E-001
  0
LINE
  5
c7
100
AcDbEntity
  8
0
100
AcDbLine
  6
CONTINUOUS
 62
0
 10
-1.66667E-001
 20
1.66667E-001
 11
-1.66667E-001
 21
-1.66667E-001
  0
LINE
  5
c8
100
AcDbEntity
  8
0
100
AcDbLine
  6
CONTINUOUS
 62
0
 10
0.0
 20
0.0
 11
-1.0
 21
0.0
  0
ENDBLK
  5
c9
100
AcDbEntity
100
AcDbBlockEnd
  0
BLOCK
  5
ca
100
AcDbEntity
100
AcDbBlockBegin
  2
_AH18
  3
_AH
 10
0.0
 20
0.0
 70
64
  0
SOLID
  5
cb
100
AcDbEntity
  8
0
100
AcDbTrace
  6
CONTINUOUS
 62
0
 10
-1.66667E-001
 20
-1.66667E-001
 11
1.66667E-001
 21
-1.66667E-001
 12
-1.66667E-001
 22
1.66667E-001
 13
1.66667E-001
 23
1.66667E-001
  0
LINE
  5
cc
100
AcDbEntity
  8
0
100
AcDbLine
  6
CONTINUOUS
 62
0
 10
0.0
 20
0.0
 11
-1.0
 21
0.0
  0
ENDBLK
  5
cd
100
AcDbEntity
100
AcDbBlockEnd
  0
BLOCK
  5
ce
100
AcDbEntity
100
AcDbBlockBegin
  2
_AH19
  3
_AH
 10
0.0
 20
0.0
 70
64
  0
LINE
  5
cf
100
AcDbEntity
  8
0
100
AcDbLine
  6
CONTINUOUS
 62
0
 10
-5.0E-001
 20
-5.0E-001
 11
5.0E-001
 21
5.0E-001
  0
LINE
  5
d0
100
AcDbEntity
  8
0
100
AcDbLine
  6
CONTINUOUS
 62
0
 10
0.0
 20
0.0
 11
-1.0
 21
0.0
  0
ENDBLK
  5
d1
100
AcDbEntity
100
AcDbBlockEnd
  0
BLOCK
  5
d2
100
AcDbEntity
100
AcDbBlockBegin
  2
_AH20
  3
_AH
 10
0.0
 20
0.0
 70
64
  0
POLYLINE
  5
d3
100
AcDbEntity
  8
0
100
AcDb2dPolyline
  6
CONTINUOUS
 62
0
 66
1
 40
5.0E-001
 41
5.0E-001
 70
0
  0
VERTEX
  5
d4
100
AcDbEntity
  8
0
100
AcDbVertex
100
AcDb2dVertex
 42
4.1421356E-001
 10
-1.66667E-001
 20
-1.66667E-001
 70
0
  0
VERTEX
  5
d5
100
AcDbEntity
  8
0
100
AcDbVertex
100
AcDb2dVertex
 42
0.0
 10
0.0
 20
0.0
 70
0
  0
SEQEND
  5
d6
100
AcDbEntity
  0
POLYLINE
  5
d7
100
AcDbEntity
  8
0
100
AcDb2dPolyline
  6
CONTINUOUS
 62
0
 66
1
 40
5.0E-001
 41
5.0E-001
 70
0
  0
VERTEX
  5
d8
100
AcDbEntity
  8
0
100
AcDbVertex
100
AcDb2dVertex
 42
4.1421356E-001
 10
1.66667E-001
 20
1.66667E-001
 70
0
  0
VERTEX
  5
d9
100
AcDbEntity
  8
0
100
AcDbVertex
100
AcDb2dVertex
 42
0.0
 10
0.0
 20
0.0
 70
0
  0
SEQEND
  5
da
100
AcDbEntity
  0
LINE
  5
db
100
AcDbEntity
  8
0
100
AcDbLine
  6
CONTINUOUS
 62
0
 10
0.0
 20
0.0
 11
-1.0
 21
0.0
  0
ENDBLK
  5
dc
100
AcDbEntity
100
AcDbBlockEnd
  0
BLOCK
  5
dd
100
AcDbEntity
100
AcDbBlockBegin
  2
_AH21
  3
_AH
 10
0.0
 20
0.0
 70
64
  0
LINE
  5
de
100
AcDbEntity
  8
0
100
AcDbLine
  6
CONTINUOUS
 62
0
 10
0.0
 20
0.0
 11
-1.0
 21
-1.66667E-001
  0
LINE
  5
df
100
AcDbEntity
  8
0
100
AcDbLine
  6
CONTINUOUS
 62
0
 10
-1.0
 20
-1.66667E-001
 11
-1.0
 21
1.66667E-001
  0
LINE
  5
e0
100
AcDbEntity
  8
0
100
AcDbLine
  6
CONTINUOUS
 62
0
 10
-1.0
 20
1.66667E-001
 11
0.0
 21
0.0
  0
ENDBLK
  5
e1
100
AcDbEntity
100
AcDbBlockEnd
  0
BLOCK
  5
e2
100
AcDbEntity
100
AcDbBlockBegin
  2
*XH23
  3
*XH
 10
0.0
 20
0.0
 70
65
  0
LINE
  5
e3
100
AcDbEntity
  8
1
100
AcDbLine
  6
CONTINUOUS
 62
7
 10
-5.3033009E-001
 20
-5.3033009E-001
 11
5.3033009E-001
 21
5.3033009E-001
  0
LINE
  5
e4
100
AcDbEntity
  8
1
100
AcDbLine
  6
CONTINUOUS
 62
7
 10
-2.6516504
 20
-5.3033009E-001
 11
5.3033009E-001
 21
2.6516504
  0
LINE
  5
e5
100
AcDbEntity
  8
1
100
AcDbLine
  6
CONTINUOUS
 62
7
 10
-4.7729708
 20
-5.3033009E-001
 11
5.3033009E-001
 21
4.7729708
  0
LINE
  5
e6
100
AcDbEntity
  8
1
100
AcDbLine
  6
CONTINUOUS
 62
7
 10
-6.8942911
 20
-5.3033009E-001
 11
5.3033009E-001
 21
6.8942911
  0
LINE
  5
e7
100
AcDbEntity
  8
1
100
AcDbLine
  6
CONTINUOUS
 62
7
 10
-8.9696699
 20
-4.8438854E-001
 11
5.3033009E-001
 21
9.0156115
  0
LINE
  5
e8
100
AcDbEntity
  8
1
100
AcDbLine
  6
CONTINUOUS
 62
7
 10
-8.9696699
 20
1.6369318
 11
5.3033009E-001
 21
1.1136932E+001
  0
LINE
  5
e9
100
AcDbEntity
  8
1
100
AcDbLine
  6
CONTINUOUS
 62
7
 10
-8.9696699
 20
3.7582521
 11
5.3033009E-001
 21
1.3258252E+001
  0
LINE
  5
ea
100
AcDbEntity
  8
1
100
AcDbLine
  6
CONTINUOUS
 62
7
 10
-8.9696699
 20
5.8795725
 11
5.3033009E-001
 21
1.5379572E+001
  0
LINE
  5
eb
100
AcDbEntity
  8
1
100
AcDbLine
  6
CONTINUOUS
 62
7
 10
-8.9696699
 20
8.0008928
 11
4.9910717E-001
 21
1.746967E+001
  0
LINE
  5
ec
100
AcDbEntity
  8
1
100
AcDbLine
  6
CONTINUOUS
 62
7
 10
-8.9696699
 20
1.0122213E+001
 11
-1.6222132
 21
1.746967E+001
  0
LINE
  5
ed
100
AcDbEntity
  8
1
100
AcDbLine
  6
CONTINUOUS
 62
7
 10
-8.9696699
 20
1.2243534E+001
 11
-3.7435335
 21
1.746967E+001
  0
LINE
  5
ee
100
AcDbEntity
  8
1
100
AcDbLine
  6
CONTINUOUS
 62
7
 10
-8.9696699
 20
1.4364854E+001
 11
-5.8648539
 21
1.746967E+001
  0
LINE
  5
ef
100
AcDbEntity
  8
1
100
AcDbLine
  6
CONTINUOUS
 62
7
 10
-8.9696699
 20
1.6486174E+001
 11
-7.9861742
 21
1.746967E+001
  0
ENDBLK
  5
f0
100
AcDbEntity
100
AcDbBlockEnd
  0
BLOCK
  5
f1
100
AcDbEntity
100
AcDbBlockBegin
  2
*XH27
  3
*XH
 10
0.0
 20
0.0
 70
65
  0
LINE
  5
f2
100
AcDbEntity
  8
1
100
AcDbLine
  6
CONTINUOUS
 62
7
 10
-5.3033009E-001
 20
-5.3033009E-001
 11
5.3033009E-001
 21
5.3033009E-001
  0
LINE
  5
f3
100
AcDbEntity
  8
1
100
AcDbLine
  6
CONTINUOUS
 62
7
 10
-2.6516504
 20
-5.3033009E-001
 11
5.3033009E-001
 21
2.6516504
  0
LINE
  5
f4
100
AcDbEntity
  8
1
100
AcDbLine
  6
CONTINUOUS
 62
7
 10
-4.7729708
 20
-5.3033009E-001
 11
5.3033009E-001
 21
4.7729708
  0
LINE
  5
f5
100
AcDbEntity
  8
1
100
AcDbLine
  6
CONTINUOUS
 62
7
 10
-6.8942911
 20
-5.3033009E-001
 11
5.3033009E-001
 21
6.8942911
  0
LINE
  5
f6
100
AcDbEntity
  8
1
100
AcDbLine
  6
CONTINUOUS
 62
7
 10
-8.9696699
 20
-4.8438854E-001
 11
5.3033009E-001
 21
9.0156115
  0
LINE
  5
f7
100
AcDbEntity
  8
1
100
AcDbLine
  6
CONTINUOUS
 62
7
 10
-8.9696699
 20
1.6369318
 11
5.3033009E-001
 21
1.1136932E+001
  0
LINE
  5
f8
100
AcDbEntity
  8
1
100
AcDbLine
  6
CONTINUOUS
 62
7
 10
-8.9696699
 20
3.7582521
 11
5.3033009E-001
 21
1.3258252E+001
  0
LINE
  5
f9
100
AcDbEntity
  8
1
100
AcDbLine
  6
CONTINUOUS
 62
7
 10
-8.9696699
 20
5.8795725
 11
5.3033009E-001
 21
1.5379572E+001
  0
LINE
  5
fa
100
AcDbEntity
  8
1
100
AcDbLine
  6
CONTINUOUS
 62
7
 10
-8.9696699
 20
8.0008928
 11
4.9910717E-001
 21
1.746967E+001
  0
LINE
  5
fb
100
AcDbEntity
  8
1
100
AcDbLine
  6
CONTINUOUS
 62
7
 10
-8.9696699
 20
1.0122213E+001
 11
-1.6222132
 21
1.746967E+001
  0
LINE
  5
fc
100
AcDbEntity
  8
1
100
AcDbLine
  6
CONTINUOUS
 62
7
 10
-8.9696699
 20
1.2243534E+001
 11
-3.7435335
 21
1.746967E+001
  0
LINE
  5
fd
100
AcDbEntity
  8
1
100
AcDbLine
  6
CONTINUOUS
 62
7
 10
-8.9696699
 20
1.4364854E+001
 11
-5.8648539
 21
1.746967E+001
  0
LINE
  5
fe
100
AcDbEntity
  8
1
100
AcDbLine
  6
CONTINUOUS
 62
7
 10
-8.9696699
 20
1.6486174E+001
 11
-7.9861742
 21
1.746967E+001
  0
ENDBLK
  5
ff
100
AcDbEntity
100
AcDbBlockEnd
  0
BLOCK
  5
100
100
AcDbEntity
100
AcDbBlockBegin
  2
SINKO_CATALPG_WHITE
 10
0.0
 20
0.0
 70
0
  0
LINE
  5
101
100
AcDbEntity
  8
1
100
AcDbLine
  6
CONTINUOUS
 62
7
 10
7.68
 20
0.0
 11
-1.2997855E+001
 21
0.0
  0
LINE
  5
102
100
AcDbEntity
  8
1
100
AcDbLine
  6
CONTINUOUS
 62
7
 10
-1.2997855E+001
 20
0.0
 11
-7.3446902
 21
1.3095677
  0
LINE
  5
103
100
AcDbEntity
  8
1
100
AcDbLine
  6
CONTINUOUS
 62
7
 10
-7.3446902
 20
1.3095677
 11
-7.3446902
 21
0.0
  0
TEXT
  5
104
100
AcDbEntity
  8
1
100
AcDbText
  6
CONTINUOUS
 62
7
 10
1.1325736E+001
 20
-2.115744E-001
 40
2.4
  1
進行方向
 41
1.3333333
100
AcDbText
  0
LINE
  5
105
100
AcDbEntity
  8
1
100
AcDbLine
  6
CONTINUOUS
 62
7
 10
7.68
 20
0.0
 11
9.2910713
 21
1.92
  0
LINE
  5
106
100
AcDbEntity
  8
1
100
AcDbLine
  6
CONTINUOUS
 62
7
 10
9.2907853
 20
1.92
 11
1.6110713
 21
1.92
  0
LINE
  5
107
100
AcDbEntity
  8
1
100
AcDbLine
  6
CONTINUOUS
 62
7
 10
5.12
 20
0.0
 11
6.7310713
 21
1.92
  0
LINE
  5
108
100
AcDbEntity
  8
1
100
AcDbLine
  6
CONTINUOUS
 62
7
 10
2.56
 20
0.0
 11
4.1710713
 21
1.92
  0
LINE
  5
109
100
AcDbEntity
  8
1
100
AcDbLine
  6
CONTINUOUS
 62
7
 10
0.0
 20
0.0
 11
1.6110713
 21
1.92
  0
POINT
  5
10a
100
AcDbEntity
  8
Drafting_Hidden_Entities
100
AcDbPoint
  6
CONTINUOUS
 62
1
 10
0.0
 20
0.0
  0
ENDBLK
  5
10b
100
AcDbEntity
100
AcDbBlockEnd
  0
BLOCK
  5
10c
100
AcDbEntity
100
AcDbBlockBegin
  2
*XH138
  3
*XH
 10
0.0
 20
0.0
 70
65
  0
LINE
  5
10d
100
AcDbEntity
  8
1
100
AcDbLine
  6
CONTINUOUS
 62
7
 10
-2.0715645
 20
-2.0715645
 11
2.0715645
 21
2.0715645
  0
LINE
  5
10e
100
AcDbEntity
  8
1
100
AcDbLine
  6
CONTINUOUS
 62
7
 10
-3.4784355
 20
-6.5000837E-001
 11
2.0715645
 21
4.8999916
  0
LINE
  5
10f
100
AcDbEntity
  8
1
100
AcDbLine
  6
CONTINUOUS
 62
7
 10
-3.4784355
 20
2.1784188
 11
2.73299E-001
 21
5.9301532
  0
ENDBLK
  5
110
100
AcDbEntity
100
AcDbBlockEnd
  0
BLOCK
  5
111
100
AcDbEntity
100
AcDbBlockBegin
  2
*XH139
  3
*XH
 10
0.0
 20
0.0
 70
65
  0
LINE
  5
112
100
AcDbEntity
  8
1
100
AcDbLine
  6
CONTINUOUS
 62
7
 10
-1.6796378
 20
-1.6796378
 11
1.6796378
 21
1.6796378
  0
LINE
  5
113
100
AcDbEntity
  8
1
100
AcDbLine
  6
CONTINUOUS
 62
7
 10
-4.5080649
 20
-1.6796378
 11
1.6796378
 21
4.5080649
  0
LINE
  5
114
100
AcDbEntity
  8
1
100
AcDbLine
  6
CONTINUOUS
 62
7
 10
-5.8803622
 20
-2.2350793E-001
 11
2.1801693E-001
 21
5.8748712
  0
LINE
  5
115
100
AcDbEntity
  8
1
100
AcDbLine
  6
CONTINUOUS
 62
7
 10
-6.0303622
 20
2.4549192
 11
-1.2720232
 21
7.2132581
  0
LINE
  5
116
100
AcDbEntity
  8
1
100
AcDbLine
  6
CONTINUOUS
 62
7
 10
-6.0303622
 20
5.2833463
 11
-4.8433463
 21
6.4703622
  0
ENDBLK
  5
117
100
AcDbEntity
100
AcDbBlockEnd
  0
BLOCK
  5
118
100
AcDbEntity
100
AcDbBlockBegin
  2
*XH140
  3
*XH
 10
0.0
 20
0.0
 70
65
  0
LINE
  5
119
100
AcDbEntity
  8
1
100
AcDbLine
  6
CONTINUOUS
 62
7
 10
-1.3998812E-001
 20
-1.3998812E-001
 11
1.3998812E-001
 21
1.3998812E-001
  0
LINE
  5
11a
100
AcDbEntity
  8
1
100
AcDbLine
  6
CONTINUOUS
 62
7
 10
-4.0119659
 20
-1.1835388
 11
-1.1350511E-001
 21
2.714922
  0
LINE
  5
11b
100
AcDbEntity
  8
1
100
AcDbLine
  6
CONTINUOUS
 62
7
 10
-6.3923334
 20
-7.3547912E-001
 11
-1.1741037E-001
 21
5.5394439
  0
LINE
  5
11c
100
AcDbEntity
  8
1
100
AcDbLine
  6
CONTINUOUS
 62
7
 10
-7.8235051
 20
6.6177626E-001
 11
-1.2613753
 21
7.2239061
  0
LINE
  5
11d
100
AcDbEntity
  8
1
100
AcDbLine
  6
CONTINUOUS
 62
7
 10
-7.8235051
 20
3.4902034
 11
-3.8991876
 21
7.4145209
  0
LINE
  5
11e
100
AcDbEntity
  8
1
100
AcDbLine
  6
CONTINUOUS
 62
7
 10
-7.6735051
 20
6.4686305
 11
-6.7276147
 21
7.4145209
  0
ENDBLK
  5
11f
100
AcDbEntity
100
AcDbBlockEnd
  0
BLOCK
  5
120
100
AcDbEntity
100
AcDbBlockBegin
  2
*XH142
  3
*XH
 10
0.0
 20
0.0
 70
65
  0
LINE
  5
121
100
AcDbEntity
  8
1
100
AcDbLine
  6
CONTINUOUS
 62
7
 10
-7.7705481E-001
 20
-7.7705481E-001
 11
7.7705481E-001
 21
7.7705481E-001
  0
LINE
  5
122
100
AcDbEntity
  8
1
100
AcDbLine
  6
CONTINUOUS
 62
7
 10
-3.2587858
 20
-4.3035867E-001
 11
7.7705481E-001
 21
3.6054819
  0
LINE
  5
123
100
AcDbEntity
  8
1
100
AcDbLine
  6
CONTINUOUS
 62
7
 10
-4.7729452
 20
8.8390906E-001
 11
-2.8390906E-001
 21
5.3729452
  0
LINE
  5
124
100
AcDbEntity
  8
1
100
AcDbLine
  6
CONTINUOUS
 62
7
 10
-4.7729452
 20
3.7123362
 11
-1.1123362
 21
7.3729452
  0
LINE
  5
125
100
AcDbEntity
  8
1
100
AcDbLine
  6
CONTINUOUS
 62
7
 10
-4.719825
 20
6.5938835
 11
-4.340427
 21
6.9732815
  0
ENDBLK
  5
126
100
AcDbEntity
100
AcDbBlockEnd
  0
BLOCK
  5
127
100
AcDbEntity
100
AcDbBlockBegin
  2
*XH143
  3
*XH
 10
0.0
 20
0.0
 70
65
  0
LINE
  5
128
100
AcDbEntity
  8
1
100
AcDbLine
  6
CONTINUOUS
 62
7
 10
3.7918295E-001
 20
-3.7918295E-001
 11
-3.7918295E-001
 21
3.7918295E-001
  0
LINE
  5
129
100
AcDbEntity
  8
1
100
AcDbLine
  6
CONTINUOUS
 62
7
 10
3.7918295E-001
 20
-3.2076101
 11
-2.5247498
 21
-3.0367736E-001
  0
LINE
  5
12a
100
AcDbEntity
  8
1
100
AcDbLine
  6
CONTINUOUS
 62
7
 10
3.7918295E-001
 20
-6.0360372
 11
-3.0807949
 21
-2.5760594
  0
LINE
  5
12b
100
AcDbEntity
  8
1
100
AcDbLine
  6
CONTINUOUS
 62
7
 10
3.7918295E-001
 20
-8.8644643
 11
-3.5758171
 21
-4.9094643
  0
LINE
  5
12c
100
AcDbEntity
  8
1
100
AcDbLine
  6
CONTINUOUS
 62
7
 10
3.7918295E-001
 20
-1.1692891E+001
 11
-3.5758171
 21
-7.7378914
  0
LINE
  5
12d
100
AcDbEntity
  8
1
100
AcDbLine
  6
CONTINUOUS
 62
7
 10
3.7918295E-001
 20
-1.4521319E+001
 11
-3.5758171
 21
-1.0566319E+001
  0
LINE
  5
12e
100
AcDbEntity
  8
1
100
AcDbLine
  6
CONTINUOUS
 62
7
 10
3.7918295E-001
 20
-1.7349746E+001
 11
-3.5758171
 21
-1.3394746E+001
  0
LINE
  5
12f
100
AcDbEntity
  8
1
100
AcDbLine
  6
CONTINUOUS
 62
7
 10
3.7918295E-001
 20
-2.0178173E+001
 11
-3.5758171
 21
-1.6223173E+001
  0
LINE
  5
130
100
AcDbEntity
  8
1
100
AcDbLine
  6
CONTINUOUS
 62
7
 10
3.7918295E-001
 20
-2.30066E+001
 11
-3.5758171
 21
-1.90516E+001
  0
LINE
  5
131
100
AcDbEntity
  8
1
100
AcDbLine
  6
CONTINUOUS
 62
7
 10
-4.3502707E-001
 20
-2.5020817E+001
 11
-2.4647021
 21
-2.2991142E+001
  0
ENDBLK
  5
132
100
AcDbEntity
100
AcDbBlockEnd
  0
BLOCK
  5
133
100
AcDbEntity
100
AcDbBlockBegin
  2
*XH144
  3
*XH
 10
0.0
 20
0.0
 70
65
  0
LINE
  5
134
100
AcDbEntity
  8
1
100
AcDbLine
  6
CONTINUOUS
 62
7
 10
1.7590423
 20
-1.7590423
 11
-1.7590423
 21
1.7590423
  0
LINE
  5
135
100
AcDbEntity
  8
1
100
AcDbLine
  6
CONTINUOUS
 62
7
 10
1.7590423
 20
-4.5874694
 11
-2.2859577
 21
-5.4246939E-001
  0
LINE
  5
136
100
AcDbEntity
  8
1
100
AcDbLine
  6
CONTINUOUS
 62
7
 10
1.7590423
 20
-7.4158965
 11
-2.2859577
 21
-3.3708965
  0
LINE
  5
137
100
AcDbEntity
  8
1
100
AcDbLine
  6
CONTINUOUS
 62
7
 10
1.7590423
 20
-1.0244324E+001
 11
-2.2859577
 21
-6.1993236
  0
LINE
  5
138
100
AcDbEntity
  8
1
100
AcDbLine
  6
CONTINUOUS
 62
7
 10
1.7590423
 20
-1.3072751E+001
 11
-2.2859577
 21
-9.0277508
  0
LINE
  5
139
100
AcDbEntity
  8
1
100
AcDbLine
  6
CONTINUOUS
 62
7
 10
1.7590423
 20
-1.5901178E+001
 11
-2.2859577
 21
-1.1856178E+001
  0
LINE
  5
13a
100
AcDbEntity
  8
1
100
AcDbLine
  6
CONTINUOUS
 62
7
 10
1.7590423
 20
-1.8729605E+001
 11
-2.2859577
 21
-1.4684605E+001
  0
LINE
  5
13b
100
AcDbEntity
  8
1
100
AcDbLine
  6
CONTINUOUS
 62
7
 10
1.7590423
 20
-2.1558032E+001
 11
-2.2859577
 21
-1.7513032E+001
  0
LINE
  5
13c
100
AcDbEntity
  8
1
100
AcDbLine
  6
CONTINUOUS
 62
7
 10
4.4451421E-001
 20
-2.3071931E+001
 11
-2.2859577
 21
-2.0341459E+001
  0
LINE
  5
13d
100
AcDbEntity
  8
1
100
AcDbLine
  6
CONTINUOUS
 62
7
 10
-1.8148864
 20
-2.3640958E+001
 11
-2.2859577
 21
-2.3169886E+001
  0
ENDBLK
  5
13e
100
AcDbEntity
100
AcDbBlockEnd
  0
BLOCK
  5
13f
100
AcDbEntity
100
AcDbBlockBegin
  2
_AH1
 70
0
 10
0.0
 20
0.0
  3
_AH1
  0
LINE
  5
140
100
AcDbEntity
  8
0
100
AcDbLine
  6
CONTINUOUS
 62
0
 10
-1.0
 20
1.66667E-001
 11
0.0
 21
0.0
  0
LINE
  5
141
100
AcDbEntity
  8
0
100
AcDbLine
  6
CONTINUOUS
 62
0
 10
0.0
 20
0.0
 11
-1.0
 21
-1.66667E-001
  0
LINE
  5
142
100
AcDbEntity
  8
0
100
AcDbLine
  6
CONTINUOUS
 62
0
 10
-1.0
 20
1.66667E-001
 11
-1.0
 21
-1.66667E-001
  0
LINE
  5
143
100
AcDbEntity
  8
0
100
AcDbLine
  6
CONTINUOUS
 62
0
 10
0.0
 20
0.0
 11
-1.0
 21
0.0
  0
ENDBLK
  5
144
100
AcDbEntity
100
AcDbBlockEnd
  0
BLOCK
  5
145
100
AcDbEntity
100
AcDbBlockBegin
  2
_AH2
 70
0
 10
0.0
 20
0.0
  3
_AH2
  0
LINE
  5
146
100
AcDbEntity
  8
0
100
AcDbLine
  6
CONTINUOUS
 62
0
 10
-1.0
 20
1.66667E-001
 11
0.0
 21
0.0
  0
LINE
  5
147
100
AcDbEntity
  8
0
100
AcDbLine
  6
CONTINUOUS
 62
0
 10
0.0
 20
0.0
 11
-1.0
 21
-1.66667E-001
  0
LINE
  5
148
100
AcDbEntity
  8
0
100
AcDbLine
  6
CONTINUOUS
 62
0
 10
0.0
 20
0.0
 11
-1.0
 21
0.0
  0
ENDBLK
  5
149
100
AcDbEntity
100
AcDbBlockEnd
  0
BLOCK
  5
14a
100
AcDbEntity
100
AcDbBlockBegin
  2
*D1024
  3
*D
 10
0.0
 20
0.0
 70
65
  0
LINE
  5
14b
100
AcDbEntity
  8
1
100
AcDbLine
  6
CONTINUOUS
 62
1
 10
1.6717946E+002
 20
9.8263725E+001
 11
1.8231761E+002
 21
9.8263725E+001
  0
LINE
  5
14c
100
AcDbEntity
  8
1
100
AcDbLine
  6
CONTINUOUS
 62
1
 10
1.6717946E+002
 20
8.1263725E+001
 11
1.8231761E+002
 21
8.1263725E+001
  0
LINE
  5
14d
100
AcDbEntity
  8
1
100
AcDbLine
  6
CONTINUOUS
 62
1
 10
1.8181761E+002
 20
9.8263725E+001
 11
1.8181761E+002
 21
8.9763725E+001
  0
LINE
  5
14e
100
AcDbEntity
  8
1
100
AcDbLine
  6
CONTINUOUS
 62
1
 10
1.8181761E+002
 20
8.1263725E+001
 11
1.8181761E+002
 21
8.9763725E+001
  0
TEXT
  5
14f
100
AcDbEntity
  8
1
100
AcDbText
  6
CONTINUOUS
 62
1
 10
1.8131661E+002
 20
8.4963725E+001
 40
3.0
  1
17.4
 41
8.0E-001
 50
9.0E+001
100
AcDbText
  0
INSERT
  5
150
100
AcDbEntity
100
AcDbBlockReference
  2
_AH2
  8
1
 62
1
 10
1.8181761E+002
 20
9.8263725E+001
 41
1.5
 42
1.5
 43
1.5
 50
9.0E+001
  0
INSERT
  5
151
100
AcDbEntity
100
AcDbBlockReference
  2
_AH2
  8
1
 62
1
 10
1.8181761E+002
 20
8.1263725E+001
 41
1.5
 42
1.5
 43
1.5
 50
2.7E+002
  0
ENDBLK
  5
152
100
AcDbEntity
100
AcDbBlockEnd
  0
BLOCK
  5
153
100
AcDbEntity
100
AcDbBlockBegin
  2
*D1026
  3
*D
 10
0.0
 20
0.0
 70
65
  0
LINE
  5
154
100
AcDbEntity
  8
1
100
AcDbLine
  6
CONTINUOUS
 62
1
 10
1.5907946E+002
 20
8.0763725E+001
 11
1.5907946E+002
 21
7.0129836E+001
  0
LINE
  5
155
100
AcDbEntity
  8
1
100
AcDbLine
  6
CONTINUOUS
 62
1
 10
1.7427946E+002
 20
7.8204189E+001
 11
1.7427946E+002
 21
7.0129836E+001
  0
LINE
  5
156
100
AcDbEntity
  8
1
100
AcDbLine
  6
CONTINUOUS
 62
1
 10
1.7427946E+002
 20
7.0629836E+001
 11
1.5907946E+002
 21
7.0629836E+001
  0
LINE
  5
157
100
AcDbEntity
  8
1
100
AcDbLine
  6
CONTINUOUS
 62
1
 10
1.7427946E+002
 20
7.0629836E+001
 11
1.9109415E+002
 21
7.0629836E+001
  0
TEXT
  5
158
100
AcDbEntity
  8
1
100
AcDbText
  6
CONTINUOUS
 62
1
 10
1.7759415E+002
 20
7.1130836E+001
 40
3.0
  1
%%c15.2
 41
8.0E-001
100
AcDbText
  0
INSERT
  5
159
100
AcDbEntity
100
AcDbBlockReference
  2
_AH2
  8
1
 62
1
 10
1.5907946E+002
 20
7.0629836E+001
 41
1.5
 42
1.5
 43
1.5
 50
1.8E+002
  0
INSERT
  5
15a
100
AcDbEntity
100
AcDbBlockReference
  2
_AH2
  8
1
 62
1
 10
1.7427946E+002
 20
7.0629836E+001
 41
1.5
 42
1.5
 43
1.5
 50
0.0
  0
ENDBLK
  5
15b
100
AcDbEntity
100
AcDbBlockEnd
  0
BLOCK
  5
15c
100
AcDbEntity
100
AcDbBlockBegin
  2
*D1028
  3
*D
 10
0.0
 20
0.0
 70
65
  0
LINE
  5
15d
100
AcDbEntity
  8
1
100
AcDbLine
  6
CONTINUOUS
 62
1
 10
6.665946E+001
 20
1.3106373E+002
 11
4.5393565E+001
 21
1.3106373E+002
  0
LINE
  5
15e
100
AcDbEntity
  8
1
100
AcDbLine
  6
CONTINUOUS
 62
1
 10
6.665946E+001
 20
4.8463725E+001
 11
4.5393565E+001
 21
4.8463725E+001
  0
LINE
  5
15f
100
AcDbEntity
  8
1
100
AcDbLine
  6
CONTINUOUS
 62
1
 10
4.5893565E+001
 20
1.3106373E+002
 11
4.5893565E+001
 21
8.9763725E+001
  0
LINE
  5
160
100
AcDbEntity
  8
1
100
AcDbLine
  6
CONTINUOUS
 62
1
 10
4.5893565E+001
 20
4.8463725E+001
 11
4.5893565E+001
 21
8.9763725E+001
  0
TEXT
  5
161
100
AcDbEntity
  8
1
100
AcDbText
  6
CONTINUOUS
 62
1
 10
4.5392565E+001
 20
8.4963725E+001
 40
3.0
  1
82.6
 41
8.0E-001
 50
9.0E+001
100
AcDbText
  0
INSERT
  5
162
100
AcDbEntity
100
AcDbBlockReference
  2
_AH2
  8
1
 62
1
 10
4.5893565E+001
 20
1.3106373E+002
 41
1.5
 42
1.5
 43
1.5
 50
9.0E+001
  0
INSERT
  5
163
100
AcDbEntity
100
AcDbBlockReference
  2
_AH2
  8
1
 62
1
 10
4.5893565E+001
 20
4.8463725E+001
 41
1.5
 42
1.5
 43
1.5
 50
2.7E+002
  0
ENDBLK
  5
164
100
AcDbEntity
100
AcDbBlockEnd
  0
BLOCK
  5
165
100
AcDbEntity
100
AcDbBlockBegin
  2
*D1029
  3
*D
 10
0.0
 20
0.0
 70
65
  0
LINE
  5
166
100
AcDbEntity
  8
1
100
AcDbLine
  6
CONTINUOUS
 62
1
 10
6.4445634E+001
 20
1.1076372E+002
 11
5.3624067E+001
 21
1.1076372E+002
  0
LINE
  5
167
100
AcDbEntity
  8
1
100
AcDbLine
  6
CONTINUOUS
 62
1
 10
6.465946E+001
 20
6.8763725E+001
 11
5.3624067E+001
 21
6.8763725E+001
  0
LINE
  5
168
100
AcDbEntity
  8
1
100
AcDbLine
  6
CONTINUOUS
 62
1
 10
5.4124067E+001
 20
1.1076372E+002
 11
5.4124067E+001
 21
8.9763725E+001
  0
LINE
  5
169
100
AcDbEntity
  8
1
100
AcDbLine
  6
CONTINUOUS
 62
1
 10
5.4124067E+001
 20
6.8763725E+001
 11
5.4124067E+001
 21
8.9763725E+001
  0
TEXT
  5
16a
100
AcDbEntity
  8
1
100
AcDbText
  6
CONTINUOUS
 62
1
 10
5.3623067E+001
 20
8.7363725E+001
 40
3.0
  1
42
 41
8.0E-001
 50
9.0E+001
100
AcDbText
  0
INSERT
  5
16b
100
AcDbEntity
100
AcDbBlockReference
  2
_AH2
  8
1
 62
1
 10
5.4124067E+001
 20
1.1076372E+002
 41
1.5
 42
1.5
 43
1.5
 50
9.0E+001
  0
INSERT
  5
16c
100
AcDbEntity
100
AcDbBlockReference
  2
_AH2
  8
1
 62
1
 10
5.4124067E+001
 20
6.8763725E+001
 41
1.5
 42
1.5
 43
1.5
 50
2.7E+002
  0
ENDBLK
  5
16d
100
AcDbEntity
100
AcDbBlockEnd
  0
BLOCK
  5
16e
100
AcDbEntity
100
AcDbBlockBegin
  2
*D1030
  3
*D
 10
0.0
 20
0.0
 70
65
  0
LINE
  5
16f
100
AcDbEntity
  8
1
100
AcDbLine
  6
CONTINUOUS
 62
1
 10
2.1862095E+002
 20
1.2076372E+002
 11
2.0587294E+002
 21
1.2076372E+002
  0
LINE
  5
170
100
AcDbEntity
  8
1
100
AcDbLine
  6
CONTINUOUS
 62
1
 10
2.1862095E+002
 20
5.8763725E+001
 11
2.0587294E+002
 21
5.8763725E+001
  0
LINE
  5
171
100
AcDbEntity
  8
1
100
AcDbLine
  6
CONTINUOUS
 62
1
 10
2.0637294E+002
 20
1.2076372E+002
 11
2.0637294E+002
 21
8.9763725E+001
  0
LINE
  5
172
100
AcDbEntity
  8
1
100
AcDbLine
  6
CONTINUOUS
 62
1
 10
2.0637294E+002
 20
5.8763725E+001
 11
2.0637294E+002
 21
8.9763725E+001
  0
TEXT
  5
173
100
AcDbEntity
  8
1
100
AcDbText
  6
CONTINUOUS
 62
1
 10
2.0587194E+002
 20
8.7363725E+001
 40
3.0
  1
62
 41
8.0E-001
 50
9.0E+001
100
AcDbText
  0
INSERT
  5
174
100
AcDbEntity
100
AcDbBlockReference
  2
_AH2
  8
1
 62
1
 10
2.0637294E+002
 20
1.2076372E+002
 41
1.5
 42
1.5
 43
1.5
 50
9.0E+001
  0
INSERT
  5
175
100
AcDbEntity
100
AcDbBlockReference
  2
_AH2
  8
1
 62
1
 10
2.0637294E+002
 20
5.8763725E+001
 41
1.5
 42
1.5
 43
1.5
 50
2.7E+002
  0
ENDBLK
  5
176
100
AcDbEntity
100
AcDbBlockEnd
  0
BLOCK
  5
177
100
AcDbEntity
100
AcDbBlockBegin
  2
*D1031
  3
*D
 10
0.0
 20
0.0
 70
65
  0
LINE
  5
178
100
AcDbEntity
  8
1
100
AcDbLine
  6
CONTINUOUS
 62
1
 10
2.1862095E+002
 20
1.0576372E+002
 11
2.1252334E+002
 21
1.0576372E+002
  0
LINE
  5
179
100
AcDbEntity
  8
1
100
AcDbLine
  6
CONTINUOUS
 62
1
 10
2.1862095E+002
 20
7.3763725E+001
 11
2.1252334E+002
 21
7.3763725E+001
  0
LINE
  5
17a
100
AcDbEntity
  8
1
100
AcDbLine
  6
CONTINUOUS
 62
1
 10
2.1302334E+002
 20
1.0576372E+002
 11
2.1302334E+002
 21
8.9763725E+001
  0
LINE
  5
17b
100
AcDbEntity
  8
1
100
AcDbLine
  6
CONTINUOUS
 62
1
 10
2.1302334E+002
 20
7.3763725E+001
 11
2.1302334E+002
 21
8.9763725E+001
  0
TEXT
  5
17c
100
AcDbEntity
  8
1
100
AcDbText
  6
CONTINUOUS
 62
1
 10
2.1252234E+002
 20
8.7363725E+001
 40
3.0
  1
32
 41
8.0E-001
 50
9.0E+001
100
AcDbText
  0
INSERT
  5
17d
100
AcDbEntity
100
AcDbBlockReference
  2
_AH2
  8
1
 62
1
 10
2.1302334E+002
 20
1.0576372E+002
 41
1.5
 42
1.5
 43
1.5
 50
9.0E+001
  0
INSERT
  5
17e
100
AcDbEntity
100
AcDbBlockReference
  2
_AH2
  8
1
 62
1
 10
2.1302334E+002
 20
7.3763725E+001
 41
1.5
 42
1.5
 43
1.5
 50
2.7E+002
  0
ENDBLK
  5
17f
100
AcDbEntity
100
AcDbBlockEnd
  0
BLOCK
  5
180
100
AcDbEntity
100
AcDbBlockBegin
  2
*D1032
  3
*D
 10
0.0
 20
0.0
 70
65
  0
LINE
  5
181
100
AcDbEntity
  8
1
100
AcDbLine
  6
CONTINUOUS
 62
1
 10
7.045946E+001
 20
1.6316121E+002
 11
7.045946E+001
 21
1.5224871E+002
  0
LINE
  5
182
100
AcDbEntity
  8
1
100
AcDbLine
  6
CONTINUOUS
 62
1
 10
7.045946E+001
 20
1.5274871E+002
 11
8.009196E+001
 21
1.5274871E+002
  0
LINE
  5
183
100
AcDbEntity
  8
1
100
AcDbLine
  6
CONTINUOUS
 62
1
 10
8.972446E+001
 20
1.5274871E+002
 11
8.009196E+001
 21
1.5274871E+002
  0
TEXT
  5
184
100
AcDbEntity
  8
1
100
AcDbText
  6
CONTINUOUS
 62
1
 10
7.289196E+001
 20
1.5324971E+002
 40
3.0
  1
19.265
 41
8.0E-001
100
AcDbText
  0
INSERT
  5
185
100
AcDbEntity
100
AcDbBlockReference
  2
_AH2
  8
1
 62
1
 10
7.045946E+001
 20
1.5274871E+002
 41
1.5
 42
1.5
 43
1.5
 50
1.8E+002
  0
INSERT
  5
186
100
AcDbEntity
100
AcDbBlockReference
  2
_AH2
  8
1
 62
1
 10
8.972446E+001
 20
1.5274871E+002
 41
1.5
 42
1.5
 43
1.5
 50
0.0
  0
ENDBLK
  5
187
100
AcDbEntity
100
AcDbBlockEnd
  0
BLOCK
  5
188
100
AcDbEntity
100
AcDbBlockBegin
  2
*D1033
  3
*D
 10
0.0
 20
0.0
 70
65
  0
LINE
  5
189
100
AcDbEntity
  8
1
100
AcDbLine
  6
CONTINUOUS
 62
1
 10
8.972446E+001
 20
1.6316121E+002
 11
8.972446E+001
 21
1.5224871E+002
  0
LINE
  5
18a
100
AcDbEntity
  8
1
100
AcDbLine
  6
CONTINUOUS
 62
1
 10
1.0898946E+002
 20
1.6316121E+002
 11
1.0898946E+002
 21
1.5224871E+002
  0
LINE
  5
18b
100
AcDbEntity
  8
1
100
AcDbLine
  6
CONTINUOUS
 62
1
 10
8.972446E+001
 20
1.5274871E+002
 11
9.935696E+001
 21
1.5274871E+002
  0
LINE
  5
18c
100
AcDbEntity
  8
1
100
AcDbLine
  6
CONTINUOUS
 62
1
 10
1.0898946E+002
 20
1.5274871E+002
 11
9.935696E+001
 21
1.5274871E+002
  0
TEXT
  5
18d
100
AcDbEntity
  8
1
100
AcDbText
  6
CONTINUOUS
 62
1
 10
9.215696E+001
 20
1.5324971E+002
 40
3.0
  1
19.265
 41
8.0E-001
100
AcDbText
  0
INSERT
  5
18e
100
AcDbEntity
100
AcDbBlockReference
  2
_AH2
  8
1
 62
1
 10
8.972446E+001
 20
1.5274871E+002
 41
1.5
 42
1.5
 43
1.5
 50
1.8E+002
  0
INSERT
  5
18f
100
AcDbEntity
100
AcDbBlockReference
  2
_AH2
  8
1
 62
1
 10
1.0898946E+002
 20
1.5274871E+002
 41
1.5
 42
1.5
 43
1.5
 50
0.0
  0
ENDBLK
  5
190
100
AcDbEntity
100
AcDbBlockEnd
  0
BLOCK
  5
191
100
AcDbEntity
100
AcDbBlockBegin
  2
*D1034
  3
*D
 10
0.0
 20
0.0
 70
65
  0
LINE
  5
192
100
AcDbEntity
  8
1
100
AcDbLine
  6
CONTINUOUS
 62
1
 10
1.7805992E+002
 20
1.7724907E+002
 11
1.8231761E+002
 21
1.7724907E+002
  0
LINE
  5
193
100
AcDbEntity
  8
1
100
AcDbLine
  6
CONTINUOUS
 62
1
 10
1.8181761E+002
 20
1.8484907E+002
 11
1.8181761E+002
 21
1.7724907E+002
  0
LINE
  5
194
100
AcDbEntity
  8
1
100
AcDbLine
  6
CONTINUOUS
 62
1
 10
1.8181761E+002
 20
1.8484907E+002
 11
1.8181761E+002
 21
1.9613293E+002
  0
TEXT
  5
195
100
AcDbEntity
  8
1
100
AcDbText
  6
CONTINUOUS
 62
1
 10
1.8131661E+002
 20
1.8743293E+002
 40
3.0
  1
7.6
 41
8.0E-001
 50
9.0E+001
100
AcDbText
  0
INSERT
  5
196
100
AcDbEntity
100
AcDbBlockReference
  2
_AH2
  8
1
 62
1
 10
1.8181761E+002
 20
1.7724907E+002
 41
1.5
 42
1.5
 43
1.5
 50
2.7E+002
  0
INSERT
  5
197
100
AcDbEntity
100
AcDbBlockReference
  2
_AH2
  8
1
 62
1
 10
1.8181761E+002
 20
1.8484907E+002
 41
1.5
 42
1.5
 43
1.5
 50
9.0E+001
  0
ENDBLK
  5
198
100
AcDbEntity
100
AcDbBlockEnd
  0
BLOCK
  5
199
100
AcDbEntity
100
AcDbBlockBegin
  2
*D1035
  3
*D
 10
0.0
 20
0.0
 70
65
  0
LINE
  5
19a
100
AcDbEntity
  8
1
100
AcDbLine
  6
CONTINUOUS
 62
1
 10
1.6717946E+002
 20
1.6964907E+002
 11
1.9050272E+002
 21
1.6964907E+002
  0
LINE
  5
19b
100
AcDbEntity
  8
1
100
AcDbLine
  6
CONTINUOUS
 62
1
 10
1.9000272E+002
 20
1.8484907E+002
 11
1.9000272E+002
 21
1.7725876E+002
  0
LINE
  5
19c
100
AcDbEntity
  8
1
100
AcDbLine
  6
CONTINUOUS
 62
1
 10
1.9000272E+002
 20
1.6964907E+002
 11
1.9000272E+002
 21
1.7725876E+002
  0
TEXT
  5
19d
100
AcDbEntity
  8
1
100
AcDbText
  6
CONTINUOUS
 62
1
 10
1.8950172E+002
 20
1.7245876E+002
 40
3.0
  1
15.2
 41
8.0E-001
 50
9.0E+001
100
AcDbText
  0
INSERT
  5
19e
100
AcDbEntity
100
AcDbBlockReference
  2
_AH2
  8
1
 62
1
 10
1.9000272E+002
 20
1.8484907E+002
 41
1.5
 42
1.5
 43
1.5
 50
9.0E+001
  0
INSERT
  5
19f
100
AcDbEntity
100
AcDbBlockReference
  2
_AH2
  8
1
 62
1
 10
1.9000272E+002
 20
1.6964907E+002
 41
1.5
 42
1.5
 43
1.5
 50
2.7E+002
  0
ENDBLK
  5
1a0
100
AcDbEntity
100
AcDbBlockEnd
  0
BLOCK
  5
1a1
100
AcDbEntity
100
AcDbBlockBegin
  2
*D1038
  3
*D
 10
0.0
 20
0.0
 70
65
  0
LINE
  5
1a2
100
AcDbEntity
  8
1
100
AcDbLine
  6
CONTINUOUS
 62
1
 10
1.6717946E+002
 20
1.8484907E+002
 11
1.9894361E+002
 21
1.8484907E+002
  0
LINE
  5
1a3
100
AcDbEntity
  8
1
100
AcDbLine
  6
CONTINUOUS
 62
1
 10
1.5847946E+002
 20
1.6084907E+002
 11
1.9894361E+002
 21
1.6084907E+002
  0
LINE
  5
1a4
100
AcDbEntity
  8
1
100
AcDbLine
  6
CONTINUOUS
 62
1
 10
1.9844361E+002
 20
1.8484907E+002
 11
1.9844361E+002
 21
1.7342199E+002
  0
LINE
  5
1a5
100
AcDbEntity
  8
1
100
AcDbLine
  6
CONTINUOUS
 62
1
 10
1.9844361E+002
 20
1.6084907E+002
 11
1.9844361E+002
 21
1.7342199E+002
  0
TEXT
  5
1a6
100
AcDbEntity
  8
1
100
AcDbText
  6
CONTINUOUS
 62
1
 10
1.9794261E+002
 20
1.7102199E+002
 40
3.0
  1
24
 41
8.0E-001
 50
9.0E+001
100
AcDbText
  0
INSERT
  5
1a7
100
AcDbEntity
100
AcDbBlockReference
  2
_AH2
  8
1
 62
1
 10
1.9844361E+002
 20
1.8484907E+002
 41
1.5
 42
1.5
 43
1.5
 50
9.0E+001
  0
INSERT
  5
1a8
100
AcDbEntity
100
AcDbBlockReference
  2
_AH2
  8
1
 62
1
 10
1.9844361E+002
 20
1.6084907E+002
 41
1.5
 42
1.5
 43
1.5
 50
2.7E+002
  0
ENDBLK
  5
1a9
100
AcDbEntity
100
AcDbBlockEnd
  0
BLOCK
  5
1aa
100
AcDbEntity
100
AcDbBlockBegin
  2
*D1039
  3
*D
 10
0.0
 20
0.0
 70
65
  0
LINE
  5
1ab
100
AcDbEntity
  8
1
100
AcDbLine
  6
CONTINUOUS
 62
1
 10
1.5623914E+002
 20
1.7784907E+002
 11
1.5623914E+002
 21
1.8484907E+002
  0
LINE
  5
1ac
100
AcDbEntity
  8
1
100
AcDbLine
  6
CONTINUOUS
 62
1
 10
1.5623914E+002
 20
1.8484907E+002
 11
1.5623914E+002
 21
1.942827E+002
  0
TEXT
  5
1ad
100
AcDbEntity
  8
1
100
AcDbText
  6
CONTINUOUS
 62
1
 10
1.5573814E+002
 20
1.903827E+002
 40
3.0
  1
4
 41
8.0E-001
 50
9.0E+001
100
AcDbText
  0
INSERT
  5
1ae
100
AcDbEntity
100
AcDbBlockReference
  2
_AH2
  8
1
 62
1
 10
1.5623914E+002
 20
1.8084907E+002
 41
1.5
 42
1.5
 43
1.5
 50
9.0E+001
  0
INSERT
  5
1af
100
AcDbEntity
100
AcDbBlockReference
  2
_AH2
  8
1
 62
1
 10
1.5623914E+002
 20
1.8484907E+002
 41
1.5
 42
1.5
 43
1.5
 50
2.7E+002
  0
ENDBLK
  5
1b0
100
AcDbEntity
100
AcDbBlockEnd
  0
BLOCK
  5
1b1
100
AcDbEntity
100
AcDbBlockBegin
  2
*D1041
  3
*D
 10
0.0
 20
0.0
 70
65
  0
LINE
  5
1b2
100
AcDbEntity
  8
1
100
AcDbLine
  6
CONTINUOUS
 62
1
 10
2.2242095E+002
 20
1.1126372E+002
 11
2.2242095E+002
 21
1.4057315E+002
  0
LINE
  5
1b3
100
AcDbEntity
  8
1
100
AcDbLine
  6
CONTINUOUS
 62
1
 10
2.3842095E+002
 20
1.3086372E+002
 11
2.3842095E+002
 21
1.4057315E+002
  0
LINE
  5
1b4
100
AcDbEntity
  8
1
100
AcDbLine
  6
CONTINUOUS
 62
1
 10
2.2242095E+002
 20
1.4007315E+002
 11
2.3042095E+002
 21
1.4007315E+002
  0
LINE
  5
1b5
100
AcDbEntity
  8
1
100
AcDbLine
  6
CONTINUOUS
 62
1
 10
2.3842095E+002
 20
1.4007315E+002
 11
2.3042095E+002
 21
1.4007315E+002
  0
TEXT
  5
1b6
100
AcDbEntity
  8
1
100
AcDbText
  6
CONTINUOUS
 62
1
 10
2.2802095E+002
 20
1.4057415E+002
 40
3.0
  1
16
 41
8.0E-001
100
AcDbText
  0
INSERT
  5
1b7
100
AcDbEntity
100
AcDbBlockReference
  2
_AH2
  8
1
 62
1
 10
2.2242095E+002
 20
1.4007315E+002
 41
1.5
 42
1.5
 43
1.5
 50
1.8E+002
  0
INSERT
  5
1b8
100
AcDbEntity
100
AcDbBlockReference
  2
_AH2
  8
1
 62
1
 10
2.3842095E+002
 20
1.4007315E+002
 41
1.5
 42
1.5
 43
1.5
 50
0.0
  0
ENDBLK
  5
1b9
100
AcDbEntity
100
AcDbBlockEnd
  0
BLOCK
  5
1ba
100
AcDbEntity
100
AcDbBlockBegin
  2
*D1068
  3
*D
 10
0.0
 20
0.0
 70
65
  0
LINE
  5
1bb
100
AcDbEntity
  8
1
100
AcDbLine
  6
CONTINUOUS
 62
1
 10
2.2892095E+002
 20
1.2538923E+002
 11
2.194027E+002
 21
1.3517166E+002
  0
LINE
  5
1bc
100
AcDbEntity
  8
1
100
AcDbLine
  6
CONTINUOUS
 62
1
 10
2.2892095E+002
 20
1.2538923E+002
 11
2.2776513E+002
 21
1.2705512E+002
  0
LINE
  5
1bd
100
AcDbEntity
  8
1
100
AcDbLine
  6
CONTINUOUS
 62
1
 10
2.2892095E+002
 20
1.2538923E+002
 11
2.2728732E+002
 21
1.2659021E+002
  0
LINE
  5
1be
100
AcDbEntity
  8
1
100
AcDbLine
  6
CONTINUOUS
 62
1
 10
2.004027E+002
 20
1.3517166E+002
 11
2.194027E+002
 21
1.3517166E+002
  0
TEXT
  5
1bf
100
AcDbEntity
  8
1
100
AcDbText
  6
CONTINUOUS
 62
1
 10
2.009027E+002
 20
1.3567166E+002
 40
3.0
  1
走行レール
100
AcDbText
  0
ENDBLK
  5
1c0
100
AcDbEntity
100
AcDbBlockEnd
  0
ENDSEC
  0
SECTION
  2
ENTITIES
  0
TEXT
  5
1c1
100
AcDbEntity
  8
1
100
AcDbText
  6
CONTINUOUS
 62
7
 10
1.1791672E+002
 20
1.9797732E+002
 40
4.0
  1

 41
8.0E-001
100
AcDbText
  0
INSERT
  5
1c2
100
AcDbEntity
100
AcDbBlockReference
  2
*XH23
  8
1
 10
2.3789062E+002
 20
1.1429406E+002
  0
INSERT
  5
1c3
100
AcDbEntity
100
AcDbBlockReference
  2
*XH27
  8
1
 10
2.3789062E+002
 20
4.8294055E+001
  0
LINE
  5
1c4
100
AcDbEntity
  8
1
100
AcDbLine
  6
CONTINUOUS
 62
7
 10
2.0
 20
2.0
 11
2.95E+002
 21
2.0
  0
LINE
  5
1c5
100
AcDbEntity
  8
1
100
AcDbLine
  6
CENTERLINE
 62
6
 10
6.0743649E+001
 20
8.9763725E+001
 11
1.7755992E+002
 21
8.9763725E+001
  0
LINE
  5
1c6
100
AcDbEntity
  8
1
100
AcDbLine
  6
CENTERLINE
 62
6
 10
1.6678446E+002
 20
7.5063725E+001
 11
1.6678446E+002
 21
1.0446373E+002
  0
LINE
  5
1c7
100
AcDbEntity
  8
1
100
AcDbLine
  6
CONTINUOUS
 62
7
 10
1.4421946E+002
 20
1.3106373E+002
 11
1.6037946E+002
 21
1.3106373E+002
  0
LINE
  5
1c8
100
AcDbEntity
  8
1
100
AcDbLine
  6
CONTINUOUS
 62
7
 10
1.6067946E+002
 20
1.0246373E+002
 11
1.7177946E+002
 21
1.0246373E+002
  0
LINE
  5
1c9
100
AcDbEntity
  8
1
100
AcDbLine
  6
CONTINUOUS
 62
7
 10
1.5651946E+002
 20
9.8263725E+001
 11
1.6667946E+002
 21
9.8263725E+001
  0
LINE
  5
1ca
100
AcDbEntity
  8
1
100
AcDbLine
  6
CONTINUOUS
 62
7
 10
1.7427946E+002
 20
7.8704189E+001
 11
1.7427946E+002
 21
1.0082326E+002
  0
LINE
  5
1cb
100
AcDbEntity
  8
1
100
AcDbLine
  6
CONTINUOUS
 62
7
 10
1.6237946E+002
 20
1.2906373E+002
 11
1.6237946E+002
 21
1.0346373E+002
  0
LINE
  5
1cc
100
AcDbEntity
  8
1
100
AcDbLine
  6
CONTINUOUS
 62
7
 10
1.5867946E+002
 20
1.0876372E+002
 11
1.5867946E+002
 21
1.0446373E+002
  0
LINE
  5
1cd
100
AcDbEntity
  8
1
100
AcDbLine
  6
CONTINUOUS
 62
7
 10
1.5096946E+002
 20
7.6913725E+001
 11
1.5351946E+002
 21
7.6913725E+001
  0
LINE
  5
1ce
100
AcDbEntity
  8
1
100
AcDbLine
  6
CONTINUOUS
 62
7
 10
1.5096946E+002
 20
7.7063725E+001
 11
1.5251446E+002
 21
7.7063725E+001
  0
ARC
  5
1cf
100
AcDbEntity
  8
1
100
AcDbCircle
  6
CONTINUOUS
 62
7
 10
1.6067946E+002
 20
1.0446373E+002
 40
2.0
100
AcDbArc
 50
1.8E+002
 51
2.7E+002
  0
LINE
  5
1d0
100
AcDbEntity
  8
1
100
AcDbLine
  6
CONTINUOUS
 62
7
 10
1.4300004E+002
 20
1.0261373E+002
 11
1.4546946E+002
 21
1.0261373E+002
  0
LINE
  5
1d1
100
AcDbEntity
  8
1
100
AcDbLine
  6
CENTERLINE
 62
6
 10
1.4751946E+002
 20
1.1276372E+002
 11
1.4751946E+002
 21
6.6763725E+001
  0
LINE
  5
1d2
100
AcDbEntity
  8
1
100
AcDbLine
  6
CONTINUOUS
 62
7
 10
1.5551946E+002
 20
1.0061373E+002
 11
1.5551946E+002
 21
9.9263725E+001
  0
ARC
  5
1d3
100
AcDbEntity
  8
1
100
AcDbCircle
  6
CONTINUOUS
 62
7
 10
1.5351946E+002
 20
1.0061373E+002
 40
2.0
100
AcDbArc
 50
0.0
 51
9.0E+001
  0
ARC
  5
1d4
100
AcDbEntity
  8
1
100
AcDbCircle
  6
CONTINUOUS
 62
7
 10
1.5651946E+002
 20
9.9263725E+001
 40
1.0
100
AcDbArc
 50
1.8E+002
 51
2.7E+002
  0
LINE
  5
1d5
100
AcDbEntity
  8
1
100
AcDbLine
  6
CONTINUOUS
 62
7
 10
1.3991946E+002
 20
1.0971718E+002
 11
1.3991946E+002
 21
1.0386919E+002
  0
LINE
  5
1d6
100
AcDbEntity
  8
1
100
AcDbLine
  6
CONTINUOUS
 62
7
 10
1.4200563E+002
 20
1.1076372E+002
 11
1.5667946E+002
 21
1.1076372E+002
  0
ARC
  5
1d7
100
AcDbEntity
  8
1
100
AcDbCircle
  6
CONTINUOUS
 62
7
 10
1.5667946E+002
 20
1.0876372E+002
 40
2.0
100
AcDbArc
 50
0.0
 51
9.0E+001
  0
LINE
  5
1d8
100
AcDbEntity
  8
1
100
AcDbLine
  6
CONTINUOUS
 62
7
 10
1.4221946E+002
 20
1.2906373E+002
 11
1.4221946E+002
 21
1.1076372E+002
  0
ARC
  5
1d9
100
AcDbEntity
  8
1
100
AcDbCircle
  6
CONTINUOUS
 62
7
 10
1.4421946E+002
 20
1.2906373E+002
 40
2.0
100
AcDbArc
 50
9.0E+001
 51
1.8E+002
  0
ARC
  5
1da
100
AcDbEntity
  8
1
100
AcDbCircle
  6
CONTINUOUS
 62
7
 10
1.6037946E+002
 20
1.2906373E+002
 40
2.0
100
AcDbArc
 50
0.0
 51
9.0E+001
  0
LINE
  5
1db
100
AcDbEntity
  8
1
100
AcDbLine
  6
CONTINUOUS
 62
7
 10
1.7177946E+002
 20
1.0246373E+002
 11
1.7388237E+002
 21
1.0145433E+002
  0
ARC
  5
1dc
100
AcDbEntity
  8
1
100
AcDbCircle
  6
CONTINUOUS
 62
7
 10
1.7357946E+002
 20
1.0082326E+002
 40
7.0E-001
100
AcDbArc
 50
0.0
 51
6.4358994E+001
  0
ARC
  5
1dd
100
AcDbEntity
  8
1
100
AcDbCircle
  6
CONTINUOUS
 62
7
 10
1.6337946E+002
 20
1.0346373E+002
 40
1.0
100
AcDbArc
 50
1.8E+002
 51
2.7E+002
  0
LINE
  5
1de
100
AcDbEntity
  8
1
100
AcDbLine
  6
CONTINUOUS
 62
7
 10
1.4183586E+002
 20
1.1074282E+002
 11
1.4044969E+002
 21
1.1039628E+002
  0
ARC
  5
1df
100
AcDbEntity
  8
1
100
AcDbCircle
  6
CONTINUOUS
 62
7
 10
1.4061946E+002
 20
1.0971718E+002
 40
7.0E-001
100
AcDbArc
 50
1.0403624E+002
 51
1.8E+002
  0
ARC
  5
1e0
100
AcDbEntity
  8
1
100
AcDbCircle
  6
CONTINUOUS
 62
7
 10
1.4200563E+002
 20
1.1006373E+002
 40
7.0E-001
100
AcDbArc
 50
9.0E+001
 51
1.0403624E+002
  0
LINE
  5
1e1
100
AcDbEntity
  8
1
100
AcDbLine
  6
CONTINUOUS
 62
7
 10
1.404604E+002
 20
1.0318751E+002
 11
1.4284098E+002
 21
1.0263204E+002
  0
ARC
  5
1e2
100
AcDbEntity
  8
1
100
AcDbCircle
  6
CONTINUOUS
 62
7
 10
1.4061946E+002
 20
1.0386919E+002
 40
7.0E-001
100
AcDbArc
 50
1.8E+002
 51
2.5686598E+002
  0
ARC
  5
1e3
100
AcDbEntity
  8
1
100
AcDbCircle
  6
CONTINUOUS
 62
7
 10
1.4300004E+002
 20
1.0331373E+002
 40
7.0E-001
100
AcDbArc
 50
2.5686598E+002
 51
2.7E+002
  0
ARC
  5
1e4
100
AcDbEntity
  8
1
100
AcDbCircle
  6
CONTINUOUS
 62
7
 10
1.5081946E+002
 20
1.0161373E+002
 40
1.0
100
AcDbArc
 50
5.8211669E+001
 51
8.1373073E+001
  0
LINE
  5
1e5
100
AcDbEntity
  8
1
100
AcDbLine
  6
CENTERLINE
 62
6
 10
1.6678446E+002
 20
1.8684907E+002
 11
1.6678446E+002
 21
1.6764907E+002
  0
LINE
  5
1e6
100
AcDbEntity
  8
1
100
AcDbLine
  6
CENTERLINE
 62
6
 10
1.4751946E+002
 20
1.6366121E+002
 11
1.4751946E+002
 21
1.8684907E+002
  0
LINE
  5
1e7
100
AcDbEntity
  8
1
100
AcDbLine
  6
CENTERLINE
 62
6
 10
1.7755992E+002
 20
1.7724907E+002
 11
6.0743649E+001
 21
1.7724907E+002
  0
CIRCLE
  5
1e8
100
AcDbEntity
  8
1
100
AcDbCircle
  6
CONTINUOUS
 62
7
 10
1.6678446E+002
 20
1.7724907E+002
 40
3.6
  0
ARC
  5
1e9
100
AcDbEntity
  8
1
100
AcDbCircle
  6
CONTINUOUS
 62
7
 10
1.4751946E+002
 20
1.7724907E+002
 40
3.45
100
AcDbArc
 50
2.6134219E+002
 51
4.5865781E+002
  0
ARC
  5
1ea
100
AcDbEntity
  8
1
100
AcDbCircle
  6
CONTINUOUS
 62
7
 10
1.4737988E+002
 20
1.75802E+002
 40
2.0
100
AcDbArc
 50
2.0203632E+002
 51
2.5905429E+002
  0
LINE
  5
1eb
100
AcDbEntity
  8
1
100
AcDbLine
  6
CONTINUOUS
 62
7
 10
1.4548946E+002
 20
1.7925894E+002
 11
1.4548946E+002
 21
1.7523921E+002
  0
ARC
  5
1ec
100
AcDbEntity
  8
1
100
AcDbCircle
  6
CONTINUOUS
 62
7
 10
1.4598946E+002
 20
1.7523921E+002
 40
5.0E-001
100
AcDbArc
 50
1.8E+002
 51
2.0203632E+002
  0
ARC
  5
1ed
100
AcDbEntity
  8
1
100
AcDbCircle
  6
CONTINUOUS
 62
7
 10
1.4737988E+002
 20
1.7869614E+002
 40
2.0
100
AcDbArc
 50
1.0094571E+002
 51
1.5796368E+002
  0
ARC
  5
1ee
100
AcDbEntity
  8
1
100
AcDbCircle
  6
CONTINUOUS
 62
7
 10
1.4598946E+002
 20
1.7925894E+002
 40
5.0E-001
100
AcDbArc
 50
1.5796368E+002
 51
1.8E+002
  0
ARC
  5
1ef
100
AcDbEntity
  8
1
100
AcDbCircle
  6
CONTINUOUS
 62
7
 10
1.6667946E+002
 20
1.7724907E+002
 40
7.6
100
AcDbArc
 50
2.7E+002
 51
4.5E+002
  0
ARC
  5
1f0
100
AcDbEntity
  8
1
100
AcDbCircle
  6
CONTINUOUS
 62
7
 10
1.4751946E+002
 20
1.7724907E+002
 40
7.6
100
AcDbArc
 50
9.0E+001
 51
2.2098477E+002
  0
LINE
  5
1f1
100
AcDbEntity
  8
1
100
AcDbLine
  6
CONTINUOUS
 62
7
 10
1.4751946E+002
 20
1.8484907E+002
 11
1.6667946E+002
 21
1.8484907E+002
  0
LINE
  5
1f2
100
AcDbEntity
  8
1
100
AcDbLine
  6
CONTINUOUS
 62
7
 10
1.5053442E+002
 20
1.8084907E+002
 11
1.5848415E+002
 21
1.8084907E+002
  0
ARC
  5
1f3
100
AcDbEntity
  8
1
100
AcDbCircle
  6
CONTINUOUS
 62
7
 10
1.4751946E+002
 20
1.7724907E+002
 40
4.5
100
AcDbArc
 50
5.6758097E+001
 51
1.2311552E+002
  0
ARC
  5
1f4
100
AcDbEntity
  8
1
100
AcDbCircle
  6
CONTINUOUS
 62
7
 10
1.4481946E+002
 20
1.8884907E+002
 40
8.0
100
AcDbArc
 50
2.5103443E+002
 51
2.6750432E+002
  0
ARC
  5
1f5
100
AcDbEntity
  8
1
100
AcDbCircle
  6
CONTINUOUS
 62
7
 10
1.4678813E+002
 20
1.7983171E+002
 40
5.0
100
AcDbArc
 50
1.2362351E+002
 51
1.5602647E+002
  0
LINE
  5
1f6
100
AcDbEntity
  8
1
100
AcDbLine
  6
CONTINUOUS
 62
7
 10
1.4221946E+002
 20
1.8128336E+002
 11
1.4221946E+002
 21
1.8186328E+002
  0
ARC
  5
1f7
100
AcDbEntity
  8
1
100
AcDbCircle
  6
CONTINUOUS
 62
7
 10
1.5053442E+002
 20
1.8184907E+002
 40
1.0
100
AcDbArc
 50
2.367581E+002
 51
2.7E+002
  0
ARC
  5
1f8
100
AcDbEntity
  8
1
100
AcDbCircle
  6
CONTINUOUS
 62
7
 10
1.4451465E+002
 20
1.8185571E+002
 40
1.0
100
AcDbArc
 50
2.6750432E+002
 51
3.0311552E+002
  0
ARC
  5
1f9
100
AcDbEntity
  8
1
100
AcDbCircle
  6
CONTINUOUS
 62
7
 10
1.6487946E+002
 20
1.7724907E+002
 40
7.3389373
100
AcDbArc
 50
1.0991641E+002
 51
1.506243E+002
  0
ARC
  5
1fa
100
AcDbEntity
  8
1
100
AcDbCircle
  6
CONTINUOUS
 62
7
 10
1.6167946E+002
 20
1.8414907E+002
 40
7.0E-001
100
AcDbArc
 50
0.0
 51
9.0E+001
  0
LINE
  5
1fb
100
AcDbEntity
  8
1
100
AcDbLine
  6
CONTINUOUS
 62
7
 10
1.5867946E+002
 20
1.6154907E+002
 11
1.5867946E+002
 21
1.811759E+002
  0
LINE
  5
1fc
100
AcDbEntity
  8
1
100
AcDbLine
  6
CONTINUOUS
 62
7
 10
1.5201946E+002
 20
1.6084907E+002
 11
1.5797946E+002
 21
1.6084907E+002
  0
LINE
  5
1fd
100
AcDbEntity
  8
1
100
AcDbLine
  6
CONTINUOUS
 62
7
 10
1.5331946E+002
 20
1.6484907E+002
 11
1.5667946E+002
 21
1.6484907E+002
  0
LINE
  5
1fe
100
AcDbEntity
  8
1
100
AcDbLine
  6
CONTINUOUS
 62
7
 10
1.5131946E+002
 20
1.6128746E+002
 11
1.5131946E+002
 21
1.6284907E+002
  0
ARC
  5
1ff
100
AcDbEntity
  8
1
100
AcDbCircle
  6
CONTINUOUS
 62
7
 10
1.5201946E+002
 20
1.6154907E+002
 40
7.0E-001
100
AcDbArc
 50
2.2098477E+002
 51
2.7E+002
  0
LINE
  5
200
100
AcDbEntity
  8
1
100
AcDbLine
  6
CONTINUOUS
 62
7
 10
1.5149104E+002
 20
1.6108997E+002
 11
1.4178234E+002
 21
1.7226455E+002
  0
ARC
  5
201
100
AcDbEntity
  8
1
100
AcDbCircle
  6
CONTINUOUS
 62
7
 10
1.5331946E+002
 20
1.6284907E+002
 40
2.0
100
AcDbArc
 50
9.0E+001
 51
1.8E+002
  0
LINE
  5
202
100
AcDbEntity
  8
1
100
AcDbLine
  6
CONTINUOUS
 62
7
 10
1.5231946E+002
 20
1.6154907E+002
 11
1.5231946E+002
 21
1.6284907E+002
  0
LINE
  5
203
100
AcDbEntity
  8
1
100
AcDbLine
  6
CONTINUOUS
 62
7
 10
1.5811946E+002
 20
1.6154907E+002
 11
1.5811946E+002
 21
1.6284907E+002
  0
ARC
  5
204
100
AcDbEntity
  8
1
100
AcDbCircle
  6
CONTINUOUS
 62
7
 10
1.5431946E+002
 20
1.6284907E+002
 40
2.0
100
AcDbArc
 50
9.0E+001
 51
1.8E+002
  0
ARC
  5
205
100
AcDbEntity
  8
1
100
AcDbCircle
  6
CONTINUOUS
 62
7
 10
1.5611946E+002
 20
1.6284907E+002
 40
2.0
100
AcDbArc
 50
0.0
 51
9.0E+001
  0
ARC
  5
206
100
AcDbEntity
  8
1
100
AcDbCircle
  6
CONTINUOUS
 62
7
 10
1.5667946E+002
 20
1.6284907E+002
 40
2.0
100
AcDbArc
 50
0.0
 51
9.0E+001
  0
ARC
  5
207
100
AcDbEntity
  8
1
100
AcDbCircle
  6
CONTINUOUS
 62
7
 10
1.5301946E+002
 20
1.6154907E+002
 40
7.0E-001
100
AcDbArc
 50
1.8E+002
 51
2.7E+002
  0
ARC
  5
208
100
AcDbEntity
  8
1
100
AcDbCircle
  6
CONTINUOUS
 62
7
 10
1.5741946E+002
 20
1.6154907E+002
 40
7.0E-001
100
AcDbArc
 50
2.7E+002
 51
3.6E+002
  0
ARC
  5
209
100
AcDbEntity
  8
1
100
AcDbCircle
  6
CONTINUOUS
 62
7
 10
1.5797946E+002
 20
1.6154907E+002
 40
7.0E-001
100
AcDbArc
 50
2.7E+002
 51
3.6E+002
  0
LINE
  5
20a
100
AcDbEntity
  8
1
100
AcDbLine
  6
CONTINUOUS
 62
7
 10
1.6667946E+002
 20
1.6964907E+002
 11
1.5867946E+002
 21
1.6964907E+002
  0
LINE
  5
20b
100
AcDbEntity
  8
1
100
AcDbLine
  6
CONTINUOUS
 62
7
 10
1.5571477E+002
 20
8.0857421E+001
 11
1.5571477E+002
 21
9.8670029E+001
  0
LINE
  5
20c
100
AcDbEntity
  8
1
100
AcDbLine
  6
CONTINUOUS
 62
7
 10
1.5907946E+002
 20
8.1263725E+001
 11
1.5907946E+002
 21
9.8263725E+001
  0
LINE
  5
20d
100
AcDbEntity
  8
1
100
AcDbLine
  6
CONTINUOUS
 62
7
 10
1.5848415E+002
 20
1.3106373E+002
 11
1.5848415E+002
 21
1.0962576E+002
  0
LINE
  5
20e
100
AcDbEntity
  8
1
100
AcDbLine
  6
CONTINUOUS
 62
7
 10
1.5021946E+002
 20
1.3106373E+002
 11
1.5021946E+002
 21
1.1076372E+002
  0
LINE
  5
20f
100
AcDbEntity
  8
1
100
AcDbLine
  6
CONTINUOUS
 62
7
 10
1.4481946E+002
 20
1.3106373E+002
 11
1.4481946E+002
 21
1.1076372E+002
  0
LINE
  5
210
100
AcDbEntity
  8
1
100
AcDbLine
  6
CONTINUOUS
 62
7
 10
1.4421946E+002
 20
4.8463725E+001
 11
1.6037946E+002
 21
4.8463725E+001
  0
LINE
  5
211
100
AcDbEntity
  8
1
100
AcDbLine
  6
CONTINUOUS
 62
7
 10
1.6067946E+002
 20
7.7063725E+001
 11
1.7177946E+002
 21
7.7063725E+001
  0
LINE
  5
212
100
AcDbEntity
  8
1
100
AcDbLine
  6
CONTINUOUS
 62
7
 10
1.5651946E+002
 20
8.1263725E+001
 11
1.6667946E+002
 21
8.1263725E+001
  0
LINE
  5
213
100
AcDbEntity
  8
1
100
AcDbLine
  6
CONTINUOUS
 62
7
 10
1.6237946E+002
 20
5.0463725E+001
 11
1.6237946E+002
 21
7.6063725E+001
  0
LINE
  5
214
100
AcDbEntity
  8
1
100
AcDbLine
  6
CONTINUOUS
 62
7
 10
1.5867946E+002
 20
7.0763725E+001
 11
1.5867946E+002
 21
7.5063725E+001
  0
ARC
  5
215
100
AcDbEntity
  8
1
100
AcDbCircle
  6
CONTINUOUS
 62
7
 10
1.6067946E+002
 20
7.5063725E+001
 40
2.0
100
AcDbArc
 50
9.0E+001
 51
1.8E+002
  0
LINE
  5
216
100
AcDbEntity
  8
1
100
AcDbLine
  6
CONTINUOUS
 62
7
 10
1.4300004E+002
 20
7.6913725E+001
 11
1.4546946E+002
 21
7.6913725E+001
  0
LINE
  5
217
100
AcDbEntity
  8
1
100
AcDbLine
  6
CONTINUOUS
 62
7
 10
1.5551946E+002
 20
7.8913725E+001
 11
1.5551946E+002
 21
8.0263725E+001
  0
ARC
  5
218
100
AcDbEntity
  8
1
100
AcDbCircle
  6
CONTINUOUS
 62
7
 10
1.5351946E+002
 20
7.8913725E+001
 40
2.0
100
AcDbArc
 50
2.7E+002
 51
3.6E+002
  0
ARC
  5
219
100
AcDbEntity
  8
1
100
AcDbCircle
  6
CONTINUOUS
 62
7
 10
1.5651946E+002
 20
8.0263725E+001
 40
1.0
100
AcDbArc
 50
9.0E+001
 51
1.8E+002
  0
LINE
  5
21a
100
AcDbEntity
  8
1
100
AcDbLine
  6
CONTINUOUS
 62
7
 10
1.3991946E+002
 20
6.9810268E+001
 11
1.3991946E+002
 21
7.5658255E+001
  0
LINE
  5
21b
100
AcDbEntity
  8
1
100
AcDbLine
  6
CONTINUOUS
 62
7
 10
1.4200563E+002
 20
6.8763725E+001
 11
1.5667946E+002
 21
6.8763725E+001
  0
ARC
  5
21c
100
AcDbEntity
  8
1
100
AcDbCircle
  6
CONTINUOUS
 62
7
 10
1.5667946E+002
 20
7.0763725E+001
 40
2.0
100
AcDbArc
 50
2.7E+002
 51
3.6E+002
  0
LINE
  5
21d
100
AcDbEntity
  8
1
100
AcDbLine
  6
CONTINUOUS
 62
7
 10
1.4221946E+002
 20
5.0463725E+001
 11
1.4221946E+002
 21
6.8763725E+001
  0
ARC
  5
21e
100
AcDbEntity
  8
1
100
AcDbCircle
  6
CONTINUOUS
 62
7
 10
1.4421946E+002
 20
5.0463725E+001
 40
2.0
100
AcDbArc
 50
1.8E+002
 51
2.7E+002
  0
ARC
  5
21f
100
AcDbEntity
  8
1
100
AcDbCircle
  6
CONTINUOUS
 62
7
 10
1.6037946E+002
 20
5.0463725E+001
 40
2.0
100
AcDbArc
 50
2.7E+002
 51
3.6E+002
  0
LINE
  5
220
100
AcDbEntity
  8
1
100
AcDbLine
  6
CONTINUOUS
 62
7
 10
1.7177946E+002
 20
7.7063725E+001
 11
1.7388237E+002
 21
7.8073123E+001
  0
ARC
  5
221
100
AcDbEntity
  8
1
100
AcDbCircle
  6
CONTINUOUS
 62
7
 10
1.7357946E+002
 20
7.8704189E+001
 40
7.0E-001
100
AcDbArc
 50
2.9564101E+002
 51
3.6E+002
  0
ARC
  5
222
100
AcDbEntity
  8
1
100
AcDbCircle
  6
CONTINUOUS
 62
7
 10
1.6337946E+002
 20
7.6063725E+001
 40
1.0
100
AcDbArc
 50
9.0E+001
 51
1.8E+002
  0
LINE
  5
223
100
AcDbEntity
  8
1
100
AcDbLine
  6
CONTINUOUS
 62
7
 10
1.4183586E+002
 20
6.8784625E+001
 11
1.4044969E+002
 21
6.9131169E+001
  0
ARC
  5
224
100
AcDbEntity
  8
1
100
AcDbCircle
  6
CONTINUOUS
 62
7
 10
1.4061946E+002
 20
6.9810268E+001
 40
7.0E-001
100
AcDbArc
 50
1.8E+002
 51
2.5596376E+002
  0
ARC
  5
225
100
AcDbEntity
  8
1
100
AcDbCircle
  6
CONTINUOUS
 62
7
 10
1.4200563E+002
 20
6.9463725E+001
 40
7.0E-001
100
AcDbArc
 50
2.5596376E+002
 51
2.7E+002
  0
LINE
  5
226
100
AcDbEntity
  8
1
100
AcDbLine
  6
CONTINUOUS
 62
7
 10
1.404604E+002
 20
7.6339944E+001
 11
1.4284098E+002
 21
7.6895414E+001
  0
ARC
  5
227
100
AcDbEntity
  8
1
100
AcDbCircle
  6
CONTINUOUS
 62
7
 10
1.4061946E+002
 20
7.5658255E+001
 40
7.0E-001
100
AcDbArc
 50
1.0313402E+002
 51
1.8E+002
  0
ARC
  5
228
100
AcDbEntity
  8
1
100
AcDbCircle
  6
CONTINUOUS
 62
7
 10
1.4300004E+002
 20
7.6213725E+001
 40
7.0E-001
100
AcDbArc
 50
9.0E+001
 51
1.0313402E+002
  0
ARC
  5
229
100
AcDbEntity
  8
1
100
AcDbCircle
  6
CONTINUOUS
 62
7
 10
1.5081946E+002
 20
7.7913725E+001
 40
1.0
100
AcDbArc
 50
2.7862693E+002
 51
3.0178833E+002
  0
LINE
  5
22a
100
AcDbEntity
  8
1
100
AcDbLine
  6
CONTINUOUS
 62
7
 10
1.5848415E+002
 20
4.8463725E+001
 11
1.5848415E+002
 21
6.9901694E+001
  0
LINE
  5
22b
100
AcDbEntity
  8
1
100
AcDbLine
  6
CONTINUOUS
 62
7
 10
1.5021946E+002
 20
4.8463725E+001
 11
1.5021946E+002
 21
6.8763725E+001
  0
LINE
  5
22c
100
AcDbEntity
  8
1
100
AcDbLine
  6
CONTINUOUS
 62
7
 10
1.4481946E+002
 20
4.8463725E+001
 11
1.4481946E+002
 21
6.8763725E+001
  0
LINE
  5
22d
100
AcDbEntity
  8
1
100
AcDbLine
  6
CONTINUOUS
 62
7
 10
1.2495446E+002
 20
1.3106373E+002
 11
1.4111446E+002
 21
1.3106373E+002
  0
LINE
  5
22e
100
AcDbEntity
  8
1
100
AcDbLine
  6
CONTINUOUS
 62
7
 10
1.4141446E+002
 20
1.0246373E+002
 11
1.4541946E+002
 21
1.0246373E+002
  0
LINE
  5
22f
100
AcDbEntity
  8
1
100
AcDbLine
  6
CONTINUOUS
 62
7
 10
1.3725446E+002
 20
9.8263725E+001
 11
1.3981446E+002
 21
9.8263725E+001
  0
LINE
  5
230
100
AcDbEntity
  8
1
100
AcDbLine
  6
CONTINUOUS
 62
7
 10
1.5501446E+002
 20
7.8704189E+001
 11
1.5501446E+002
 21
1.0082326E+002
  0
LINE
  5
231
100
AcDbEntity
  8
1
100
AcDbLine
  6
CONTINUOUS
 62
7
 10
1.3941446E+002
 20
1.0876372E+002
 11
1.3941446E+002
 21
1.0446373E+002
  0
ARC
  5
232
100
AcDbEntity
  8
1
100
AcDbCircle
  6
CONTINUOUS
 62
7
 10
1.4141446E+002
 20
1.0446373E+002
 40
2.0
100
AcDbArc
 50
1.8E+002
 51
2.7E+002
  0
LINE
  5
233
100
AcDbEntity
  8
1
100
AcDbLine
  6
CONTINUOUS
 62
7
 10
1.2373504E+002
 20
1.0261373E+002
 11
1.3425446E+002
 21
1.0261373E+002
  0
LINE
  5
234
100
AcDbEntity
  8
1
100
AcDbLine
  6
CENTERLINE
 62
6
 10
1.2825446E+002
 20
1.1276372E+002
 11
1.2825446E+002
 21
6.6763725E+001
  0
LINE
  5
235
100
AcDbEntity
  8
1
100
AcDbLine
  6
CONTINUOUS
 62
7
 10
1.3625446E+002
 20
1.0061373E+002
 11
1.3625446E+002
 21
9.9263725E+001
  0
ARC
  5
236
100
AcDbEntity
  8
1
100
AcDbCircle
  6
CONTINUOUS
 62
7
 10
1.3425446E+002
 20
1.0061373E+002
 40
2.0
100
AcDbArc
 50
0.0
 51
9.0E+001
  0
ARC
  5
237
100
AcDbEntity
  8
1
100
AcDbCircle
  6
CONTINUOUS
 62
7
 10
1.3725446E+002
 20
9.9263725E+001
 40
1.0
100
AcDbArc
 50
1.8E+002
 51
2.7E+002
  0
LINE
  5
238
100
AcDbEntity
  8
1
100
AcDbLine
  6
CONTINUOUS
 62
7
 10
1.2065446E+002
 20
1.0971718E+002
 11
1.2065446E+002
 21
1.0386919E+002
  0
LINE
  5
239
100
AcDbEntity
  8
1
100
AcDbLine
  6
CONTINUOUS
 62
7
 10
1.2274063E+002
 20
1.1076372E+002
 11
1.3205446E+002
 21
1.1076372E+002
  0
ARC
  5
23a
100
AcDbEntity
  8
1
100
AcDbCircle
  6
CONTINUOUS
 62
7
 10
1.3741446E+002
 20
1.0876372E+002
 40
2.0
100
AcDbArc
 50
0.0
 51
5.3437292
  0
LINE
  5
23b
100
AcDbEntity
  8
1
100
AcDbLine
  6
CONTINUOUS
 62
7
 10
1.2295446E+002
 20
1.2906373E+002
 11
1.2295446E+002
 21
1.1076372E+002
  0
ARC
  5
23c
100
AcDbEntity
  8
1
100
AcDbCircle
  6
CONTINUOUS
 62
7
 10
1.2495446E+002
 20
1.2906373E+002
 40
2.0
100
AcDbArc
 50
9.0E+001
 51
1.8E+002
  0
ARC
  5
23d
100
AcDbEntity
  8
1
100
AcDbCircle
  6
CONTINUOUS
 62
7
 10
1.4111446E+002
 20
1.2906373E+002
 40
2.0
100
AcDbArc
 50
3.90815E+001
 51
9.0E+001
  0
LINE
  5
23e
100
AcDbEntity
  8
1
100
AcDbLine
  6
CONTINUOUS
 62
7
 10
1.5251446E+002
 20
1.0246373E+002
 11
1.5461737E+002
 21
1.0145433E+002
  0
ARC
  5
23f
100
AcDbEntity
  8
1
100
AcDbCircle
  6
CONTINUOUS
 62
7
 10
1.5431446E+002
 20
1.0082326E+002
 40
7.0E-001
100
AcDbArc
 50
0.0
 51
6.4358994E+001
  0
ARC
  5
240
100
AcDbEntity
  8
1
100
AcDbCircle
  6
CONTINUOUS
 62
7
 10
1.4411446E+002
 20
1.0346373E+002
 40
1.0
100
AcDbArc
 50
2.3821167E+002
 51
2.7E+002
  0
LINE
  5
241
100
AcDbEntity
  8
1
100
AcDbLine
  6
CONTINUOUS
 62
7
 10
1.2257086E+002
 20
1.1074282E+002
 11
1.2118469E+002
 21
1.1039628E+002
  0
ARC
  5
242
100
AcDbEntity
  8
1
100
AcDbCircle
  6
CONTINUOUS
 62
7
 10
1.2135446E+002
 20
1.0971718E+002
 40
7.0E-001
100
AcDbArc
 50
1.0403624E+002
 51
1.8E+002
  0
ARC
  5
243
100
AcDbEntity
  8
1
100
AcDbCircle
  6
CONTINUOUS
 62
7
 10
1.2274063E+002
 20
1.1006373E+002
 40
7.0E-001
100
AcDbArc
 50
9.0E+001
 51
1.0403624E+002
  0
LINE
  5
244
100
AcDbEntity
  8
1
100
AcDbLine
  6
CONTINUOUS
 62
7
 10
1.211954E+002
 20
1.0318751E+002
 11
1.2357598E+002
 21
1.0263204E+002
  0
ARC
  5
245
100
AcDbEntity
  8
1
100
AcDbCircle
  6
CONTINUOUS
 62
7
 10
1.2135446E+002
 20
1.0386919E+002
 40
7.0E-001
100
AcDbArc
 50
1.8E+002
 51
2.5686598E+002
  0
ARC
  5
246
100
AcDbEntity
  8
1
100
AcDbCircle
  6
CONTINUOUS
 62
7
 10
1.2373504E+002
 20
1.0331373E+002
 40
7.0E-001
100
AcDbArc
 50
2.5686598E+002
 51
2.7E+002
  0
ARC
  5
247
100
AcDbEntity
  8
1
100
AcDbCircle
  6
CONTINUOUS
 62
7
 10
1.3155446E+002
 20
1.0161373E+002
 40
1.0
100
AcDbArc
 50
5.8211669E+001
 51
9.0E+001
  0
LINE
  5
248
100
AcDbEntity
  8
1
100
AcDbLine
  6
CONTINUOUS
 62
7
 10
1.3486444E+002
 20
1.2076372E+002
 11
1.3694562E+002
 21
1.2076372E+002
  0
LINE
  5
249
100
AcDbEntity
  8
1
100
AcDbLine
  6
CONTINUOUS
 62
7
 10
1.3205446E+002
 20
1.1076372E+002
 11
1.3287436E+002
 21
1.1896273E+002
  0
LINE
  5
24a
100
AcDbEntity
  8
1
100
AcDbLine
  6
CONTINUOUS
 62
7
 10
1.3894344E+002
 20
1.1885696E+002
 11
1.3941446E+002
 21
1.0876372E+002
  0
ARC
  5
24b
100
AcDbEntity
  8
1
100
AcDbCircle
  6
CONTINUOUS
 62
7
 10
1.3486444E+002
 20
1.1876372E+002
 40
2.0
100
AcDbArc
 50
9.0E+001
 51
1.7428941E+002
  0
ARC
  5
24c
100
AcDbEntity
  8
1
100
AcDbCircle
  6
CONTINUOUS
 62
7
 10
1.3694562E+002
 20
1.1876372E+002
 40
2.0
100
AcDbArc
 50
2.6718646
 51
9.0E+001
  0
LINE
  5
24d
100
AcDbEntity
  8
1
100
AcDbLine
  6
CONTINUOUS
 62
7
 10
1.2478972E+002
 20
1.0576372E+002
 11
1.3941446E+002
 21
1.0576372E+002
  0
LINE
  5
24e
100
AcDbEntity
  8
1
100
AcDbLine
  6
CONTINUOUS
 62
7
 10
1.3205446E+002
 20
1.1076372E+002
 11
1.3205446E+002
 21
1.0576372E+002
  0
LINE
  5
24f
100
AcDbEntity
  8
1
100
AcDbLine
  6
CONTINUOUS
 62
7
 10
1.3644977E+002
 20
8.0857421E+001
 11
1.3644977E+002
 21
9.8670029E+001
  0
LINE
  5
250
100
AcDbEntity
  8
1
100
AcDbLine
  6
CONTINUOUS
 62
7
 10
1.3981446E+002
 20
8.1263725E+001
 11
1.3981446E+002
 21
9.8263725E+001
  0
LINE
  5
251
100
AcDbEntity
  8
1
100
AcDbLine
  6
CONTINUOUS
 62
7
 10
1.3921915E+002
 20
1.3106373E+002
 11
1.3921915E+002
 21
1.1294896E+002
  0
LINE
  5
252
100
AcDbEntity
  8
1
100
AcDbLine
  6
CONTINUOUS
 62
7
 10
1.3095446E+002
 20
1.3106373E+002
 11
1.3095446E+002
 21
1.1076372E+002
  0
LINE
  5
253
100
AcDbEntity
  8
1
100
AcDbLine
  6
CONTINUOUS
 62
7
 10
1.2555446E+002
 20
1.3106373E+002
 11
1.2555446E+002
 21
1.1076372E+002
  0
LINE
  5
254
100
AcDbEntity
  8
1
100
AcDbLine
  6
CONTINUOUS
 62
7
 10
1.2495446E+002
 20
4.8463725E+001
 11
1.4111446E+002
 21
4.8463725E+001
  0
LINE
  5
255
100
AcDbEntity
  8
1
100
AcDbLine
  6
CONTINUOUS
 62
7
 10
1.4141446E+002
 20
7.7063725E+001
 11
1.4541946E+002
 21
7.7063725E+001
  0
LINE
  5
256
100
AcDbEntity
  8
1
100
AcDbLine
  6
CONTINUOUS
 62
7
 10
1.3725446E+002
 20
8.1263725E+001
 11
1.3981446E+002
 21
8.1263725E+001
  0
LINE
  5
257
100
AcDbEntity
  8
1
100
AcDbLine
  6
CONTINUOUS
 62
7
 10
1.3941446E+002
 20
7.0763725E+001
 11
1.3941446E+002
 21
7.5063725E+001
  0
ARC
  5
258
100
AcDbEntity
  8
1
100
AcDbCircle
  6
CONTINUOUS
 62
7
 10
1.4141446E+002
 20
7.5063725E+001
 40
2.0
100
AcDbArc
 50
9.0E+001
 51
1.8E+002
  0
LINE
  5
259
100
AcDbEntity
  8
1
100
AcDbLine
  6
CONTINUOUS
 62
7
 10
1.2373504E+002
 20
7.6913725E+001
 11
1.3425446E+002
 21
7.6913725E+001
  0
LINE
  5
25a
100
AcDbEntity
  8
1
100
AcDbLine
  6
CONTINUOUS
 62
7
 10
1.3625446E+002
 20
7.8913725E+001
 11
1.3625446E+002
 21
8.0263725E+001
  0
ARC
  5
25b
100
AcDbEntity
  8
1
100
AcDbCircle
  6
CONTINUOUS
 62
7
 10
1.3425446E+002
 20
7.8913725E+001
 40
2.0
100
AcDbArc
 50
2.7E+002
 51
3.6E+002
  0
ARC
  5
25c
100
AcDbEntity
  8
1
100
AcDbCircle
  6
CONTINUOUS
 62
7
 10
1.3725446E+002
 20
8.0263725E+001
 40
1.0
100
AcDbArc
 50
9.0E+001
 51
1.8E+002
  0
LINE
  5
25d
100
AcDbEntity
  8
1
100
AcDbLine
  6
CONTINUOUS
 62
7
 10
1.2065446E+002
 20
6.9810268E+001
 11
1.2065446E+002
 21
7.5658255E+001
  0
LINE
  5
25e
100
AcDbEntity
  8
1
100
AcDbLine
  6
CONTINUOUS
 62
7
 10
1.2274063E+002
 20
6.8763725E+001
 11
1.3205446E+002
 21
6.8763725E+001
  0
ARC
  5
25f
100
AcDbEntity
  8
1
100
AcDbCircle
  6
CONTINUOUS
 62
7
 10
1.3741446E+002
 20
7.0763725E+001
 40
2.0
100
AcDbArc
 50
3.5465627E+002
 51
3.6E+002
  0
LINE
  5
260
100
AcDbEntity
  8
1
100
AcDbLine
  6
CONTINUOUS
 62
7
 10
1.2295446E+002
 20
5.0463725E+001
 11
1.2295446E+002
 21
6.8763725E+001
  0
ARC
  5
261
100
AcDbEntity
  8
1
100
AcDbCircle
  6
CONTINUOUS
 62
7
 10
1.2495446E+002
 20
5.0463725E+001
 40
2.0
100
AcDbArc
 50
1.8E+002
 51
2.7E+002
  0
ARC
  5
262
100
AcDbEntity
  8
1
100
AcDbCircle
  6
CONTINUOUS
 62
7
 10
1.4111446E+002
 20
5.0463725E+001
 40
2.0
100
AcDbArc
 50
2.7E+002
 51
3.209185E+002
  0
LINE
  5
263
100
AcDbEntity
  8
1
100
AcDbLine
  6
CONTINUOUS
 62
7
 10
1.5251446E+002
 20
7.7063725E+001
 11
1.5461737E+002
 21
7.8073123E+001
  0
ARC
  5
264
100
AcDbEntity
  8
1
100
AcDbCircle
  6
CONTINUOUS
 62
7
 10
1.5431446E+002
 20
7.8704189E+001
 40
7.0E-001
100
AcDbArc
 50
2.9564101E+002
 51
3.6E+002
  0
ARC
  5
265
100
AcDbEntity
  8
1
100
AcDbCircle
  6
CONTINUOUS
 62
7
 10
1.4411446E+002
 20
7.6063725E+001
 40
1.0
100
AcDbArc
 50
9.0E+001
 51
1.2178833E+002
  0
LINE
  5
266
100
AcDbEntity
  8
1
100
AcDbLine
  6
CONTINUOUS
 62
7
 10
1.2257086E+002
 20
6.8784625E+001
 11
1.2118469E+002
 21
6.9131169E+001
  0
ARC
  5
267
100
AcDbEntity
  8
1
100
AcDbCircle
  6
CONTINUOUS
 62
7
 10
1.2135446E+002
 20
6.9810268E+001
 40
7.0E-001
100
AcDbArc
 50
1.8E+002
 51
2.5596376E+002
  0
ARC
  5
268
100
AcDbEntity
  8
1
100
AcDbCircle
  6
CONTINUOUS
 62
7
 10
1.2274063E+002
 20
6.9463725E+001
 40
7.0E-001
100
AcDbArc
 50
2.5596376E+002
 51
2.7E+002
  0
LINE
  5
269
100
AcDbEntity
  8
1
100
AcDbLine
  6
CONTINUOUS
 62
7
 10
1.211954E+002
 20
7.6339944E+001
 11
1.2357598E+002
 21
7.6895414E+001
  0
ARC
  5
26a
100
AcDbEntity
  8
1
100
AcDbCircle
  6
CONTINUOUS
 62
7
 10
1.2135446E+002
 20
7.5658255E+001
 40
7.0E-001
100
AcDbArc
 50
1.0313402E+002
 51
1.8E+002
  0
ARC
  5
26b
100
AcDbEntity
  8
1
100
AcDbCircle
  6
CONTINUOUS
 62
7
 10
1.2373504E+002
 20
7.6213725E+001
 40
7.0E-001
100
AcDbArc
 50
9.0E+001
 51
1.0313402E+002
  0
ARC
  5
26c
100
AcDbEntity
  8
1
100
AcDbCircle
  6
CONTINUOUS
 62
7
 10
1.3155446E+002
 20
7.7913725E+001
 40
1.0
100
AcDbArc
 50
2.7E+002
 51
3.0178833E+002
  0
LINE
  5
26d
100
AcDbEntity
  8
1
100
AcDbLine
  6
CONTINUOUS
 62
7
 10
1.3486444E+002
 20
5.8763725E+001
 11
1.3694562E+002
 21
5.8763725E+001
  0
LINE
  5
26e
100
AcDbEntity
  8
1
100
AcDbLine
  6
CONTINUOUS
 62
7
 10
1.3205446E+002
 20
6.8763725E+001
 11
1.3287436E+002
 21
6.0564718E+001
  0
LINE
  5
26f
100
AcDbEntity
  8
1
100
AcDbLine
  6
CONTINUOUS
 62
7
 10
1.3894344E+002
 20
6.0670493E+001
 11
1.3941446E+002
 21
7.0763725E+001
  0
ARC
  5
270
100
AcDbEntity
  8
1
100
AcDbCircle
  6
CONTINUOUS
 62
7
 10
1.3486444E+002
 20
6.0763725E+001
 40
2.0
100
AcDbArc
 50
1.8571059E+002
 51
2.7E+002
  0
ARC
  5
271
100
AcDbEntity
  8
1
100
AcDbCircle
  6
CONTINUOUS
 62
7
 10
1.3694562E+002
 20
6.0763725E+001
 40
2.0
100
AcDbArc
 50
2.7E+002
 51
3.5732814E+002
  0
LINE
  5
272
100
AcDbEntity
  8
1
100
AcDbLine
  6
CONTINUOUS
 62
7
 10
1.2478972E+002
 20
7.3763725E+001
 11
1.3941446E+002
 21
7.3763725E+001
  0
LINE
  5
273
100
AcDbEntity
  8
1
100
AcDbLine
  6
CONTINUOUS
 62
7
 10
1.3205446E+002
 20
6.8763725E+001
 11
1.3205446E+002
 21
7.3763725E+001
  0
LINE
  5
274
100
AcDbEntity
  8
1
100
AcDbLine
  6
CONTINUOUS
 62
7
 10
1.3921915E+002
 20
4.8463725E+001
 11
1.3921915E+002
 21
6.6578494E+001
  0
LINE
  5
275
100
AcDbEntity
  8
1
100
AcDbLine
  6
CONTINUOUS
 62
7
 10
1.3095446E+002
 20
4.8463725E+001
 11
1.3095446E+002
 21
6.8763725E+001
  0
LINE
  5
276
100
AcDbEntity
  8
1
100
AcDbLine
  6
CONTINUOUS
 62
7
 10
1.2555446E+002
 20
4.8463725E+001
 11
1.2555446E+002
 21
6.8763725E+001
  0
LINE
  5
277
100
AcDbEntity
  8
1
100
AcDbLine
  6
CONTINUOUS
 62
7
 10
1.0568946E+002
 20
1.3106373E+002
 11
1.2184946E+002
 21
1.3106373E+002
  0
LINE
  5
278
100
AcDbEntity
  8
1
100
AcDbLine
  6
CONTINUOUS
 62
7
 10
1.2214946E+002
 20
1.0246373E+002
 11
1.3324946E+002
 21
1.0246373E+002
  0
LINE
  5
279
100
AcDbEntity
  8
1
100
AcDbLine
  6
CONTINUOUS
 62
7
 10
1.1798946E+002
 20
9.8263725E+001
 11
1.2814946E+002
 21
9.8263725E+001
  0
LINE
  5
27a
100
AcDbEntity
  8
1
100
AcDbLine
  6
CONTINUOUS
 62
7
 10
1.3574946E+002
 20
7.8704189E+001
 11
1.3574946E+002
 21
1.0082326E+002
  0
LINE
  5
27b
100
AcDbEntity
  8
1
100
AcDbLine
  6
CONTINUOUS
 62
7
 10
1.2014946E+002
 20
1.0876372E+002
 11
1.2014946E+002
 21
1.0446373E+002
  0
ARC
  5
27c
100
AcDbEntity
  8
1
100
AcDbCircle
  6
CONTINUOUS
 62
7
 10
1.2214946E+002
 20
1.0446373E+002
 40
2.0
100
AcDbArc
 50
1.8E+002
 51
2.7E+002
  0
LINE
  5
27d
100
AcDbEntity
  8
1
100
AcDbLine
  6
CONTINUOUS
 62
7
 10
1.0447004E+002
 20
1.0261373E+002
 11
1.1498946E+002
 21
1.0261373E+002
  0
LINE
  5
27e
100
AcDbEntity
  8
1
100
AcDbLine
  6
CENTERLINE
 62
6
 10
1.0898946E+002
 20
1.1276372E+002
 11
1.0898946E+002
 21
6.6763725E+001
  0
LINE
  5
27f
100
AcDbEntity
  8
1
100
AcDbLine
  6
CONTINUOUS
 62
7
 10
1.1698946E+002
 20
1.0061373E+002
 11
1.1698946E+002
 21
9.9263725E+001
  0
ARC
  5
280
100
AcDbEntity
  8
1
100
AcDbCircle
  6
CONTINUOUS
 62
7
 10
1.1498946E+002
 20
1.0061373E+002
 40
2.0
100
AcDbArc
 50
0.0
 51
9.0E+001
  0
ARC
  5
281
100
AcDbEntity
  8
1
100
AcDbCircle
  6
CONTINUOUS
 62
7
 10
1.1798946E+002
 20
9.9263725E+001
 40
1.0
100
AcDbArc
 50
1.8E+002
 51
2.7E+002
  0
LINE
  5
282
100
AcDbEntity
  8
1
100
AcDbLine
  6
CONTINUOUS
 62
7
 10
1.0138946E+002
 20
1.0971718E+002
 11
1.0138946E+002
 21
1.0386919E+002
  0
LINE
  5
283
100
AcDbEntity
  8
1
100
AcDbLine
  6
CONTINUOUS
 62
7
 10
1.0347563E+002
 20
1.1076372E+002
 11
1.1278946E+002
 21
1.1076372E+002
  0
ARC
  5
284
100
AcDbEntity
  8
1
100
AcDbCircle
  6
CONTINUOUS
 62
7
 10
1.1814946E+002
 20
1.0876372E+002
 40
2.0
100
AcDbArc
 50
0.0
 51
5.3437292
  0
LINE
  5
285
100
AcDbEntity
  8
1
100
AcDbLine
  6
CONTINUOUS
 62
7
 10
1.0368946E+002
 20
1.2906373E+002
 11
1.0368946E+002
 21
1.1076372E+002
  0
ARC
  5
286
100
AcDbEntity
  8
1
100
AcDbCircle
  6
CONTINUOUS
 62
7
 10
1.0568946E+002
 20
1.2906373E+002
 40
2.0
100
AcDbArc
 50
9.0E+001
 51
1.8E+002
  0
ARC
  5
287
100
AcDbEntity
  8
1
100
AcDbCircle
  6
CONTINUOUS
 62
7
 10
1.2184946E+002
 20
1.2906373E+002
 40
2.0
100
AcDbArc
 50
3.90815E+001
 51
9.0E+001
  0
LINE
  5
288
100
AcDbEntity
  8
1
100
AcDbLine
  6
CONTINUOUS
 62
7
 10
1.3324946E+002
 20
1.0246373E+002
 11
1.3535237E+002
 21
1.0145433E+002
  0
ARC
  5
289
100
AcDbEntity
  8
1
100
AcDbCircle
  6
CONTINUOUS
 62
7
 10
1.3504946E+002
 20
1.0082326E+002
 40
7.0E-001
100
AcDbArc
 50
0.0
 51
6.4358994E+001
  0
ARC
  5
28a
100
AcDbEntity
  8
1
100
AcDbCircle
  6
CONTINUOUS
 62
7
 10
1.2484946E+002
 20
1.0346373E+002
 40
1.0
100
AcDbArc
 50
2.3821167E+002
 51
2.7E+002
  0
LINE
  5
28b
100
AcDbEntity
  8
1
100
AcDbLine
  6
CONTINUOUS
 62
7
 10
1.0330586E+002
 20
1.1074282E+002
 11
1.0191969E+002
 21
1.1039628E+002
  0
ARC
  5
28c
100
AcDbEntity
  8
1
100
AcDbCircle
  6
CONTINUOUS
 62
7
 10
1.0208946E+002
 20
1.0971718E+002
 40
7.0E-001
100
AcDbArc
 50
1.0403624E+002
 51
1.8E+002
  0
ARC
  5
28d
100
AcDbEntity
  8
1
100
AcDbCircle
  6
CONTINUOUS
 62
7
 10
1.0347563E+002
 20
1.1006373E+002
 40
7.0E-001
100
AcDbArc
 50
9.0E+001
 51
1.0403624E+002
  0
LINE
  5
28e
100
AcDbEntity
  8
1
100
AcDbLine
  6
CONTINUOUS
 62
7
 10
1.019304E+002
 20
1.0318751E+002
 11
1.0431098E+002
 21
1.0263204E+002
  0
ARC
  5
28f
100
AcDbEntity
  8
1
100
AcDbCircle
  6
CONTINUOUS
 62
7
 10
1.0208946E+002
 20
1.0386919E+002
 40
7.0E-001
100
AcDbArc
 50
1.8E+002
 51
2.5686598E+002
  0
ARC
  5
290
100
AcDbEntity
  8
1
100
AcDbCircle
  6
CONTINUOUS
 62
7
 10
1.0447004E+002
 20
1.0331373E+002
 40
7.0E-001
100
AcDbArc
 50
2.5686598E+002
 51
2.7E+002
  0
ARC
  5
291
100
AcDbEntity
  8
1
100
AcDbCircle
  6
CONTINUOUS
 62
7
 10
1.1228946E+002
 20
1.0161373E+002
 40
1.0
100
AcDbArc
 50
5.8211669E+001
 51
9.0E+001
  0
LINE
  5
292
100
AcDbEntity
  8
1
100
AcDbLine
  6
CONTINUOUS
 62
7
 10
1.1559944E+002
 20
1.2076372E+002
 11
1.1768062E+002
 21
1.2076372E+002
  0
LINE
  5
293
100
AcDbEntity
  8
1
100
AcDbLine
  6
CONTINUOUS
 62
7
 10
1.1278946E+002
 20
1.1076372E+002
 11
1.1360936E+002
 21
1.1896273E+002
  0
LINE
  5
294
100
AcDbEntity
  8
1
100
AcDbLine
  6
CONTINUOUS
 62
7
 10
1.1967844E+002
 20
1.1885696E+002
 11
1.2014946E+002
 21
1.0876372E+002
  0
ARC
  5
295
100
AcDbEntity
  8
1
100
AcDbCircle
  6
CONTINUOUS
 62
7
 10
1.1559944E+002
 20
1.1876372E+002
 40
2.0
100
AcDbArc
 50
9.0E+001
 51
1.7428941E+002
  0
ARC
  5
296
100
AcDbEntity
  8
1
100
AcDbCircle
  6
CONTINUOUS
 62
7
 10
1.1768062E+002
 20
1.1876372E+002
 40
2.0
100
AcDbArc
 50
2.6718646
 51
9.0E+001
  0
LINE
  5
297
100
AcDbEntity
  8
1
100
AcDbLine
  6
CONTINUOUS
 62
7
 10
1.0552472E+002
 20
1.0576372E+002
 11
1.2014946E+002
 21
1.0576372E+002
  0
LINE
  5
298
100
AcDbEntity
  8
1
100
AcDbLine
  6
CONTINUOUS
 62
7
 10
1.1278946E+002
 20
1.1076372E+002
 11
1.1278946E+002
 21
1.0576372E+002
  0
LINE
  5
299
100
AcDbEntity
  8
1
100
AcDbLine
  6
CONTINUOUS
 62
7
 10
1.1718477E+002
 20
8.0857421E+001
 11
1.1718477E+002
 21
9.8670029E+001
  0
LINE
  5
29a
100
AcDbEntity
  8
1
100
AcDbLine
  6
CONTINUOUS
 62
7
 10
1.2054946E+002
 20
8.1263725E+001
 11
1.2054946E+002
 21
9.8263725E+001
  0
LINE
  5
29b
100
AcDbEntity
  8
1
100
AcDbLine
  6
CONTINUOUS
 62
7
 10
1.1995415E+002
 20
1.3106373E+002
 11
1.1995415E+002
 21
1.1294896E+002
  0
LINE
  5
29c
100
AcDbEntity
  8
1
100
AcDbLine
  6
CONTINUOUS
 62
7
 10
1.1168946E+002
 20
1.3106373E+002
 11
1.1168946E+002
 21
1.1076372E+002
  0
LINE
  5
29d
100
AcDbEntity
  8
1
100
AcDbLine
  6
CONTINUOUS
 62
7
 10
1.0628946E+002
 20
1.3106373E+002
 11
1.0628946E+002
 21
1.1076372E+002
  0
LINE
  5
29e
100
AcDbEntity
  8
1
100
AcDbLine
  6
CONTINUOUS
 62
7
 10
1.0568946E+002
 20
4.8463725E+001
 11
1.2184946E+002
 21
4.8463725E+001
  0
LINE
  5
29f
100
AcDbEntity
  8
1
100
AcDbLine
  6
CONTINUOUS
 62
7
 10
1.2214946E+002
 20
7.7063725E+001
 11
1.3324946E+002
 21
7.7063725E+001
  0
LINE
  5
2a0
100
AcDbEntity
  8
1
100
AcDbLine
  6
CONTINUOUS
 62
7
 10
1.1798946E+002
 20
8.1263725E+001
 11
1.2814946E+002
 21
8.1263725E+001
  0
LINE
  5
2a1
100
AcDbEntity
  8
1
100
AcDbLine
  6
CONTINUOUS
 62
7
 10
1.2014946E+002
 20
7.0763725E+001
 11
1.2014946E+002
 21
7.5063725E+001
  0
ARC
  5
2a2
100
AcDbEntity
  8
1
100
AcDbCircle
  6
CONTINUOUS
 62
7
 10
1.2214946E+002
 20
7.5063725E+001
 40
2.0
100
AcDbArc
 50
9.0E+001
 51
1.8E+002
  0
LINE
  5
2a3
100
AcDbEntity
  8
1
100
AcDbLine
  6
CONTINUOUS
 62
7
 10
1.0447004E+002
 20
7.6913725E+001
 11
1.1498946E+002
 21
7.6913725E+001
  0
LINE
  5
2a4
100
AcDbEntity
  8
1
100
AcDbLine
  6
CONTINUOUS
 62
7
 10
1.1698946E+002
 20
7.8913725E+001
 11
1.1698946E+002
 21
8.0263725E+001
  0
ARC
  5
2a5
100
AcDbEntity
  8
1
100
AcDbCircle
  6
CONTINUOUS
 62
7
 10
1.1498946E+002
 20
7.8913725E+001
 40
2.0
100
AcDbArc
 50
2.7E+002
 51
3.6E+002
  0
ARC
  5
2a6
100
AcDbEntity
  8
1
100
AcDbCircle
  6
CONTINUOUS
 62
7
 10
1.1798946E+002
 20
8.0263725E+001
 40
1.0
100
AcDbArc
 50
9.0E+001
 51
1.8E+002
  0
LINE
  5
2a7
100
AcDbEntity
  8
1
100
AcDbLine
  6
CONTINUOUS
 62
7
 10
1.0138946E+002
 20
6.9810268E+001
 11
1.0138946E+002
 21
7.5658255E+001
  0
LINE
  5
2a8
100
AcDbEntity
  8
1
100
AcDbLine
  6
CONTINUOUS
 62
7
 10
1.0347563E+002
 20
6.8763725E+001
 11
1.1278946E+002
 21
6.8763725E+001
  0
ARC
  5
2a9
100
AcDbEntity
  8
1
100
AcDbCircle
  6
CONTINUOUS
 62
7
 10
1.1814946E+002
 20
7.0763725E+001
 40
2.0
100
AcDbArc
 50
3.5465627E+002
 51
3.6E+002
  0
LINE
  5
2aa
100
AcDbEntity
  8
1
100
AcDbLine
  6
CONTINUOUS
 62
7
 10
1.0368946E+002
 20
5.0463725E+001
 11
1.0368946E+002
 21
6.8763725E+001
  0
ARC
  5
2ab
100
AcDbEntity
  8
1
100
AcDbCircle
  6
CONTINUOUS
 62
7
 10
1.0568946E+002
 20
5.0463725E+001
 40
2.0
100
AcDbArc
 50
1.8E+002
 51
2.7E+002
  0
ARC
  5
2ac
100
AcDbEntity
  8
1
100
AcDbCircle
  6
CONTINUOUS
 62
7
 10
1.2184946E+002
 20
5.0463725E+001
 40
2.0
100
AcDbArc
 50
2.7E+002
 51
3.209185E+002
  0
LINE
  5
2ad
100
AcDbEntity
  8
1
100
AcDbLine
  6
CONTINUOUS
 62
7
 10
1.3324946E+002
 20
7.7063725E+001
 11
1.3535237E+002
 21
7.8073123E+001
  0
ARC
  5
2ae
100
AcDbEntity
  8
1
100
AcDbCircle
  6
CONTINUOUS
 62
7
 10
1.3504946E+002
 20
7.8704189E+001
 40
7.0E-001
100
AcDbArc
 50
2.9564101E+002
 51
3.6E+002
  0
ARC
  5
2af
100
AcDbEntity
  8
1
100
AcDbCircle
  6
CONTINUOUS
 62
7
 10
1.2484946E+002
 20
7.6063725E+001
 40
1.0
100
AcDbArc
 50
9.0E+001
 51
1.2178833E+002
  0
LINE
  5
2b0
100
AcDbEntity
  8
1
100
AcDbLine
  6
CONTINUOUS
 62
7
 10
1.0330586E+002
 20
6.8784625E+001
 11
1.0191969E+002
 21
6.9131169E+001
  0
ARC
  5
2b1
100
AcDbEntity
  8
1
100
AcDbCircle
  6
CONTINUOUS
 62
7
 10
1.0208946E+002
 20
6.9810268E+001
 40
7.0E-001
100
AcDbArc
 50
1.8E+002
 51
2.5596376E+002
  0
ARC
  5
2b2
100
AcDbEntity
  8
1
100
AcDbCircle
  6
CONTINUOUS
 62
7
 10
1.0347563E+002
 20
6.9463725E+001
 40
7.0E-001
100
AcDbArc
 50
2.5596376E+002
 51
2.7E+002
  0
LINE
  5
2b3
100
AcDbEntity
  8
1
100
AcDbLine
  6
CONTINUOUS
 62
7
 10
1.019304E+002
 20
7.6339944E+001
 11
1.0431098E+002
 21
7.6895414E+001
  0
ARC
  5
2b4
100
AcDbEntity
  8
1
100
AcDbCircle
  6
CONTINUOUS
 62
7
 10
1.0208946E+002
 20
7.5658255E+001
 40
7.0E-001
100
AcDbArc
 50
1.0313402E+002
 51
1.8E+002
  0
ARC
  5
2b5
100
AcDbEntity
  8
1
100
AcDbCircle
  6
CONTINUOUS
 62
7
 10
1.0447004E+002
 20
7.6213725E+001
 40
7.0E-001
100
AcDbArc
 50
9.0E+001
 51
1.0313402E+002
  0
ARC
  5
2b6
100
AcDbEntity
  8
1
100
AcDbCircle
  6
CONTINUOUS
 62
7
 10
1.1228946E+002
 20
7.7913725E+001
 40
1.0
100
AcDbArc
 50
2.7E+002
 51
3.0178833E+002
  0
LINE
  5
2b7
100
AcDbEntity
  8
1
100
AcDbLine
  6
CONTINUOUS
 62
7
 10
1.1559944E+002
 20
5.8763725E+001
 11
1.1768062E+002
 21
5.8763725E+001
  0
LINE
  5
2b8
100
AcDbEntity
  8
1
100
AcDbLine
  6
CONTINUOUS
 62
7
 10
1.1278946E+002
 20
6.8763725E+001
 11
1.1360936E+002
 21
6.0564718E+001
  0
LINE
  5
2b9
100
AcDbEntity
  8
1
100
AcDbLine
  6
CONTINUOUS
 62
7
 10
1.1967844E+002
 20
6.0670493E+001
 11
1.2014946E+002
 21
7.0763725E+001
  0
ARC
  5
2ba
100
AcDbEntity
  8
1
100
AcDbCircle
  6
CONTINUOUS
 62
7
 10
1.1559944E+002
 20
6.0763725E+001
 40
2.0
100
AcDbArc
 50
1.8571059E+002
 51
2.7E+002
  0
ARC
  5
2bb
100
AcDbEntity
  8
1
100
AcDbCircle
  6
CONTINUOUS
 62
7
 10
1.1768062E+002
 20
6.0763725E+001
 40
2.0
100
AcDbArc
 50
2.7E+002
 51
3.5732814E+002
  0
LINE
  5
2bc
100
AcDbEntity
  8
1
100
AcDbLine
  6
CONTINUOUS
 62
7
 10
1.0552472E+002
 20
7.3763725E+001
 11
1.2014946E+002
 21
7.3763725E+001
  0
LINE
  5
2bd
100
AcDbEntity
  8
1
100
AcDbLine
  6
CONTINUOUS
 62
7
 10
1.1278946E+002
 20
6.8763725E+001
 11
1.1278946E+002
 21
7.3763725E+001
  0
LINE
  5
2be
100
AcDbEntity
  8
1
100
AcDbLine
  6
CONTINUOUS
 62
7
 10
1.1995415E+002
 20
4.8463725E+001
 11
1.1995415E+002
 21
6.6578494E+001
  0
LINE
  5
2bf
100
AcDbEntity
  8
1
100
AcDbLine
  6
CONTINUOUS
 62
7
 10
1.1168946E+002
 20
4.8463725E+001
 11
1.1168946E+002
 21
6.8763725E+001
  0
LINE
  5
2c0
100
AcDbEntity
  8
1
100
AcDbLine
  6
CONTINUOUS
 62
7
 10
1.0628946E+002
 20
4.8463725E+001
 11
1.0628946E+002
 21
6.8763725E+001
  0
LINE
  5
2c1
100
AcDbEntity
  8
1
100
AcDbLine
  6
CONTINUOUS
 62
7
 10
8.642446E+001
 20
1.3106373E+002
 11
1.0258446E+002
 21
1.3106373E+002
  0
LINE
  5
2c2
100
AcDbEntity
  8
1
100
AcDbLine
  6
CONTINUOUS
 62
7
 10
1.0288446E+002
 20
1.0246373E+002
 11
1.1398446E+002
 21
1.0246373E+002
  0
LINE
  5
2c3
100
AcDbEntity
  8
1
100
AcDbLine
  6
CONTINUOUS
 62
7
 10
9.872446E+001
 20
9.8263725E+001
 11
1.0888446E+002
 21
9.8263725E+001
  0
LINE
  5
2c4
100
AcDbEntity
  8
1
100
AcDbLine
  6
CONTINUOUS
 62
7
 10
1.1648446E+002
 20
7.8704189E+001
 11
1.1648446E+002
 21
1.0082326E+002
  0
LINE
  5
2c5
100
AcDbEntity
  8
1
100
AcDbLine
  6
CONTINUOUS
 62
7
 10
1.0088446E+002
 20
1.0876372E+002
 11
1.0088446E+002
 21
1.0446373E+002
  0
ARC
  5
2c6
100
AcDbEntity
  8
1
100
AcDbCircle
  6
CONTINUOUS
 62
7
 10
1.0288446E+002
 20
1.0446373E+002
 40
2.0
100
AcDbArc
 50
1.8E+002
 51
2.7E+002
  0
LINE
  5
2c7
100
AcDbEntity
  8
1
100
AcDbLine
  6
CONTINUOUS
 62
7
 10
8.5205044E+001
 20
1.0261373E+002
 11
9.572446E+001
 21
1.0261373E+002
  0
LINE
  5
2c8
100
AcDbEntity
  8
1
100
AcDbLine
  6
CONTINUOUS
 62
7
 10
9.772446E+001
 20
1.0061373E+002
 11
9.772446E+001
 21
9.9263725E+001
  0
ARC
  5
2c9
100
AcDbEntity
  8
1
100
AcDbCircle
  6
CONTINUOUS
 62
7
 10
9.572446E+001
 20
1.0061373E+002
 40
2.0
100
AcDbArc
 50
0.0
 51
9.0E+001
  0
ARC
  5
2ca
100
AcDbEntity
  8
1
100
AcDbCircle
  6
CONTINUOUS
 62
7
 10
9.872446E+001
 20
9.9263725E+001
 40
1.0
100
AcDbArc
 50
1.8E+002
 51
2.7E+002
  0
LINE
  5
2cb
100
AcDbEntity
  8
1
100
AcDbLine
  6
CONTINUOUS
 62
7
 10
8.212446E+001
 20
1.0971718E+002
 11
8.212446E+001
 21
1.0386919E+002
  0
LINE
  5
2cc
100
AcDbEntity
  8
1
100
AcDbLine
  6
CONTINUOUS
 62
7
 10
8.4210634E+001
 20
1.1076372E+002
 11
9.352446E+001
 21
1.1076372E+002
  0
ARC
  5
2cd
100
AcDbEntity
  8
1
100
AcDbCircle
  6
CONTINUOUS
 62
7
 10
9.888446E+001
 20
1.0876372E+002
 40
2.0
100
AcDbArc
 50
0.0
 51
5.3437292
  0
LINE
  5
2ce
100
AcDbEntity
  8
1
100
AcDbLine
  6
CONTINUOUS
 62
7
 10
8.442446E+001
 20
1.2906373E+002
 11
8.442446E+001
 21
1.1076372E+002
  0
ARC
  5
2cf
100
AcDbEntity
  8
1
100
AcDbCircle
  6
CONTINUOUS
 62
7
 10
8.642446E+001
 20
1.2906373E+002
 40
2.0
100
AcDbArc
 50
9.0E+001
 51
1.8E+002
  0
ARC
  5
2d0
100
AcDbEntity
  8
1
100
AcDbCircle
  6
CONTINUOUS
 62
7
 10
1.0258446E+002
 20
1.2906373E+002
 40
2.0
100
AcDbArc
 50
3.90815E+001
 51
9.0E+001
  0
LINE
  5
2d1
100
AcDbEntity
  8
1
100
AcDbLine
  6
CONTINUOUS
 62
7
 10
1.1398446E+002
 20
1.0246373E+002
 11
1.1608737E+002
 21
1.0145433E+002
  0
ARC
  5
2d2
100
AcDbEntity
  8
1
100
AcDbCircle
  6
CONTINUOUS
 62
7
 10
1.1578446E+002
 20
1.0082326E+002
 40
7.0E-001
100
AcDbArc
 50
0.0
 51
6.4358994E+001
  0
ARC
  5
2d3
100
AcDbEntity
  8
1
100
AcDbCircle
  6
CONTINUOUS
 62
7
 10
1.0558446E+002
 20
1.0346373E+002
 40
1.0
100
AcDbArc
 50
2.3821167E+002
 51
2.7E+002
  0
LINE
  5
2d4
100
AcDbEntity
  8
1
100
AcDbLine
  6
CONTINUOUS
 62
7
 10
8.4040859E+001
 20
1.1074282E+002
 11
8.2654685E+001
 21
1.1039628E+002
  0
ARC
  5
2d5
100
AcDbEntity
  8
1
100
AcDbCircle
  6
CONTINUOUS
 62
7
 10
8.282446E+001
 20
1.0971718E+002
 40
7.0E-001
100
AcDbArc
 50
1.0403624E+002
 51
1.8E+002
  0
ARC
  5
2d6
100
AcDbEntity
  8
1
100
AcDbCircle
  6
CONTINUOUS
 62
7
 10
8.4210634E+001
 20
1.1006373E+002
 40
7.0E-001
100
AcDbArc
 50
9.0E+001
 51
1.0403624E+002
  0
LINE
  5
2d7
100
AcDbEntity
  8
1
100
AcDbLine
  6
CONTINUOUS
 62
7
 10
8.2665399E+001
 20
1.0318751E+002
 11
8.5045984E+001
 21
1.0263204E+002
  0
ARC
  5
2d8
100
AcDbEntity
  8
1
100
AcDbCircle
  6
CONTINUOUS
 62
7
 10
8.282446E+001
 20
1.0386919E+002
 40
7.0E-001
100
AcDbArc
 50
1.8E+002
 51
2.5686598E+002
  0
ARC
  5
2d9
100
AcDbEntity
  8
1
100
AcDbCircle
  6
CONTINUOUS
 62
7
 10
8.5205044E+001
 20
1.0331373E+002
 40
7.0E-001
100
AcDbArc
 50
2.5686598E+002
 51
2.7E+002
  0
ARC
  5
2da
100
AcDbEntity
  8
1
100
AcDbCircle
  6
CONTINUOUS
 62
7
 10
9.302446E+001
 20
1.0161373E+002
 40
1.0
100
AcDbArc
 50
5.8211669E+001
 51
9.0E+001
  0
LINE
  5
2db
100
AcDbEntity
  8
1
100
AcDbLine
  6
CONTINUOUS
 62
7
 10
9.6334435E+001
 20
1.2076372E+002
 11
9.8415617E+001
 21
1.2076372E+002
  0
LINE
  5
2dc
100
AcDbEntity
  8
1
100
AcDbLine
  6
CONTINUOUS
 62
7
 10
9.352446E+001
 20
1.1076372E+002
 11
9.4344361E+001
 21
1.1896273E+002
  0
LINE
  5
2dd
100
AcDbEntity
  8
1
100
AcDbLine
  6
CONTINUOUS
 62
7
 10
1.0041344E+002
 20
1.1885696E+002
 11
1.0088446E+002
 21
1.0876372E+002
  0
ARC
  5
2de
100
AcDbEntity
  8
1
100
AcDbCircle
  6
CONTINUOUS
 62
7
 10
9.6334435E+001
 20
1.1876372E+002
 40
2.0
100
AcDbArc
 50
9.0E+001
 51
1.7428941E+002
  0
ARC
  5
2df
100
AcDbEntity
  8
1
100
AcDbCircle
  6
CONTINUOUS
 62
7
 10
9.8415617E+001
 20
1.1876372E+002
 40
2.0
100
AcDbArc
 50
2.6718646
 51
9.0E+001
  0
LINE
  5
2e0
100
AcDbEntity
  8
1
100
AcDbLine
  6
CONTINUOUS
 62
7
 10
8.6259721E+001
 20
1.0576372E+002
 11
1.0088446E+002
 21
1.0576372E+002
  0
LINE
  5
2e1
100
AcDbEntity
  8
1
100
AcDbLine
  6
CONTINUOUS
 62
7
 10
9.352446E+001
 20
1.1076372E+002
 11
9.352446E+001
 21
1.0576372E+002
  0
LINE
  5
2e2
100
AcDbEntity
  8
1
100
AcDbLine
  6
CONTINUOUS
 62
7
 10
9.7919771E+001
 20
8.0857421E+001
 11
9.7919771E+001
 21
9.8670029E+001
  0
LINE
  5
2e3
100
AcDbEntity
  8
1
100
AcDbLine
  6
CONTINUOUS
 62
7
 10
1.0128446E+002
 20
8.1263725E+001
 11
1.0128446E+002
 21
9.8263725E+001
  0
LINE
  5
2e4
100
AcDbEntity
  8
1
100
AcDbLine
  6
CONTINUOUS
 62
7
 10
1.0068915E+002
 20
1.3106373E+002
 11
1.0068915E+002
 21
1.1294896E+002
  0
LINE
  5
2e5
100
AcDbEntity
  8
1
100
AcDbLine
  6
CONTINUOUS
 62
7
 10
9.242446E+001
 20
1.3106373E+002
 11
9.242446E+001
 21
1.1076372E+002
  0
LINE
  5
2e6
100
AcDbEntity
  8
1
100
AcDbLine
  6
CONTINUOUS
 62
7
 10
8.702446E+001
 20
1.3106373E+002
 11
8.702446E+001
 21
1.1076372E+002
  0
LINE
  5
2e7
100
AcDbEntity
  8
1
100
AcDbLine
  6
CONTINUOUS
 62
7
 10
8.642446E+001
 20
4.8463725E+001
 11
1.0258446E+002
 21
4.8463725E+001
  0
LINE
  5
2e8
100
AcDbEntity
  8
1
100
AcDbLine
  6
CONTINUOUS
 62
7
 10
1.0288446E+002
 20
7.7063725E+001
 11
1.1398446E+002
 21
7.7063725E+001
  0
LINE
  5
2e9
100
AcDbEntity
  8
1
100
AcDbLine
  6
CONTINUOUS
 62
7
 10
9.872446E+001
 20
8.1263725E+001
 11
1.0888446E+002
 21
8.1263725E+001
  0
LINE
  5
2ea
100
AcDbEntity
  8
1
100
AcDbLine
  6
CONTINUOUS
 62
7
 10
1.0088446E+002
 20
7.0763725E+001
 11
1.0088446E+002
 21
7.5063725E+001
  0
ARC
  5
2eb
100
AcDbEntity
  8
1
100
AcDbCircle
  6
CONTINUOUS
 62
7
 10
1.0288446E+002
 20
7.5063725E+001
 40
2.0
100
AcDbArc
 50
9.0E+001
 51
1.8E+002
  0
LINE
  5
2ec
100
AcDbEntity
  8
1
100
AcDbLine
  6
CONTINUOUS
 62
7
 10
8.5205044E+001
 20
7.6913725E+001
 11
9.572446E+001
 21
7.6913725E+001
  0
LINE
  5
2ed
100
AcDbEntity
  8
1
100
AcDbLine
  6
CONTINUOUS
 62
7
 10
9.772446E+001
 20
7.8913725E+001
 11
9.772446E+001
 21
8.0263725E+001
  0
ARC
  5
2ee
100
AcDbEntity
  8
1
100
AcDbCircle
  6
CONTINUOUS
 62
7
 10
9.572446E+001
 20
7.8913725E+001
 40
2.0
100
AcDbArc
 50
2.7E+002
 51
3.6E+002
  0
ARC
  5
2ef
100
AcDbEntity
  8
1
100
AcDbCircle
  6
CONTINUOUS
 62
7
 10
9.872446E+001
 20
8.0263725E+001
 40
1.0
100
AcDbArc
 50
9.0E+001
 51
1.8E+002
  0
LINE
  5
2f0
100
AcDbEntity
  8
1
100
AcDbLine
  6
CONTINUOUS
 62
7
 10
8.212446E+001
 20
6.9810268E+001
 11
8.212446E+001
 21
7.5658255E+001
  0
LINE
  5
2f1
100
AcDbEntity
  8
1
100
AcDbLine
  6
CONTINUOUS
 62
7
 10
8.4210634E+001
 20
6.8763725E+001
 11
9.352446E+001
 21
6.8763725E+001
  0
ARC
  5
2f2
100
AcDbEntity
  8
1
100
AcDbCircle
  6
CONTINUOUS
 62
7
 10
9.888446E+001
 20
7.0763725E+001
 40
2.0
100
AcDbArc
 50
3.5465627E+002
 51
3.6E+002
  0
LINE
  5
2f3
100
AcDbEntity
  8
1
100
AcDbLine
  6
CONTINUOUS
 62
7
 10
8.442446E+001
 20
5.0463725E+001
 11
8.442446E+001
 21
6.8763725E+001
  0
ARC
  5
2f4
100
AcDbEntity
  8
1
100
AcDbCircle
  6
CONTINUOUS
 62
7
 10
8.642446E+001
 20
5.0463725E+001
 40
2.0
100
AcDbArc
 50
1.8E+002
 51
2.7E+002
  0
ARC
  5
2f5
100
AcDbEntity
  8
1
100
AcDbCircle
  6
CONTINUOUS
 62
7
 10
1.0258446E+002
 20
5.0463725E+001
 40
2.0
100
AcDbArc
 50
2.7E+002
 51
3.209185E+002
  0
LINE
  5
2f6
100
AcDbEntity
  8
1
100
AcDbLine
  6
CONTINUOUS
 62
7
 10
1.1398446E+002
 20
7.7063725E+001
 11
1.1608737E+002
 21
7.8073123E+001
  0
ARC
  5
2f7
100
AcDbEntity
  8
1
100
AcDbCircle
  6
CONTINUOUS
 62
7
 10
1.1578446E+002
 20
7.8704189E+001
 40
7.0E-001
100
AcDbArc
 50
2.9564101E+002
 51
3.6E+002
  0
ARC
  5
2f8
100
AcDbEntity
  8
1
100
AcDbCircle
  6
CONTINUOUS
 62
7
 10
1.0558446E+002
 20
7.6063725E+001
 40
1.0
100
AcDbArc
 50
9.0E+001
 51
1.2178833E+002
  0
LINE
  5
2f9
100
AcDbEntity
  8
1
100
AcDbLine
  6
CONTINUOUS
 62
7
 10
8.4040859E+001
 20
6.8784625E+001
 11
8.2654685E+001
 21
6.9131169E+001
  0
ARC
  5
2fa
100
AcDbEntity
  8
1
100
AcDbCircle
  6
CONTINUOUS
 62
7
 10
8.282446E+001
 20
6.9810268E+001
 40
7.0E-001
100
AcDbArc
 50
1.8E+002
 51
2.5596376E+002
  0
ARC
  5
2fb
100
AcDbEntity
  8
1
100
AcDbCircle
  6
CONTINUOUS
 62
7
 10
8.4210634E+001
 20
6.9463725E+001
 40
7.0E-001
100
AcDbArc
 50
2.5596376E+002
 51
2.7E+002
  0
LINE
  5
2fc
100
AcDbEntity
  8
1
100
AcDbLine
  6
CONTINUOUS
 62
7
 10
8.2665399E+001
 20
7.6339944E+001
 11
8.5045984E+001
 21
7.6895414E+001
  0
ARC
  5
2fd
100
AcDbEntity
  8
1
100
AcDbCircle
  6
CONTINUOUS
 62
7
 10
8.282446E+001
 20
7.5658255E+001
 40
7.0E-001
100
AcDbArc
 50
1.0313402E+002
 51
1.8E+002
  0
ARC
  5
2fe
100
AcDbEntity
  8
1
100
AcDbCircle
  6
CONTINUOUS
 62
7
 10
8.5205044E+001
 20
7.6213725E+001
 40
7.0E-001
100
AcDbArc
 50
9.0E+001
 51
1.0313402E+002
  0
ARC
  5
2ff
100
AcDbEntity
  8
1
100
AcDbCircle
  6
CONTINUOUS
 62
7
 10
9.302446E+001
 20
7.7913725E+001
 40
1.0
100
AcDbArc
 50
2.7E+002
 51
3.0178833E+002
  0
LINE
  5
300
100
AcDbEntity
  8
1
100
AcDbLine
  6
CONTINUOUS
 62
7
 10
9.6334435E+001
 20
5.8763725E+001
 11
9.8415617E+001
 21
5.8763725E+001
  0
LINE
  5
301
100
AcDbEntity
  8
1
100
AcDbLine
  6
CONTINUOUS
 62
7
 10
9.352446E+001
 20
6.8763725E+001
 11
9.4344361E+001
 21
6.0564718E+001
  0
LINE
  5
302
100
AcDbEntity
  8
1
100
AcDbLine
  6
CONTINUOUS
 62
7
 10
1.0041344E+002
 20
6.0670493E+001
 11
1.0088446E+002
 21
7.0763725E+001
  0
ARC
  5
303
100
AcDbEntity
  8
1
100
AcDbCircle
  6
CONTINUOUS
 62
7
 10
9.6334435E+001
 20
6.0763725E+001
 40
2.0
100
AcDbArc
 50
1.8571059E+002
 51
2.7E+002
  0
ARC
  5
304
100
AcDbEntity
  8
1
100
AcDbCircle
  6
CONTINUOUS
 62
7
 10
9.8415617E+001
 20
6.0763725E+001
 40
2.0
100
AcDbArc
 50
2.7E+002
 51
3.5732814E+002
  0
LINE
  5
305
100
AcDbEntity
  8
1
100
AcDbLine
  6
CONTINUOUS
 62
7
 10
8.6259721E+001
 20
7.3763725E+001
 11
1.0088446E+002
 21
7.3763725E+001
  0
LINE
  5
306
100
AcDbEntity
  8
1
100
AcDbLine
  6
CONTINUOUS
 62
7
 10
9.352446E+001
 20
6.8763725E+001
 11
9.352446E+001
 21
7.3763725E+001
  0
LINE
  5
307
100
AcDbEntity
  8
1
100
AcDbLine
  6
CONTINUOUS
 62
7
 10
1.0068915E+002
 20
4.8463725E+001
 11
1.0068915E+002
 21
6.6578494E+001
  0
LINE
  5
308
100
AcDbEntity
  8
1
100
AcDbLine
  6
CONTINUOUS
 62
7
 10
9.242446E+001
 20
4.8463725E+001
 11
9.242446E+001
 21
6.8763725E+001
  0
LINE
  5
309
100
AcDbEntity
  8
1
100
AcDbLine
  6
CONTINUOUS
 62
7
 10
8.702446E+001
 20
4.8463725E+001
 11
8.702446E+001
 21
6.8763725E+001
  0
LINE
  5
30a
100
AcDbEntity
  8
1
100
AcDbLine
  6
CONTINUOUS
 62
7
 10
6.715946E+001
 20
1.3106373E+002
 11
8.331946E+001
 21
1.3106373E+002
  0
LINE
  5
30b
100
AcDbEntity
  8
1
100
AcDbLine
  6
CONTINUOUS
 62
7
 10
8.361946E+001
 20
1.0246373E+002
 11
9.471946E+001
 21
1.0246373E+002
  0
LINE
  5
30c
100
AcDbEntity
  8
1
100
AcDbLine
  6
CONTINUOUS
 62
7
 10
7.945946E+001
 20
9.8263725E+001
 11
8.961946E+001
 21
9.8263725E+001
  0
LINE
  5
30d
100
AcDbEntity
  8
1
100
AcDbLine
  6
CONTINUOUS
 62
7
 10
9.721946E+001
 20
7.8704189E+001
 11
9.721946E+001
 21
1.0082326E+002
  0
LINE
  5
30e
100
AcDbEntity
  8
1
100
AcDbLine
  6
CONTINUOUS
 62
7
 10
8.161946E+001
 20
1.0876372E+002
 11
8.161946E+001
 21
1.0446373E+002
  0
ARC
  5
30f
100
AcDbEntity
  8
1
100
AcDbCircle
  6
CONTINUOUS
 62
7
 10
8.361946E+001
 20
1.0446373E+002
 40
2.0
100
AcDbArc
 50
1.8E+002
 51
2.7E+002
  0
LINE
  5
310
100
AcDbEntity
  8
1
100
AcDbLine
  6
CONTINUOUS
 62
7
 10
6.5940044E+001
 20
1.0261373E+002
 11
7.645946E+001
 21
1.0261373E+002
  0
LINE
  5
311
100
AcDbEntity
  8
1
100
AcDbLine
  6
CONTINUOUS
 62
7
 10
7.845946E+001
 20
1.0061373E+002
 11
7.845946E+001
 21
9.9263725E+001
  0
ARC
  5
312
100
AcDbEntity
  8
1
100
AcDbCircle
  6
CONTINUOUS
 62
7
 10
7.645946E+001
 20
1.0061373E+002
 40
2.0
100
AcDbArc
 50
0.0
 51
9.0E+001
  0
ARC
  5
313
100
AcDbEntity
  8
1
100
AcDbCircle
  6
CONTINUOUS
 62
7
 10
7.945946E+001
 20
9.9263725E+001
 40
1.0
100
AcDbArc
 50
1.8E+002
 51
2.7E+002
  0
LINE
  5
314
100
AcDbEntity
  8
1
100
AcDbLine
  6
CONTINUOUS
 62
7
 10
6.285946E+001
 20
1.0971718E+002
 11
6.285946E+001
 21
1.0386919E+002
  0
LINE
  5
315
100
AcDbEntity
  8
1
100
AcDbLine
  6
CONTINUOUS
 62
7
 10
6.4945634E+001
 20
1.1076372E+002
 11
7.425946E+001
 21
1.1076372E+002
  0
ARC
  5
316
100
AcDbEntity
  8
1
100
AcDbCircle
  6
CONTINUOUS
 62
7
 10
7.961946E+001
 20
1.0876372E+002
 40
2.0
100
AcDbArc
 50
0.0
 51
5.3437292
  0
LINE
  5
317
100
AcDbEntity
  8
1
100
AcDbLine
  6
CONTINUOUS
 62
7
 10
6.515946E+001
 20
1.2906373E+002
 11
6.515946E+001
 21
1.1076372E+002
  0
ARC
  5
318
100
AcDbEntity
  8
1
100
AcDbCircle
  6
CONTINUOUS
 62
7
 10
6.715946E+001
 20
1.2906373E+002
 40
2.0
100
AcDbArc
 50
9.0E+001
 51
1.8E+002
  0
ARC
  5
319
100
AcDbEntity
  8
1
100
AcDbCircle
  6
CONTINUOUS
 62
7
 10
8.331946E+001
 20
1.2906373E+002
 40
2.0
100
AcDbArc
 50
3.90815E+001
 51
9.0E+001
  0
LINE
  5
31a
100
AcDbEntity
  8
1
100
AcDbLine
  6
CONTINUOUS
 62
7
 10
7.475946E+001
 20
7.7913725E+001
 11
7.475946E+001
 21
1.0161373E+002
  0
LINE
  5
31b
100
AcDbEntity
  8
1
100
AcDbLine
  6
CONTINUOUS
 62
7
 10
9.471946E+001
 20
1.0246373E+002
 11
9.6822372E+001
 21
1.0145433E+002
  0
ARC
  5
31c
100
AcDbEntity
  8
1
100
AcDbCircle
  6
CONTINUOUS
 62
7
 10
9.651946E+001
 20
1.0082326E+002
 40
7.0E-001
100
AcDbArc
 50
0.0
 51
6.4358994E+001
  0
ARC
  5
31d
100
AcDbEntity
  8
1
100
AcDbCircle
  6
CONTINUOUS
 62
7
 10
8.631946E+001
 20
1.0346373E+002
 40
1.0
100
AcDbArc
 50
2.3821167E+002
 51
2.7E+002
  0
LINE
  5
31e
100
AcDbEntity
  8
1
100
AcDbLine
  6
CONTINUOUS
 62
7
 10
6.4775859E+001
 20
1.1074282E+002
 11
6.3389685E+001
 21
1.1039628E+002
  0
ARC
  5
31f
100
AcDbEntity
  8
1
100
AcDbCircle
  6
CONTINUOUS
 62
7
 10
6.355946E+001
 20
1.0971718E+002
 40
7.0E-001
100
AcDbArc
 50
1.0403624E+002
 51
1.8E+002
  0
ARC
  5
320
100
AcDbEntity
  8
1
100
AcDbCircle
  6
CONTINUOUS
 62
7
 10
6.4945634E+001
 20
1.1006373E+002
 40
7.0E-001
100
AcDbArc
 50
9.0E+001
 51
1.0403624E+002
  0
LINE
  5
321
100
AcDbEntity
  8
1
100
AcDbLine
  6
CONTINUOUS
 62
7
 10
6.3400399E+001
 20
1.0318751E+002
 11
6.5780984E+001
 21
1.0263204E+002
  0
ARC
  5
322
100
AcDbEntity
  8
1
100
AcDbCircle
  6
CONTINUOUS
 62
7
 10
6.355946E+001
 20
1.0386919E+002
 40
7.0E-001
100
AcDbArc
 50
1.8E+002
 51
2.5686598E+002
  0
ARC
  5
323
100
AcDbEntity
  8
1
100
AcDbCircle
  6
CONTINUOUS
 62
7
 10
6.5940044E+001
 20
1.0331373E+002
 40
7.0E-001
100
AcDbArc
 50
2.5686598E+002
 51
2.7E+002
  0
ARC
  5
324
100
AcDbEntity
  8
1
100
AcDbCircle
  6
CONTINUOUS
 62
7
 10
7.375946E+001
 20
1.0161373E+002
 40
1.0
100
AcDbArc
 50
0.0
 51
9.0E+001
  0
LINE
  5
325
100
AcDbEntity
  8
1
100
AcDbLine
  6
CONTINUOUS
 62
7
 10
7.7069435E+001
 20
1.2076372E+002
 11
7.9150617E+001
 21
1.2076372E+002
  0
LINE
  5
326
100
AcDbEntity
  8
1
100
AcDbLine
  6
CONTINUOUS
 62
7
 10
7.425946E+001
 20
1.1076372E+002
 11
7.5079361E+001
 21
1.1896273E+002
  0
LINE
  5
327
100
AcDbEntity
  8
1
100
AcDbLine
  6
CONTINUOUS
 62
7
 10
8.1148443E+001
 20
1.1885696E+002
 11
8.161946E+001
 21
1.0876372E+002
  0
ARC
  5
328
100
AcDbEntity
  8
1
100
AcDbCircle
  6
CONTINUOUS
 62
7
 10
7.7069435E+001
 20
1.1876372E+002
 40
2.0
100
AcDbArc
 50
9.0E+001
 51
1.7428941E+002
  0
ARC
  5
329
100
AcDbEntity
  8
1
100
AcDbCircle
  6
CONTINUOUS
 62
7
 10
7.9150617E+001
 20
1.1876372E+002
 40
2.0
100
AcDbArc
 50
2.6718646
 51
9.0E+001
  0
LINE
  5
32a
100
AcDbEntity
  8
1
100
AcDbLine
  6
CONTINUOUS
 62
7
 10
6.6994721E+001
 20
1.0576372E+002
 11
8.161946E+001
 21
1.0576372E+002
  0
LINE
  5
32b
100
AcDbEntity
  8
1
100
AcDbLine
  6
CONTINUOUS
 62
7
 10
7.425946E+001
 20
1.1076372E+002
 11
7.425946E+001
 21
1.0576372E+002
  0
LINE
  5
32c
100
AcDbEntity
  8
1
100
AcDbLine
  6
CONTINUOUS
 62
7
 10
7.8654771E+001
 20
8.0857421E+001
 11
7.8654771E+001
 21
9.8670029E+001
  0
LINE
  5
32d
100
AcDbEntity
  8
1
100
AcDbLine
  6
CONTINUOUS
 62
7
 10
8.201946E+001
 20
8.1263725E+001
 11
8.201946E+001
 21
9.8263725E+001
  0
LINE
  5
32e
100
AcDbEntity
  8
1
100
AcDbLine
  6
CONTINUOUS
 62
7
 10
8.1424149E+001
 20
1.3106373E+002
 11
8.1424149E+001
 21
1.1294896E+002
  0
LINE
  5
32f
100
AcDbEntity
  8
1
100
AcDbLine
  6
CONTINUOUS
 62
7
 10
7.315946E+001
 20
1.3106373E+002
 11
7.315946E+001
 21
1.1076372E+002
  0
LINE
  5
330
100
AcDbEntity
  8
1
100
AcDbLine
  6
CONTINUOUS
 62
7
 10
6.775946E+001
 20
1.3106373E+002
 11
6.775946E+001
 21
1.1076372E+002
  0
LINE
  5
331
100
AcDbEntity
  8
1
100
AcDbLine
  6
CONTINUOUS
 62
7
 10
6.715946E+001
 20
4.8463725E+001
 11
8.331946E+001
 21
4.8463725E+001
  0
LINE
  5
332
100
AcDbEntity
  8
1
100
AcDbLine
  6
CONTINUOUS
 62
7
 10
8.361946E+001
 20
7.7063725E+001
 11
9.471946E+001
 21
7.7063725E+001
  0
LINE
  5
333
100
AcDbEntity
  8
1
100
AcDbLine
  6
CONTINUOUS
 62
7
 10
7.945946E+001
 20
8.1263725E+001
 11
8.961946E+001
 21
8.1263725E+001
  0
LINE
  5
334
100
AcDbEntity
  8
1
100
AcDbLine
  6
CONTINUOUS
 62
7
 10
8.161946E+001
 20
7.0763725E+001
 11
8.161946E+001
 21
7.5063725E+001
  0
ARC
  5
335
100
AcDbEntity
  8
1
100
AcDbCircle
  6
CONTINUOUS
 62
7
 10
8.361946E+001
 20
7.5063725E+001
 40
2.0
100
AcDbArc
 50
9.0E+001
 51
1.8E+002
  0
LINE
  5
336
100
AcDbEntity
  8
1
100
AcDbLine
  6
CONTINUOUS
 62
7
 10
6.5940044E+001
 20
7.6913725E+001
 11
7.645946E+001
 21
7.6913725E+001
  0
LINE
  5
337
100
AcDbEntity
  8
1
100
AcDbLine
  6
CONTINUOUS
 62
7
 10
7.845946E+001
 20
7.8913725E+001
 11
7.845946E+001
 21
8.0263725E+001
  0
ARC
  5
338
100
AcDbEntity
  8
1
100
AcDbCircle
  6
CONTINUOUS
 62
7
 10
7.645946E+001
 20
7.8913725E+001
 40
2.0
100
AcDbArc
 50
2.7E+002
 51
3.6E+002
  0
ARC
  5
339
100
AcDbEntity
  8
1
100
AcDbCircle
  6
CONTINUOUS
 62
7
 10
7.945946E+001
 20
8.0263725E+001
 40
1.0
100
AcDbArc
 50
9.0E+001
 51
1.8E+002
  0
LINE
  5
33a
100
AcDbEntity
  8
1
100
AcDbLine
  6
CONTINUOUS
 62
7
 10
6.285946E+001
 20
6.9810268E+001
 11
6.285946E+001
 21
7.5658255E+001
  0
LINE
  5
33b
100
AcDbEntity
  8
1
100
AcDbLine
  6
CONTINUOUS
 62
7
 10
6.4945634E+001
 20
6.8763725E+001
 11
7.425946E+001
 21
6.8763725E+001
  0
ARC
  5
33c
100
AcDbEntity
  8
1
100
AcDbCircle
  6
CONTINUOUS
 62
7
 10
7.961946E+001
 20
7.0763725E+001
 40
2.0
100
AcDbArc
 50
3.5465627E+002
 51
3.6E+002
  0
LINE
  5
33d
100
AcDbEntity
  8
1
100
AcDbLine
  6
CONTINUOUS
 62
7
 10
6.515946E+001
 20
5.0463725E+001
 11
6.515946E+001
 21
6.8763725E+001
  0
ARC
  5
33e
100
AcDbEntity
  8
1
100
AcDbCircle
  6
CONTINUOUS
 62
7
 10
6.715946E+001
 20
5.0463725E+001
 40
2.0
100
AcDbArc
 50
1.8E+002
 51
2.7E+002
  0
ARC
  5
33f
100
AcDbEntity
  8
1
100
AcDbCircle
  6
CONTINUOUS
 62
7
 10
8.331946E+001
 20
5.0463725E+001
 40
2.0
100
AcDbArc
 50
2.7E+002
 51
3.209185E+002
  0
LINE
  5
340
100
AcDbEntity
  8
1
100
AcDbLine
  6
CONTINUOUS
 62
7
 10
9.471946E+001
 20
7.7063725E+001
 11
9.6822372E+001
 21
7.8073123E+001
  0
ARC
  5
341
100
AcDbEntity
  8
1
100
AcDbCircle
  6
CONTINUOUS
 62
7
 10
9.651946E+001
 20
7.8704189E+001
 40
7.0E-001
100
AcDbArc
 50
2.9564101E+002
 51
3.6E+002
  0
ARC
  5
342
100
AcDbEntity
  8
1
100
AcDbCircle
  6
CONTINUOUS
 62
7
 10
8.631946E+001
 20
7.6063725E+001
 40
1.0
100
AcDbArc
 50
9.0E+001
 51
1.2178833E+002
  0
LINE
  5
343
100
AcDbEntity
  8
1
100
AcDbLine
  6
CONTINUOUS
 62
7
 10
6.4775859E+001
 20
6.8784625E+001
 11
6.3389685E+001
 21
6.9131169E+001
  0
ARC
  5
344
100
AcDbEntity
  8
1
100
AcDbCircle
  6
CONTINUOUS
 62
7
 10
6.355946E+001
 20
6.9810268E+001
 40
7.0E-001
100
AcDbArc
 50
1.8E+002
 51
2.5596376E+002
  0
ARC
  5
345
100
AcDbEntity
  8
1
100
AcDbCircle
  6
CONTINUOUS
 62
7
 10
6.4945634E+001
 20
6.9463725E+001
 40
7.0E-001
100
AcDbArc
 50
2.5596376E+002
 51
2.7E+002
  0
LINE
  5
346
100
AcDbEntity
  8
1
100
AcDbLine
  6
CONTINUOUS
 62
7
 10
6.3400399E+001
 20
7.6339944E+001
 11
6.5780984E+001
 21
7.6895414E+001
  0
ARC
  5
347
100
AcDbEntity
  8
1
100
AcDbCircle
  6
CONTINUOUS
 62
7
 10
6.355946E+001
 20
7.5658255E+001
 40
7.0E-001
100
AcDbArc
 50
1.0313402E+002
 51
1.8E+002
  0
ARC
  5
348
100
AcDbEntity
  8
1
100
AcDbCircle
  6
CONTINUOUS
 62
7
 10
6.5940044E+001
 20
7.6213725E+001
 40
7.0E-001
100
AcDbArc
 50
9.0E+001
 51
1.0313402E+002
  0
ARC
  5
349
100
AcDbEntity
  8
1
100
AcDbCircle
  6
CONTINUOUS
 62
7
 10
7.375946E+001
 20
7.7913725E+001
 40
1.0
100
AcDbArc
 50
2.7E+002
 51
3.6E+002
  0
LINE
  5
34a
100
AcDbEntity
  8
1
100
AcDbLine
  6
CONTINUOUS
 62
7
 10
7.7069435E+001
 20
5.8763725E+001
 11
7.9150617E+001
 21
5.8763725E+001
  0
LINE
  5
34b
100
AcDbEntity
  8
1
100
AcDbLine
  6
CONTINUOUS
 62
7
 10
7.425946E+001
 20
6.8763725E+001
 11
7.5079361E+001
 21
6.0564718E+001
  0
LINE
  5
34c
100
AcDbEntity
  8
1
100
AcDbLine
  6
CONTINUOUS
 62
7
 10
8.1148443E+001
 20
6.0670493E+001
 11
8.161946E+001
 21
7.0763725E+001
  0
ARC
  5
34d
100
AcDbEntity
  8
1
100
AcDbCircle
  6
CONTINUOUS
 62
7
 10
7.7069435E+001
 20
6.0763725E+001
 40
2.0
100
AcDbArc
 50
1.8571059E+002
 51
2.7E+002
  0
ARC
  5
34e
100
AcDbEntity
  8
1
100
AcDbCircle
  6
CONTINUOUS
 62
7
 10
7.9150617E+001
 20
6.0763725E+001
 40
2.0
100
AcDbArc
 50
2.7E+002
 51
3.5732814E+002
  0
LINE
  5
34f
100
AcDbEntity
  8
1
100
AcDbLine
  6
CONTINUOUS
 62
7
 10
6.6994721E+001
 20
7.3763725E+001
 11
8.161946E+001
 21
7.3763725E+001
  0
LINE
  5
350
100
AcDbEntity
  8
1
100
AcDbLine
  6
CONTINUOUS
 62
7
 10
7.425946E+001
 20
6.8763725E+001
 11
7.425946E+001
 21
7.3763725E+001
  0
LINE
  5
351
100
AcDbEntity
  8
1
100
AcDbLine
  6
CONTINUOUS
 62
7
 10
8.1424149E+001
 20
4.8463725E+001
 11
8.1424149E+001
 21
6.6578494E+001
  0
LINE
  5
352
100
AcDbEntity
  8
1
100
AcDbLine
  6
CONTINUOUS
 62
7
 10
7.315946E+001
 20
4.8463725E+001
 11
7.315946E+001
 21
6.8763725E+001
  0
LINE
  5
353
100
AcDbEntity
  8
1
100
AcDbLine
  6
CONTINUOUS
 62
7
 10
6.775946E+001
 20
4.8463725E+001
 11
6.775946E+001
 21
6.8763725E+001
  0
LINE
  5
354
100
AcDbEntity
  8
1
100
AcDbLine
  6
CENTERLINE
 62
6
 10
8.972446E+001
 20
1.1276372E+002
 11
8.972446E+001
 21
6.6763725E+001
  0
LINE
  5
355
100
AcDbEntity
  8
1
100
AcDbLine
  6
CENTERLINE
 62
6
 10
7.045946E+001
 20
1.1276372E+002
 11
7.045946E+001
 21
6.6763725E+001
  0
LINE
  5
356
100
AcDbEntity
  8
1
100
AcDbLine
  6
CONTINUOUS
 62
7
 10
7.390946E+001
 20
1.0260241E+002
 11
7.390946E+001
 21
7.6925039E+001
  0
LINE
  5
357
100
AcDbEntity
  8
1
100
AcDbLine
  6
CONTINUOUS
 62
7
 10
6.840946E+001
 20
1.0260241E+002
 11
6.840946E+001
 21
1.0251372E+002
  0
LINE
  5
358
100
AcDbEntity
  8
1
100
AcDbLine
  6
CONTINUOUS
 62
7
 10
6.8255907E+001
 20
7.7167278E+001
 11
6.840946E+001
 21
7.7013725E+001
  0
LINE
  5
359
100
AcDbEntity
  8
1
100
AcDbLine
  6
CONTINUOUS
 62
7
 10
6.810946E+001
 20
7.9906618E+001
 11
6.810946E+001
 21
7.7520832E+001
  0
LINE
  5
35a
100
AcDbEntity
  8
1
100
AcDbLine
  6
CONTINUOUS
 62
7
 10
6.8255907E+001
 20
8.0260172E+001
 11
6.840946E+001
 21
8.0413725E+001
  0
LINE
  5
35b
100
AcDbEntity
  8
1
100
AcDbLine
  6
CONTINUOUS
 62
7
 10
6.840946E+001
 20
7.7013725E+001
 11
6.840946E+001
 21
7.6913725E+001
  0
ARC
  5
35c
100
AcDbEntity
  8
1
100
AcDbCircle
  6
CONTINUOUS
 62
7
 10
6.860946E+001
 20
7.9906618E+001
 40
5.0E-001
100
AcDbArc
 50
1.35E+002
 51
1.8E+002
  0
ARC
  5
35d
100
AcDbEntity
  8
1
100
AcDbCircle
  6
CONTINUOUS
 62
7
 10
6.860946E+001
 20
7.7520832E+001
 40
5.0E-001
100
AcDbArc
 50
1.8E+002
 51
2.25E+002
  0
LINE
  5
35e
100
AcDbEntity
  8
1
100
AcDbLine
  6
CONTINUOUS
 62
7
 10
6.8255907E+001
 20
1.0236017E+002
 11
6.840946E+001
 21
1.0251372E+002
  0
LINE
  5
35f
100
AcDbEntity
  8
1
100
AcDbLine
  6
CONTINUOUS
 62
7
 10
6.810946E+001
 20
9.9620832E+001
 11
6.810946E+001
 21
1.0200662E+002
  0
LINE
  5
360
100
AcDbEntity
  8
1
100
AcDbLine
  6
CONTINUOUS
 62
7
 10
6.8255907E+001
 20
9.9267278E+001
 11
6.840946E+001
 21
9.9113725E+001
  0
ARC
  5
361
100
AcDbEntity
  8
1
100
AcDbCircle
  6
CONTINUOUS
 62
7
 10
6.860946E+001
 20
9.9620832E+001
 40
5.0E-001
100
AcDbArc
 50
1.8E+002
 51
2.25E+002
  0
ARC
  5
362
100
AcDbEntity
  8
1
100
AcDbCircle
  6
CONTINUOUS
 62
7
 10
6.860946E+001
 20
1.0200662E+002
 40
5.0E-001
100
AcDbArc
 50
1.35E+002
 51
1.8E+002
  0
LINE
  5
363
100
AcDbEntity
  8
1
100
AcDbLine
  6
CONTINUOUS
 62
7
 10
6.840946E+001
 20
9.9113725E+001
 11
6.840946E+001
 21
8.0413725E+001
  0
LINE
  5
364
100
AcDbEntity
  8
1
100
AcDbLine
  6
CONTINUOUS
 62
7
 10
1.5096946E+002
 20
1.0751372E+002
 11
1.5096946E+002
 21
7.2013725E+001
  0
LINE
  5
365
100
AcDbEntity
  8
1
100
AcDbLine
  6
CONTINUOUS
 62
7
 10
1.4376946E+002
 20
1.0246373E+002
 11
1.4376946E+002
 21
7.7063725E+001
  0
LINE
  5
366
100
AcDbEntity
  8
1
100
AcDbLine
  6
CONTINUOUS
 62
7
 10
1.3981446E+002
 20
9.8263725E+001
 11
1.4004924E+002
 21
9.9383368E+001
  0
LINE
  5
367
100
AcDbEntity
  8
1
100
AcDbLine
  6
CONTINUOUS
 62
7
 10
1.4004924E+002
 20
9.9383368E+001
 11
1.4102646E+002
 21
9.9853185E+001
  0
LINE
  5
368
100
AcDbEntity
  8
1
100
AcDbLine
  6
CONTINUOUS
 62
7
 10
1.4102646E+002
 20
9.9853185E+001
 11
1.4071638E+002
 21
1.0163849E+002
  0
LINE
  5
369
100
AcDbEntity
  8
1
100
AcDbLine
  6
CONTINUOUS
 62
7
 10
1.4071638E+002
 20
1.0163849E+002
 11
1.4158085E+002
 21
1.0246373E+002
  0
LINE
  5
36a
100
AcDbEntity
  8
1
100
AcDbLine
  6
CONTINUOUS
 62
7
 10
1.4071638E+002
 20
7.7888962E+001
 11
1.4158085E+002
 21
7.7063725E+001
  0
LINE
  5
36b
100
AcDbEntity
  8
1
100
AcDbLine
  6
CONTINUOUS
 62
7
 10
1.4102646E+002
 20
7.9674265E+001
 11
1.4071638E+002
 21
7.7888962E+001
  0
LINE
  5
36c
100
AcDbEntity
  8
1
100
AcDbLine
  6
CONTINUOUS
 62
7
 10
1.4004924E+002
 20
8.0144082E+001
 11
1.4102646E+002
 21
7.9674265E+001
  0
LINE
  5
36d
100
AcDbEntity
  8
1
100
AcDbLine
  6
CONTINUOUS
 62
7
 10
1.3981446E+002
 20
8.1263725E+001
 11
1.4004924E+002
 21
8.0144082E+001
  0
LINE
  5
36e
100
AcDbEntity
  8
1
100
AcDbLine
  6
CONTINUOUS
 62
7
 10
1.4546946E+002
 20
1.0751372E+002
 11
1.4546946E+002
 21
1.0251372E+002
  0
LINE
  5
36f
100
AcDbEntity
  8
1
100
AcDbLine
  6
CONTINUOUS
 62
7
 10
1.4596946E+002
 20
1.0851372E+002
 11
1.5046946E+002
 21
1.0851372E+002
  0
ARC
  5
370
100
AcDbEntity
  8
1
100
AcDbCircle
  6
CONTINUOUS
 62
7
 10
1.4671946E+002
 20
1.0751372E+002
 40
1.25
100
AcDbArc
 50
1.268699E+002
 51
1.8E+002
  0
ARC
  5
371
100
AcDbEntity
  8
1
100
AcDbCircle
  6
CONTINUOUS
 62
7
 10
1.4971946E+002
 20
1.0751372E+002
 40
1.25
100
AcDbArc
 50
0.0
 51
5.3130102E+001
  0
LINE
  5
372
100
AcDbEntity
  8
1
100
AcDbLine
  6
CONTINUOUS
 62
7
 10
1.4596946E+002
 20
7.1013725E+001
 11
1.5046946E+002
 21
7.1013725E+001
  0
ARC
  5
373
100
AcDbEntity
  8
1
100
AcDbCircle
  6
CONTINUOUS
 62
7
 10
1.4671946E+002
 20
7.2013725E+001
 40
1.25
100
AcDbArc
 50
1.8E+002
 51
2.331301E+002
  0
ARC
  5
374
100
AcDbEntity
  8
1
100
AcDbCircle
  6
CONTINUOUS
 62
7
 10
1.4971946E+002
 20
7.2013725E+001
 40
1.25
100
AcDbArc
 50
3.068699E+002
 51
3.6E+002
  0
LINE
  5
375
100
AcDbEntity
  8
1
100
AcDbLine
  6
CONTINUOUS
 62
7
 10
1.4531591E+002
 20
1.0236017E+002
 11
1.4546946E+002
 21
1.0251372E+002
  0
LINE
  5
376
100
AcDbEntity
  8
1
100
AcDbLine
  6
CONTINUOUS
 62
7
 10
1.4531591E+002
 20
9.9267278E+001
 11
1.4546946E+002
 21
9.9113725E+001
  0
LINE
  5
377
100
AcDbEntity
  8
1
100
AcDbLine
  6
CONTINUOUS
 62
7
 10
1.4516946E+002
 20
1.0200662E+002
 11
1.4516946E+002
 21
9.9620832E+001
  0
ARC
  5
378
100
AcDbEntity
  8
1
100
AcDbCircle
  6
CONTINUOUS
 62
7
 10
1.4566946E+002
 20
9.9620832E+001
 40
5.0E-001
100
AcDbArc
 50
1.8E+002
 51
2.25E+002
  0
ARC
  5
379
100
AcDbEntity
  8
1
100
AcDbCircle
  6
CONTINUOUS
 62
7
 10
1.4566946E+002
 20
1.0200662E+002
 40
5.0E-001
100
AcDbArc
 50
1.35E+002
 51
1.8E+002
  0
LINE
  5
37a
100
AcDbEntity
  8
1
100
AcDbLine
  6
CONTINUOUS
 62
7
 10
1.4546946E+002
 20
9.9113725E+001
 11
1.4546946E+002
 21
8.0413725E+001
  0
LINE
  5
37b
100
AcDbEntity
  8
1
100
AcDbLine
  6
CONTINUOUS
 62
7
 10
1.4531591E+002
 20
7.7167278E+001
 11
1.4546946E+002
 21
7.7013725E+001
  0
LINE
  5
37c
100
AcDbEntity
  8
1
100
AcDbLine
  6
CONTINUOUS
 62
7
 10
1.4531591E+002
 20
8.0260172E+001
 11
1.4546946E+002
 21
8.0413725E+001
  0
LINE
  5
37d
100
AcDbEntity
  8
1
100
AcDbLine
  6
CONTINUOUS
 62
7
 10
1.4516946E+002
 20
7.7520832E+001
 11
1.4516946E+002
 21
7.9906618E+001
  0
ARC
  5
37e
100
AcDbEntity
  8
1
100
AcDbCircle
  6
CONTINUOUS
 62
7
 10
1.4566946E+002
 20
7.9906618E+001
 40
5.0E-001
100
AcDbArc
 50
1.35E+002
 51
1.8E+002
  0
ARC
  5
37f
100
AcDbEntity
  8
1
100
AcDbCircle
  6
CONTINUOUS
 62
7
 10
1.4566946E+002
 20
7.7520832E+001
 40
5.0E-001
100
AcDbArc
 50
1.8E+002
 51
2.25E+002
  0
LINE
  5
380
100
AcDbEntity
  8
1
100
AcDbLine
  6
CONTINUOUS
 62
7
 10
1.4546946E+002
 20
7.7013725E+001
 11
1.4546946E+002
 21
7.2013725E+001
  0
LINE
  5
381
100
AcDbEntity
  8
1
100
AcDbLine
  6
CONTINUOUS
 62
7
 10
1.5096946E+002
 20
1.0751372E+002
 11
1.5096946E+002
 21
1.0876372E+002
  0
LINE
  5
382
100
AcDbEntity
  8
1
100
AcDbLine
  6
CONTINUOUS
 62
7
 10
1.4546946E+002
 20
1.0751372E+002
 11
1.4546946E+002
 21
1.0776372E+002
  0
LINE
  5
383
100
AcDbEntity
  8
1
100
AcDbLine
  6
CONTINUOUS
 62
7
 10
1.5096946E+002
 20
1.0261373E+002
 11
1.5351946E+002
 21
1.0261373E+002
  0
LINE
  5
384
100
AcDbEntity
  8
1
100
AcDbLine
  6
CONTINUOUS
 62
7
 10
1.5096946E+002
 20
1.0246373E+002
 11
1.5251446E+002
 21
1.0246373E+002
  0
LINE
  5
385
100
AcDbEntity
  8
1
100
AcDbLine
  6
CONTINUOUS
 62
7
 10
1.5515593E+002
 20
1.017635E+002
 11
1.5662904E+002
 21
1.0203998E+002
  0
LINE
  5
386
100
AcDbEntity
  8
1
100
AcDbLine
  6
CONTINUOUS
 62
7
 10
1.5662904E+002
 20
1.0203998E+002
 11
1.5698077E+002
 21
1.0320922E+002
  0
LINE
  5
387
100
AcDbEntity
  8
1
100
AcDbLine
  6
CONTINUOUS
 62
7
 10
1.5698077E+002
 20
1.0320922E+002
 11
1.5912183E+002
 21
1.0320922E+002
  0
LINE
  5
388
100
AcDbEntity
  8
1
100
AcDbLine
  6
CONTINUOUS
 62
7
 10
1.5515593E+002
 20
7.7763952E+001
 11
1.5662904E+002
 21
7.7487472E+001
  0
LINE
  5
389
100
AcDbEntity
  8
1
100
AcDbLine
  6
CONTINUOUS
 62
7
 10
1.5662904E+002
 20
7.7487472E+001
 11
1.5698077E+002
 21
7.6318234E+001
  0
LINE
  5
38a
100
AcDbEntity
  8
1
100
AcDbLine
  6
CONTINUOUS
 62
7
 10
1.5698077E+002
 20
7.6318234E+001
 11
1.5912183E+002
 21
7.6318234E+001
  0
LINE
  5
38b
100
AcDbEntity
  8
1
100
AcDbLine
  6
CENTERLINE
 62
6
 10
1.2825446E+002
 20
1.6366121E+002
 11
1.2825446E+002
 21
1.8684907E+002
  0
CIRCLE
  5
38c
100
AcDbEntity
  8
1
100
AcDbCircle
  6
CONTINUOUS
 62
7
 10
1.4741446E+002
 20
1.7724907E+002
 40
3.6
  0
ARC
  5
38d
100
AcDbEntity
  8
1
100
AcDbCircle
  6
CONTINUOUS
 62
7
 10
1.2825446E+002
 20
1.7724907E+002
 40
3.45
100
AcDbArc
 50
2.6134219E+002
 51
4.5865781E+002
  0
ARC
  5
38e
100
AcDbEntity
  8
1
100
AcDbCircle
  6
CONTINUOUS
 62
7
 10
1.2811488E+002
 20
1.75802E+002
 40
2.0
100
AcDbArc
 50
2.0203632E+002
 51
2.5905429E+002
  0
LINE
  5
38f
100
AcDbEntity
  8
1
100
AcDbLine
  6
CONTINUOUS
 62
7
 10
1.2622446E+002
 20
1.7925894E+002
 11
1.2622446E+002
 21
1.7523921E+002
  0
ARC
  5
390
100
AcDbEntity
  8
1
100
AcDbCircle
  6
CONTINUOUS
 62
7
 10
1.2672446E+002
 20
1.7523921E+002
 40
5.0E-001
100
AcDbArc
 50
1.8E+002
 51
2.0203632E+002
  0
ARC
  5
391
100
AcDbEntity
  8
1
100
AcDbCircle
  6
CONTINUOUS
 62
7
 10
1.2811488E+002
 20
1.7869614E+002
 40
2.0
100
AcDbArc
 50
1.0094571E+002
 51
1.5796368E+002
  0
ARC
  5
392
100
AcDbEntity
  8
1
100
AcDbCircle
  6
CONTINUOUS
 62
7
 10
1.2672446E+002
 20
1.7925894E+002
 40
5.0E-001
100
AcDbArc
 50
1.5796368E+002
 51
1.8E+002
  0
ARC
  5
393
100
AcDbEntity
  8
1
100
AcDbCircle
  6
CONTINUOUS
 62
7
 10
1.2825446E+002
 20
1.7724907E+002
 40
7.6
100
AcDbArc
 50
9.0E+001
 51
2.2098477E+002
  0
LINE
  5
394
100
AcDbEntity
  8
1
100
AcDbLine
  6
CONTINUOUS
 62
7
 10
1.2825446E+002
 20
1.8484907E+002
 11
1.4741446E+002
 21
1.8484907E+002
  0
LINE
  5
395
100
AcDbEntity
  8
1
100
AcDbLine
  6
CONTINUOUS
 62
7
 10
1.3126942E+002
 20
1.8084907E+002
 11
1.3921915E+002
 21
1.8084907E+002
  0
ARC
  5
396
100
AcDbEntity
  8
1
100
AcDbCircle
  6
CONTINUOUS
 62
7
 10
1.2825446E+002
 20
1.7724907E+002
 40
4.5
100
AcDbArc
 50
5.6758097E+001
 51
1.2311552E+002
  0
ARC
  5
397
100
AcDbEntity
  8
1
100
AcDbCircle
  6
CONTINUOUS
 62
7
 10
1.2555446E+002
 20
1.8884907E+002
 40
8.0
100
AcDbArc
 50
2.5103443E+002
 51
2.6750432E+002
  0
ARC
  5
398
100
AcDbEntity
  8
1
100
AcDbCircle
  6
CONTINUOUS
 62
7
 10
1.2752313E+002
 20
1.7983171E+002
 40
5.0
100
AcDbArc
 50
1.2362351E+002
 51
1.5602647E+002
  0
LINE
  5
399
100
AcDbEntity
  8
1
100
AcDbLine
  6
CONTINUOUS
 62
7
 10
1.2295446E+002
 20
1.8128336E+002
 11
1.2295446E+002
 21
1.8186328E+002
  0
ARC
  5
39a
100
AcDbEntity
  8
1
100
AcDbCircle
  6
CONTINUOUS
 62
7
 10
1.3126942E+002
 20
1.8184907E+002
 40
1.0
100
AcDbArc
 50
2.367581E+002
 51
2.7E+002
  0
ARC
  5
39b
100
AcDbEntity
  8
1
100
AcDbCircle
  6
CONTINUOUS
 62
7
 10
1.2524965E+002
 20
1.8185571E+002
 40
1.0
100
AcDbArc
 50
2.6750432E+002
 51
3.0311552E+002
  0
ARC
  5
39c
100
AcDbEntity
  8
1
100
AcDbCircle
  6
CONTINUOUS
 62
7
 10
1.4561446E+002
 20
1.7724907E+002
 40
7.3389373
100
AcDbArc
 50
1.0991641E+002
 51
1.506243E+002
  0
ARC
  5
39d
100
AcDbEntity
  8
1
100
AcDbCircle
  6
CONTINUOUS
 62
7
 10
1.4241446E+002
 20
1.8414907E+002
 40
7.0E-001
100
AcDbArc
 50
0.0
 51
9.0E+001
  0
LINE
  5
39e
100
AcDbEntity
  8
1
100
AcDbLine
  6
CONTINUOUS
 62
7
 10
1.3941446E+002
 20
1.6154907E+002
 11
1.3941446E+002
 21
1.811759E+002
  0
LINE
  5
39f
100
AcDbEntity
  8
1
100
AcDbLine
  6
CONTINUOUS
 62
7
 10
1.3275446E+002
 20
1.6084907E+002
 11
1.3871446E+002
 21
1.6084907E+002
  0
LINE
  5
3a0
100
AcDbEntity
  8
1
100
AcDbLine
  6
CONTINUOUS
 62
7
 10
1.3405446E+002
 20
1.6484907E+002
 11
1.3741446E+002
 21
1.6484907E+002
  0
LINE
  5
3a1
100
AcDbEntity
  8
1
100
AcDbLine
  6
CONTINUOUS
 62
7
 10
1.3205446E+002
 20
1.6128746E+002
 11
1.3205446E+002
 21
1.6284907E+002
  0
ARC
  5
3a2
100
AcDbEntity
  8
1
100
AcDbCircle
  6
CONTINUOUS
 62
7
 10
1.3275446E+002
 20
1.6154907E+002
 40
7.0E-001
100
AcDbArc
 50
2.2098477E+002
 51
2.7E+002
  0
LINE
  5
3a3
100
AcDbEntity
  8
1
100
AcDbLine
  6
CONTINUOUS
 62
7
 10
1.3222604E+002
 20
1.6108997E+002
 11
1.2251734E+002
 21
1.7226455E+002
  0
ARC
  5
3a4
100
AcDbEntity
  8
1
100
AcDbCircle
  6
CONTINUOUS
 62
7
 10
1.3405446E+002
 20
1.6284907E+002
 40
2.0
100
AcDbArc
 50
9.0E+001
 51
1.8E+002
  0
LINE
  5
3a5
100
AcDbEntity
  8
1
100
AcDbLine
  6
CONTINUOUS
 62
7
 10
1.3305446E+002
 20
1.6154907E+002
 11
1.3305446E+002
 21
1.6284907E+002
  0
LINE
  5
3a6
100
AcDbEntity
  8
1
100
AcDbLine
  6
CONTINUOUS
 62
7
 10
1.3885446E+002
 20
1.6154907E+002
 11
1.3885446E+002
 21
1.6284907E+002
  0
ARC
  5
3a7
100
AcDbEntity
  8
1
100
AcDbCircle
  6
CONTINUOUS
 62
7
 10
1.3505446E+002
 20
1.6284907E+002
 40
2.0
100
AcDbArc
 50
9.0E+001
 51
1.8E+002
  0
ARC
  5
3a8
100
AcDbEntity
  8
1
100
AcDbCircle
  6
CONTINUOUS
 62
7
 10
1.3685446E+002
 20
1.6284907E+002
 40
2.0
100
AcDbArc
 50
0.0
 51
9.0E+001
  0
ARC
  5
3a9
100
AcDbEntity
  8
1
100
AcDbCircle
  6
CONTINUOUS
 62
7
 10
1.3741446E+002
 20
1.6284907E+002
 40
2.0
100
AcDbArc
 50
0.0
 51
9.0E+001
  0
ARC
  5
3aa
100
AcDbEntity
  8
1
100
AcDbCircle
  6
CONTINUOUS
 62
7
 10
1.3375446E+002
 20
1.6154907E+002
 40
7.0E-001
100
AcDbArc
 50
1.8E+002
 51
2.7E+002
  0
ARC
  5
3ab
100
AcDbEntity
  8
1
100
AcDbCircle
  6
CONTINUOUS
 62
7
 10
1.3815446E+002
 20
1.6154907E+002
 40
7.0E-001
100
AcDbArc
 50
2.7E+002
 51
3.6E+002
  0
ARC
  5
3ac
100
AcDbEntity
  8
1
100
AcDbCircle
  6
CONTINUOUS
 62
7
 10
1.3871446E+002
 20
1.6154907E+002
 40
7.0E-001
100
AcDbArc
 50
2.7E+002
 51
3.6E+002
  0
LINE
  5
3ad
100
AcDbEntity
  8
1
100
AcDbLine
  6
CONTINUOUS
 62
7
 10
1.4405472E+002
 20
1.6964907E+002
 11
1.3941446E+002
 21
1.6964907E+002
  0
LINE
  5
3ae
100
AcDbEntity
  8
1
100
AcDbLine
  6
CENTERLINE
 62
6
 10
1.0898946E+002
 20
1.6366121E+002
 11
1.0898946E+002
 21
1.8684907E+002
  0
CIRCLE
  5
3af
100
AcDbEntity
  8
1
100
AcDbCircle
  6
CONTINUOUS
 62
7
 10
1.2814946E+002
 20
1.7724907E+002
 40
3.6
  0
ARC
  5
3b0
100
AcDbEntity
  8
1
100
AcDbCircle
  6
CONTINUOUS
 62
7
 10
1.0898946E+002
 20
1.7724907E+002
 40
3.45
100
AcDbArc
 50
2.6134219E+002
 51
4.5865781E+002
  0
ARC
  5
3b1
100
AcDbEntity
  8
1
100
AcDbCircle
  6
CONTINUOUS
 62
7
 10
1.0884988E+002
 20
1.75802E+002
 40
2.0
100
AcDbArc
 50
2.0203632E+002
 51
2.5905429E+002
  0
LINE
  5
3b2
100
AcDbEntity
  8
1
100
AcDbLine
  6
CONTINUOUS
 62
7
 10
1.0695946E+002
 20
1.7925894E+002
 11
1.0695946E+002
 21
1.7523921E+002
  0
ARC
  5
3b3
100
AcDbEntity
  8
1
100
AcDbCircle
  6
CONTINUOUS
 62
7
 10
1.0745946E+002
 20
1.7523921E+002
 40
5.0E-001
100
AcDbArc
 50
1.8E+002
 51
2.0203632E+002
  0
ARC
  5
3b4
100
AcDbEntity
  8
1
100
AcDbCircle
  6
CONTINUOUS
 62
7
 10
1.0884988E+002
 20
1.7869614E+002
 40
2.0
100
AcDbArc
 50
1.0094571E+002
 51
1.5796368E+002
  0
ARC
  5
3b5
100
AcDbEntity
  8
1
100
AcDbCircle
  6
CONTINUOUS
 62
7
 10
1.0745946E+002
 20
1.7925894E+002
 40
5.0E-001
100
AcDbArc
 50
1.5796368E+002
 51
1.8E+002
  0
ARC
  5
3b6
100
AcDbEntity
  8
1
100
AcDbCircle
  6
CONTINUOUS
 62
7
 10
1.0898946E+002
 20
1.7724907E+002
 40
7.6
100
AcDbArc
 50
9.0E+001
 51
2.2098477E+002
  0
LINE
  5
3b7
100
AcDbEntity
  8
1
100
AcDbLine
  6
CONTINUOUS
 62
7
 10
1.0898946E+002
 20
1.8484907E+002
 11
1.2814946E+002
 21
1.8484907E+002
  0
LINE
  5
3b8
100
AcDbEntity
  8
1
100
AcDbLine
  6
CONTINUOUS
 62
7
 10
1.1200442E+002
 20
1.8084907E+002
 11
1.1995415E+002
 21
1.8084907E+002
  0
ARC
  5
3b9
100
AcDbEntity
  8
1
100
AcDbCircle
  6
CONTINUOUS
 62
7
 10
1.0898946E+002
 20
1.7724907E+002
 40
4.5
100
AcDbArc
 50
5.6758097E+001
 51
1.2311552E+002
  0
ARC
  5
3ba
100
AcDbEntity
  8
1
100
AcDbCircle
  6
CONTINUOUS
 62
7
 10
1.0628946E+002
 20
1.8884907E+002
 40
8.0
100
AcDbArc
 50
2.5103443E+002
 51
2.6750432E+002
  0
ARC
  5
3bb
100
AcDbEntity
  8
1
100
AcDbCircle
  6
CONTINUOUS
 62
7
 10
1.0825813E+002
 20
1.7983171E+002
 40
5.0
100
AcDbArc
 50
1.2362351E+002
 51
1.5602647E+002
  0
LINE
  5
3bc
100
AcDbEntity
  8
1
100
AcDbLine
  6
CONTINUOUS
 62
7
 10
1.0368946E+002
 20
1.8128336E+002
 11
1.0368946E+002
 21
1.8186328E+002
  0
ARC
  5
3bd
100
AcDbEntity
  8
1
100
AcDbCircle
  6
CONTINUOUS
 62
7
 10
1.1200442E+002
 20
1.8184907E+002
 40
1.0
100
AcDbArc
 50
2.367581E+002
 51
2.7E+002
  0
ARC
  5
3be
100
AcDbEntity
  8
1
100
AcDbCircle
  6
CONTINUOUS
 62
7
 10
1.0598465E+002
 20
1.8185571E+002
 40
1.0
100
AcDbArc
 50
2.6750432E+002
 51
3.0311552E+002
  0
ARC
  5
3bf
100
AcDbEntity
  8
1
100
AcDbCircle
  6
CONTINUOUS
 62
7
 10
1.2634946E+002
 20
1.7724907E+002
 40
7.3389373
100
AcDbArc
 50
1.0991641E+002
 51
1.506243E+002
  0
ARC
  5
3c0
100
AcDbEntity
  8
1
100
AcDbCircle
  6
CONTINUOUS
 62
7
 10
1.2314946E+002
 20
1.8414907E+002
 40
7.0E-001
100
AcDbArc
 50
0.0
 51
9.0E+001
  0
LINE
  5
3c1
100
AcDbEntity
  8
1
100
AcDbLine
  6
CONTINUOUS
 62
7
 10
1.2014946E+002
 20
1.6154907E+002
 11
1.2014946E+002
 21
1.811759E+002
  0
LINE
  5
3c2
100
AcDbEntity
  8
1
100
AcDbLine
  6
CONTINUOUS
 62
7
 10
1.1348946E+002
 20
1.6084907E+002
 11
1.1944946E+002
 21
1.6084907E+002
  0
LINE
  5
3c3
100
AcDbEntity
  8
1
100
AcDbLine
  6
CONTINUOUS
 62
7
 10
1.1478946E+002
 20
1.6484907E+002
 11
1.1814946E+002
 21
1.6484907E+002
  0
LINE
  5
3c4
100
AcDbEntity
  8
1
100
AcDbLine
  6
CONTINUOUS
 62
7
 10
1.1278946E+002
 20
1.6128746E+002
 11
1.1278946E+002
 21
1.6284907E+002
  0
ARC
  5
3c5
100
AcDbEntity
  8
1
100
AcDbCircle
  6
CONTINUOUS
 62
7
 10
1.1348946E+002
 20
1.6154907E+002
 40
7.0E-001
100
AcDbArc
 50
2.2098477E+002
 51
2.7E+002
  0
LINE
  5
3c6
100
AcDbEntity
  8
1
100
AcDbLine
  6
CONTINUOUS
 62
7
 10
1.1296104E+002
 20
1.6108997E+002
 11
1.0325234E+002
 21
1.7226455E+002
  0
ARC
  5
3c7
100
AcDbEntity
  8
1
100
AcDbCircle
  6
CONTINUOUS
 62
7
 10
1.1478946E+002
 20
1.6284907E+002
 40
2.0
100
AcDbArc
 50
9.0E+001
 51
1.8E+002
  0
LINE
  5
3c8
100
AcDbEntity
  8
1
100
AcDbLine
  6
CONTINUOUS
 62
7
 10
1.1378946E+002
 20
1.6154907E+002
 11
1.1378946E+002
 21
1.6284907E+002
  0
LINE
  5
3c9
100
AcDbEntity
  8
1
100
AcDbLine
  6
CONTINUOUS
 62
7
 10
1.1958946E+002
 20
1.6154907E+002
 11
1.1958946E+002
 21
1.6284907E+002
  0
ARC
  5
3ca
100
AcDbEntity
  8
1
100
AcDbCircle
  6
CONTINUOUS
 62
7
 10
1.1578946E+002
 20
1.6284907E+002
 40
2.0
100
AcDbArc
 50
9.0E+001
 51
1.8E+002
  0
ARC
  5
3cb
100
AcDbEntity
  8
1
100
AcDbCircle
  6
CONTINUOUS
 62
7
 10
1.1758946E+002
 20
1.6284907E+002
 40
2.0
100
AcDbArc
 50
0.0
 51
9.0E+001
  0
ARC
  5
3cc
100
AcDbEntity
  8
1
100
AcDbCircle
  6
CONTINUOUS
 62
7
 10
1.1814946E+002
 20
1.6284907E+002
 40
2.0
100
AcDbArc
 50
0.0
 51
9.0E+001
  0
ARC
  5
3cd
100
AcDbEntity
  8
1
100
AcDbCircle
  6
CONTINUOUS
 62
7
 10
1.1448946E+002
 20
1.6154907E+002
 40
7.0E-001
100
AcDbArc
 50
1.8E+002
 51
2.7E+002
  0
ARC
  5
3ce
100
AcDbEntity
  8
1
100
AcDbCircle
  6
CONTINUOUS
 62
7
 10
1.1888946E+002
 20
1.6154907E+002
 40
7.0E-001
100
AcDbArc
 50
2.7E+002
 51
3.6E+002
  0
ARC
  5
3cf
100
AcDbEntity
  8
1
100
AcDbCircle
  6
CONTINUOUS
 62
7
 10
1.1944946E+002
 20
1.6154907E+002
 40
7.0E-001
100
AcDbArc
 50
2.7E+002
 51
3.6E+002
  0
LINE
  5
3d0
100
AcDbEntity
  8
1
100
AcDbLine
  6
CONTINUOUS
 62
7
 10
1.2478972E+002
 20
1.6964907E+002
 11
1.2014946E+002
 21
1.6964907E+002
  0
LINE
  5
3d1
100
AcDbEntity
  8
1
100
AcDbLine
  6
CENTERLINE
 62
6
 10
8.972446E+001
 20
1.6366121E+002
 11
8.972446E+001
 21
1.8684907E+002
  0
CIRCLE
  5
3d2
100
AcDbEntity
  8
1
100
AcDbCircle
  6
CONTINUOUS
 62
7
 10
1.0888446E+002
 20
1.7724907E+002
 40
3.6
  0
ARC
  5
3d3
100
AcDbEntity
  8
1
100
AcDbCircle
  6
CONTINUOUS
 62
7
 10
8.972446E+001
 20
1.7724907E+002
 40
3.45
100
AcDbArc
 50
2.6134219E+002
 51
4.5865781E+002
  0
ARC
  5
3d4
100
AcDbEntity
  8
1
100
AcDbCircle
  6
CONTINUOUS
 62
7
 10
8.9584879E+001
 20
1.75802E+002
 40
2.0
100
AcDbArc
 50
2.0203632E+002
 51
2.5905429E+002
  0
LINE
  5
3d5
100
AcDbEntity
  8
1
100
AcDbLine
  6
CONTINUOUS
 62
7
 10
8.769446E+001
 20
1.7925894E+002
 11
8.769446E+001
 21
1.7523921E+002
  0
ARC
  5
3d6
100
AcDbEntity
  8
1
100
AcDbCircle
  6
CONTINUOUS
 62
7
 10
8.819446E+001
 20
1.7523921E+002
 40
5.0E-001
100
AcDbArc
 50
1.8E+002
 51
2.0203632E+002
  0
ARC
  5
3d7
100
AcDbEntity
  8
1
100
AcDbCircle
  6
CONTINUOUS
 62
7
 10
8.9584879E+001
 20
1.7869614E+002
 40
2.0
100
AcDbArc
 50
1.0094571E+002
 51
1.5796368E+002
  0
ARC
  5
3d8
100
AcDbEntity
  8
1
100
AcDbCircle
  6
CONTINUOUS
 62
7
 10
8.819446E+001
 20
1.7925894E+002
 40
5.0E-001
100
AcDbArc
 50
1.5796368E+002
 51
1.8E+002
  0
ARC
  5
3d9
100
AcDbEntity
  8
1
100
AcDbCircle
  6
CONTINUOUS
 62
7
 10
8.972446E+001
 20
1.7724907E+002
 40
7.6
100
AcDbArc
 50
9.0E+001
 51
2.2098477E+002
  0
LINE
  5
3da
100
AcDbEntity
  8
1
100
AcDbLine
  6
CONTINUOUS
 62
7
 10
8.972446E+001
 20
1.8484907E+002
 11
1.0888446E+002
 21
1.8484907E+002
  0
LINE
  5
3db
100
AcDbEntity
  8
1
100
AcDbLine
  6
CONTINUOUS
 62
7
 10
9.2739423E+001
 20
1.8084907E+002
 11
1.0068915E+002
 21
1.8084907E+002
  0
ARC
  5
3dc
100
AcDbEntity
  8
1
100
AcDbCircle
  6
CONTINUOUS
 62
7
 10
8.972446E+001
 20
1.7724907E+002
 40
4.5
100
AcDbArc
 50
5.6758097E+001
 51
1.2311552E+002
  0
ARC
  5
3dd
100
AcDbEntity
  8
1
100
AcDbCircle
  6
CONTINUOUS
 62
7
 10
8.702446E+001
 20
1.8884907E+002
 40
8.0
100
AcDbArc
 50
2.5103443E+002
 51
2.6750432E+002
  0
ARC
  5
3de
100
AcDbEntity
  8
1
100
AcDbCircle
  6
CONTINUOUS
 62
7
 10
8.8993126E+001
 20
1.7983171E+002
 40
5.0
100
AcDbArc
 50
1.2362351E+002
 51
1.5602647E+002
  0
LINE
  5
3df
100
AcDbEntity
  8
1
100
AcDbLine
  6
CONTINUOUS
 62
7
 10
8.442446E+001
 20
1.8128336E+002
 11
8.442446E+001
 21
1.8186328E+002
  0
ARC
  5
3e0
100
AcDbEntity
  8
1
100
AcDbCircle
  6
CONTINUOUS
 62
7
 10
9.2739423E+001
 20
1.8184907E+002
 40
1.0
100
AcDbArc
 50
2.367581E+002
 51
2.7E+002
  0
ARC
  5
3e1
100
AcDbEntity
  8
1
100
AcDbCircle
  6
CONTINUOUS
 62
7
 10
8.6719652E+001
 20
1.8185571E+002
 40
1.0
100
AcDbArc
 50
2.6750432E+002
 51
3.0311552E+002
  0
ARC
  5
3e2
100
AcDbEntity
  8
1
100
AcDbCircle
  6
CONTINUOUS
 62
7
 10
1.0708446E+002
 20
1.7724907E+002
 40
7.3389373
100
AcDbArc
 50
1.0991641E+002
 51
1.506243E+002
  0
ARC
  5
3e3
100
AcDbEntity
  8
1
100
AcDbCircle
  6
CONTINUOUS
 62
7
 10
1.0388446E+002
 20
1.8414907E+002
 40
7.0E-001
100
AcDbArc
 50
0.0
 51
9.0E+001
  0
LINE
  5
3e4
100
AcDbEntity
  8
1
100
AcDbLine
  6
CONTINUOUS
 62
7
 10
1.0088446E+002
 20
1.6154907E+002
 11
1.0088446E+002
 21
1.811759E+002
  0
LINE
  5
3e5
100
AcDbEntity
  8
1
100
AcDbLine
  6
CONTINUOUS
 62
7
 10
9.422446E+001
 20
1.6084907E+002
 11
1.0018446E+002
 21
1.6084907E+002
  0
LINE
  5
3e6
100
AcDbEntity
  8
1
100
AcDbLine
  6
CONTINUOUS
 62
7
 10
9.552446E+001
 20
1.6484907E+002
 11
9.888446E+001
 21
1.6484907E+002
  0
LINE
  5
3e7
100
AcDbEntity
  8
1
100
AcDbLine
  6
CONTINUOUS
 62
7
 10
9.352446E+001
 20
1.6128746E+002
 11
9.352446E+001
 21
1.6284907E+002
  0
ARC
  5
3e8
100
AcDbEntity
  8
1
100
AcDbCircle
  6
CONTINUOUS
 62
7
 10
9.422446E+001
 20
1.6154907E+002
 40
7.0E-001
100
AcDbArc
 50
2.2098477E+002
 51
2.7E+002
  0
LINE
  5
3e9
100
AcDbEntity
  8
1
100
AcDbLine
  6
CONTINUOUS
 62
7
 10
9.3696041E+001
 20
1.6108997E+002
 11
8.3987342E+001
 21
1.7226455E+002
  0
ARC
  5
3ea
100
AcDbEntity
  8
1
100
AcDbCircle
  6
CONTINUOUS
 62
7
 10
9.552446E+001
 20
1.6284907E+002
 40
2.0
100
AcDbArc
 50
9.0E+001
 51
1.8E+002
  0
LINE
  5
3eb
100
AcDbEntity
  8
1
100
AcDbLine
  6
CONTINUOUS
 62
7
 10
9.452446E+001
 20
1.6154907E+002
 11
9.452446E+001
 21
1.6284907E+002
  0
LINE
  5
3ec
100
AcDbEntity
  8
1
100
AcDbLine
  6
CONTINUOUS
 62
7
 10
1.0032446E+002
 20
1.6154907E+002
 11
1.0032446E+002
 21
1.6284907E+002
  0
ARC
  5
3ed
100
AcDbEntity
  8
1
100
AcDbCircle
  6
CONTINUOUS
 62
7
 10
9.652446E+001
 20
1.6284907E+002
 40
2.0
100
AcDbArc
 50
9.0E+001
 51
1.8E+002
  0
ARC
  5
3ee
100
AcDbEntity
  8
1
100
AcDbCircle
  6
CONTINUOUS
 62
7
 10
9.832446E+001
 20
1.6284907E+002
 40
2.0
100
AcDbArc
 50
0.0
 51
9.0E+001
  0
ARC
  5
3ef
100
AcDbEntity
  8
1
100
AcDbCircle
  6
CONTINUOUS
 62
7
 10
9.888446E+001
 20
1.6284907E+002
 40
2.0
100
AcDbArc
 50
0.0
 51
9.0E+001
  0
ARC
  5
3f0
100
AcDbEntity
  8
1
100
AcDbCircle
  6
CONTINUOUS
 62
7
 10
9.522446E+001
 20
1.6154907E+002
 40
7.0E-001
100
AcDbArc
 50
1.8E+002
 51
2.7E+002
  0
ARC
  5
3f1
100
AcDbEntity
  8
1
100
AcDbCircle
  6
CONTINUOUS
 62
7
 10
9.962446E+001
 20
1.6154907E+002
 40
7.0E-001
100
AcDbArc
 50
2.7E+002
 51
3.6E+002
  0
ARC
  5
3f2
100
AcDbEntity
  8
1
100
AcDbCircle
  6
CONTINUOUS
 62
7
 10
1.0018446E+002
 20
1.6154907E+002
 40
7.0E-001
100
AcDbArc
 50
2.7E+002
 51
3.6E+002
  0
LINE
  5
3f3
100
AcDbEntity
  8
1
100
AcDbLine
  6
CONTINUOUS
 62
7
 10
1.0552472E+002
 20
1.6964907E+002
 11
1.0088446E+002
 21
1.6964907E+002
  0
LINE
  5
3f4
100
AcDbEntity
  8
1
100
AcDbLine
  6
CENTERLINE
 62
6
 10
7.045946E+001
 20
1.6366121E+002
 11
7.045946E+001
 21
1.8684907E+002
  0
CIRCLE
  5
3f5
100
AcDbEntity
  8
1
100
AcDbCircle
  6
CONTINUOUS
 62
7
 10
8.961946E+001
 20
1.7724907E+002
 40
3.6
  0
ARC
  5
3f6
100
AcDbEntity
  8
1
100
AcDbCircle
  6
CONTINUOUS
 62
7
 10
7.045946E+001
 20
1.7724907E+002
 40
3.45
100
AcDbArc
 50
2.6134219E+002
 51
4.5865781E+002
  0
ARC
  5
3f7
100
AcDbEntity
  8
1
100
AcDbCircle
  6
CONTINUOUS
 62
7
 10
7.0319879E+001
 20
1.75802E+002
 40
2.0
100
AcDbArc
 50
2.0203632E+002
 51
2.5905429E+002
  0
LINE
  5
3f8
100
AcDbEntity
  8
1
100
AcDbLine
  6
CONTINUOUS
 62
7
 10
6.842946E+001
 20
1.7925894E+002
 11
6.842946E+001
 21
1.7523921E+002
  0
ARC
  5
3f9
100
AcDbEntity
  8
1
100
AcDbCircle
  6
CONTINUOUS
 62
7
 10
6.892946E+001
 20
1.7523921E+002
 40
5.0E-001
100
AcDbArc
 50
1.8E+002
 51
2.0203632E+002
  0
ARC
  5
3fa
100
AcDbEntity
  8
1
100
AcDbCircle
  6
CONTINUOUS
 62
7
 10
7.0319879E+001
 20
1.7869614E+002
 40
2.0
100
AcDbArc
 50
1.0094571E+002
 51
1.5796368E+002
  0
ARC
  5
3fb
100
AcDbEntity
  8
1
100
AcDbCircle
  6
CONTINUOUS
 62
7
 10
6.892946E+001
 20
1.7925894E+002
 40
5.0E-001
100
AcDbArc
 50
1.5796368E+002
 51
1.8E+002
  0
ARC
  5
3fc
100
AcDbEntity
  8
1
100
AcDbCircle
  6
CONTINUOUS
 62
7
 10
7.045946E+001
 20
1.7724907E+002
 40
7.6
100
AcDbArc
 50
9.0E+001
 51
2.2098477E+002
  0
LINE
  5
3fd
100
AcDbEntity
  8
1
100
AcDbLine
  6
CONTINUOUS
 62
7
 10
7.045946E+001
 20
1.8484907E+002
 11
8.961946E+001
 21
1.8484907E+002
  0
LINE
  5
3fe
100
AcDbEntity
  8
1
100
AcDbLine
  6
CONTINUOUS
 62
7
 10
7.3474423E+001
 20
1.8084907E+002
 11
8.1424149E+001
 21
1.8084907E+002
  0
ARC
  5
3ff
100
AcDbEntity
  8
1
100
AcDbCircle
  6
CONTINUOUS
 62
7
 10
7.045946E+001
 20
1.7724907E+002
 40
4.5
100
AcDbArc
 50
5.6758097E+001
 51
1.2311552E+002
  0
ARC
  5
400
100
AcDbEntity
  8
1
100
AcDbCircle
  6
CONTINUOUS
 62
7
 10
6.775946E+001
 20
1.8884907E+002
 40
8.0
100
AcDbArc
 50
2.5103443E+002
 51
2.6750432E+002
  0
ARC
  5
401
100
AcDbEntity
  8
1
100
AcDbCircle
  6
CONTINUOUS
 62
7
 10
6.9728126E+001
 20
1.7983171E+002
 40
5.0
100
AcDbArc
 50
1.2362351E+002
 51
1.5602647E+002
  0
LINE
  5
402
100
AcDbEntity
  8
1
100
AcDbLine
  6
CONTINUOUS
 62
7
 10
6.515946E+001
 20
1.8128336E+002
 11
6.515946E+001
 21
1.8186328E+002
  0
ARC
  5
403
100
AcDbEntity
  8
1
100
AcDbCircle
  6
CONTINUOUS
 62
7
 10
7.3474423E+001
 20
1.8184907E+002
 40
1.0
100
AcDbArc
 50
2.367581E+002
 51
2.7E+002
  0
ARC
  5
404
100
AcDbEntity
  8
1
100
AcDbCircle
  6
CONTINUOUS
 62
7
 10
6.7454652E+001
 20
1.8185571E+002
 40
1.0
100
AcDbArc
 50
2.6750432E+002
 51
3.0311552E+002
  0
ARC
  5
405
100
AcDbEntity
  8
1
100
AcDbCircle
  6
CONTINUOUS
 62
7
 10
8.781946E+001
 20
1.7724907E+002
 40
7.3389373
100
AcDbArc
 50
1.0991641E+002
 51
1.506243E+002
  0
ARC
  5
406
100
AcDbEntity
  8
1
100
AcDbCircle
  6
CONTINUOUS
 62
7
 10
8.461946E+001
 20
1.8414907E+002
 40
7.0E-001
100
AcDbArc
 50
0.0
 51
9.0E+001
  0
LINE
  5
407
100
AcDbEntity
  8
1
100
AcDbLine
  6
CONTINUOUS
 62
7
 10
8.161946E+001
 20
1.6154907E+002
 11
8.161946E+001
 21
1.811759E+002
  0
LINE
  5
408
100
AcDbEntity
  8
1
100
AcDbLine
  6
CONTINUOUS
 62
7
 10
7.495946E+001
 20
1.6084907E+002
 11
8.091946E+001
 21
1.6084907E+002
  0
LINE
  5
409
100
AcDbEntity
  8
1
100
AcDbLine
  6
CONTINUOUS
 62
7
 10
7.625946E+001
 20
1.6484907E+002
 11
7.961946E+001
 21
1.6484907E+002
  0
LINE
  5
40a
100
AcDbEntity
  8
1
100
AcDbLine
  6
CONTINUOUS
 62
7
 10
7.425946E+001
 20
1.6128746E+002
 11
7.425946E+001
 21
1.6284907E+002
  0
ARC
  5
40b
100
AcDbEntity
  8
1
100
AcDbCircle
  6
CONTINUOUS
 62
7
 10
7.495946E+001
 20
1.6154907E+002
 40
7.0E-001
100
AcDbArc
 50
2.2098477E+002
 51
2.7E+002
  0
LINE
  5
40c
100
AcDbEntity
  8
1
100
AcDbLine
  6
CONTINUOUS
 62
7
 10
7.4431041E+001
 20
1.6108997E+002
 11
6.4722342E+001
 21
1.7226455E+002
  0
ARC
  5
40d
100
AcDbEntity
  8
1
100
AcDbCircle
  6
CONTINUOUS
 62
7
 10
7.625946E+001
 20
1.6284907E+002
 40
2.0
100
AcDbArc
 50
9.0E+001
 51
1.8E+002
  0
LINE
  5
40e
100
AcDbEntity
  8
1
100
AcDbLine
  6
CONTINUOUS
 62
7
 10
7.525946E+001
 20
1.6154907E+002
 11
7.525946E+001
 21
1.6284907E+002
  0
LINE
  5
40f
100
AcDbEntity
  8
1
100
AcDbLine
  6
CONTINUOUS
 62
7
 10
8.105946E+001
 20
1.6154907E+002
 11
8.105946E+001
 21
1.6284907E+002
  0
ARC
  5
410
100
AcDbEntity
  8
1
100
AcDbCircle
  6
CONTINUOUS
 62
7
 10
7.725946E+001
 20
1.6284907E+002
 40
2.0
100
AcDbArc
 50
9.0E+001
 51
1.8E+002
  0
ARC
  5
411
100
AcDbEntity
  8
1
100
AcDbCircle
  6
CONTINUOUS
 62
7
 10
7.905946E+001
 20
1.6284907E+002
 40
2.0
100
AcDbArc
 50
0.0
 51
9.0E+001
  0
ARC
  5
412
100
AcDbEntity
  8
1
100
AcDbCircle
  6
CONTINUOUS
 62
7
 10
7.961946E+001
 20
1.6284907E+002
 40
2.0
100
AcDbArc
 50
0.0
 51
9.0E+001
  0
ARC
  5
413
100
AcDbEntity
  8
1
100
AcDbCircle
  6
CONTINUOUS
 62
7
 10
7.595946E+001
 20
1.6154907E+002
 40
7.0E-001
100
AcDbArc
 50
1.8E+002
 51
2.7E+002
  0
ARC
  5
414
100
AcDbEntity
  8
1
100
AcDbCircle
  6
CONTINUOUS
 62
7
 10
8.035946E+001
 20
1.6154907E+002
 40
7.0E-001
100
AcDbArc
 50
2.7E+002
 51
3.6E+002
  0
ARC
  5
415
100
AcDbEntity
  8
1
100
AcDbCircle
  6
CONTINUOUS
 62
7
 10
8.091946E+001
 20
1.6154907E+002
 40
7.0E-001
100
AcDbArc
 50
2.7E+002
 51
3.6E+002
  0
LINE
  5
416
100
AcDbEntity
  8
1
100
AcDbLine
  6
CONTINUOUS
 62
7
 10
8.6259721E+001
 20
1.6964907E+002
 11
8.161946E+001
 21
1.6964907E+002
  0
CIRCLE
  5
417
100
AcDbEntity
  8
1
100
AcDbCircle
  6
CONTINUOUS
 62
7
 10
7.045946E+001
 20
1.7724907E+002
 40
3.6
  0
LINE
  5
418
100
AcDbEntity
  8
1
100
AcDbLine
  6
CONTINUOUS
 62
7
 10
1.5111946E+002
 20
7.0763725E+001
 11
1.5111946E+002
 21
6.8763725E+001
  0
LINE
  5
419
100
AcDbEntity
  8
1
100
AcDbLine
  6
CONTINUOUS
 62
7
 10
1.4391946E+002
 20
7.0763725E+001
 11
1.4391946E+002
 21
6.8763725E+001
  0
LINE
  5
41a
100
AcDbEntity
  8
1
100
AcDbLine
  6
CONTINUOUS
 62
7
 10
1.4391946E+002
 20
7.0763725E+001
 11
1.4446946E+002
 21
7.0763725E+001
  0
ARC
  5
41b
100
AcDbEntity
  8
1
100
AcDbCircle
  6
CONTINUOUS
 62
7
 10
1.4446946E+002
 20
7.1763725E+001
 40
1.0
100
AcDbArc
 50
2.7E+002
 51
3.6E+002
  0
LINE
  5
41c
100
AcDbEntity
  8
1
100
AcDbLine
  6
CONTINUOUS
 62
7
 10
1.5096946E+002
 20
7.0763725E+001
 11
1.5111946E+002
 21
7.0763725E+001
  0
LINE
  5
41d
100
AcDbEntity
  8
1
100
AcDbLine
  6
CONTINUOUS
 62
7
 10
2.95E+002
 20
2.0
 11
2.95E+002
 21
2.08E+002
  0
LINE
  5
41e
100
AcDbEntity
  8
1
100
AcDbLine
  6
CONTINUOUS
 62
7
 10
1.5111946E+002
 20
1.1076372E+002
 11
1.5111946E+002
 21
1.0876372E+002
  0
LINE
  5
41f
100
AcDbEntity
  8
1
100
AcDbLine
  6
CONTINUOUS
 62
7
 10
1.4391946E+002
 20
1.1076372E+002
 11
1.4391946E+002
 21
1.0876372E+002
  0
LINE
  5
420
100
AcDbEntity
  8
1
100
AcDbLine
  6
CONTINUOUS
 62
7
 10
1.5096946E+002
 20
1.0876372E+002
 11
1.5111946E+002
 21
1.0876372E+002
  0
LINE
  5
421
100
AcDbEntity
  8
1
100
AcDbLine
  6
CONTINUOUS
 62
7
 10
1.4391946E+002
 20
1.0876372E+002
 11
1.4446946E+002
 21
1.0876372E+002
  0
ARC
  5
422
100
AcDbEntity
  8
1
100
AcDbCircle
  6
CONTINUOUS
 62
7
 10
1.4446946E+002
 20
1.0776372E+002
 40
1.0
100
AcDbArc
 50
0.0
 51
9.0E+001
  0
LINE
  5
423
100
AcDbEntity
  8
1
100
AcDbLine
  6
CONTINUOUS
 62
7
 10
2.95E+002
 20
2.08E+002
 11
2.0
 21
2.08E+002
  0
LINE
  5
424
100
AcDbEntity
  8
1
100
AcDbLine
  6
CONTINUOUS
 62
7
 10
2.0
 20
2.08E+002
 11
2.0
 21
2.0
  0
TEXT
  5
425
100
AcDbEntity
  8
1
100
AcDbText
  6
CONTINUOUS
 62
7
 10
2.6192921E+002
 20
3.069416
 40
3.0
  1
DATE2020.5.1
 41
8.0E-001
 72
2
 11
2.9312921E+002
 21
3.069416
100
AcDbText
  0
LINE
  5
426
100
AcDbEntity
  8
1
100
AcDbLine
  6
CENTERLINE
 62
6
 10
2.2522095E+002
 20
8.9763725E+001
 11
2.4442095E+002
 21
8.9763725E+001
  0
LINE
  5
427
100
AcDbEntity
  8
1
100
AcDbLine
  6
CENTERLINE
 62
6
 10
2.3482095E+002
 20
1.1276372E+002
 11
2.3482095E+002
 21
6.6763725E+001
  0
LINE
  5
428
100
AcDbEntity
  8
1
100
AcDbLine
  6
CONTINUOUS
 62
7
 10
2.4242095E+002
 20
4.9663725E+001
 11
2.4242095E+002
 21
1.2986372E+002
  0
LINE
  5
429
100
AcDbEntity
  8
1
100
AcDbLine
  6
CONTINUOUS
 62
7
 10
2.4171639E+002
 20
1.3106373E+002
 11
2.3912095E+002
 21
1.3106373E+002
  0
LINE
  5
42a
100
AcDbEntity
  8
1
100
AcDbLine
  6
CONTINUOUS
 62
7
 10
2.3842095E+002
 20
1.3036372E+002
 11
2.3842095E+002
 21
1.0316373E+002
  0
LINE
  5
42b
100
AcDbEntity
  8
1
100
AcDbLine
  6
CONTINUOUS
 62
7
 10
2.2308682E+002
 20
1.1076372E+002
 11
2.3742095E+002
 21
1.1076372E+002
  0
LINE
  5
42c
100
AcDbEntity
  8
1
100
AcDbLine
  6
CONTINUOUS
 62
7
 10
2.1842095E+002
 20
1.2006373E+002
 11
2.1842095E+002
 21
1.0646373E+002
  0
LINE
  5
42d
100
AcDbEntity
  8
1
100
AcDbLine
  6
CONTINUOUS
 62
7
 10
2.1912095E+002
 20
1.2076372E+002
 11
2.209697E+002
 21
1.2076372E+002
  0
LINE
  5
42e
100
AcDbEntity
  8
1
100
AcDbLine
  6
CONTINUOUS
 62
7
 10
2.1912095E+002
 20
1.0576372E+002
 11
2.2572095E+002
 21
1.0576372E+002
  0
LINE
  5
42f
100
AcDbEntity
  8
1
100
AcDbLine
  6
CONTINUOUS
 62
7
 10
2.2722095E+002
 20
7.5263725E+001
 11
2.2722095E+002
 21
1.0426372E+002
  0
LINE
  5
430
100
AcDbEntity
  8
1
100
AcDbLine
  6
CONTINUOUS
 62
7
 10
2.2792095E+002
 20
1.0246373E+002
 11
2.4172095E+002
 21
1.0246373E+002
  0
ARC
  5
431
100
AcDbEntity
  8
1
100
AcDbCircle
  6
CONTINUOUS
 62
7
 10
2.4062095E+002
 20
1.2986372E+002
 40
1.8
100
AcDbArc
 50
0.0
 51
3.257897E+001
  0
ARC
  5
432
100
AcDbEntity
  8
1
100
AcDbCircle
  6
CONTINUOUS
 62
7
 10
2.4171639E+002
 20
1.3056373E+002
 40
5.0E-001
100
AcDbArc
 50
3.257897E+001
 51
9.0E+001
  0
ARC
  5
433
100
AcDbEntity
  8
1
100
AcDbCircle
  6
CONTINUOUS
 62
7
 10
2.3912095E+002
 20
1.3036372E+002
 40
7.0E-001
100
AcDbArc
 50
9.0E+001
 51
1.8E+002
  0
ARC
  5
434
100
AcDbEntity
  8
1
100
AcDbCircle
  6
CONTINUOUS
 62
7
 10
2.3742095E+002
 20
1.1176372E+002
 40
1.0
100
AcDbArc
 50
2.7E+002
 51
3.6E+002
  0
LINE
  5
435
100
AcDbEntity
  8
1
100
AcDbLine
  6
CONTINUOUS
 62
7
 10
2.2196845E+002
 20
1.1981366E+002
 11
2.223877E+002
 21
1.1142877E+002
  0
ARC
  5
436
100
AcDbEntity
  8
1
100
AcDbCircle
  6
CONTINUOUS
 62
7
 10
2.2308682E+002
 20
1.1146373E+002
 40
7.0E-001
100
AcDbArc
 50
1.8286241E+002
 51
2.7E+002
  0
ARC
  5
437
100
AcDbEntity
  8
1
100
AcDbCircle
  6
CONTINUOUS
 62
7
 10
2.209697E+002
 20
1.1976372E+002
 40
1.0
100
AcDbArc
 50
2.8624052
 51
9.0E+001
  0
ARC
  5
438
100
AcDbEntity
  8
1
100
AcDbCircle
  6
CONTINUOUS
 62
7
 10
2.1912095E+002
 20
1.2006373E+002
 40
7.0E-001
100
AcDbArc
 50
9.0E+001
 51
1.8E+002
  0
ARC
  5
439
100
AcDbEntity
  8
1
100
AcDbCircle
  6
CONTINUOUS
 62
7
 10
2.1912095E+002
 20
1.0646373E+002
 40
7.0E-001
100
AcDbArc
 50
1.8E+002
 51
2.7E+002
  0
ARC
  5
43a
100
AcDbEntity
  8
1
100
AcDbCircle
  6
CONTINUOUS
 62
7
 10
2.2572095E+002
 20
1.0426372E+002
 40
1.5
100
AcDbArc
 50
0.0
 51
9.0E+001
  0
ARC
  5
43b
100
AcDbEntity
  8
1
100
AcDbCircle
  6
CONTINUOUS
 62
7
 10
2.3772095E+002
 20
1.0316373E+002
 40
7.0E-001
100
AcDbArc
 50
2.7E+002
 51
3.6E+002
  0
ARC
  5
43c
100
AcDbEntity
  8
1
100
AcDbCircle
  6
CONTINUOUS
 62
7
 10
2.4172095E+002
 20
1.0176372E+002
 40
7.0E-001
100
AcDbArc
 50
0.0
 51
9.0E+001
  0
ARC
  5
43d
100
AcDbEntity
  8
1
100
AcDbCircle
  6
CONTINUOUS
 62
7
 10
2.2792095E+002
 20
1.0176372E+002
 40
7.0E-001
100
AcDbArc
 50
9.0E+001
 51
1.8E+002
  0
LINE
  5
43e
100
AcDbEntity
  8
1
100
AcDbLine
  6
CONTINUOUS
 62
7
 10
2.4171639E+002
 20
4.8463725E+001
 11
2.3912095E+002
 21
4.8463725E+001
  0
LINE
  5
43f
100
AcDbEntity
  8
1
100
AcDbLine
  6
CONTINUOUS
 62
7
 10
2.3842095E+002
 20
4.9163725E+001
 11
2.3842095E+002
 21
7.6363725E+001
  0
LINE
  5
440
100
AcDbEntity
  8
1
100
AcDbLine
  6
CONTINUOUS
 62
7
 10
2.2308682E+002
 20
6.8763725E+001
 11
2.3742095E+002
 21
6.8763725E+001
  0
LINE
  5
441
100
AcDbEntity
  8
1
100
AcDbLine
  6
CONTINUOUS
 62
7
 10
2.1842095E+002
 20
5.9463725E+001
 11
2.1842095E+002
 21
7.3063725E+001
  0
LINE
  5
442
100
AcDbEntity
  8
1
100
AcDbLine
  6
CONTINUOUS
 62
7
 10
2.1912095E+002
 20
5.8763725E+001
 11
2.209697E+002
 21
5.8763725E+001
  0
LINE
  5
443
100
AcDbEntity
  8
1
100
AcDbLine
  6
CONTINUOUS
 62
7
 10
2.1912095E+002
 20
7.3763725E+001
 11
2.2572095E+002
 21
7.3763725E+001
  0
LINE
  5
444
100
AcDbEntity
  8
1
100
AcDbLine
  6
CONTINUOUS
 62
7
 10
2.2792095E+002
 20
7.7063725E+001
 11
2.4172095E+002
 21
7.7063725E+001
  0
ARC
  5
445
100
AcDbEntity
  8
1
100
AcDbCircle
  6
CONTINUOUS
 62
7
 10
2.4062095E+002
 20
4.9663725E+001
 40
1.8
100
AcDbArc
 50
3.2742103E+002
 51
3.6E+002
  0
ARC
  5
446
100
AcDbEntity
  8
1
100
AcDbCircle
  6
CONTINUOUS
 62
7
 10
2.4171639E+002
 20
4.8963725E+001
 40
5.0E-001
100
AcDbArc
 50
2.7E+002
 51
3.2742103E+002
  0
ARC
  5
447
100
AcDbEntity
  8
1
100
AcDbCircle
  6
CONTINUOUS
 62
7
 10
2.3912095E+002
 20
4.9163725E+001
 40
7.0E-001
100
AcDbArc
 50
1.8E+002
 51
2.7E+002
  0
ARC
  5
448
100
AcDbEntity
  8
1
100
AcDbCircle
  6
CONTINUOUS
 62
7
 10
2.3742095E+002
 20
6.7763725E+001
 40
1.0
100
AcDbArc
 50
0.0
 51
9.0E+001
  0
LINE
  5
449
100
AcDbEntity
  8
1
100
AcDbLine
  6
CONTINUOUS
 62
7
 10
2.2196845E+002
 20
5.9713787E+001
 11
2.223877E+002
 21
6.8098681E+001
  0
ARC
  5
44a
100
AcDbEntity
  8
1
100
AcDbCircle
  6
CONTINUOUS
 62
7
 10
2.2308682E+002
 20
6.8063725E+001
 40
7.0E-001
100
AcDbArc
 50
9.0E+001
 51
1.7713759E+002
  0
ARC
  5
44b
100
AcDbEntity
  8
1
100
AcDbCircle
  6
CONTINUOUS
 62
7
 10
2.209697E+002
 20
5.9763725E+001
 40
1.0
100
AcDbArc
 50
2.7E+002
 51
3.5713759E+002
  0
ARC
  5
44c
100
AcDbEntity
  8
1
100
AcDbCircle
  6
CONTINUOUS
 62
7
 10
2.1912095E+002
 20
5.9463725E+001
 40
7.0E-001
100
AcDbArc
 50
1.8E+002
 51
2.7E+002
  0
ARC
  5
44d
100
AcDbEntity
  8
1
100
AcDbCircle
  6
CONTINUOUS
 62
7
 10
2.1912095E+002
 20
7.3063725E+001
 40
7.0E-001
100
AcDbArc
 50
9.0E+001
 51
1.8E+002
  0
ARC
  5
44e
100
AcDbEntity
  8
1
100
AcDbCircle
  6
CONTINUOUS
 62
7
 10
2.2572095E+002
 20
7.5263725E+001
 40
1.5
100
AcDbArc
 50
2.7E+002
 51
3.6E+002
  0
ARC
  5
44f
100
AcDbEntity
  8
1
100
AcDbCircle
  6
CONTINUOUS
 62
7
 10
2.3772095E+002
 20
7.6363725E+001
 40
7.0E-001
100
AcDbArc
 50
0.0
 51
9.0E+001
  0
ARC
  5
450
100
AcDbEntity
  8
1
100
AcDbCircle
  6
CONTINUOUS
 62
7
 10
2.4172095E+002
 20
7.7763725E+001
 40
7.0E-001
100
AcDbArc
 50
2.7E+002
 51
3.6E+002
  0
ARC
  5
451
100
AcDbEntity
  8
1
100
AcDbCircle
  6
CONTINUOUS
 62
7
 10
2.2792095E+002
 20
7.7763725E+001
 40
7.0E-001
100
AcDbArc
 50
1.8E+002
 51
2.7E+002
  0
DIMENSION
  5
452
100
AcDbEntity
  8
1
100
AcDbDimension
  6
CONTINUOUS
 62
1
  2
*D1024
  3
DSTYLE1
 10
1.8181761E+002
 20
8.1263725E+001
 11
1.7981661E+002
 21
8.9763725E+001
 70
128
100
AcDbAlignedDimension
 13
1.6667946E+002
 23
9.8263725E+001
 14
1.6667946E+002
 24
8.1263725E+001
 40
0.0
 50
9.0E+001
100
AcDbRotatedDimension
1001
ACAD
1000
DSTYLE
1002
{
1070
173
1070
0
1070
5
1000
_AH2
1002
}
  0
DIMENSION
  5
453
100
AcDbEntity
  8
1
100
AcDbDimension
  6
CONTINUOUS
 62
1
  2
*D1026
  3
DSTYLE1
 10
1.7427946E+002
 20
7.0629836E+001
 11
1.8359415E+002
 21
7.2630836E+001
 70
128
100
AcDbAlignedDimension
 13
1.5907946E+002
 23
8.1263725E+001
 14
1.7427946E+002
 24
7.8704189E+001
 40
0.0
 50
0.0
100
AcDbRotatedDimension
1001
ACAD
1000
DSTYLE
1002
{
1070
173
1070
0
1070
5
1000
_AH2
1002
}
  0
DIMENSION
  5
454
100
AcDbEntity
  8
1
100
AcDbDimension
  6
CONTINUOUS
 62
1
  2
*D1028
  3
DSTYLE1
 10
4.5893565E+001
 20
4.8463725E+001
 11
4.3892565E+001
 21
8.9763725E+001
 70
128
100
AcDbAlignedDimension
 13
6.715946E+001
 23
1.3106373E+002
 14
6.715946E+001
 24
4.8463725E+001
 40
0.0
 50
9.0E+001
100
AcDbRotatedDimension
1001
ACAD
1000
DSTYLE
1002
{
1070
173
1070
0
1070
5
1000
_AH2
1002
}
  0
DIMENSION
  5
455
100
AcDbEntity
  8
1
100
AcDbDimension
  6
CONTINUOUS
 62
1
  2
*D1029
  3
DSTYLE1
 10
5.4124067E+001
 20
6.8763725E+001
 11
5.2123067E+001
 21
8.9763725E+001
 70
128
100
AcDbAlignedDimension
 13
6.4945634E+001
 23
1.1076372E+002
 14
6.515946E+001
 24
6.8763725E+001
 40
0.0
 50
9.0E+001
100
AcDbRotatedDimension
1001
ACAD
1000
DSTYLE
1002
{
1070
173
1070
0
1070
5
1000
_AH2
1002
}
  0
DIMENSION
  5
456
100
AcDbEntity
  8
1
100
AcDbDimension
  6
CONTINUOUS
 62
1
  2
*D1030
  3
DSTYLE1
 10
2.0637294E+002
 20
5.8763725E+001
 11
2.0437194E+002
 21
8.9763725E+001
 70
128
100
AcDbAlignedDimension
 13
2.1912095E+002
 23
1.2076372E+002
 14
2.1912095E+002
 24
5.8763725E+001
 40
0.0
 50
9.0E+001
100
AcDbRotatedDimension
1001
ACAD
1000
DSTYLE
1002
{
1070
173
1070
0
1070
5
1000
_AH2
1002
}
  0
DIMENSION
  5
457
100
AcDbEntity
  8
1
100
AcDbDimension
  6
CONTINUOUS
 62
1
  2
*D1031
  3
DSTYLE1
 10
2.1302334E+002
 20
7.3763725E+001
 11
2.1102234E+002
 21
8.9763725E+001
 70
128
100
AcDbAlignedDimension
 13
2.1912095E+002
 23
1.0576372E+002
 14
2.1912095E+002
 24
7.3763725E+001
 40
0.0
 50
9.0E+001
100
AcDbRotatedDimension
1001
ACAD
1000
DSTYLE
1002
{
1070
173
1070
0
1070
5
1000
_AH2
1002
}
  0
DIMENSION
  5
458
100
AcDbEntity
  8
1
100
AcDbDimension
  6
CONTINUOUS
 62
1
  2
*D1032
  3
DSTYLE2
 10
8.972446E+001
 20
1.5274871E+002
 11
8.009196E+001
 21
1.5474971E+002
 70
128
100
AcDbAlignedDimension
 13
7.045946E+001
 23
1.6366121E+002
 14
8.972446E+001
 24
1.6366121E+002
 40
0.0
 50
0.0
100
AcDbRotatedDimension
1001
ACAD
1000
DSTYLE
1002
{
1070
173
1070
0
1070
5
1000
_AH2
1002
}
  0
DIMENSION
  5
459
100
AcDbEntity
  8
1
100
AcDbDimension
  6
CONTINUOUS
 62
1
  2
*D1033
  3
DSTYLE3
 10
1.0898946E+002
 20
1.5274871E+002
 11
9.935696E+001
 21
1.5474971E+002
 70
128
100
AcDbAlignedDimension
 13
8.972446E+001
 23
1.6366121E+002
 14
1.0898946E+002
 24
1.6366121E+002
 40
0.0
 50
0.0
100
AcDbRotatedDimension
1001
ACAD
1000
DSTYLE
1002
{
1070
173
1070
0
1070
5
1000
_AH2
1002
}
  0
DIMENSION
  5
45a
100
AcDbEntity
  8
1
100
AcDbDimension
  6
CONTINUOUS
 62
1
  2
*D1034
  3
DSTYLE4
 10
1.8181761E+002
 20
1.8484907E+002
 11
1.7981661E+002
 21
1.9103293E+002
 70
128
100
AcDbAlignedDimension
 13
1.7755992E+002
 23
1.7724907E+002
 14
1.6667946E+002
 24
1.8484907E+002
 40
0.0
 50
9.0E+001
100
AcDbRotatedDimension
1001
ACAD
1000
DSTYLE
1002
{
1070
173
1070
0
1070
5
1000
_AH2
1002
}
  0
DIMENSION
  5
45b
100
AcDbEntity
  8
1
100
AcDbDimension
  6
CONTINUOUS
 62
1
  2
*D1035
  3
DSTYLE5
 10
1.9000272E+002
 20
1.6964907E+002
 11
1.8800172E+002
 21
1.7725876E+002
 70
128
100
AcDbAlignedDimension
 13
1.6667946E+002
 23
1.8484907E+002
 14
1.6667946E+002
 24
1.6964907E+002
 40
0.0
 50
9.0E+001
100
AcDbRotatedDimension
1001
ACAD
1000
DSTYLE
1002
{
1070
173
1070
0
1070
5
1000
_AH2
1002
}
  0
DIMENSION
  5
45c
100
AcDbEntity
  8
1
100
AcDbDimension
  6
CONTINUOUS
 62
1
  2
*D1038
  3
DSTYLE1
 10
1.9844361E+002
 20
1.6084907E+002
 11
1.9644261E+002
 21
1.7342199E+002
 70
128
100
AcDbAlignedDimension
 13
1.6667946E+002
 23
1.8484907E+002
 14
1.5797946E+002
 24
1.6084907E+002
 40
0.0
 50
9.0E+001
100
AcDbRotatedDimension
1001
ACAD
1000
DSTYLE
1002
{
1070
173
1070
0
1070
5
1000
_AH2
1002
}
  0
DIMENSION
  5
45d
100
AcDbEntity
  8
1
100
AcDbDimension
  6
CONTINUOUS
 62
1
  2
*D1039
  3
DSTYLE6
 10
1.5623914E+002
 20
1.8484907E+002
 11
1.5423814E+002
 21
1.915827E+002
 70
128
100
AcDbAlignedDimension
 13
1.5053442E+002
 23
1.8084907E+002
 14
1.4751946E+002
 24
1.8484907E+002
 40
0.0
 50
9.0E+001
100
AcDbRotatedDimension
1001
ACAD
1000
DSTYLE
1002
{
1070
173
1070
0
1070
5
1000
_AH2
1002
}
  0
LINE
  5
45e
100
AcDbEntity
  8
1
100
AcDbLine
  6
CONTINUOUS
 62
7
 10
2.2892095E+002
 20
1.3176372E+002
 11
2.2892095E+002
 21
1.1376372E+002
  0
DIMENSION
  5
45f
100
AcDbEntity
  8
1
100
AcDbDimension
  6
CONTINUOUS
 62
1
  2
*D1041
  3
DSTYLE1
 10
2.3842095E+002
 20
1.4007315E+002
 11
2.3042095E+002
 21
1.4207415E+002
 70
128
100
AcDbAlignedDimension
 13
2.2242095E+002
 23
1.1076372E+002
 14
2.3842095E+002
 24
1.3036372E+002
 40
0.0
 50
0.0
100
AcDbRotatedDimension
1001
ACAD
1000
DSTYLE
1002
{
1070
173
1070
0
1070
5
1000
_AH2
1002
}
  0
LINE
  5
460
100
AcDbEntity
  8
1
100
AcDbLine
  6
CONTINUOUS
 62
7
 10
2.2892095E+002
 20
1.1376372E+002
 11
2.3842095E+002
 21
1.1376372E+002
  0
LINE
  5
461
100
AcDbEntity
  8
1
100
AcDbLine
  6
CONTINUOUS
 62
7
 10
2.2892095E+002
 20
1.3176372E+002
 11
2.3842095E+002
 21
1.3176372E+002
  0
LINE
  5
462
100
AcDbEntity
  8
1
100
AcDbLine
  6
CONTINUOUS
 62
7
 10
2.3842095E+002
 20
1.1376372E+002
 11
2.3842095E+002
 21
1.3176372E+002
  0
LINE
  5
463
100
AcDbEntity
  8
1
100
AcDbLine
  6
CONTINUOUS
 62
7
 10
2.2892095E+002
 20
4.7763725E+001
 11
2.3842095E+002
 21
4.7763725E+001
  0
LINE
  5
464
100
AcDbEntity
  8
1
100
AcDbLine
  6
CONTINUOUS
 62
7
 10
2.2892095E+002
 20
4.7763725E+001
 11
2.2892095E+002
 21
6.5763725E+001
  0
LINE
  5
465
100
AcDbEntity
  8
1
100
AcDbLine
  6
CONTINUOUS
 62
7
 10
2.3842095E+002
 20
6.5763725E+001
 11
2.3842095E+002
 21
4.7763725E+001
  0
LINE
  5
466
100
AcDbEntity
  8
1
100
AcDbLine
  6
CONTINUOUS
 62
7
 10
2.2892095E+002
 20
6.5763725E+001
 11
2.3842095E+002
 21
6.5763725E+001
  0
INSERT
  5
467
100
AcDbEntity
100
AcDbBlockReference
  2
*D1068
  8
1
 62
1
 10
0.0
 20
0.0
  0
LINE
  5
468
100
AcDbEntity
  8
1
100
AcDbLine
  6
CONTINUOUS
 62
7
 10
1.4546946E+002
 20
7.2013725E+001
 11
1.4546946E+002
 21
7.1763725E+001
  0
LINE
  5
469
100
AcDbEntity
  8
1
100
AcDbLine
  6
CONTINUOUS
 62
7
 10
1.5096946E+002
 20
7.2013725E+001
 11
1.5096946E+002
 21
7.0763725E+001
  0
INSERT
  5
46a
100
AcDbEntity
100
AcDbBlockReference
  2
*XH138
  8
1
 10
1.433979E+002
 20
7.0983572E+001
  0
INSERT
  5
46b
100
AcDbEntity
100
AcDbBlockReference
  2
*XH139
  8
1
 10
1.5699982E+002
 20
7.0443363E+001
  0
INSERT
  5
46c
100
AcDbEntity
100
AcDbBlockReference
  2
*XH140
  8
1
 10
1.5879297E+002
 20
1.033492E+002
  0
INSERT
  5
46d
100
AcDbEntity
100
AcDbBlockReference
  2
*XH142
  8
1
 10
1.4469241E+002
 20
1.0339078E+002
  0
INSERT
  5
46e
100
AcDbEntity
100
AcDbBlockReference
  2
*XH143
  8
1
 10
1.4339028E+002
 20
1.0208454E+002
  0
INSERT
  5
46f
100
AcDbEntity
100
AcDbBlockReference
  2
*XH144
  8
1
 10
1.5325542E+002
 20
1.0070468E+002
  0
INSERT
  5
470
100
AcDbEntity
100
AcDbBlockReference
  2
SINKO_CATALPG_WHITE
  8
1
 10
1.1484731E+002
 20
2.4555326E+001
  0
VIEWPORT
  5
471
100
AcDbEntity
 67
1
  8
0
  6
CONTINUOUS
 62
3
100
AcDbViewport
 10
1.485E+002
 20
1.05E+002
 30
0.0
 40
2.1E+002
 41
2.1E+002
 68
1
 69
1
1001
ACAD
1000
MVIEW
1002
{
1070
16
1010
0.0
1020
0.0
1030
0.0
1010
0.0
1020
0.0
1030
1.0
1040
0.0
1040
2.1E+002
1040
8.1675E+001
1040
1.05E+002
1040
5.0E+001
1040
0.0
1040
0.0
1070
0
1070
1000
1070
1
1070
0
1070
0
1070
0
1070
0
1070
0
1040
0.0
1040
0.0
1040
0.0
1040
5.0E-001
1040
5.0E-001
1040
5.0E-001
1040
5.0E-001
1070
0
1002
{
1002
}
1002
}
  0
VIEWPORT
  5
472
100
AcDbEntity
 67
1
  8
0
100
AcDbViewport
 62
3
 10
1.485E+002
 20
1.05E+002
 30
0.0
 40
2.97E+002
 41
2.1E+002
 68
2
 69
2
1001
ACAD
1000
MVIEW
1002
{
1070
16
1010
0.0
1020
0.0
1030
0.0
1010
0.0
1020
0.0
1030
1.0
1040
0.0
1040
2.1E+002
1040
1.485E+002
1040
1.05E+002
1040
5.0E+001
1040
0.0
1040
0.0
1070
0
1070
1000
1070
1
1070
0
1070
0
1070
0
1070
0
1070
0
1040
0.0
1040
0.0
1040
0.0
1040
5.0E-001
1040
5.0E-001
1040
5.0E-001
1040
5.0E-001
1070
0
1002
{
1002
}
1002
}
  0
ENDSEC
  0
SECTION
  2
OBJECTS
  0
DICTIONARY
  5
473
100
AcDbDictionary
  3
ACAD_GROUP
350
474
  3
ACAD_MLINESTYLE
350
475
  0
DICTIONARY
  5
474
102
{ACAD_REACTORS
330
473
102
}
100
AcDbDictionary
  0
DICTIONARY
  5
475
102
{ACAD_REACTORS
330
473
102
}
100
AcDbDictionary
  3
STANDARD
350
476
  0
MLINESTYLE
  5
476
102
{ACAD_REACTORS
330
475
102
}
100
AcDbMlineStyle
  2
STANDARD
 70
0
  3

 62
256
 51
9.0E+001
 52
9.0E+001
 71
2
 49
5.0E-001
 62
256
  6
BYLAYER
 49
-5.0E-001
 62
256
  6
BYLAYER
  0
ENDSEC
  0
EOF
