  0
SECTION
  2
HEADER
  9
$ACADVER
  1
AC1009
999
I-DEAS 13 NX Not Encoded
  9
$EXTMIN
 10
0.0
 20
0.0
  9
$EXTMAX
 10
4.2E+002
 20
2.97E+002
  9
$TEXTSIZE
 40
1.25E-001
  9
$LTSCALE
 40
1.0
  9
$CLAYER
  8
1
  9
$CECOLOR
 62
1
  9
$DIMASZ
 40
1.25E-001
  9
$DIMEXO
 40
6.25E-002
  9
$DIMDLI
 40
2.5E-001
  9
$DIMEXE
 40
1.25E-001
  9
$DIMTP
 40
5.0E-003
  9
$DIMTM
 40
-5.0E-003
  9
$DIMTXT
 40
3.0
  9
$DIMLIM
 70
0
  9
$DIMTIH
 70
1
  9
$DIMTOH
 70
1
  9
$DIMSE1
 70
0
  9
$DIMSE2
 70
0
  9
$DIMTAD
 70
0
  9
$DIMASO
 70
1
  9
$DIMALT
 70
0
  9
$DIMALTD
 70
0
  9
$DIMTOFL
 70
1
  9
$DIMTIX
 70
0
  9
$DIMSAH
 70
0
  9
$DIMSTYLE
  2
DSTYLE1
  9
$DIMTFAC
 40
1.0
  9
$DIMGAP
 40
6.25E-002
  9
$LUNITS
 70
2
  9
$LUPREC
 70
3
  9
$FILLETRAD
 40
7.0E-001
  9
$AUNITS
 70
0
  9
$AUPREC
 70
1
  9
$CHAMFERA
 40
1.0
  9
$CHAMFERB
 40
1.0
  9
$ANGBASE
 50
0.0
  9
$ANGDIR
 70
0
  9
$PEXTMIN
 10
0.0
 20
0.0
 30
0.0
  9
$PEXTMAX
 10
4.2E+002
 20
2.97E+002
 30
0.0
  9
$PLIMMIN
 10
0.0
 20
0.0
  9
$PLIMMAX
 10
4.2E+002
 20
2.97E+002
  9
$PDMODE
 70
2
  9
$PDSIZE
 40
-1.0E-002
  9
$SPLINETYPE
 70
6
  9
$TILEMODE
 70
0
  0
ENDSEC
  0
SECTION
  2
TABLES
  0
TABLE
  2
VPORT
 70
2
  0
VPORT
  2
*Active
 70
0
 10
0.0
 20
0.0
 11
4.2E+002
 21
2.97E+002
 12
2.1E+002
 22
1.485E+002
 13
0.0
 23
0.0
 14
1.0
 24
1.0
 15
0.0
 25
0.0
 16
0.0
 26
0.0
 36
1.0
 17
0.0
 27
0.0
 37
0.0
 40
2.97E+002
 41
1.4141414
 42
5.0E+001
 43
0.0
 44
0.0
 50
0.0
 51
0.0
 71
0
 72
1000
 73
1
 74
3
 75
0
 76
0
 77
0
 78
0
  0
ENDTAB
  0
TABLE
  2
LTYPE
 70
8
  0
LTYPE
  2
HIDDENNEW0
  3
_ 
 70
64
 72
65
 73
3
 40
4.5
 49
1.5
 49
-1.5
 49
1.5
  0
LTYPE
  2
HIDDENNEW1
  3
_ 
 70
64
 72
65
 73
3
 40
4.5
 49
1.5
 49
-1.5
 49
1.5
  0
LTYPE
  2
HIDDEN
  3
_ 
 70
64
 72
65
 73
3
 40
4.5
 49
1.5
 49
-1.5
 49
1.5
  0
LTYPE
  2
CENTERLINE
  3
_ 
 70
64
 72
65
 73
5
 40
3.0E+001
 49
1.2E+001
 49
-1.5
 49
3.0
 49
-1.5
 49
1.2E+001
  0
LTYPE
  2
PHANTOM
  3
_ 
 70
64
 72
65
 73
7
 40
2.95E+001
 49
9.5
 49
-1.5
 49
3.0
 49
-1.5
 49
3.0
 49
-1.5
 49
9.5
  0
LTYPE
  2
SHORT_DASH
  3
_ 
 70
64
 72
65
 73
3
 40
3.0
 49
7.5E-001
 49
-1.5
 49
7.5E-001
  0
LTYPE
  2
LONG_DASH
  3
_ 
 70
64
 72
65
 73
3
 40
9.0
 49
2.25
 49
-4.5
 49
2.25
  0
LTYPE
  2
DASHDOT
  3
_ 
 70
64
 72
65
 73
5
 40
1.85E+001
 49
6.0
 49
-3.0
 49
5.0E-001
 49
-3.0
 49
6.0
  0
ENDTAB
  0
TABLE
  2
LAYER
 70
258
  0
LAYER
  2
0
 70
0
 62
7
  6
CONTINUOUS
  0
LAYER
  2
1
 70
0
 62
7
  6
CONTINUOUS
  0
LAYER
  2
AM_VIEWS
 70
0
 62
3
  6
CONTINUOUS
  0
LAYER
  2
Drafting_Hidden_Entities
 70
1
 62
7
  6
CONTINUOUS
  0
ENDTAB
  0
TABLE
  2
STYLE
 70
1
  0
STYLE
  2
STANDARD
 70
64
 40
0.0
 41
1.0
 50
0.0
 71
0
 42
1.0
  3
monotxt.shx
  4
bigfont.shx
  0
ENDTAB
  0
TABLE
  2
VIEW
 70
0
  0
ENDTAB
  0
TABLE
  2
DIMSTYLE
 70
6
  0
DIMSTYLE
  2
DSTYLE1
 70
0
  3

  4

  5

  6

  7

 40
1.0
 41
2.0
 42
1.5
 43
3.8E-001
 44
5.0E-001
 45
0.0
 46
0.0
 47
1.0
 48
1.0
 71
0
 72
0
 73
0
 74
0
 75
0
 76
1
 77
1
 78
3
140
3.0
141
9.0E-002
142
0.0
143
3.9370079E-002
144
1.0
145
0.0
146
1.0
147
5.0E-001
170
0
171
2
172
0
173
0
174
0
175
0
176
0
177
0
178
0
  0
DIMSTYLE
  2
DSTYLE2
 70
0
  3

  4

  5

  6

  7

 40
1.0
 41
2.0
 42
1.5
 43
3.8E-001
 44
5.0E-001
 45
0.0
 46
0.0
 47
1.0
 48
1.0
 71
0
 72
0
 73
0
 74
0
 75
0
 76
0
 77
1
 78
3
140
3.0
141
9.0E-002
142
0.0
143
3.9370079E-002
144
1.0
145
0.0
146
1.0
147
5.0E-001
170
0
171
2
172
0
173
0
174
0
175
0
176
0
177
0
178
0
  0
DIMSTYLE
  2
DSTYLE3
 70
0
  3

  4

  5

  6

  7

 40
1.0
 41
1.5
 42
5.0E-001
 43
3.8E-001
 44
6.0E-001
 45
0.0
 46
0.0
 47
1.0
 48
1.0
 71
0
 72
0
 73
0
 74
0
 75
0
 76
0
 77
1
 78
3
140
3.0
141
9.0E-002
142
0.0
143
3.9370079E-002
144
1.0
145
0.0
146
1.0
147
5.0E-001
170
0
171
2
172
0
173
0
174
0
175
0
176
0
177
0
178
0
  0
DIMSTYLE
  2
DSTYLE4
 70
0
  3

  4

  5

  6

  7

 40
1.0
 41
2.0
 42
1.5
 43
3.8E-001
 44
5.0E-001
 45
1.0E-001
 46
0.0
 47
1.0
 48
1.0
 71
0
 72
0
 73
0
 74
0
 75
0
 76
0
 77
1
 78
3
140
3.0
141
9.0E-002
142
0.0
143
3.9370079E-002
144
1.0
145
0.0
146
1.0
147
5.0E-001
170
0
171
2
172
0
173
0
174
0
175
0
176
0
177
0
178
0
  0
DIMSTYLE
  2
DSTYLE5
 70
0
  3

  4

  5

  6

  7

 40
1.0
 41
2.0
 42
0.0
 43
3.8E-001
 44
5.0
 45
0.0
 46
0.0
 47
0.0
 48
0.0
 71
0
 72
0
 73
1
 74
1
 75
1
 76
0
 77
1
 78
3
140
3.0
141
9.0E-002
142
0.0
143
1.0
144
1.0
145
0.0
146
1.0
147
5.0E-001
170
0
171
2
172
0
173
0
174
0
175
0
176
0
177
0
178
0
  0
DIMSTYLE
  2
DSTYLE6
 70
0
  3

  4

  5

  6

  7

 40
1.0
 41
1.5
 42
5.0E-001
 43
3.8E-001
 44
6.0E-001
 45
0.0
 46
0.0
 47
1.0
 48
1.0
 71
0
 72
0
 73
0
 74
0
 75
1
 76
1
 77
1
 78
3
140
3.0
141
9.0E-002
142
0.0
143
3.9370079E-002
144
1.0
145
0.0
146
1.0
147
5.0E-001
170
0
171
2
172
0
173
0
174
0
175
0
176
0
177
0
178
0
  0
ENDTAB
  0
ENDSEC
  0
SECTION
  2
BLOCKS
  0
BLOCK
  2
_AH12
  3
_AH
 10
0.0
 20
0.0
 70
64
  0
LINE
  8
0
  6
CONTINUOUS
 62
0
 10
0.0
 20
0.0
 11
1.0
 21
0.0
  0
LINE
  8
0
  6
CONTINUOUS
 62
0
 10
0.0
 20
0.0
 11
-1.0
 21
0.0
  0
ENDBLK
  0
BLOCK
  2
_AH13
  3
_AH
 10
0.0
 20
0.0
 70
64
  0
SOLID
  8
0
  6
CONTINUOUS
 62
0
 10
0.0
 20
0.0
 11
1.0
 21
-1.66667E-001
 12
1.0
 22
1.66667E-001
 13
0.0
 23
0.0
  0
ENDBLK
  0
BLOCK
  2
_AH14
  3
_AH
 10
0.0
 20
0.0
 70
64
  0
ENDBLK
  0
BLOCK
  2
_AH15
  3
_AH
 10
0.0
 20
0.0
 70
64
  0
CIRCLE
  8
0
  6
CONTINUOUS
 62
0
 10
0.0
 20
0.0
 40
1.66667E-001
  0
LINE
  8
0
  6
CONTINUOUS
 62
0
 10
0.0
 20
0.0
 11
-1.0
 21
0.0
  0
ENDBLK
  0
BLOCK
  2
_AH16
  3
_AH
 10
0.0
 20
0.0
 70
64
  0
POLYLINE
  8
0
  6
CONTINUOUS
 62
0
 66
1
 40
0.0
 41
0.0
 70
0
  0
VERTEX
  8
0
 42
1.0
 10
8.3335E-002
 20
0.0
 70
0
  0
VERTEX
  8
0
 42
1.0
 10
-8.3335E-002
 20
0.0
 70
0
  0
VERTEX
  8
0
 42
0.0
 10
8.3335E-002
 20
0.0
 70
0
  0
SEQEND
  0
LINE
  8
0
  6
CONTINUOUS
 62
0
 10
0.0
 20
0.0
 11
-1.0
 21
0.0
  0
ENDBLK
  0
BLOCK
  2
_AH17
  3
_AH
 10
0.0
 20
0.0
 70
64
  0
LINE
  8
0
  6
CONTINUOUS
 62
0
 10
-1.66667E-001
 20
-1.66667E-001
 11
1.66667E-001
 21
-1.66667E-001
  0
LINE
  8
0
  6
CONTINUOUS
 62
0
 10
1.66667E-001
 20
-1.66667E-001
 11
1.66667E-001
 21
1.66667E-001
  0
LINE
  8
0
  6
CONTINUOUS
 62
0
 10
1.66667E-001
 20
1.66667E-001
 11
-1.66667E-001
 21
1.66667E-001
  0
LINE
  8
0
  6
CONTINUOUS
 62
0
 10
-1.66667E-001
 20
1.66667E-001
 11
-1.66667E-001
 21
-1.66667E-001
  0
LINE
  8
0
  6
CONTINUOUS
 62
0
 10
0.0
 20
0.0
 11
-1.0
 21
0.0
  0
ENDBLK
  0
BLOCK
  2
_AH18
  3
_AH
 10
0.0
 20
0.0
 70
64
  0
SOLID
  8
0
  6
CONTINUOUS
 62
0
 10
-1.66667E-001
 20
-1.66667E-001
 11
1.66667E-001
 21
-1.66667E-001
 12
-1.66667E-001
 22
1.66667E-001
 13
1.66667E-001
 23
1.66667E-001
  0
LINE
  8
0
  6
CONTINUOUS
 62
0
 10
0.0
 20
0.0
 11
-1.0
 21
0.0
  0
ENDBLK
  0
BLOCK
  2
_AH19
  3
_AH
 10
0.0
 20
0.0
 70
64
  0
LINE
  8
0
  6
CONTINUOUS
 62
0
 10
-5.0E-001
 20
-5.0E-001
 11
5.0E-001
 21
5.0E-001
  0
LINE
  8
0
  6
CONTINUOUS
 62
0
 10
0.0
 20
0.0
 11
-1.0
 21
0.0
  0
ENDBLK
  0
BLOCK
  2
_AH20
  3
_AH
 10
0.0
 20
0.0
 70
64
  0
POLYLINE
  8
0
  6
CONTINUOUS
 62
0
 66
1
 40
5.0E-001
 41
5.0E-001
 70
0
  0
VERTEX
  8
0
 42
4.1421356E-001
 10
-1.66667E-001
 20
-1.66667E-001
 70
0
  0
VERTEX
  8
0
 42
0.0
 10
0.0
 20
0.0
 70
0
  0
SEQEND
  0
POLYLINE
  8
0
  6
CONTINUOUS
 62
0
 66
1
 40
5.0E-001
 41
5.0E-001
 70
0
  0
VERTEX
  8
0
 42
4.1421356E-001
 10
1.66667E-001
 20
1.66667E-001
 70
0
  0
VERTEX
  8
0
 42
0.0
 10
0.0
 20
0.0
 70
0
  0
SEQEND
  0
LINE
  8
0
  6
CONTINUOUS
 62
0
 10
0.0
 20
0.0
 11
-1.0
 21
0.0
  0
ENDBLK
  0
BLOCK
  2
_AH21
  3
_AH
 10
0.0
 20
0.0
 70
64
  0
LINE
  8
0
  6
CONTINUOUS
 62
0
 10
0.0
 20
0.0
 11
-1.0
 21
-1.66667E-001
  0
LINE
  8
0
  6
CONTINUOUS
 62
0
 10
-1.0
 20
-1.66667E-001
 11
-1.0
 21
1.66667E-001
  0
LINE
  8
0
  6
CONTINUOUS
 62
0
 10
-1.0
 20
1.66667E-001
 11
0.0
 21
0.0
  0
ENDBLK
  0
BLOCK
  2
*XH29
  3
*XH
 10
0.0
 20
0.0
 70
65
  0
LINE
  8
1
  6
CONTINUOUS
 62
4
 10
-1.767767E-001
 20
-1.767767E-001
 11
1.767767E-001
 21
1.767767E-001
  0
LINE
  8
1
  6
CONTINUOUS
 62
4
 10
-8.8388348E-001
 20
-1.767767E-001
 11
1.767767E-001
 21
8.8388348E-001
  0
LINE
  8
1
  6
CONTINUOUS
 62
4
 10
-1.5909903
 20
-1.767767E-001
 11
-3.9097826E-001
 21
1.0232353
  0
LINE
  8
1
  6
CONTINUOUS
 62
4
 10
-2.298097
 20
-1.767767E-001
 11
-1.098085
 21
1.0232353
  0
LINE
  8
1
  6
CONTINUOUS
 62
4
 10
-3.0052038
 20
-1.767767E-001
 11
-1.8051918
 21
1.0232353
  0
LINE
  8
1
  6
CONTINUOUS
 62
4
 10
-3.7123106
 20
-1.767767E-001
 11
-2.5122986
 21
1.0232353
  0
LINE
  8
1
  6
CONTINUOUS
 62
4
 10
-4.2232253
 20
1.9415382E-002
 11
-3.2194054
 21
1.0232353
  0
LINE
  8
1
  6
CONTINUOUS
 62
4
 10
-4.2232253
 20
7.2652216E-001
 11
-3.9265122
 21
1.0232353
  0
ENDBLK
  0
BLOCK
  2
*XH30
  3
*XH
 10
0.0
 20
0.0
 70
65
  0
LINE
  8
1
  6
CONTINUOUS
 62
4
 10
-2.1102632E-001
 20
-2.1102632E-001
 11
2.1102632E-001
 21
2.1102632E-001
  0
LINE
  8
1
  6
CONTINUOUS
 62
4
 10
-1.6252399
 20
-2.1102632E-001
 11
-3.6692103E-001
 21
1.0472925
  0
LINE
  8
1
  6
CONTINUOUS
 62
4
 10
-3.0394534
 20
-2.1102632E-001
 11
-1.7924349
 21
1.0359922
  0
LINE
  8
1
  6
CONTINUOUS
 62
4
 10
-1.5639216
 20
1.2645056
 11
-3.6692103E-001
 21
2.4615061
  0
LINE
  8
1
  6
CONTINUOUS
 62
4
 10
-4.453667
 20
-2.1102632E-001
 11
-3.213662
 21
1.0289787
  0
LINE
  8
1
  6
CONTINUOUS
 62
4
 10
-1.556908
 20
2.6857327
 11
-3.6692103E-001
 21
3.8757197
  0
LINE
  8
1
  6
CONTINUOUS
 62
4
 10
-5.8678806
 20
-2.1102632E-001
 11
-4.6278756
 21
1.0289787
  0
LINE
  8
1
  6
CONTINUOUS
 62
4
 10
-1.556908
 20
4.0999462
 11
-3.6692103E-001
 21
5.2899332
  0
LINE
  8
1
  6
CONTINUOUS
 62
4
 10
-7.2820941
 20
-2.1102632E-001
 11
-5.7105691
 21
1.3604987
  0
LINE
  8
1
  6
CONTINUOUS
 62
4
 10
-1.556908
 20
5.5141598
 11
-3.6692103E-001
 21
6.7041468
  0
LINE
  8
1
  6
CONTINUOUS
 62
4
 10
-8.2892429
 20
1.9603848E-001
 11
-6.8263127
 21
1.6589687
  0
LINE
  8
1
  6
CONTINUOUS
 62
4
 10
-9.8394179
 20
6.0077084E-002
 11
-7.9036351
 21
1.9958598
  0
LINE
  8
1
  6
CONTINUOUS
 62
4
 10
-9.1797653
 20
2.1339432
 11
-8.1074278
 21
3.2062807
  0
LINE
  8
1
  6
CONTINUOUS
 62
4
 10
-9.9460453
 20
2.7818767
 11
-8.7963378
 21
3.9315843
  0
LINE
  8
1
  6
CONTINUOUS
 62
4
 10
-1.0746154E+001
 20
3.3959821
 11
-8.2068135
 21
5.9353221
  0
LINE
  8
1
  6
CONTINUOUS
 62
4
 10
-1.1125575E+001
 20
4.4307744
 11
-9.6460454
 21
5.9103038
  0
ENDBLK
  0
BLOCK
  2
*XH31
  3
*XH
 10
0.0
 20
0.0
 70
65
  0
LINE
  8
1
  6
CONTINUOUS
 62
4
 10
-1.8781837E-001
 20
-1.8781837E-001
 11
1.8781837E-001
 21
1.8781837E-001
  0
LINE
  8
1
  6
CONTINUOUS
 62
4
 10
-1.4059427
 20
8.2708419E-003
 11
-7.2900107E-001
 21
6.8521249E-001
  0
LINE
  8
1
  6
CONTINUOUS
 62
4
 10
-3.2311654
 20
-4.0273832E-001
 11
-1.2856996
 21
1.5427276
  0
LINE
  8
1
  6
CONTINUOUS
 62
4
 10
-1.4868891E-001
 20
2.6797382
 11
3.6645981E-001
 21
3.1948869
  0
LINE
  8
1
  6
CONTINUOUS
 62
4
 10
-4.645379
 20
-4.0273832E-001
 11
-2.7752834
 21
1.4673573
  0
LINE
  8
1
  6
CONTINUOUS
 62
4
 10
-2.4795266
 20
1.7631141
 11
7.6318977E-001
 21
5.0058305
  0
LINE
  8
1
  6
CONTINUOUS
 62
4
 10
-6.0595926
 20
-4.0273832E-001
 11
-4.1895976
 21
1.4672567
  0
LINE
  8
1
  6
CONTINUOUS
 62
4
 10
-1.429914
 20
4.2269403
 11
-1.9412272E-001
 21
5.4627315
  0
LINE
  8
1
  6
CONTINUOUS
 62
4
 10
-7.4738061
 20
-4.0273832E-001
 11
-6.2338011
 21
8.3726668E-001
  0
LINE
  8
1
  6
CONTINUOUS
 62
4
 10
-2.1091058
 20
4.961962
 11
-1.1514352
 21
5.9196326
  0
LINE
  8
1
  6
CONTINUOUS
 62
4
 10
-8.8880197
 20
-4.0273832E-001
 11
-7.6480147
 21
8.3726668E-001
  0
LINE
  8
1
  6
CONTINUOUS
 62
4
 10
-1.0302233E+001
 20
-4.0273832E-001
 11
-8.8147107
 21
1.0847842
  0
LINE
  8
1
  6
CONTINUOUS
 62
4
 10
-1.000934E+001
 20
1.3043685
 11
-8.819337
 21
2.4943715
  0
LINE
  8
1
  6
CONTINUOUS
 62
4
 10
-1.000934E+001
 20
2.718582
 11
-8.819337
 21
3.908585
  0
LINE
  8
1
  6
CONTINUOUS
 62
4
 10
-1.000934E+001
 20
4.1327956
 11
-8.819337
 21
5.3227986
  0
LINE
  8
1
  6
CONTINUOUS
 62
4
 10
-1.000934E+001
 20
5.5470091
 11
-8.9090845
 21
6.6472647
  0
ENDBLK
  0
BLOCK
  2
*XH38
  3
*XH
 10
0.0
 20
0.0
 70
65
  0
LINE
  8
1
  6
CONTINUOUS
 62
4
 10
-1.767767E-001
 20
-1.767767E-001
 11
1.767767E-001
 21
1.767767E-001
  0
LINE
  8
1
  6
CONTINUOUS
 62
4
 10
-8.8388348E-001
 20
-1.767767E-001
 11
1.767767E-001
 21
8.8388348E-001
  0
LINE
  8
1
  6
CONTINUOUS
 62
4
 10
-1.5909903
 20
-1.767767E-001
 11
1.767767E-001
 21
1.5909903
  0
LINE
  8
1
  6
CONTINUOUS
 62
4
 10
-2.298097
 20
-1.767767E-001
 11
-4.9809404E-001
 21
1.6232263
  0
LINE
  8
1
  6
CONTINUOUS
 62
4
 10
-3.0052038
 20
-1.767767E-001
 11
-1.2052008
 21
1.6232263
  0
LINE
  8
1
  6
CONTINUOUS
 62
4
 10
-3.7123106
 20
-1.767767E-001
 11
-1.9123076
 21
1.6232263
  0
LINE
  8
1
  6
CONTINUOUS
 62
4
 10
-4.2232253
 20
1.9415382E-002
 11
-2.6194144
 21
1.6232263
  0
LINE
  8
1
  6
CONTINUOUS
 62
4
 10
-4.2232253
 20
7.2652216E-001
 11
-3.3265212
 21
1.6232263
  0
LINE
  8
1
  6
CONTINUOUS
 62
4
 10
-4.2232253
 20
1.4336289
 11
-4.0336279
 21
1.6232263
  0
ENDBLK
  0
BLOCK
  2
*XH39
  3
*XH
 10
0.0
 20
0.0
 70
65
  0
LINE
  8
1
  6
CONTINUOUS
 62
4
 10
-1.767767E-001
 20
-1.767767E-001
 11
1.767767E-001
 21
1.767767E-001
  0
LINE
  8
1
  6
CONTINUOUS
 62
4
 10
-8.8388348E-001
 20
-1.767767E-001
 11
1.767767E-001
 21
8.8388348E-001
  0
LINE
  8
1
  6
CONTINUOUS
 62
4
 10
-1.5909903
 20
-1.767767E-001
 11
1.767767E-001
 21
1.5909903
  0
LINE
  8
1
  6
CONTINUOUS
 62
4
 10
-2.298097
 20
-1.767767E-001
 11
-4.9809404E-001
 21
1.6232263
  0
LINE
  8
1
  6
CONTINUOUS
 62
4
 10
-3.0052038
 20
-1.767767E-001
 11
-1.2052008
 21
1.6232263
  0
LINE
  8
1
  6
CONTINUOUS
 62
4
 10
-3.7123106
 20
-1.767767E-001
 11
-1.9123076
 21
1.6232263
  0
LINE
  8
1
  6
CONTINUOUS
 62
4
 10
-4.4194174
 20
-1.767767E-001
 11
-2.6194144
 21
1.6232263
  0
LINE
  8
1
  6
CONTINUOUS
 62
4
 10
-5.1265242
 20
-1.767767E-001
 11
-3.3265212
 21
1.6232263
  0
LINE
  8
1
  6
CONTINUOUS
 62
4
 10
-5.8336309
 20
-1.767767E-001
 11
-4.0336279
 21
1.6232263
  0
LINE
  8
1
  6
CONTINUOUS
 62
4
 10
-6.2232173
 20
1.4074373E-001
 11
-4.7407347
 21
1.6232263
  0
LINE
  8
1
  6
CONTINUOUS
 62
4
 10
-6.2232173
 20
8.4785051E-001
 11
-5.4478415
 21
1.6232263
  0
LINE
  8
1
  6
CONTINUOUS
 62
4
 10
-6.2232173
 20
1.5549573
 11
-6.1549483
 21
1.6232263
  0
ENDBLK
  0
BLOCK
  2
*XH40
  3
*XH
 10
0.0
 20
0.0
 70
65
  0
LINE
  8
1
  6
CONTINUOUS
 62
4
 10
-1.767767E-001
 20
-1.767767E-001
 11
1.767767E-001
 21
1.767767E-001
  0
LINE
  8
1
  6
CONTINUOUS
 62
4
 10
-8.8388348E-001
 20
-1.767767E-001
 11
1.767767E-001
 21
8.8388348E-001
  0
LINE
  8
1
  6
CONTINUOUS
 62
4
 10
-1.5909903
 20
-1.767767E-001
 11
1.767767E-001
 21
1.5909903
  0
LINE
  8
1
  6
CONTINUOUS
 62
4
 10
-2.298097
 20
-1.767767E-001
 11
1.767767E-001
 21
2.298097
  0
LINE
  8
1
  6
CONTINUOUS
 62
4
 10
-2.3232233
 20
5.0520382E-001
 11
1.767767E-001
 21
3.0052038
  0
LINE
  8
1
  6
CONTINUOUS
 62
4
 10
-2.3232233
 20
1.2123106
 11
1.767767E-001
 21
3.7123106
  0
LINE
  8
1
  6
CONTINUOUS
 62
4
 10
-2.3232233
 20
1.9194174
 11
1.767767E-001
 21
4.4194174
  0
LINE
  8
1
  6
CONTINUOUS
 62
4
 10
-2.3232233
 20
2.6265242
 11
1.767767E-001
 21
5.1265242
  0
LINE
  8
1
  6
CONTINUOUS
 62
4
 10
-2.3232233
 20
3.3336309
 11
1.767767E-001
 21
5.8336309
  0
LINE
  8
1
  6
CONTINUOUS
 62
4
 10
-2.3232233
 20
4.0407377
 11
1.767767E-001
 21
6.5407377
  0
LINE
  8
1
  6
CONTINUOUS
 62
4
 10
-2.3232233
 20
4.7478445
 11
1.767767E-001
 21
7.2478445
  0
LINE
  8
1
  6
CONTINUOUS
 62
4
 10
-2.3232233
 20
5.4549513
 11
1.767767E-001
 21
7.9549513
  0
LINE
  8
1
  6
CONTINUOUS
 62
4
 10
-2.3232233
 20
6.1620581
 11
-4.6206107E-001
 21
8.0232203
  0
LINE
  8
1
  6
CONTINUOUS
 62
4
 10
-2.3232233
 20
6.8691649
 11
-1.1691679
 21
8.0232203
  0
LINE
  8
1
  6
CONTINUOUS
 62
4
 10
-2.3232233
 20
7.5762716
 11
-1.8762746
 21
8.0232203
  0
ENDBLK
  0
BLOCK
  2
*XH41
  3
*XH
 10
0.0
 20
0.0
 70
65
  0
LINE
  8
1
  6
CONTINUOUS
 62
4
 10
-1.767767E-001
 20
-1.767767E-001
 11
1.767767E-001
 21
1.767767E-001
  0
LINE
  8
1
  6
CONTINUOUS
 62
4
 10
-8.8388348E-001
 20
-1.767767E-001
 11
1.767767E-001
 21
8.8388348E-001
  0
LINE
  8
1
  6
CONTINUOUS
 62
4
 10
-1.5909903
 20
-1.767767E-001
 11
1.767767E-001
 21
1.5909903
  0
LINE
  8
1
  6
CONTINUOUS
 62
4
 10
-2.298097
 20
-1.767767E-001
 11
1.767767E-001
 21
2.298097
  0
LINE
  8
1
  6
CONTINUOUS
 62
4
 10
-2.3232163
 20
5.0521082E-001
 11
1.767767E-001
 21
3.0052038
  0
LINE
  8
1
  6
CONTINUOUS
 62
4
 10
-2.3232163
 20
1.2123176
 11
1.767767E-001
 21
3.7123106
  0
LINE
  8
1
  6
CONTINUOUS
 62
4
 10
-2.3232163
 20
1.9194244
 11
1.767767E-001
 21
4.4194174
  0
LINE
  8
1
  6
CONTINUOUS
 62
4
 10
-2.3232163
 20
2.6265312
 11
1.767767E-001
 21
5.1265242
  0
LINE
  8
1
  6
CONTINUOUS
 62
4
 10
-2.3232163
 20
3.3336379
 11
1.767767E-001
 21
5.8336309
  0
LINE
  8
1
  6
CONTINUOUS
 62
4
 10
-2.3232163
 20
4.0407447
 11
1.767767E-001
 21
6.5407377
  0
LINE
  8
1
  6
CONTINUOUS
 62
4
 10
-2.3232163
 20
4.7478515
 11
1.767767E-001
 21
7.2478445
  0
LINE
  8
1
  6
CONTINUOUS
 62
4
 10
-2.3232163
 20
5.4549583
 11
1.767767E-001
 21
7.9549513
  0
LINE
  8
1
  6
CONTINUOUS
 62
4
 10
-2.3232163
 20
6.1620651
 11
-4.6206107E-001
 21
8.0232203
  0
LINE
  8
1
  6
CONTINUOUS
 62
4
 10
-2.3232163
 20
6.8691719
 11
-1.1691679
 21
8.0232203
  0
LINE
  8
1
  6
CONTINUOUS
 62
4
 10
-2.3232163
 20
7.5762786
 11
-1.8762746
 21
8.0232203
  0
ENDBLK
  0
BLOCK
  2
*XH42
  3
*XH
 10
0.0
 20
0.0
 70
65
  0
LINE
  8
1
  6
CONTINUOUS
 62
4
 10
-1.767767E-001
 20
-1.767767E-001
 11
1.767767E-001
 21
1.767767E-001
  0
LINE
  8
1
  6
CONTINUOUS
 62
4
 10
-8.8388348E-001
 20
-1.767767E-001
 11
1.767767E-001
 21
8.8388348E-001
  0
LINE
  8
1
  6
CONTINUOUS
 62
4
 10
-1.5909903
 20
-1.767767E-001
 11
-3.9099326E-001
 21
1.0232203
  0
LINE
  8
1
  6
CONTINUOUS
 62
4
 10
-2.298097
 20
-1.767767E-001
 11
-1.0981
 21
1.0232203
  0
LINE
  8
1
  6
CONTINUOUS
 62
4
 10
-3.0052038
 20
-1.767767E-001
 11
-1.8052068
 21
1.0232203
  0
LINE
  8
1
  6
CONTINUOUS
 62
4
 10
-3.7123106
 20
-1.767767E-001
 11
-2.5123136
 21
1.0232203
  0
LINE
  8
1
  6
CONTINUOUS
 62
4
 10
-4.2232253
 20
1.9415382E-002
 11
-3.2194204
 21
1.0232203
  0
LINE
  8
1
  6
CONTINUOUS
 62
4
 10
-4.2232253
 20
7.2652216E-001
 11
-3.9265272
 21
1.0232203
  0
ENDBLK
  0
BLOCK
  2
*XH43
  3
*XH
 10
0.0
 20
0.0
 70
65
  0
LINE
  8
1
  6
CONTINUOUS
 62
4
 10
-1.767767E-001
 20
-1.767767E-001
 11
1.767767E-001
 21
1.767767E-001
  0
LINE
  8
1
  6
CONTINUOUS
 62
4
 10
-8.8388348E-001
 20
-1.767767E-001
 11
1.767767E-001
 21
8.8388348E-001
  0
LINE
  8
1
  6
CONTINUOUS
 62
4
 10
-1.5909903
 20
-1.767767E-001
 11
-3.9099326E-001
 21
1.0232203
  0
LINE
  8
1
  6
CONTINUOUS
 62
4
 10
-2.298097
 20
-1.767767E-001
 11
-1.0981
 21
1.0232203
  0
LINE
  8
1
  6
CONTINUOUS
 62
4
 10
-3.0052038
 20
-1.767767E-001
 11
-1.8052068
 21
1.0232203
  0
LINE
  8
1
  6
CONTINUOUS
 62
4
 10
-3.7123106
 20
-1.767767E-001
 11
-2.5123136
 21
1.0232203
  0
LINE
  8
1
  6
CONTINUOUS
 62
4
 10
-4.2232253
 20
1.9415382E-002
 11
-3.2194204
 21
1.0232203
  0
LINE
  8
1
  6
CONTINUOUS
 62
4
 10
-4.2232253
 20
7.2652216E-001
 11
-3.9265272
 21
1.0232203
  0
ENDBLK
  0
BLOCK
  2
*XH44
  3
*XH
 10
0.0
 20
0.0
 70
65
  0
LINE
  8
1
  6
CONTINUOUS
 62
4
 10
-1.767767E-001
 20
-1.767767E-001
 11
1.767767E-001
 21
1.767767E-001
  0
LINE
  8
1
  6
CONTINUOUS
 62
4
 10
-8.8388348E-001
 20
-1.767767E-001
 11
1.767767E-001
 21
8.8388348E-001
  0
LINE
  8
1
  6
CONTINUOUS
 62
4
 10
-1.5909903
 20
-1.767767E-001
 11
-3.9097826E-001
 21
1.0232353
  0
LINE
  8
1
  6
CONTINUOUS
 62
4
 10
-2.298097
 20
-1.767767E-001
 11
-1.098085
 21
1.0232353
  0
LINE
  8
1
  6
CONTINUOUS
 62
4
 10
-3.0052038
 20
-1.767767E-001
 11
-1.8051918
 21
1.0232353
  0
LINE
  8
1
  6
CONTINUOUS
 62
4
 10
-3.7123106
 20
-1.767767E-001
 11
-2.5122986
 21
1.0232353
  0
LINE
  8
1
  6
CONTINUOUS
 62
4
 10
-4.2232253
 20
1.9415382E-002
 11
-3.2194054
 21
1.0232353
  0
LINE
  8
1
  6
CONTINUOUS
 62
4
 10
-4.2232253
 20
7.2652216E-001
 11
-3.9265122
 21
1.0232353
  0
ENDBLK
  0
BLOCK
  2
0315_1
 10
0.0
 20
0.0
 70
0
  0
INSERT
  2
*D177
  8
1
 62
4
 10
0.0
 20
0.0
  0
INSERT
  2
*D178
  8
1
 62
4
 10
0.0
 20
0.0
  0
INSERT
  2
*D179
  8
1
 62
4
 10
0.0
 20
0.0
  0
INSERT
  2
*D180
  8
1
 62
4
 10
0.0
 20
0.0
  0
INSERT
  2
*D181
  8
1
 62
4
 10
0.0
 20
0.0
  0
INSERT
  2
*D182
  8
1
 62
4
 10
0.0
 20
0.0
  0
INSERT
  2
*D183
  8
1
 62
4
 10
0.0
 20
0.0
  0
DIMENSION
  8
1
  6
CONTINUOUS
 62
4
  2
*D184
  3
DSTYLE6
 10
4.9950682E+001
 20
4.1050003E+001
 11
4.7949682E+001
 21
3.7550003E+001
 70
128
 13
2.7499984E+001
 23
3.4050003E+001
 14
2.3500017E+001
 24
4.1050003E+001
 40
3.0
 50
9.0E+001
1001
ACAD
1000
DSTYLE
1002
{
1070
173
1070
0
1070
5
1000
_AH2
1002
}
  0
DIMENSION
  8
1
  6
CONTINUOUS
 62
4
  2
*D185
  3
DSTYLE3
 10
4.9950682E+001
 20
5.0050003E+001
 11
4.7949682E+001
 21
4.5550003E+001
 70
128
 13
2.3500017E+001
 23
4.1050003E+001
 14
2.2500018E+001
 24
5.0050003E+001
 40
3.0
 50
9.0E+001
1001
ACAD
1000
DSTYLE
1002
{
1070
173
1070
0
1070
5
1000
_AH2
1002
}
  0
DIMENSION
  8
1
  6
CONTINUOUS
 62
4
  2
*D186
  3
DSTYLE3
 10
1.25E+001
 20
-1.1023995E+001
 11
0.0
 21
-9.0229951
 70
128
 13
-1.25E+001
 23
0.0
 14
1.25E+001
 24
0.0
 40
3.0
 50
0.0
1001
ACAD
1000
DSTYLE
1002
{
1070
173
1070
0
1070
5
1000
_AH2
1002
}
  0
LINE
  8
1
  6
CONTINUOUS
 62
40
 10
1.6349998E+001
 20
7.649994
 11
1.6349998E+001
 21
8.850006
  0
TEXT
  8
1
  6
CONTINUOUS
 62
4
 10
3.7033682E+001
 20
-8.9389951
 40
3.0
  1
(%%c25 DIN471)
 41
8.0E-001
  0
LINE
  8
1
  6
CONTINUOUS
 62
40
 10
-2.3499983E+001
 20
4.1050003E+001
 11
2.3500017E+001
 21
4.1050003E+001
  0
LINE
  8
1
  6
HIDDEN
 62
4
 10
0.0
 20
5.4496005E+001
 11
0.0
 21
-2.5439951
  0
LINE
  8
1
  6
CONTINUOUS
 62
40
 10
-1.25E+001
 20
5.300003
 11
-1.4699997E+001
 21
6.3500059
  0
ARC
  8
1
  6
CONTINUOUS
 62
40
 10
-2.2009997E+001
 20
1.540005
 40
3.0E-001
 50
1.8E+002
 51
2.7E+002
  0
ARC
  8
1
  6
CONTINUOUS
 62
40
 10
-1.6273711E+001
 20
2.169995
 40
3.0E-001
 50
2.7E+002
 51
3.5044302E+002
  0
LINE
  8
1
  6
CONTINUOUS
 62
40
 10
-2.0349998E+001
 20
8.850006
 11
2.4749993E+001
 21
8.850006
  0
LINE
  8
1
  6
CONTINUOUS
 62
40
 10
1.5600892E+001
 20
3.853881
 11
1.5703209E+001
 21
3.751556
  0
LINE
  8
1
  6
CONTINUOUS
 62
40
 10
-1.2022666E+001
 20
8.850006
 11
-1.1949996E+001
 21
8.777343
  0
LINE
  8
1
  6
CONTINUOUS
 62
40
 10
-2.35E+001
 20
1.0
 11
-2.35E+001
 21
7.050003
  0
LINE
  8
1
  6
CONTINUOUS
 62
40
 10
-2.475E+001
 20
7.050003
 11
-2.475E+001
 21
8.850006
  0
LINE
  8
1
  6
CONTINUOUS
 62
40
 10
-2.05E+001
 20
4.1050003E+001
 11
-2.05E+001
 21
4.2050003E+001
  0
LINE
  8
1
  6
CONTINUOUS
 62
40
 10
2.05E+001
 20
4.2050003E+001
 11
1.6349999E+001
 21
4.2050003E+001
  0
LINE
  8
1
  6
CONTINUOUS
 62
40
 10
2.05E+001
 20
4.1050003E+001
 11
2.05E+001
 21
4.2050003E+001
  0
LINE
  8
1
  6
CONTINUOUS
 62
40
 10
2.4749993E+001
 20
7.050003
 11
2.4749993E+001
 21
8.850006
  0
LINE
  8
1
  6
CONTINUOUS
 62
40
 10
2.3499993E+001
 20
1.0
 11
2.3499993E+001
 21
7.050003
  0
LINE
  8
1
  6
CONTINUOUS
 62
40
 10
2.3499993E+001
 20
1.0
 11
2.4499993E+001
 21
0.0
  0
LINE
  8
1
  6
CONTINUOUS
 62
40
 10
-2.35E+001
 20
1.0
 11
-2.45E+001
 21
0.0
  0
LINE
  8
1
  6
CONTINUOUS
 62
40
 10
-2.45E+001
 20
0.0
 11
2.4499993E+001
 21
0.0
  0
LINE
  8
1
  6
CONTINUOUS
 62
40
 10
-2.475E+001
 20
8.850006
 11
-2.0349998E+001
 21
8.850006
  0
LINE
  8
1
  6
CONTINUOUS
 62
40
 10
-2.05E+001
 20
4.1050003E+001
 11
-2.0461853E+001
 21
4.1050003E+001
  0
LINE
  8
1
  6
CONTINUOUS
 62
40
 10
-1.2E+001
 20
4.4050003E+001
 11
1.2E+001
 21
4.4050003E+001
  0
LINE
  8
1
  6
CONTINUOUS
 62
40
 10
-2.35E+001
 20
2.9050003E+001
 11
-1.25E+001
 21
2.9050003E+001
  0
LINE
  8
1
  6
CONTINUOUS
 62
40
 10
-2.35E+001
 20
2.0850006E+001
 11
-1.25E+001
 21
2.0850006E+001
  0
LINE
  8
1
  6
CONTINUOUS
 62
4
 10
1.25E+001
 20
2.9050003E+001
 11
2.3499993E+001
 21
4.1050003E+001
  0
LINE
  8
1
  6
CONTINUOUS
 62
4
 10
1.25E+001
 20
4.1050003E+001
 11
2.3499993E+001
 21
2.9050003E+001
  0
LINE
  8
1
  6
CONTINUOUS
 62
4
 10
-2.35E+001
 20
4.1050003E+001
 11
-1.25E+001
 21
2.9050003E+001
  0
LINE
  8
1
  6
CONTINUOUS
 62
4
 10
-2.35E+001
 20
2.9050003E+001
 11
-1.25E+001
 21
4.1050003E+001
  0
LINE
  8
1
  6
CONTINUOUS
 62
4
 10
1.25E+001
 20
2.0850006E+001
 11
2.3499993E+001
 21
8.850006
  0
LINE
  8
1
  6
CONTINUOUS
 62
4
 10
1.25E+001
 20
8.850006
 11
2.3499993E+001
 21
2.0850006E+001
  0
LINE
  8
1
  6
CONTINUOUS
 62
4
 10
-2.35E+001
 20
2.0850006E+001
 11
-1.25E+001
 21
8.850006
  0
LINE
  8
1
  6
CONTINUOUS
 62
4
 10
-2.35E+001
 20
8.850006
 11
-1.25E+001
 21
2.0850006E+001
  0
LINE
  8
1
  6
CONTINUOUS
 62
40
 10
1.25E+001
 20
8.850006
 11
1.25E+001
 21
4.1050003E+001
  0
LINE
  8
1
  6
CONTINUOUS
 62
40
 10
-1.25E+001
 20
8.850006
 11
-1.25E+001
 21
4.1050003E+001
  0
LINE
  8
1
  6
CONTINUOUS
 62
40
 10
1.25E+001
 20
4.225E+001
 11
1.25E+001
 21
4.3550003E+001
  0
LINE
  8
1
  6
CONTINUOUS
 62
40
 10
-1.25E+001
 20
4.225E+001
 11
-1.25E+001
 21
4.3550003E+001
  0
LINE
  8
1
  6
CONTINUOUS
 62
40
 10
-1.25E+001
 20
4.3550003E+001
 11
1.25E+001
 21
4.3550003E+001
  0
LINE
  8
1
  6
CONTINUOUS
 62
40
 10
1.2E+001
 20
4.4050003E+001
 11
1.25E+001
 21
4.3550003E+001
  0
LINE
  8
1
  6
CONTINUOUS
 62
40
 10
-1.25E+001
 20
4.3550003E+001
 11
-1.2E+001
 21
4.4050003E+001
  0
LINE
  8
1
  6
CONTINUOUS
 62
40
 10
-1.6349998E+001
 20
4.225E+001
 11
-1.1949996E+001
 21
4.225E+001
  0
LINE
  8
1
  6
CONTINUOUS
 62
40
 10
1.6349999E+001
 20
4.1050003E+001
 11
1.6349999E+001
 21
4.225E+001
  0
LINE
  8
1
  6
CONTINUOUS
 62
40
 10
-1.1949996E+001
 20
4.1050003E+001
 11
-1.1949996E+001
 21
4.225E+001
  0
LINE
  8
1
  6
CONTINUOUS
 62
40
 10
1.1949997E+001
 20
4.1050003E+001
 11
1.1949997E+001
 21
4.225E+001
  0
LINE
  8
1
  6
CONTINUOUS
 62
40
 10
1.25E+001
 20
7.050003
 11
2.4749993E+001
 21
7.050003
  0
LINE
  8
1
  6
CONTINUOUS
 62
40
 10
1.8349999E+001
 20
7.050003
 11
1.8349999E+001
 21
8.850006
  0
LINE
  8
1
  6
CONTINUOUS
 62
40
 10
1.1949997E+001
 20
7.649994
 11
1.1949997E+001
 21
8.850006
  0
LINE
  8
1
  6
CONTINUOUS
 62
40
 10
1.25E+001
 20
7.649994
 11
1.6349998E+001
 21
7.649994
  0
LINE
  8
1
  6
CONTINUOUS
 62
40
 10
1.25E+001
 20
2.9050003E+001
 11
2.3499993E+001
 21
2.9050003E+001
  0
LINE
  8
1
  6
CONTINUOUS
 62
40
 10
1.25E+001
 20
2.0850006E+001
 11
2.3499993E+001
 21
2.0850006E+001
  0
LINE
  8
1
  6
CONTINUOUS
 62
40
 10
1.1949997E+001
 20
4.225E+001
 11
1.6349999E+001
 21
4.225E+001
  0
LINE
  8
1
  6
CONTINUOUS
 62
40
 10
-1.1949996E+001
 20
4.225E+001
 11
1.1949997E+001
 21
4.225E+001
  0
LINE
  8
1
  6
CONTINUOUS
 62
40
 10
-1.25E+001
 20
7.649994
 11
1.25E+001
 21
7.649994
  0
LINE
  8
1
  6
CONTINUOUS
 62
40
 10
-2.1E+001
 20
2.0850006E+001
 11
-2.1E+001
 21
2.9050003E+001
  0
LINE
  8
1
  6
CONTINUOUS
 62
40
 10
2.1E+001
 20
2.0850006E+001
 11
2.1E+001
 21
2.9050003E+001
  0
CIRCLE
  8
1
  6
CONTINUOUS
 62
40
 10
1.5690003E+001
 20
4.600006
 40
7.7E-001
  0
LINE
  8
1
  6
CONTINUOUS
 62
40
 10
1.5690003E+001
 20
3.830001
 11
1.5977875E+001
 21
2.120193
  0
LINE
  8
1
  6
CONTINUOUS
 62
40
 10
1.6273713E+001
 20
1.869995
 11
1.7818474E+001
 21
1.869995
  0
LINE
  8
1
  6
CONTINUOUS
 62
40
 10
1.8084229E+001
 20
1.709198
 11
1.8330002E+001
 21
1.240005
  0
LINE
  8
1
  6
CONTINUOUS
 62
40
 10
1.8330002E+001
 20
1.240005
 11
2.2010003E+001
 21
1.240005
  0
LINE
  8
1
  6
CONTINUOUS
 62
40
 10
2.2310006E+001
 20
1.540008
 11
2.2310006E+001
 21
7.050003
  0
LINE
  8
1
  6
CONTINUOUS
 62
40
 10
1.3269997E+001
 20
3.199997
 11
1.4590004E+001
 21
2.779998
  0
LINE
  8
1
  6
CONTINUOUS
 62
40
 10
1.25E+001
 20
5.300003
 11
1.3269997E+001
 21
3.199997
  0
LINE
  8
1
  6
CONTINUOUS
 62
40
 10
1.25E+001
 20
5.300003
 11
1.4699997E+001
 21
6.350006
  0
LINE
  8
1
  6
CONTINUOUS
 62
40
 10
1.4699997E+001
 20
6.350006
 11
1.6019997E+001
 21
6.070007
  0
LINE
  8
1
  6
CONTINUOUS
 62
40
 10
1.5953354E+001
 20
5.323562
 11
1.6019997E+001
 21
6.070007
  0
ARC
  8
1
  6
CONTINUOUS
 62
40
 10
1.6273713E+001
 20
2.169998
 40
3.0E-001
 50
1.8955711E+002
 51
2.7E+002
  0
ARC
  8
1
  6
CONTINUOUS
 62
40
 10
1.7818474E+001
 20
1.570007
 40
3.0E-001
 50
2.7645956E+001
 51
9.0000003E+001
  0
ARC
  8
1
  6
CONTINUOUS
 62
40
 10
2.2010003E+001
 20
1.540008
 40
3.0E-001
 50
2.7E+002
 51
3.6E+002
  0
LINE
  8
1
  6
CONTINUOUS
 62
40
 10
1.2654E+001
 20
5.0003E-002
 11
1.5437005E+001
 21
4.98001E-001
  0
LINE
  8
1
  6
CONTINUOUS
 62
40
 10
1.5437005E+001
 20
4.98001E-001
 11
1.6207346E+001
 21
0.0
  0
LINE
  8
1
  6
CONTINUOUS
 62
40
 10
1.25E+001
 20
1.54998E-001
 11
1.2654E+001
 21
5.0003E-002
  0
LINE
  8
1
  6
CONTINUOUS
 62
40
 10
1.25E+001
 20
1.54998E-001
 11
1.4887002E+001
 21
1.449997
  0
LINE
  8
1
  6
CONTINUOUS
 62
40
 10
1.4590004E+001
 20
2.779998
 11
1.4887002E+001
 21
1.449997
  0
LINE
  8
1
  6
CONTINUOUS
 62
40
 10
1.25E+001
 20
6.350006
 11
1.4699997E+001
 21
6.350006
  0
CIRCLE
  8
1
  6
CONTINUOUS
 62
40
 10
-1.5690002E+001
 20
4.600006
 40
7.7E-001
  0
LINE
  8
1
  6
CONTINUOUS
 62
40
 10
-1.5977875E+001
 20
2.1201865
 11
-1.5690001E+001
 21
3.830006
  0
LINE
  8
1
  6
CONTINUOUS
 62
40
 10
-1.7821156E+001
 20
1.869995
 11
-1.6273711E+001
 21
1.869995
  0
LINE
  8
1
  6
CONTINUOUS
 62
40
 10
-1.8330001E+001
 20
1.240005
 11
-1.8084228E+001
 21
1.709198
  0
LINE
  8
1
  6
CONTINUOUS
 62
40
 10
-2.2009997E+001
 20
1.240005
 11
-1.8330001E+001
 21
1.240005
  0
LINE
  8
1
  6
CONTINUOUS
 62
40
 10
-2.2309997E+001
 20
1.540005
 11
-2.2309997E+001
 21
7.050003
  0
LINE
  8
1
  6
CONTINUOUS
 62
40
 10
-1.4590003E+001
 20
2.779998
 11
-1.3269996E+001
 21
3.199997
  0
LINE
  8
1
  6
CONTINUOUS
 62
40
 10
-1.3269996E+001
 20
3.199997
 11
-1.25E+001
 21
5.300003
  0
LINE
  8
1
  6
CONTINUOUS
 62
40
 10
-1.6019996E+001
 20
6.070007
 11
-1.5953354E+001
 21
5.3235707
  0
ARC
  8
1
  6
CONTINUOUS
 62
40
 10
-1.7818473E+001
 20
1.570007
 40
3.0E-001
 50
9.0E+001
 51
1.5235405E+002
  0
LINE
  8
1
  6
CONTINUOUS
 62
40
 10
-1.5437004E+001
 20
4.98001E-001
 11
-1.2653999E+001
 21
5.0003E-002
  0
LINE
  8
1
  6
CONTINUOUS
 62
40
 10
-1.6207345E+001
 20
0.0
 11
-1.5437004E+001
 21
4.98001E-001
  0
LINE
  8
1
  6
CONTINUOUS
 62
40
 10
-1.2653999E+001
 20
5.0003E-002
 11
-1.25E+001
 21
1.54998E-001
  0
LINE
  8
1
  6
CONTINUOUS
 62
40
 10
-1.4887001E+001
 20
1.449997
 11
-1.25E+001
 21
1.54998E-001
  0
LINE
  8
1
  6
CONTINUOUS
 62
40
 10
-1.4887001E+001
 20
1.449997
 11
-1.4590003E+001
 21
2.779998
  0
LINE
  8
1
  6
CONTINUOUS
 62
40
 10
-2.475E+001
 20
7.050003
 11
-1.25E+001
 21
7.050003
  0
LINE
  8
1
  6
CONTINUOUS
 62
40
 10
-2.0349998E+001
 20
7.050003
 11
-2.0349998E+001
 21
8.850006
  0
LINE
  8
1
  6
CONTINUOUS
 62
40
 10
-1.6349998E+001
 20
7.649994
 11
-1.25E+001
 21
7.649994
  0
LINE
  8
1
  6
CONTINUOUS
 62
40
 10
-1.6349998E+001
 20
7.649994
 11
-1.6349998E+001
 21
8.850006
  0
LINE
  8
1
  6
CONTINUOUS
 62
40
 10
-1.1949996E+001
 20
7.649994
 11
-1.1949996E+001
 21
8.850006
  0
LINE
  8
1
  6
CONTINUOUS
 62
40
 10
-1.4699996E+001
 20
6.350006
 11
-1.25E+001
 21
6.350006
  0
LINE
  8
1
  6
CONTINUOUS
 62
40
 10
-1.6019996E+001
 20
6.070007
 11
-1.4699997E+001
 21
6.3500059
  0
LINE
  8
1
  6
CONTINUOUS
 62
40
 10
-1.6349998E+001
 20
4.2050003E+001
 11
-2.05E+001
 21
4.2050003E+001
  0
LINE
  8
1
  6
CONTINUOUS
 62
40
 10
-1.25E+001
 20
7.649994
 11
-1.25E+001
 21
0.0
  0
LINE
  8
1
  6
CONTINUOUS
 62
40
 10
1.25E+001
 20
7.649994
 11
1.25E+001
 21
0.0
  0
LINE
  8
1
  6
CONTINUOUS
 62
40
 10
-1.6349998E+001
 20
4.1050003E+001
 11
-1.6349998E+001
 21
4.225E+001
  0
INSERT
  2
*XH29
  8
1
 10
1.2126773E+001
 20
7.8267707
 41
1.0
 43
1.0
 42
-1.0
 50
1.8E+002
  0
INSERT
  2
*XH30
  8
1
 10
2.3866914E+001
 20
2.1102632E-001
  0
INSERT
  2
*XH31
  8
1
 10
-1.349066E+001
 20
4.0273832E-001
  0
INSERT
  2
*XH38
  8
1
 10
-2.0526775E+001
 20
7.2267797
  0
INSERT
  2
*XH39
  8
1
 10
2.4573216E+001
 20
7.2267797
  0
INSERT
  2
*XH40
  8
1
 10
-2.1176777E+001
 20
2.1026783E+001
  0
INSERT
  2
*XH41
  8
1
 10
2.3323216E+001
 20
2.1026783E+001
  0
INSERT
  2
*XH42
  8
1
 10
-1.2126773E+001
 20
4.122678E+001
  0
INSERT
  2
*XH43
  8
1
 10
1.6173222E+001
 20
4.122678E+001
  0
INSERT
  2
*XH44
  8
1
 10
-1.2126773E+001
 20
7.8267707
  0
POINT
  8
Drafting_Hidden_Entities
  6
CONTINUOUS
 62
1
 10
0.0
 20
0.0
  0
ENDBLK
  0
BLOCK
  2
_AH1
 70
0
 10
0.0
 20
0.0
  3
_AH1
  0
LINE
  8
0
  6
CONTINUOUS
 62
0
 10
-1.0
 20
1.66667E-001
 11
0.0
 21
0.0
  0
LINE
  8
0
  6
CONTINUOUS
 62
0
 10
0.0
 20
0.0
 11
-1.0
 21
-1.66667E-001
  0
LINE
  8
0
  6
CONTINUOUS
 62
0
 10
-1.0
 20
1.66667E-001
 11
-1.0
 21
-1.66667E-001
  0
LINE
  8
0
  6
CONTINUOUS
 62
0
 10
0.0
 20
0.0
 11
-1.0
 21
0.0
  0
ENDBLK
  0
BLOCK
  2
_AH2
 70
0
 10
0.0
 20
0.0
  3
_AH2
  0
LINE
  8
0
  6
CONTINUOUS
 62
0
 10
-1.0
 20
1.66667E-001
 11
0.0
 21
0.0
  0
LINE
  8
0
  6
CONTINUOUS
 62
0
 10
0.0
 20
0.0
 11
-1.0
 21
-1.66667E-001
  0
LINE
  8
0
  6
CONTINUOUS
 62
0
 10
0.0
 20
0.0
 11
-1.0
 21
0.0
  0
ENDBLK
  0
BLOCK
  2
*D43
  3
*D
 10
0.0
 20
0.0
 70
65
  0
LINE
  8
1
  6
CONTINUOUS
 62
4
 10
8.5135742E+001
 20
1.5227893E+002
 11
7.3136742E+001
 21
1.5227893E+002
  0
LINE
  8
1
  6
CONTINUOUS
 62
4
 10
7.3636742E+001
 20
1.5227893E+002
 11
7.3636743E+001
 21
1.6227894E+002
  0
LINE
  8
1
  6
CONTINUOUS
 62
4
 10
7.3636745E+001
 20
1.7227894E+002
 11
7.3636743E+001
 21
1.6227894E+002
  0
TEXT
  8
1
  6
CONTINUOUS
 62
4
 10
7.3135743E+001
 20
1.5987894E+002
 40
3.0
  1
20
 41
8.0E-001
 50
8.9999993E+001
  0
INSERT
  2
_AH2
  8
1
 62
4
 10
7.3636742E+001
 20
1.5227893E+002
 41
2.0
 42
2.0
 43
2.0
 50
2.6999999E+002
  0
INSERT
  2
_AH2
  8
1
 62
4
 10
7.3636745E+001
 20
1.7227894E+002
 41
2.0
 42
2.0
 43
2.0
 50
8.9999993E+001
  0
ENDBLK
  0
BLOCK
  2
*D44
  3
*D
 10
0.0
 20
0.0
 70
65
  0
LINE
  8
1
  6
CONTINUOUS
 62
4
 10
8.7135741E+001
 20
1.7227894E+002
 11
7.3136745E+001
 21
1.7227894E+002
  0
LINE
  8
1
  6
CONTINUOUS
 62
4
 10
7.3636745E+001
 20
1.7227894E+002
 11
7.3636746E+001
 21
1.8027895E+002
  0
LINE
  8
1
  6
CONTINUOUS
 62
4
 10
7.3636746E+001
 20
1.8827895E+002
 11
7.3636746E+001
 21
1.8027895E+002
  0
TEXT
  8
1
  6
CONTINUOUS
 62
4
 10
7.3135745E+001
 20
1.7787895E+002
 40
3.0
  1
16
 41
8.0E-001
 50
8.9999993E+001
  0
INSERT
  2
_AH2
  8
1
 62
4
 10
7.3636745E+001
 20
1.7227894E+002
 41
2.0
 42
2.0
 43
2.0
 50
2.6999999E+002
  0
INSERT
  2
_AH2
  8
1
 62
4
 10
7.3636746E+001
 20
1.8827895E+002
 41
2.0
 42
2.0
 43
2.0
 50
8.9999993E+001
  0
ENDBLK
  0
BLOCK
  2
*D46
  3
*D
 10
0.0
 20
0.0
 70
65
  0
LINE
  8
1
  6
CONTINUOUS
 62
4
 10
1.7963575E+002
 20
1.3827893E+002
 11
6.463675E+001
 21
1.3827897E+002
  0
LINE
  8
1
  6
CONTINUOUS
 62
4
 10
1.8363575E+002
 20
1.8827894E+002
 11
6.4636763E+001
 21
1.8827897E+002
  0
LINE
  8
1
  6
CONTINUOUS
 62
4
 10
6.513675E+001
 20
1.3827897E+002
 11
6.5136757E+001
 21
1.6327897E+002
  0
LINE
  8
1
  6
CONTINUOUS
 62
4
 10
6.5136763E+001
 20
1.8827897E+002
 11
6.5136757E+001
 21
1.6327897E+002
  0
TEXT
  8
1
  6
CONTINUOUS
 62
4
 10
6.4635756E+001
 20
1.6087897E+002
 40
3.0
  1
50
 41
8.0E-001
 50
8.9999985E+001
  0
INSERT
  2
_AH2
  8
1
 62
4
 10
6.513675E+001
 20
1.3827897E+002
 41
2.0
 42
2.0
 43
2.0
 50
2.6999998E+002
  0
INSERT
  2
_AH2
  8
1
 62
4
 10
6.5136763E+001
 20
1.8827897E+002
 41
2.0
 42
2.0
 43
2.0
 50
8.9999985E+001
  0
ENDBLK
  0
BLOCK
  2
*D53
  3
*D
 10
0.0
 20
0.0
 70
65
  0
LINE
  8
1
  6
CONTINUOUS
 62
4
 10
8.4135762E+001
 20
1.5377894E+002
 11
8.4135828E+001
 21
1.0447083E+002
  0
LINE
  8
1
  6
CONTINUOUS
 62
4
 10
3.3113574E+002
 20
1.5377892E+002
 11
3.3113581E+002
 21
1.0447117E+002
  0
LINE
  8
1
  6
CONTINUOUS
 62
4
 10
8.4135827E+001
 20
1.0497083E+002
 11
2.0763582E+002
 21
1.04971E+002
  0
LINE
  8
1
  6
CONTINUOUS
 62
4
 10
3.3113581E+002
 20
1.0497117E+002
 11
2.0763582E+002
 21
1.04971E+002
  0
TEXT
  8
1
  6
CONTINUOUS
 62
4
 10
2.0283582E+002
 20
1.0547199E+002
 40
3.0
  1
%%c247
 41
8.0E-001
 50
7.74381E-005
  0
INSERT
  2
_AH2
  8
1
 62
4
 10
8.4135827E+001
 20
1.0497083E+002
 41
2.0
 42
2.0
 43
2.0
 50
1.8000008E+002
  0
INSERT
  2
_AH2
  8
1
 62
4
 10
3.3113581E+002
 20
1.0497117E+002
 41
2.0
 42
2.0
 43
2.0
 50
7.74381E-005
  0
ENDBLK
  0
BLOCK
  2
*D54
  3
*D
 10
0.0
 20
0.0
 70
65
  0
LINE
  8
1
  6
CONTINUOUS
 62
4
 10
1.8013575E+002
 20
1.8477894E+002
 11
1.8013575E+002
 21
2.0341201E+002
  0
LINE
  8
1
  6
CONTINUOUS
 62
4
 10
2.3513576E+002
 20
1.8477893E+002
 11
2.3513576E+002
 21
2.0341199E+002
  0
LINE
  8
1
  6
CONTINUOUS
 62
4
 10
1.8013575E+002
 20
2.0291201E+002
 11
2.0763576E+002
 21
2.02912E+002
  0
LINE
  8
1
  6
CONTINUOUS
 62
4
 10
2.3513576E+002
 20
2.0291199E+002
 11
2.0763576E+002
 21
2.02912E+002
  0
TEXT
  8
1
  6
CONTINUOUS
 62
4
 10
2.0403576E+002
 20
2.03413E+002
 40
3.0
  1
%%c55
 41
8.0E-001
 50
3.5999998E+002
  0
INSERT
  2
_AH2
  8
1
 62
4
 10
1.8013575E+002
 20
2.0291201E+002
 41
2.0
 42
2.0
 43
2.0
 50
1.7999998E+002
  0
INSERT
  2
_AH2
  8
1
 62
4
 10
2.3513576E+002
 20
2.0291199E+002
 41
2.0
 42
2.0
 43
2.0
 50
3.5999998E+002
  0
ENDBLK
  0
BLOCK
  2
*D55
  3
*D
 10
0.0
 20
0.0
 70
65
  0
LINE
  8
1
  6
CONTINUOUS
 62
4
 10
1.8413576E+002
 20
1.3877893E+002
 11
1.8413571E+002
 21
1.1861506E+002
  0
LINE
  8
1
  6
CONTINUOUS
 62
4
 10
2.3113576E+002
 20
1.3877893E+002
 11
2.3113571E+002
 21
1.1861495E+002
  0
LINE
  8
1
  6
CONTINUOUS
 62
4
 10
1.8413571E+002
 20
1.1921506E+002
 11
2.0763571E+002
 21
1.19215E+002
  0
LINE
  8
1
  6
CONTINUOUS
 62
4
 10
2.3113571E+002
 20
1.1921495E+002
 11
2.0763571E+002
 21
1.19215E+002
  0
TEXT
  8
1
  6
CONTINUOUS
 62
4
 10
2.0403571E+002
 20
1.1971601E+002
 40
3.0
  1
%%c
 41
8.0E-001
 50
3.5999986E+002
  0
TEXT
  8
1
  6
CONTINUOUS
 62
4
 10
2.0643571E+002
 20
1.1971601E+002
 40
3.0
  1
47
 41
8.0E-001
 50
3.5999986E+002
  0
INSERT
  2
_AH2
  8
1
 62
4
 10
1.8413571E+002
 20
1.1921506E+002
 41
1.5
 42
1.5
 43
1.5
 50
1.7999986E+002
  0
INSERT
  2
_AH2
  8
1
 62
4
 10
2.3113571E+002
 20
1.1921495E+002
 41
1.5
 42
1.5
 43
1.5
 50
3.5999986E+002
  0
ENDBLK
  0
BLOCK
  2
*D59
  3
*D
 10
0.0
 20
0.0
 70
65
  0
LINE
  8
1
  6
CONTINUOUS
 62
4
 10
1.8138574E+002
 20
1.4712893E+002
 11
1.67675E+002
 21
1.4712893E+002
  0
LINE
  8
1
  6
CONTINUOUS
 62
4
 10
1.8263576E+002
 20
1.7932893E+002
 11
1.67675E+002
 21
1.7932893E+002
  0
LINE
  8
1
  6
CONTINUOUS
 62
4
 10
1.68175E+002
 20
1.4712893E+002
 11
1.68175E+002
 21
1.6322893E+002
  0
LINE
  8
1
  6
CONTINUOUS
 62
4
 10
1.68175E+002
 20
1.7932893E+002
 11
1.68175E+002
 21
1.6322893E+002
  0
TEXT
  8
1
  6
CONTINUOUS
 62
4
 10
1.67674E+002
 20
1.5842893E+002
 40
3.0
  1
32.2
 41
8.0E-001
 50
9.0E+001
  0
INSERT
  2
_AH2
  8
1
 62
4
 10
1.68175E+002
 20
1.4712893E+002
 41
2.0
 42
2.0
 43
2.0
 50
2.7E+002
  0
INSERT
  2
_AH2
  8
1
 62
4
 10
1.68175E+002
 20
1.7932893E+002
 41
2.0
 42
2.0
 43
2.0
 50
9.0E+001
  0
ENDBLK
  0
BLOCK
  2
*D177
  3
*D
 10
0.0
 20
0.0
 70
65
  0
LINE
  8
1
  6
CONTINUOUS
 62
4
 10
2.0874011E+001
 20
1.3594829E+001
 11
4.1643682E+001
 21
5.4263005E+001
  0
LINE
  8
1
  6
CONTINUOUS
 62
4
 10
2.0874011E+001
 20
1.3594829E+001
 11
2.2080527E+001
 21
1.5224378E+001
  0
LINE
  8
1
  6
CONTINUOUS
 62
4
 10
2.0874011E+001
 20
1.3594829E+001
 11
2.1486808E+001
 21
1.5527597E+001
  0
LINE
  8
1
  6
CONTINUOUS
 62
4
 10
6.0643682E+001
 20
5.4263005E+001
 11
4.1643682E+001
 21
5.4263005E+001
  0
TEXT
  8
1
  6
CONTINUOUS
 62
4
 10
4.2143682E+001
 20
5.4763005E+001
 40
3.0
  1
ベアリング
  0
ENDBLK
  0
BLOCK
  2
*D178
  3
*D
 10
0.0
 20
0.0
 70
65
  0
LINE
  8
1
  6
CONTINUOUS
 62
4
 10
2.0874016E+001
 20
3.473547E+001
 11
4.1643682E+001
 21
5.4263005E+001
  0
LINE
  8
1
  6
CONTINUOUS
 62
4
 10
2.0874016E+001
 20
3.473547E+001
 11
2.2559458E+001
 21
3.5862589E+001
  0
LINE
  8
1
  6
CONTINUOUS
 62
4
 10
2.0874016E+001
 20
3.473547E+001
 11
2.2102801E+001
 21
3.6348294E+001
  0
ENDBLK
  0
BLOCK
  2
*D179
  3
*D
 10
0.0
 20
0.0
 70
65
  0
LINE
  8
1
  6
CONTINUOUS
 62
4
 10
2.3500014E+001
 20
2.7542923E+001
 11
3.7569682E+001
 21
2.2342005E+001
  0
LINE
  8
1
  6
CONTINUOUS
 62
4
 10
2.3500014E+001
 20
2.7542923E+001
 11
2.5260374E+001
 21
2.6536819E+001
  0
LINE
  8
1
  6
CONTINUOUS
 62
4
 10
2.3500014E+001
 20
2.7542923E+001
 11
2.5491523E+001
 21
2.7162131E+001
  0
LINE
  8
1
  6
CONTINUOUS
 62
4
 10
5.2969682E+001
 20
2.2342005E+001
 11
3.7569682E+001
 21
2.2342005E+001
  0
TEXT
  8
1
  6
CONTINUOUS
 62
4
 10
3.8069682E+001
 20
2.2842005E+001
 40
3.0
  1
スペーサ
  0
ENDBLK
  0
BLOCK
  2
*D180
  3
*D
 10
0.0
 20
0.0
 70
65
  0
LINE
  8
1
  6
CONTINUOUS
 62
4
 10
1.4949997E+001
 20
7.649994
 11
3.9338682E+001
 21
-4.8669951
  0
LINE
  8
1
  6
CONTINUOUS
 62
4
 10
1.4949997E+001
 20
7.649994
 11
1.6577135E+001
 21
6.4402282
  0
LINE
  8
1
  6
CONTINUOUS
 62
4
 10
1.4949997E+001
 20
7.649994
 11
1.6881538E+001
 21
7.0333413
  0
LINE
  8
1
  6
CONTINUOUS
 62
4
 10
5.8338682E+001
 20
-4.8669951
 11
3.9338682E+001
 21
-4.8669951
  0
TEXT
  8
1
  6
CONTINUOUS
 62
4
 10
3.9838682E+001
 20
-4.3669951
 40
3.0
  1
軸用止め輪
  0
ENDBLK
  0
BLOCK
  2
*D181
  3
*D
 10
0.0
 20
0.0
 70
65
  0
LINE
  8
1
  6
CONTINUOUS
 62
4
 10
1.4832682E+001
 20
4.1886005E+001
 11
3.9338682E+001
 21
-4.8669951
  0
LINE
  8
1
  6
CONTINUOUS
 62
4
 10
1.4832682E+001
 20
4.1886005E+001
 11
1.5465947E+001
 21
3.9959846E+001
  0
LINE
  8
1
  6
CONTINUOUS
 62
4
 10
1.4832682E+001
 20
4.1886005E+001
 11
1.6056417E+001
 21
4.0269346E+001
  0
ENDBLK
  0
BLOCK
  2
*D182
  3
*D
 10
0.0
 20
0.0
 70
65
  0
LINE
  8
1
  6
CONTINUOUS
 62
4
 10
2.2901682E+001
 20
7.5660049
 11
3.8120682E+001
 21
1.4135005E+001
  0
LINE
  8
1
  6
CONTINUOUS
 62
4
 10
2.2901682E+001
 20
7.5660049
 11
2.4870029E+001
 21
8.0525464
  0
LINE
  8
1
  6
CONTINUOUS
 62
4
 10
2.2901682E+001
 20
7.5660049
 11
2.4605835E+001
 21
8.6646296
  0
LINE
  8
1
  6
CONTINUOUS
 62
4
 10
4.9920682E+001
 20
1.4135005E+001
 11
3.8120682E+001
 21
1.4135005E+001
  0
TEXT
  8
1
  6
CONTINUOUS
 62
4
 10
3.8620682E+001
 20
1.4635005E+001
 40
3.0
  1
止め輪
 41
1.0
  0
ENDBLK
  0
BLOCK
  2
*D183
  3
*D
 10
0.0
 20
0.0
 70
65
  0
LINE
  8
1
  6
CONTINUOUS
 62
4
 10
1.9284682E+001
 20
6.180049E-001
 11
3.4316682E+001
 21
-1.7566995E+001
  0
LINE
  8
1
  6
CONTINUOUS
 62
4
 10
1.9284682E+001
 20
6.180049E-001
 11
2.0302009E+001
 21
-1.1358931
  0
LINE
  8
1
  6
CONTINUOUS
 62
4
 10
1.9284682E+001
 20
6.180049E-001
 11
2.081585E+001
 21
-7.111441E-001
  0
LINE
  8
1
  6
CONTINUOUS
 62
4
 10
4.9716682E+001
 20
-1.7566995E+001
 11
3.4316682E+001
 21
-1.7566995E+001
  0
TEXT
  8
1
  6
CONTINUOUS
 62
4
 10
3.4816682E+001
 20
-1.7066995E+001
 40
3.0
  1
パッキン
  0
ENDBLK
  0
BLOCK
  2
*D184
  3
*D
 10
0.0
 20
0.0
 70
65
  0
LINE
  8
1
  6
CONTINUOUS
 62
4
 10
4.9950682E+001
 20
3.4050003E+001
 11
4.9950682E+001
 21
3.7550003E+001
  0
LINE
  8
1
  6
CONTINUOUS
 62
4
 10
4.9950682E+001
 20
4.1050003E+001
 11
4.9950682E+001
 21
3.7550003E+001
  0
TEXT
  8
1
  6
CONTINUOUS
 62
4
 10
4.9449682E+001
 20
3.6350003E+001
 40
3.0
  1
7
 41
8.0E-001
 50
9.0E+001
  0
INSERT
  2
_AH2
  8
1
 62
4
 10
4.9950682E+001
 20
3.4050003E+001
 41
1.5
 42
1.5
 43
1.5
 50
2.7E+002
  0
INSERT
  2
_AH2
  8
1
 62
4
 10
4.9950682E+001
 20
4.1050003E+001
 41
1.5
 42
1.5
 43
1.5
 50
9.0E+001
  0
ENDBLK
  0
BLOCK
  2
*D185
  3
*D
 10
0.0
 20
0.0
 70
65
  0
LINE
  8
1
  6
CONTINUOUS
 62
4
 10
2.4000017E+001
 20
4.1050003E+001
 11
5.0550682E+001
 21
4.1050003E+001
  0
LINE
  8
1
  6
CONTINUOUS
 62
4
 10
2.3000018E+001
 20
5.0050003E+001
 11
5.0550682E+001
 21
5.0050003E+001
  0
LINE
  8
1
  6
CONTINUOUS
 62
4
 10
4.9950682E+001
 20
4.1050003E+001
 11
4.9950682E+001
 21
4.5550003E+001
  0
LINE
  8
1
  6
CONTINUOUS
 62
4
 10
4.9950682E+001
 20
5.0050003E+001
 11
4.9950682E+001
 21
4.5550003E+001
  0
TEXT
  8
1
  6
CONTINUOUS
 62
4
 10
4.9449682E+001
 20
4.4350003E+001
 40
3.0
  1
9
 41
8.0E-001
 50
9.0E+001
  0
INSERT
  2
_AH2
  8
1
 62
4
 10
4.9950682E+001
 20
4.1050003E+001
 41
1.5
 42
1.5
 43
1.5
 50
2.7E+002
  0
INSERT
  2
_AH2
  8
1
 62
4
 10
4.9950682E+001
 20
5.0050003E+001
 41
1.5
 42
1.5
 43
1.5
 50
9.0E+001
  0
ENDBLK
  0
BLOCK
  2
*D186
  3
*D
 10
0.0
 20
0.0
 70
65
  0
LINE
  8
1
  6
CONTINUOUS
 62
4
 10
-1.25E+001
 20
-5.0E-001
 11
-1.25E+001
 21
-1.1623995E+001
  0
LINE
  8
1
  6
CONTINUOUS
 62
4
 10
1.25E+001
 20
-5.0E-001
 11
1.25E+001
 21
-1.1623995E+001
  0
LINE
  8
1
  6
CONTINUOUS
 62
4
 10
-1.25E+001
 20
-1.1023995E+001
 11
0.0
 21
-1.1023995E+001
  0
LINE
  8
1
  6
CONTINUOUS
 62
4
 10
1.25E+001
 20
-1.1023995E+001
 11
0.0
 21
-1.1023995E+001
  0
TEXT
  8
1
  6
CONTINUOUS
 62
4
 10
-3.6
 20
-1.0522995E+001
 40
3.0
  1
%%c25
 41
8.0E-001
  0
INSERT
  2
_AH2
  8
1
 62
4
 10
-1.25E+001
 20
-1.1023995E+001
 41
1.5
 42
1.5
 43
1.5
 50
1.8E+002
  0
INSERT
  2
_AH2
  8
1
 62
4
 10
1.25E+001
 20
-1.1023995E+001
 41
1.5
 42
1.5
 43
1.5
 50
0.0
  0
ENDBLK
  0
BLOCK
  2
*D301
  3
*D
 10
0.0
 20
0.0
 70
65
  0
LINE
  8
1
  6
CONTINUOUS
 62
4
 10
2.2850977E+002
 20
1.5187376E+002
 11
2.4927944E+002
 21
1.9254193E+002
  0
LINE
  8
1
  6
CONTINUOUS
 62
4
 10
2.2850977E+002
 20
1.5187376E+002
 11
2.2971628E+002
 21
1.535033E+002
  0
LINE
  8
1
  6
CONTINUOUS
 62
4
 10
2.2850977E+002
 20
1.5187376E+002
 11
2.2912256E+002
 21
1.5380652E+002
  0
LINE
  8
1
  6
CONTINUOUS
 62
4
 10
2.6827944E+002
 20
1.9254193E+002
 11
2.4927944E+002
 21
1.9254193E+002
  0
TEXT
  8
1
  6
CONTINUOUS
 62
4
 10
2.4977944E+002
 20
1.9304193E+002
 40
3.0
  1
ベアリング
  0
ENDBLK
  0
BLOCK
  2
*D302
  3
*D
 10
0.0
 20
0.0
 70
65
  0
LINE
  8
1
  6
CONTINUOUS
 62
4
 10
2.2850977E+002
 20
1.730144E+002
 11
2.4927944E+002
 21
1.9254193E+002
  0
LINE
  8
1
  6
CONTINUOUS
 62
4
 10
2.2850977E+002
 20
1.730144E+002
 11
2.3019521E+002
 21
1.7414152E+002
  0
LINE
  8
1
  6
CONTINUOUS
 62
4
 10
2.2850977E+002
 20
1.730144E+002
 11
2.2973856E+002
 21
1.7462722E+002
  0
ENDBLK
  0
BLOCK
  2
*D303
  3
*D
 10
0.0
 20
0.0
 70
65
  0
LINE
  8
1
  6
CONTINUOUS
 62
4
 10
2.3113577E+002
 20
1.6582185E+002
 11
2.4520544E+002
 21
1.6062093E+002
  0
LINE
  8
1
  6
CONTINUOUS
 62
4
 10
2.3113577E+002
 20
1.6582185E+002
 11
2.3289613E+002
 21
1.6481575E+002
  0
LINE
  8
1
  6
CONTINUOUS
 62
4
 10
2.3113577E+002
 20
1.6582185E+002
 11
2.3312728E+002
 21
1.6544106E+002
  0
LINE
  8
1
  6
CONTINUOUS
 62
4
 10
2.6060544E+002
 20
1.6062093E+002
 11
2.4520544E+002
 21
1.6062093E+002
  0
TEXT
  8
1
  6
CONTINUOUS
 62
4
 10
2.4570544E+002
 20
1.6112093E+002
 40
3.0
  1
スペーサ
  0
ENDBLK
  0
BLOCK
  2
*D304
  3
*D
 10
0.0
 20
0.0
 70
65
  0
LINE
  8
1
  6
CONTINUOUS
 62
4
 10
2.2258575E+002
 20
1.4592892E+002
 11
2.4697444E+002
 21
1.3341193E+002
  0
LINE
  8
1
  6
CONTINUOUS
 62
4
 10
2.2258575E+002
 20
1.4592892E+002
 11
2.2421289E+002
 21
1.4471916E+002
  0
LINE
  8
1
  6
CONTINUOUS
 62
4
 10
2.2258575E+002
 20
1.4592892E+002
 11
2.2451729E+002
 21
1.4531227E+002
  0
LINE
  8
1
  6
CONTINUOUS
 62
4
 10
2.6597444E+002
 20
1.3341193E+002
 11
2.4697444E+002
 21
1.3341193E+002
  0
TEXT
  8
1
  6
CONTINUOUS
 62
4
 10
2.4747444E+002
 20
1.3391193E+002
 40
3.0
  1
軸用止め輪
  0
ENDBLK
  0
BLOCK
  2
*D305
  3
*D
 10
0.0
 20
0.0
 70
65
  0
LINE
  8
1
  6
CONTINUOUS
 62
4
 10
2.2246844E+002
 20
1.8016493E+002
 11
2.4697444E+002
 21
1.3341193E+002
  0
LINE
  8
1
  6
CONTINUOUS
 62
4
 10
2.2246844E+002
 20
1.8016493E+002
 11
2.231017E+002
 21
1.7823877E+002
  0
LINE
  8
1
  6
CONTINUOUS
 62
4
 10
2.2246844E+002
 20
1.8016493E+002
 11
2.2369217E+002
 21
1.7854827E+002
  0
ENDBLK
  0
BLOCK
  2
*D306
  3
*D
 10
0.0
 20
0.0
 70
65
  0
LINE
  8
1
  6
CONTINUOUS
 62
4
 10
2.3053744E+002
 20
1.4584493E+002
 11
2.4575644E+002
 21
1.5241393E+002
  0
LINE
  8
1
  6
CONTINUOUS
 62
4
 10
2.3053744E+002
 20
1.4584493E+002
 11
2.3250579E+002
 21
1.4633147E+002
  0
LINE
  8
1
  6
CONTINUOUS
 62
4
 10
2.3053744E+002
 20
1.4584493E+002
 11
2.3224159E+002
 21
1.4694356E+002
  0
LINE
  8
1
  6
CONTINUOUS
 62
4
 10
2.5755644E+002
 20
1.5241393E+002
 11
2.4575644E+002
 21
1.5241393E+002
  0
TEXT
  8
1
  6
CONTINUOUS
 62
4
 10
2.4625644E+002
 20
1.5291393E+002
 40
3.0
  1
止め輪
 41
1.0
  0
ENDBLK
  0
BLOCK
  2
*D307
  3
*D
 10
0.0
 20
0.0
 70
65
  0
LINE
  8
1
  6
CONTINUOUS
 62
4
 10
2.2692044E+002
 20
1.3889693E+002
 11
2.4195244E+002
 21
1.2071193E+002
  0
LINE
  8
1
  6
CONTINUOUS
 62
4
 10
2.2692044E+002
 20
1.3889693E+002
 11
2.2793777E+002
 21
1.3714303E+002
  0
LINE
  8
1
  6
CONTINUOUS
 62
4
 10
2.2692044E+002
 20
1.3889693E+002
 11
2.2845161E+002
 21
1.3756778E+002
  0
LINE
  8
1
  6
CONTINUOUS
 62
4
 10
2.5735244E+002
 20
1.2071193E+002
 11
2.4195244E+002
 21
1.2071193E+002
  0
TEXT
  8
1
  6
CONTINUOUS
 62
4
 10
2.4245244E+002
 20
1.2121193E+002
 40
3.0
  1
パッキン
  0
ENDBLK
  0
BLOCK
  2
*D308
  3
*D
 10
0.0
 20
0.0
 70
65
  0
LINE
  8
1
  6
CONTINUOUS
 62
4
 10
2.5758644E+002
 20
1.7232893E+002
 11
2.5758644E+002
 21
1.7582893E+002
  0
LINE
  8
1
  6
CONTINUOUS
 62
4
 10
2.5758644E+002
 20
1.7932893E+002
 11
2.5758644E+002
 21
1.7582893E+002
  0
TEXT
  8
1
  6
CONTINUOUS
 62
4
 10
2.5708544E+002
 20
1.7462893E+002
 40
3.0
  1
7
 41
8.0E-001
 50
9.0E+001
  0
INSERT
  2
_AH2
  8
1
 62
4
 10
2.5758644E+002
 20
1.7232893E+002
 41
1.5
 42
1.5
 43
1.5
 50
2.7E+002
  0
INSERT
  2
_AH2
  8
1
 62
4
 10
2.5758644E+002
 20
1.7932893E+002
 41
1.5
 42
1.5
 43
1.5
 50
9.0E+001
  0
ENDBLK
  0
BLOCK
  2
*D309
  3
*D
 10
0.0
 20
0.0
 70
65
  0
LINE
  8
1
  6
CONTINUOUS
 62
4
 10
2.3163577E+002
 20
1.7932893E+002
 11
2.5818644E+002
 21
1.7932893E+002
  0
LINE
  8
1
  6
CONTINUOUS
 62
4
 10
2.3063577E+002
 20
1.8832893E+002
 11
2.5818644E+002
 21
1.8832893E+002
  0
LINE
  8
1
  6
CONTINUOUS
 62
4
 10
2.5758644E+002
 20
1.7932893E+002
 11
2.5758644E+002
 21
1.8382893E+002
  0
LINE
  8
1
  6
CONTINUOUS
 62
4
 10
2.5758644E+002
 20
1.8832893E+002
 11
2.5758644E+002
 21
1.8382893E+002
  0
TEXT
  8
1
  6
CONTINUOUS
 62
4
 10
2.5708544E+002
 20
1.8262893E+002
 40
3.0
  1
9
 41
8.0E-001
 50
9.0E+001
  0
INSERT
  2
_AH2
  8
1
 62
4
 10
2.5758644E+002
 20
1.7932893E+002
 41
1.5
 42
1.5
 43
1.5
 50
2.7E+002
  0
INSERT
  2
_AH2
  8
1
 62
4
 10
2.5758644E+002
 20
1.8832893E+002
 41
1.5
 42
1.5
 43
1.5
 50
9.0E+001
  0
ENDBLK
  0
BLOCK
  2
*D310
  3
*D
 10
0.0
 20
0.0
 70
65
  0
LINE
  8
1
  6
CONTINUOUS
 62
4
 10
1.9513576E+002
 20
1.3777893E+002
 11
1.9513576E+002
 21
1.2665493E+002
  0
LINE
  8
1
  6
CONTINUOUS
 62
4
 10
2.2013576E+002
 20
1.3777893E+002
 11
2.2013576E+002
 21
1.2665493E+002
  0
LINE
  8
1
  6
CONTINUOUS
 62
4
 10
1.9513576E+002
 20
1.2725493E+002
 11
2.0763576E+002
 21
1.2725493E+002
  0
LINE
  8
1
  6
CONTINUOUS
 62
4
 10
2.2013576E+002
 20
1.2725493E+002
 11
2.0763576E+002
 21
1.2725493E+002
  0
TEXT
  8
1
  6
CONTINUOUS
 62
4
 10
2.0403576E+002
 20
1.2775593E+002
 40
3.0
  1
%%c25
 41
8.0E-001
  0
INSERT
  2
_AH2
  8
1
 62
4
 10
1.9513576E+002
 20
1.2725493E+002
 41
1.5
 42
1.5
 43
1.5
 50
1.8E+002
  0
INSERT
  2
_AH2
  8
1
 62
4
 10
2.2013576E+002
 20
1.2725493E+002
 41
1.5
 42
1.5
 43
1.5
 50
0.0
  0
ENDBLK
  0
ENDSEC
  0
SECTION
  2
ENTITIES
  0
TEXT
  8
1
  6
CONTINUOUS
 62
7
 10
1.2
 20
1.2
 40
1.0
  1
*DETAIL_2
 41
3.0
  0
DIMENSION
  8
1
  6
CONTINUOUS
 62
4
  2
*D43
  3
DSTYLE1
 10
7.3636745E+001
 20
1.7227894E+002
 11
7.1635743E+001
 21
1.6227894E+002
 70
128
 13
8.6635742E+001
 23
1.5227893E+002
 14
8.8635741E+001
 24
1.7227894E+002
 40
3.0
 50
8.9999993E+001
1001
ACAD
1000
DSTYLE
1002
{
1070
173
1070
0
1070
5
1000
_AH2
1002
}
  0
DIMENSION
  8
1
  6
CONTINUOUS
 62
4
  2
*D44
  3
DSTYLE1
 10
7.3636746E+001
 20
1.8827895E+002
 11
7.1635746E+001
 21
1.8027895E+002
 70
128
 13
8.8635741E+001
 23
1.7227894E+002
 14
1.8513575E+002
 24
1.8827894E+002
 40
3.0
 50
8.9999993E+001
1001
ACAD
1000
DSTYLE
1002
{
1070
173
1070
0
1070
5
1000
_AH2
1002
}
  0
DIMENSION
  8
1
  6
CONTINUOUS
 62
4
  2
*D46
  3
DSTYLE2
 10
6.5136763E+001
 20
1.8827897E+002
 11
6.3135757E+001
 21
1.6327897E+002
 70
128
 13
1.8113575E+002
 23
1.3827893E+002
 14
1.8513575E+002
 24
1.8827894E+002
 40
3.0
 50
8.9999985E+001
1001
ACAD
1000
DSTYLE
1002
{
1070
173
1070
0
1070
5
1000
_AH2
1002
}
  0
LINE
  8
1
  6
CONTINUOUS
 62
1
 10
2.0
 20
2.0
 11
4.16E+002
 21
2.0
  0
LINE
  8
1
  6
CONTINUOUS
 62
1
 10
4.16E+002
 20
2.0
 11
4.16E+002
 21
2.95E+002
  0
LINE
  8
1
  6
CONTINUOUS
 62
1
 10
4.16E+002
 20
2.95E+002
 11
2.0
 21
2.95E+002
  0
LINE
  8
1
  6
CONTINUOUS
 62
1
 10
2.0
 20
2.95E+002
 11
2.0
 21
2.0
  0
TEXT
  8
1
  6
CONTINUOUS
 62
1
 10
3.60037E+002
 20
5.065
 40
5.0
  1

 41
8.0E-001
 72
2
 11
4.12037E+002
 21
5.065
  0
DIMENSION
  8
1
  6
CONTINUOUS
 62
4
  2
*D53
  3
DSTYLE2
 10
3.3113581E+002
 20
1.0497117E+002
 11
2.0763581E+002
 21
1.06972E+002
 70
128
 13
8.413576E+001
 23
1.5527894E+002
 14
3.3113574E+002
 24
1.5527892E+002
 40
3.0
 50
7.74381E-005
1001
ACAD
1000
DSTYLE
1002
{
1070
173
1070
0
1070
5
1000
_AH2
1002
}
  0
DIMENSION
  8
1
  6
CONTINUOUS
 62
4
  2
*D54
  3
DSTYLE2
 10
2.3513576E+002
 20
2.0291199E+002
 11
2.0763576E+002
 21
2.04913E+002
 70
128
 13
1.8013575E+002
 23
1.8327894E+002
 14
2.3513576E+002
 24
1.8327893E+002
 40
3.0
 50
3.5999998E+002
1001
ACAD
1000
DSTYLE
1002
{
1070
173
1070
0
1070
5
1000
_AH2
1002
}
  0
DIMENSION
  8
1
  6
CONTINUOUS
 62
4
  1
%%c<>
  2
*D55
  3
DSTYLE3
 10
2.3113571E+002
 20
1.1921495E+002
 11
2.0763571E+002
 21
1.21216E+002
 70
128
 13
1.8413576E+002
 23
1.3927893E+002
 14
2.3113576E+002
 24
1.3927893E+002
 40
3.0
 50
3.5999986E+002
1001
ACAD
1000
DSTYLE
1002
{
1070
173
1070
0
1070
5
1000
_AH2
1002
}
  0
DIMENSION
  8
1
  6
CONTINUOUS
 62
4
  2
*D59
  3
DSTYLE4
 10
1.68175E+002
 20
1.7932893E+002
 11
1.66174E+002
 21
1.6322893E+002
 70
128
 13
1.8288574E+002
 23
1.4712893E+002
 14
1.8413576E+002
 24
1.7932893E+002
 40
3.0
 50
9.0E+001
1001
ACAD
1000
DSTYLE
1002
{
1070
173
1070
0
1070
5
1000
_AH2
1002
}
  0
ARC
  8
1
  6
CONTINUOUS
 62
2
 10
1.8513575E+002
 20
1.8327894E+002
 40
5.0
 50
8.9999974E+001
 51
1.7999998E+002
  0
ARC
  8
1
  6
CONTINUOUS
 62
2
 10
3.2663576E+002
 20
1.7177892E+002
 40
5.0E-001
 50
3.5999949E+002
 51
4.5E+002
  0
ARC
  8
1
  6
CONTINUOUS
 62
2
 10
3.2863575E+002
 20
1.5277893E+002
 40
5.0E-001
 50
2.6999999E+002
 51
3.5999992E+002
  0
ARC
  8
1
  6
CONTINUOUS
 62
2
 10
3.231358E+002
 20
1.6527892E+002
 40
3.0
 50
3.5999972E+002
 51
4.5E+002
  0
ARC
  8
1
  6
CONTINUOUS
 62
2
 10
8.6635742E+001
 20
1.5277893E+002
 40
5.0E-001
 50
1.7999999E+002
 51
2.6999999E+002
  0
ARC
  8
1
  6
CONTINUOUS
 62
2
 10
9.2135756E+001
 20
1.6527894E+002
 40
3.0
 50
8.9999992E+001
 51
1.7999995E+002
  0
INSERT
  2
*D301
  8
1
 62
4
 10
0.0
 20
0.0
  0
INSERT
  2
*D302
  8
1
 62
4
 10
0.0
 20
0.0
  0
INSERT
  2
*D303
  8
1
 62
4
 10
0.0
 20
0.0
  0
INSERT
  2
*D304
  8
1
 62
4
 10
0.0
 20
0.0
  0
INSERT
  2
*D305
  8
1
 62
4
 10
0.0
 20
0.0
  0
INSERT
  2
*D306
  8
1
 62
4
 10
0.0
 20
0.0
  0
INSERT
  2
*D307
  8
1
 62
4
 10
0.0
 20
0.0
  0
DIMENSION
  8
1
  6
CONTINUOUS
 62
4
  2
*D308
  3
DSTYLE6
 10
2.5758644E+002
 20
1.7932893E+002
 11
2.5558544E+002
 21
1.7582893E+002
 70
128
 13
2.3513574E+002
 23
1.7232893E+002
 14
2.3113577E+002
 24
1.7932893E+002
 40
3.0
 50
9.0E+001
1001
ACAD
1000
DSTYLE
1002
{
1070
173
1070
0
1070
5
1000
_AH2
1002
}
  0
DIMENSION
  8
1
  6
CONTINUOUS
 62
4
  2
*D309
  3
DSTYLE3
 10
2.5758644E+002
 20
1.8832893E+002
 11
2.5558544E+002
 21
1.8382893E+002
 70
128
 13
2.3113577E+002
 23
1.7932893E+002
 14
2.3013577E+002
 24
1.8832893E+002
 40
3.0
 50
9.0E+001
1001
ACAD
1000
DSTYLE
1002
{
1070
173
1070
0
1070
5
1000
_AH2
1002
}
  0
DIMENSION
  8
1
  6
CONTINUOUS
 62
4
  2
*D310
  3
DSTYLE3
 10
2.2013576E+002
 20
1.2725493E+002
 11
2.0763576E+002
 21
1.2925593E+002
 70
128
 13
1.9513576E+002
 23
1.3827893E+002
 14
2.2013576E+002
 24
1.3827893E+002
 40
3.0
 50
0.0
1001
ACAD
1000
DSTYLE
1002
{
1070
173
1070
0
1070
5
1000
_AH2
1002
}
  0
LINE
  8
1
  6
CONTINUOUS
 62
40
 10
2.2398575E+002
 20
1.4592892E+002
 11
2.2398575E+002
 21
1.4712893E+002
  0
TEXT
  8
1
  6
CONTINUOUS
 62
4
 10
2.4466944E+002
 20
1.2933993E+002
 40
3.0
  1
(%%c25 DIN471)
 41
8.0E-001
  0
LINE
  8
1
  6
CONTINUOUS
 62
40
 10
1.8413577E+002
 20
1.7932893E+002
 11
2.3113577E+002
 21
1.7932893E+002
  0
LINE
  8
1
  6
CENTERLINE
 62
4
 10
2.0763576E+002
 20
1.9277493E+002
 11
2.0763576E+002
 21
1.3573493E+002
  0
LINE
  8
1
  6
CONTINUOUS
 62
40
 10
1.9513576E+002
 20
1.4357893E+002
 11
1.9293576E+002
 21
1.4462893E+002
  0
ARC
  8
1
  6
CONTINUOUS
 62
40
 10
1.8562576E+002
 20
1.3981893E+002
 40
3.0E-001
 50
1.8E+002
 51
2.7E+002
  0
ARC
  8
1
  6
CONTINUOUS
 62
40
 10
1.9136205E+002
 20
1.4044892E+002
 40
3.0E-001
 50
2.7E+002
 51
3.5044302E+002
  0
LINE
  8
1
  6
CONTINUOUS
 62
40
 10
1.8728576E+002
 20
1.4712893E+002
 11
2.3238575E+002
 21
1.4712893E+002
  0
LINE
  8
1
  6
CONTINUOUS
 62
40
 10
2.2323665E+002
 20
1.4213281E+002
 11
2.2333897E+002
 21
1.4203048E+002
  0
LINE
  8
1
  6
CONTINUOUS
 62
40
 10
1.9561309E+002
 20
1.4712893E+002
 11
1.9568576E+002
 21
1.4705627E+002
  0
LINE
  8
1
  6
CONTINUOUS
 62
40
 10
1.8413576E+002
 20
1.3927893E+002
 11
1.8413576E+002
 21
1.4532893E+002
  0
LINE
  8
1
  6
CONTINUOUS
 62
40
 10
1.8288576E+002
 20
1.4532893E+002
 11
1.8288576E+002
 21
1.4712893E+002
  0
LINE
  8
1
  6
CONTINUOUS
 62
40
 10
1.8713576E+002
 20
1.7932893E+002
 11
1.8713576E+002
 21
1.8032893E+002
  0
LINE
  8
1
  6
CONTINUOUS
 62
40
 10
2.2813576E+002
 20
1.8032893E+002
 11
2.2398576E+002
 21
1.8032893E+002
  0
LINE
  8
1
  6
CONTINUOUS
 62
40
 10
2.2813576E+002
 20
1.7932893E+002
 11
2.2813576E+002
 21
1.8032893E+002
  0
LINE
  8
1
  6
CONTINUOUS
 62
40
 10
2.3238576E+002
 20
1.4532893E+002
 11
2.3238575E+002
 21
1.4712893E+002
  0
LINE
  8
1
  6
CONTINUOUS
 62
40
 10
2.3113576E+002
 20
1.3927893E+002
 11
2.3113576E+002
 21
1.4532893E+002
  0
LINE
  8
1
  6
CONTINUOUS
 62
40
 10
2.3113576E+002
 20
1.3927893E+002
 11
2.3213576E+002
 21
1.3827893E+002
  0
LINE
  8
1
  6
CONTINUOUS
 62
40
 10
1.8413576E+002
 20
1.3927893E+002
 11
1.8313576E+002
 21
1.3827893E+002
  0
LINE
  8
1
  6
CONTINUOUS
 62
40
 10
1.8313576E+002
 20
1.3827893E+002
 11
2.3213576E+002
 21
1.3827893E+002
  0
LINE
  8
1
  6
CONTINUOUS
 62
40
 10
1.8288576E+002
 20
1.4712893E+002
 11
1.8728576E+002
 21
1.4712893E+002
  0
LINE
  8
1
  6
CONTINUOUS
 62
40
 10
1.8713576E+002
 20
1.7932893E+002
 11
1.871739E+002
 21
1.7932893E+002
  0
LINE
  8
1
  6
CONTINUOUS
 62
40
 10
1.9563576E+002
 20
1.8232893E+002
 11
2.1963576E+002
 21
1.8232893E+002
  0
LINE
  8
1
  6
CONTINUOUS
 62
40
 10
1.8413576E+002
 20
1.6732893E+002
 11
1.9513576E+002
 21
1.6732893E+002
  0
LINE
  8
1
  6
CONTINUOUS
 62
40
 10
1.8413576E+002
 20
1.5912893E+002
 11
1.9513576E+002
 21
1.5912893E+002
  0
LINE
  8
1
  6
CONTINUOUS
 62
4
 10
2.2013576E+002
 20
1.6732893E+002
 11
2.3113575E+002
 21
1.7932893E+002
  0
LINE
  8
1
  6
CONTINUOUS
 62
4
 10
2.2013576E+002
 20
1.7932893E+002
 11
2.3113575E+002
 21
1.6732893E+002
  0
LINE
  8
1
  6
CONTINUOUS
 62
4
 10
1.8413576E+002
 20
1.7932893E+002
 11
1.9513576E+002
 21
1.6732893E+002
  0
LINE
  8
1
  6
CONTINUOUS
 62
4
 10
1.8413576E+002
 20
1.6732893E+002
 11
1.9513576E+002
 21
1.7932893E+002
  0
LINE
  8
1
  6
CONTINUOUS
 62
4
 10
2.2013576E+002
 20
1.5912893E+002
 11
2.3113575E+002
 21
1.4712893E+002
  0
LINE
  8
1
  6
CONTINUOUS
 62
4
 10
2.2013576E+002
 20
1.4712893E+002
 11
2.3113575E+002
 21
1.5912893E+002
  0
LINE
  8
1
  6
CONTINUOUS
 62
4
 10
1.8413576E+002
 20
1.5912893E+002
 11
1.9513576E+002
 21
1.4712893E+002
  0
LINE
  8
1
  6
CONTINUOUS
 62
4
 10
1.8413576E+002
 20
1.4712893E+002
 11
1.9513576E+002
 21
1.5912893E+002
  0
LINE
  8
1
  6
CONTINUOUS
 62
40
 10
2.2013576E+002
 20
1.4712893E+002
 11
2.2013576E+002
 21
1.7932893E+002
  0
LINE
  8
1
  6
CONTINUOUS
 62
40
 10
1.9513576E+002
 20
1.4712893E+002
 11
1.9513576E+002
 21
1.7932893E+002
  0
LINE
  8
1
  6
CONTINUOUS
 62
40
 10
2.2013576E+002
 20
1.8052893E+002
 11
2.2013576E+002
 21
1.8182893E+002
  0
LINE
  8
1
  6
CONTINUOUS
 62
40
 10
1.9513576E+002
 20
1.8052893E+002
 11
1.9513576E+002
 21
1.8182893E+002
  0
LINE
  8
1
  6
CONTINUOUS
 62
40
 10
1.9513576E+002
 20
1.8182893E+002
 11
2.2013576E+002
 21
1.8182893E+002
  0
LINE
  8
1
  6
CONTINUOUS
 62
40
 10
2.1963576E+002
 20
1.8232893E+002
 11
2.2013576E+002
 21
1.8182893E+002
  0
LINE
  8
1
  6
CONTINUOUS
 62
40
 10
1.9513576E+002
 20
1.8182893E+002
 11
1.9563576E+002
 21
1.8232893E+002
  0
LINE
  8
1
  6
CONTINUOUS
 62
40
 10
1.9128576E+002
 20
1.8052893E+002
 11
1.9568576E+002
 21
1.8052893E+002
  0
LINE
  8
1
  6
CONTINUOUS
 62
40
 10
2.2398576E+002
 20
1.7932893E+002
 11
2.2398576E+002
 21
1.8052893E+002
  0
LINE
  8
1
  6
CONTINUOUS
 62
40
 10
1.9568576E+002
 20
1.7932893E+002
 11
1.9568576E+002
 21
1.8052893E+002
  0
LINE
  8
1
  6
CONTINUOUS
 62
40
 10
2.1958575E+002
 20
1.7932893E+002
 11
2.1958575E+002
 21
1.8052893E+002
  0
LINE
  8
1
  6
CONTINUOUS
 62
40
 10
2.2013576E+002
 20
1.4532893E+002
 11
2.3238576E+002
 21
1.4532893E+002
  0
LINE
  8
1
  6
CONTINUOUS
 62
40
 10
2.2598576E+002
 20
1.4532893E+002
 11
2.2598576E+002
 21
1.4712893E+002
  0
LINE
  8
1
  6
CONTINUOUS
 62
40
 10
2.1958575E+002
 20
1.4592892E+002
 11
2.1958575E+002
 21
1.4712893E+002
  0
LINE
  8
1
  6
CONTINUOUS
 62
40
 10
2.2013576E+002
 20
1.4592892E+002
 11
2.2398575E+002
 21
1.4592892E+002
  0
LINE
  8
1
  6
CONTINUOUS
 62
40
 10
2.2013576E+002
 20
1.6732893E+002
 11
2.3113575E+002
 21
1.6732893E+002
  0
LINE
  8
1
  6
CONTINUOUS
 62
40
 10
2.2013576E+002
 20
1.5912893E+002
 11
2.3113575E+002
 21
1.5912893E+002
  0
LINE
  8
1
  6
CONTINUOUS
 62
40
 10
2.1958575E+002
 20
1.8052893E+002
 11
2.2398576E+002
 21
1.8052893E+002
  0
LINE
  8
1
  6
CONTINUOUS
 62
40
 10
1.9568576E+002
 20
1.8052893E+002
 11
2.1958575E+002
 21
1.8052893E+002
  0
LINE
  8
1
  6
CONTINUOUS
 62
40
 10
1.9513576E+002
 20
1.4592892E+002
 11
2.2013576E+002
 21
1.4592892E+002
  0
LINE
  8
1
  6
CONTINUOUS
 62
40
 10
1.8663576E+002
 20
1.5912893E+002
 11
1.8663576E+002
 21
1.6732893E+002
  0
LINE
  8
1
  6
CONTINUOUS
 62
40
 10
2.2863576E+002
 20
1.5912893E+002
 11
2.2863576E+002
 21
1.6732893E+002
  0
CIRCLE
  8
1
  6
CONTINUOUS
 62
40
 10
2.2332576E+002
 20
1.4287893E+002
 40
7.7E-001
  0
LINE
  8
1
  6
CONTINUOUS
 62
40
 10
2.2332576E+002
 20
1.4210893E+002
 11
2.2361363E+002
 21
1.4039912E+002
  0
LINE
  8
1
  6
CONTINUOUS
 62
40
 10
2.2390947E+002
 20
1.4014892E+002
 11
2.2545423E+002
 21
1.4014892E+002
  0
LINE
  8
1
  6
CONTINUOUS
 62
40
 10
2.2571999E+002
 20
1.3998812E+002
 11
2.2596576E+002
 21
1.3951893E+002
  0
LINE
  8
1
  6
CONTINUOUS
 62
40
 10
2.2596576E+002
 20
1.3951893E+002
 11
2.2964576E+002
 21
1.3951893E+002
  0
LINE
  8
1
  6
CONTINUOUS
 62
40
 10
2.2994576E+002
 20
1.3981893E+002
 11
2.2994576E+002
 21
1.4532893E+002
  0
LINE
  8
1
  6
CONTINUOUS
 62
40
 10
2.2090575E+002
 20
1.4147892E+002
 11
2.2222576E+002
 21
1.4105892E+002
  0
LINE
  8
1
  6
CONTINUOUS
 62
40
 10
2.2013576E+002
 20
1.4357893E+002
 11
2.2090575E+002
 21
1.4147892E+002
  0
LINE
  8
1
  6
CONTINUOUS
 62
40
 10
2.2013576E+002
 20
1.4357893E+002
 11
2.2233575E+002
 21
1.4462893E+002
  0
LINE
  8
1
  6
CONTINUOUS
 62
40
 10
2.2233575E+002
 20
1.4462893E+002
 11
2.2365575E+002
 21
1.4434893E+002
  0
LINE
  8
1
  6
CONTINUOUS
 62
40
 10
2.2358911E+002
 20
1.4360249E+002
 11
2.2365575E+002
 21
1.4434893E+002
  0
ARC
  8
1
  6
CONTINUOUS
 62
40
 10
2.2390947E+002
 20
1.4044892E+002
 40
3.0E-001
 50
1.8955711E+002
 51
2.7E+002
  0
ARC
  8
1
  6
CONTINUOUS
 62
40
 10
2.2545423E+002
 20
1.3984893E+002
 40
3.0E-001
 50
2.7645956E+001
 51
9.0000003E+001
  0
ARC
  8
1
  6
CONTINUOUS
 62
40
 10
2.2964576E+002
 20
1.3981893E+002
 40
3.0E-001
 50
2.7E+002
 51
3.6E+002
  0
LINE
  8
1
  6
CONTINUOUS
 62
40
 10
2.2028976E+002
 20
1.3832893E+002
 11
2.2307276E+002
 21
1.3877693E+002
  0
LINE
  8
1
  6
CONTINUOUS
 62
40
 10
2.2307276E+002
 20
1.3877693E+002
 11
2.238431E+002
 21
1.3827893E+002
  0
LINE
  8
1
  6
CONTINUOUS
 62
40
 10
2.2013576E+002
 20
1.3843392E+002
 11
2.2028976E+002
 21
1.3832893E+002
  0
LINE
  8
1
  6
CONTINUOUS
 62
40
 10
2.2013576E+002
 20
1.3843392E+002
 11
2.2252276E+002
 21
1.3972892E+002
  0
LINE
  8
1
  6
CONTINUOUS
 62
40
 10
2.2222576E+002
 20
1.4105892E+002
 11
2.2252276E+002
 21
1.3972892E+002
  0
LINE
  8
1
  6
CONTINUOUS
 62
40
 10
2.2013576E+002
 20
1.4462893E+002
 11
2.2233575E+002
 21
1.4462893E+002
  0
CIRCLE
  8
1
  6
CONTINUOUS
 62
40
 10
1.9194575E+002
 20
1.4287893E+002
 40
7.7E-001
  0
LINE
  8
1
  6
CONTINUOUS
 62
40
 10
1.9165788E+002
 20
1.4039911E+002
 11
1.9194576E+002
 21
1.4210893E+002
  0
LINE
  8
1
  6
CONTINUOUS
 62
40
 10
1.898146E+002
 20
1.4014892E+002
 11
1.9136205E+002
 21
1.4014892E+002
  0
LINE
  8
1
  6
CONTINUOUS
 62
40
 10
1.8930576E+002
 20
1.3951893E+002
 11
1.8955153E+002
 21
1.3998812E+002
  0
LINE
  8
1
  6
CONTINUOUS
 62
40
 10
1.8562576E+002
 20
1.3951893E+002
 11
1.8930576E+002
 21
1.3951893E+002
  0
LINE
  8
1
  6
CONTINUOUS
 62
40
 10
1.8532576E+002
 20
1.3981893E+002
 11
1.8532576E+002
 21
1.4532893E+002
  0
LINE
  8
1
  6
CONTINUOUS
 62
40
 10
1.9304575E+002
 20
1.4105892E+002
 11
1.9436576E+002
 21
1.4147892E+002
  0
LINE
  8
1
  6
CONTINUOUS
 62
40
 10
1.9436576E+002
 20
1.4147892E+002
 11
1.9513576E+002
 21
1.4357893E+002
  0
LINE
  8
1
  6
CONTINUOUS
 62
40
 10
1.9161576E+002
 20
1.4434893E+002
 11
1.916824E+002
 21
1.436025E+002
  0
ARC
  8
1
  6
CONTINUOUS
 62
40
 10
1.8981728E+002
 20
1.3984893E+002
 40
3.0E-001
 50
9.0E+001
 51
1.5235405E+002
  0
LINE
  8
1
  6
CONTINUOUS
 62
40
 10
1.9219875E+002
 20
1.3877693E+002
 11
1.9498176E+002
 21
1.3832893E+002
  0
LINE
  8
1
  6
CONTINUOUS
 62
40
 10
1.9142841E+002
 20
1.3827893E+002
 11
1.9219875E+002
 21
1.3877693E+002
  0
LINE
  8
1
  6
CONTINUOUS
 62
40
 10
1.9498176E+002
 20
1.3832893E+002
 11
1.9513576E+002
 21
1.3843392E+002
  0
LINE
  8
1
  6
CONTINUOUS
 62
40
 10
1.9274876E+002
 20
1.3972892E+002
 11
1.9513576E+002
 21
1.3843392E+002
  0
LINE
  8
1
  6
CONTINUOUS
 62
40
 10
1.9274876E+002
 20
1.3972892E+002
 11
1.9304575E+002
 21
1.4105892E+002
  0
LINE
  8
1
  6
CONTINUOUS
 62
40
 10
1.8288576E+002
 20
1.4532893E+002
 11
1.9513576E+002
 21
1.4532893E+002
  0
LINE
  8
1
  6
CONTINUOUS
 62
40
 10
1.8728576E+002
 20
1.4532893E+002
 11
1.8728576E+002
 21
1.4712893E+002
  0
LINE
  8
1
  6
CONTINUOUS
 62
40
 10
1.9128576E+002
 20
1.4592892E+002
 11
1.9513576E+002
 21
1.4592892E+002
  0
LINE
  8
1
  6
CONTINUOUS
 62
40
 10
1.9128576E+002
 20
1.4592892E+002
 11
1.9128576E+002
 21
1.4712893E+002
  0
LINE
  8
1
  6
CONTINUOUS
 62
40
 10
1.9568576E+002
 20
1.4592892E+002
 11
1.9568576E+002
 21
1.4712893E+002
  0
LINE
  8
1
  6
CONTINUOUS
 62
40
 10
1.9293576E+002
 20
1.4462893E+002
 11
1.9513576E+002
 21
1.4462893E+002
  0
LINE
  8
1
  6
CONTINUOUS
 62
40
 10
1.9161576E+002
 20
1.4434893E+002
 11
1.9293576E+002
 21
1.4462893E+002
  0
LINE
  8
1
  6
CONTINUOUS
 62
40
 10
1.9128576E+002
 20
1.8032893E+002
 11
1.8713576E+002
 21
1.8032893E+002
  0
LINE
  8
1
  6
CONTINUOUS
 62
40
 10
1.9513576E+002
 20
1.4592892E+002
 11
1.9513576E+002
 21
1.3827893E+002
  0
LINE
  8
1
  6
CONTINUOUS
 62
40
 10
2.2013576E+002
 20
1.4592892E+002
 11
2.2013576E+002
 21
1.3827893E+002
  0
LINE
  8
1
  6
CONTINUOUS
 62
40
 10
1.9128576E+002
 20
1.7932893E+002
 11
1.9128576E+002
 21
1.8052893E+002
  0
INSERT
  2
*XH29
  8
1
 10
2.1976253E+002
 20
1.461057E+002
 41
1.0
 43
1.0
 42
-1.0
 50
1.8E+002
  0
INSERT
  2
*XH30
  8
1
 10
2.3150267E+002
 20
1.3848995E+002
  0
INSERT
  2
*XH31
  8
1
 10
1.941451E+002
 20
1.3868167E+002
  0
INSERT
  2
*XH38
  8
1
 10
1.8710898E+002
 20
1.4550571E+002
  0
INSERT
  2
*XH39
  8
1
 10
2.3220897E+002
 20
1.4550571E+002
  0
INSERT
  2
*XH40
  8
1
 10
1.8645898E+002
 20
1.5930571E+002
  0
INSERT
  2
*XH41
  8
1
 10
2.3095897E+002
 20
1.5930571E+002
  0
INSERT
  2
*XH42
  8
1
 10
1.9550898E+002
 20
1.7950571E+002
  0
INSERT
  2
*XH43
  8
1
 10
2.2380898E+002
 20
1.7950571E+002
  0
INSERT
  2
*XH44
  8
1
 10
1.9550898E+002
 20
1.461057E+002
  0
ARC
  8
1
  6
CONTINUOUS
 62
4
 10
8.8635751E+001
 20
1.7177894E+002
 40
4.9999983E-001
 50
8.9846288E+001
 51
1.7984643E+002
  0
ARC
  8
1
  6
CONTINUOUS
 62
2
 10
1.8113575E+002
 20
1.3927894E+002
 40
9.9999966E-001
 50
1.7999998E+002
 51
2.7E+002
  0
LINE
  8
1
  6
CONTINUOUS
 62
2
 10
1.8013575E+002
 20
1.3918807E+002
 11
1.8013574E+002
 21
1.6827893E+002
  0
LINE
  8
1
  6
CONTINUOUS
 62
2
 10
1.8013574E+002
 20
1.6827893E+002
 11
9.2135756E+001
 21
1.6827894E+002
  0
LINE
  8
1
  6
CONTINUOUS
 62
2
 10
8.9135744E+001
 20
1.5227893E+002
 11
8.9135756E+001
 21
1.6527894E+002
  0
LINE
  8
1
  6
CONTINUOUS
 62
2
 10
1.2470401E+002
 20
1.5227893E+002
 11
8.6635742E+001
 21
1.5227893E+002
  0
LINE
  8
1
  6
CONTINUOUS
 62
2
 10
8.6135742E+001
 20
1.5277893E+002
 11
8.6135743E+001
 21
1.5527893E+002
  0
LINE
  8
1
  6
CONTINUOUS
 62
2
 10
8.6135743E+001
 20
1.5527893E+002
 11
8.413576E+001
 21
1.5527894E+002
  0
LINE
  8
1
  6
CONTINUOUS
 62
2
 10
8.413576E+001
 20
1.5527894E+002
 11
8.4135745E+001
 21
1.6627893E+002
  0
LINE
  8
1
  6
CONTINUOUS
 62
2
 10
8.6135761E+001
 20
1.6627894E+002
 11
8.4135745E+001
 21
1.6627893E+002
  0
LINE
  8
1
  6
CONTINUOUS
 62
2
 10
8.6135761E+001
 20
1.6627894E+002
 11
8.6135747E+001
 21
1.6812894E+002
  0
LINE
  8
1
  6
CONTINUOUS
 62
2
 10
8.8135759E+001
 20
1.6912893E+002
 11
8.6135747E+001
 21
1.6812894E+002
  0
LINE
  8
1
  6
CONTINUOUS
 62
2
 10
8.8135759E+001
 20
1.6912893E+002
 11
8.8135753E+001
 21
1.7177893E+002
  0
ARC
  8
1
  6
CONTINUOUS
 62
2
 10
8.8635751E+001
 20
1.7177894E+002
 40
4.9999983E-001
 50
8.999999E+001
 51
1.8E+002
  0
LINE
  8
1
  6
CONTINUOUS
 62
2
 10
1.8013575E+002
 20
1.7227893E+002
 11
8.8635741E+001
 21
1.7227894E+002
  0
LINE
  8
1
  6
CONTINUOUS
 62
2
 10
1.8013575E+002
 20
1.7227893E+002
 11
1.8013575E+002
 21
1.8327894E+002
  0
LINE
  8
1
  6
CONTINUOUS
 62
2
 10
2.3013576E+002
 20
1.8827892E+002
 11
1.8513575E+002
 21
1.8827894E+002
  0
ARC
  8
1
  6
CONTINUOUS
 62
2
 10
2.3013576E+002
 20
1.8327893E+002
 40
5.0000016
 50
1.5338E-005
 51
8.9999969E+001
  0
LINE
  8
1
  6
CONTINUOUS
 62
2
 10
2.3513574E+002
 20
1.7227892E+002
 11
2.3513576E+002
 21
1.8327893E+002
  0
LINE
  8
1
  6
CONTINUOUS
 62
2
 10
3.2663576E+002
 20
1.7227892E+002
 11
2.3513574E+002
 21
1.7227892E+002
  0
LINE
  8
1
  6
CONTINUOUS
 62
2
 10
3.2713574E+002
 20
1.6912892E+002
 11
3.2713576E+002
 21
1.7177892E+002
  0
LINE
  8
1
  6
CONTINUOUS
 62
2
 10
3.2713574E+002
 20
1.6912892E+002
 11
3.2913574E+002
 21
1.6812892E+002
  0
LINE
  8
1
  6
CONTINUOUS
 62
2
 10
3.2913574E+002
 20
1.6627892E+002
 11
3.2913574E+002
 21
1.6812892E+002
  0
LINE
  8
1
  6
CONTINUOUS
 62
2
 10
3.3113576E+002
 20
1.6627893E+002
 11
3.2913574E+002
 21
1.6627892E+002
  0
LINE
  8
1
  6
CONTINUOUS
 62
2
 10
3.3113574E+002
 20
1.5527892E+002
 11
3.3113576E+002
 21
1.6627893E+002
  0
LINE
  8
1
  6
CONTINUOUS
 62
2
 10
3.3113574E+002
 20
1.5527892E+002
 11
3.2913576E+002
 21
1.5527893E+002
  0
LINE
  8
1
  6
CONTINUOUS
 62
2
 10
3.2913575E+002
 20
1.5277893E+002
 11
3.2913576E+002
 21
1.5527893E+002
  0
LINE
  8
1
  6
CONTINUOUS
 62
2
 10
3.2863575E+002
 20
1.5227893E+002
 11
2.9053437E+002
 21
1.5227893E+002
  0
LINE
  8
1
  6
CONTINUOUS
 62
2
 10
3.2613574E+002
 20
1.5227893E+002
 11
3.261358E+002
 21
1.6527891E+002
  0
LINE
  8
1
  6
CONTINUOUS
 62
2
 10
3.2313575E+002
 20
1.6827892E+002
 11
2.3513575E+002
 21
1.6827892E+002
  0
LINE
  8
1
  6
CONTINUOUS
 62
2
 10
2.3513575E+002
 20
1.3927893E+002
 11
2.3513567E+002
 21
1.6827892E+002
  0
ARC
  8
1
  6
CONTINUOUS
 62
2
 10
2.3413576E+002
 20
1.3927892E+002
 40
9.9999966E-001
 50
2.6999999E+002
 51
3.6000001E+002
  0
LINE
  8
1
  6
CONTINUOUS
 62
2
 10
2.3113576E+002
 20
1.3927893E+002
 11
2.3213577E+002
 21
1.3827892E+002
  0
LINE
  8
1
  6
CONTINUOUS
 62
2
 10
2.3238575E+002
 20
1.4527893E+002
 11
2.3238575E+002
 21
1.4712893E+002
  0
LINE
  8
1
  6
CONTINUOUS
 62
2
 10
2.3113574E+002
 20
1.4712893E+002
 11
2.3113576E+002
 21
1.7932893E+002
  0
LINE
  8
1
  6
CONTINUOUS
 62
2
 10
2.3013574E+002
 20
1.7932893E+002
 11
2.3013576E+002
 21
1.8077893E+002
  0
ARC
  8
1
  6
CONTINUOUS
 62
2
 10
2.2763577E+002
 20
1.8077893E+002
 40
2.4999992
 50
3.5999999E+002
 51
4.5E+002
  0
LINE
  8
1
  6
CONTINUOUS
 62
2
 10
2.2763574E+002
 20
1.8327893E+002
 11
1.8763575E+002
 21
1.8327893E+002
  0
ARC
  8
1
  6
CONTINUOUS
 62
2
 10
1.8763575E+002
 20
1.8077894E+002
 40
2.4999992
 50
8.999999E+001
 51
1.8E+002
  0
LINE
  8
1
  6
CONTINUOUS
 62
2
 10
1.8513575E+002
 20
1.7932893E+002
 11
1.8513576E+002
 21
1.8077894E+002
  0
LINE
  8
1
  6
CONTINUOUS
 62
2
 10
2.3113576E+002
 20
1.7932912E+002
 11
1.8413576E+002
 21
1.7932893E+002
  0
LINE
  8
1
  6
CONTINUOUS
 62
2
 10
1.8413574E+002
 20
1.4712893E+002
 11
1.8413576E+002
 21
1.7932893E+002
  0
LINE
  8
1
  6
CONTINUOUS
 62
2
 10
1.8288574E+002
 20
1.4527893E+002
 11
1.8288574E+002
 21
1.4712893E+002
  0
ARC
  8
1
  6
CONTINUOUS
 62
2
 10
-1.1660129E+005
 20
7.2757851E+005
 40
7.3675818E+005
 50
2.7912459E+002
 51
2.7913094E+002
  0
ARC
  8
1
  6
CONTINUOUS
 62
2
 10
1.170082E+005
 20
7.2793742E+005
 40
7.3711122E+005
 50
2.6087413E+002
 51
2.6088048E+002
  0
LINE
  8
1
  6
CONTINUOUS
 62
2
 10
2.3413576E+002
 20
1.3827892E+002
 11
1.8113575E+002
 21
1.3827893E+002
  0
LINE
  8
1
  6
CONTINUOUS
 62
2
 10
3.1573016E+002
 20
1.5627891E+002
 11
3.2406497E+002
 21
1.5627892E+002
  0
LINE
  8
1
  6
CONTINUOUS
 62
2
 10
3.2406497E+002
 20
1.5627892E+002
 11
3.2406496E+002
 21
1.6527892E+002
  0
LINE
  8
1
  6
CONTINUOUS
 62
2
 10
3.2406496E+002
 20
1.6527892E+002
 11
3.2402845E+002
 21
1.6575016E+002
  0
LINE
  8
1
  6
CONTINUOUS
 62
2
 10
3.2402845E+002
 20
1.6575016E+002
 11
3.2391979E+002
 21
1.662097E+002
  0
LINE
  8
1
  6
CONTINUOUS
 62
2
 10
3.2391979E+002
 20
1.662097E+002
 11
3.2374172E+002
 21
1.6664613E+002
  0
LINE
  8
1
  6
CONTINUOUS
 62
2
 10
3.2374172E+002
 20
1.6664613E+002
 11
3.2349833E+002
 21
1.6704902E+002
  0
LINE
  8
1
  6
CONTINUOUS
 62
2
 10
3.2349833E+002
 20
1.6704902E+002
 11
3.2319587E+002
 21
1.6740786E+002
  0
LINE
  8
1
  6
CONTINUOUS
 62
2
 10
3.2319587E+002
 20
1.6740786E+002
 11
3.2284185E+002
 21
1.6771373E+002
  0
LINE
  8
1
  6
CONTINUOUS
 62
2
 10
3.2284185E+002
 20
1.6771373E+002
 11
3.2244505E+002
 21
1.6795903E+002
  0
LINE
  8
1
  6
CONTINUOUS
 62
2
 10
3.2244505E+002
 20
1.6795903E+002
 11
3.2201538E+002
 21
1.6813764E+002
  0
LINE
  8
1
  6
CONTINUOUS
 62
2
 10
3.2201538E+002
 20
1.6813764E+002
 11
3.2156352E+002
 21
1.6824513E+002
  0
LINE
  8
1
  6
CONTINUOUS
 62
2
 10
3.2156352E+002
 20
1.6824513E+002
 11
3.2112329E+002
 21
1.6827892E+002
  0
LINE
  8
1
  6
CONTINUOUS
 62
2
 10
9.9483813E+001
 20
1.5627894E+002
 11
9.1144277E+001
 21
1.5627894E+002
  0
LINE
  8
1
  6
CONTINUOUS
 62
2
 10
9.1144301E+001
 20
1.6527894E+002
 11
9.1180825E+001
 21
1.6575018E+002
  0
LINE
  8
1
  6
CONTINUOUS
 62
2
 10
9.1180825E+001
 20
1.6575018E+002
 11
9.1289547E+001
 21
1.6620971E+002
  0
LINE
  8
1
  6
CONTINUOUS
 62
2
 10
9.1289547E+001
 20
1.6620971E+002
 11
9.1467717E+001
 21
1.6664615E+002
  0
LINE
  8
1
  6
CONTINUOUS
 62
2
 10
9.1467717E+001
 20
1.6664615E+002
 11
9.171123E+001
 21
1.6704902E+002
  0
LINE
  8
1
  6
CONTINUOUS
 62
2
 10
9.171123E+001
 20
1.6704902E+002
 11
9.2013879E+001
 21
1.6740787E+002
  0
LINE
  8
1
  6
CONTINUOUS
 62
2
 10
9.2013879E+001
 20
1.6740787E+002
 11
9.2368099E+001
 21
1.6771374E+002
  0
LINE
  8
1
  6
CONTINUOUS
 62
2
 10
9.2368099E+001
 20
1.6771374E+002
 11
9.2765116E+001
 21
1.6795904E+002
  0
LINE
  8
1
  6
CONTINUOUS
 62
2
 10
9.2765116E+001
 20
1.6795904E+002
 11
9.3195037E+001
 21
1.6813766E+002
  0
LINE
  8
1
  6
CONTINUOUS
 62
2
 10
9.3195037E+001
 20
1.6813766E+002
 11
9.3647151E+001
 21
1.6824515E+002
  0
LINE
  8
1
  6
CONTINUOUS
 62
2
 10
9.3647151E+001
 20
1.6824515E+002
 11
9.4087638E+001
 21
1.6827894E+002
  0
LINE
  8
1
  6
CONTINUOUS
 62
2
 10
9.1144277E+001
 20
1.5627894E+002
 11
9.1144301E+001
 21
1.6527894E+002
  0
LINE
  8
1
  6
CONTINUOUS
 62
2
 10
3.2613575E+002
 20
1.6527892E+002
 11
3.2406496E+002
 21
1.6527892E+002
  0
LINE
  8
1
  6
CONTINUOUS
 62
2
 10
2.2013576E+002
 20
1.3927893E+002
 11
1.9513576E+002
 21
1.3927893E+002
  0
LINE
  8
1
  6
CONTINUOUS
 62
2
 10
9.1144301E+001
 20
1.6527894E+002
 11
8.9135756E+001
 21
1.6527894E+002
  0
LINE
  8
1
  6
CONTINUOUS
 62
2
 10
2.3238575E+002
 20
1.4527893E+002
 11
1.8288574E+002
 21
1.4527893E+002
  0
LINE
  8
1
  6
CONTINUOUS
 62
2
 10
2.3238575E+002
 20
1.4712893E+002
 11
1.8288574E+002
 21
1.4712893E+002
  0
LINE
  8
1
  6
CONTINUOUS
 62
4
 10
3.2613573E+002
 20
1.5233093E+002
 11
3.2913575E+002
 21
1.543293E+002
  0
LINE
  8
1
  6
CONTINUOUS
 62
4
 10
3.3056134E+002
 20
1.5527891E+002
 11
3.3113575E+002
 21
1.5566154E+002
  0
LINE
  8
1
  6
CONTINUOUS
 62
4
 10
3.2613574E+002
 20
1.5473403E+002
 11
3.3113576E+002
 21
1.5806465E+002
  0
LINE
  8
1
  6
CONTINUOUS
 62
4
 10
3.2613574E+002
 20
1.5713712E+002
 11
3.3113573E+002
 21
1.6046775E+002
  0
LINE
  8
1
  6
CONTINUOUS
 62
4
 10
3.2613575E+002
 20
1.5954023E+002
 11
3.3113574E+002
 21
1.6287085E+002
  0
LINE
  8
1
  6
CONTINUOUS
 62
4
 10
3.2613575E+002
 20
1.6194333E+002
 11
3.3113574E+002
 21
1.6527394E+002
  0
LINE
  8
1
  6
CONTINUOUS
 62
4
 10
3.2613576E+002
 20
1.6434642E+002
 11
3.2913574E+002
 21
1.663448E+002
  0
LINE
  8
1
  6
CONTINUOUS
 62
4
 10
3.2584877E+002
 20
1.6655834E+002
 11
3.2860497E+002
 21
1.6839431E+002
  0
LINE
  8
1
  6
CONTINUOUS
 62
4
 10
3.2440217E+002
 20
1.6799783E+002
 11
3.2713575E+002
 21
1.6981874E+002
  0
LINE
  8
1
  6
CONTINUOUS
 62
4
 10
3.2121653E+002
 20
1.6827893E+002
 11
3.269941E+002
 21
1.721275E+002
  0
LINE
  8
1
  6
CONTINUOUS
 62
4
 10
3.1760898E+002
 20
1.6827893E+002
 11
3.2361384E+002
 21
1.7227893E+002
  0
LINE
  8
1
  6
CONTINUOUS
 62
4
 10
3.1400136E+002
 20
1.6827892E+002
 11
3.2000628E+002
 21
1.7227891E+002
  0
LINE
  8
1
  6
CONTINUOUS
 62
4
 10
3.1039381E+002
 20
1.6827892E+002
 11
3.1639867E+002
 21
1.7227892E+002
  0
LINE
  8
1
  6
CONTINUOUS
 62
4
 10
3.0678619E+002
 20
1.6827893E+002
 11
3.1279112E+002
 21
1.7227892E+002
  0
LINE
  8
1
  6
CONTINUOUS
 62
4
 10
3.0317864E+002
 20
1.6827893E+002
 11
3.091835E+002
 21
1.7227892E+002
  0
LINE
  8
1
  6
CONTINUOUS
 62
4
 10
2.9957102E+002
 20
1.6827892E+002
 11
3.0557591E+002
 21
1.7227892E+002
  0
LINE
  8
1
  6
CONTINUOUS
 62
4
 10
2.9596344E+002
 20
1.6827892E+002
 11
3.0196833E+002
 21
1.7227892E+002
  0
LINE
  8
1
  6
CONTINUOUS
 62
4
 10
2.9235585E+002
 20
1.6827893E+002
 11
2.9836075E+002
 21
1.7227893E+002
  0
LINE
  8
1
  6
CONTINUOUS
 62
4
 10
2.8874827E+002
 20
1.6827893E+002
 11
2.9475316E+002
 21
1.7227893E+002
  0
LINE
  8
1
  6
CONTINUOUS
 62
4
 10
2.8514069E+002
 20
1.6827894E+002
 11
2.9114557E+002
 21
1.7227892E+002
  0
LINE
  8
1
  6
CONTINUOUS
 62
4
 10
2.815331E+002
 20
1.6827892E+002
 11
2.8753799E+002
 21
1.7227892E+002
  0
LINE
  8
1
  6
CONTINUOUS
 62
4
 10
2.3288884E+002
 20
1.3827893E+002
 11
2.3513575E+002
 21
1.3977564E+002
  0
LINE
  8
1
  6
CONTINUOUS
 62
4
 10
2.7792551E+002
 20
1.6827893E+002
 11
2.8393041E+002
 21
1.7227893E+002
  0
LINE
  8
1
  6
CONTINUOUS
 62
4
 10
2.3113576E+002
 20
1.3951425E+002
 11
2.3513576E+002
 21
1.4217874E+002
  0
LINE
  8
1
  6
CONTINUOUS
 62
4
 10
2.7431793E+002
 20
1.6827893E+002
 11
2.8032282E+002
 21
1.7227892E+002
  0
LINE
  8
1
  6
CONTINUOUS
 62
4
 10
2.3113576E+002
 20
1.4191735E+002
 11
2.3513576E+002
 21
1.4458183E+002
  0
LINE
  8
1
  6
CONTINUOUS
 62
4
 10
2.7071034E+002
 20
1.6827892E+002
 11
2.7671523E+002
 21
1.7227892E+002
  0
LINE
  8
1
  6
CONTINUOUS
 62
4
 10
2.3113577E+002
 20
1.4432044E+002
 11
2.3513573E+002
 21
1.4698494E+002
  0
LINE
  8
1
  6
CONTINUOUS
 62
4
 10
2.6710276E+002
 20
1.6827892E+002
 11
2.7310765E+002
 21
1.7227892E+002
  0
LINE
  8
1
  6
CONTINUOUS
 62
4
 10
2.3174434E+002
 20
1.4712893E+002
 11
2.3513574E+002
 21
1.4938803E+002
  0
LINE
  8
1
  6
CONTINUOUS
 62
4
 10
2.6349517E+002
 20
1.6827893E+002
 11
2.6950007E+002
 21
1.7227893E+002
  0
LINE
  8
1
  6
CONTINUOUS
 62
4
 10
2.3113574E+002
 20
1.4912664E+002
 11
2.3513574E+002
 21
1.5179114E+002
  0
LINE
  8
1
  6
CONTINUOUS
 62
4
 10
2.5988759E+002
 20
1.6827893E+002
 11
2.6589248E+002
 21
1.7227893E+002
  0
LINE
  8
1
  6
CONTINUOUS
 62
4
 10
2.3113574E+002
 20
1.5152975E+002
 11
2.3513575E+002
 21
1.5419423E+002
  0
LINE
  8
1
  6
CONTINUOUS
 62
4
 10
2.5628E+002
 20
1.6827894E+002
 11
2.6228489E+002
 21
1.7227892E+002
  0
LINE
  8
1
  6
CONTINUOUS
 62
4
 10
2.3113575E+002
 20
1.5393284E+002
 11
2.3513575E+002
 21
1.5659733E+002
  0
LINE
  8
1
  6
CONTINUOUS
 62
4
 10
2.5267242E+002
 20
1.6827892E+002
 11
2.5867731E+002
 21
1.7227892E+002
  0
LINE
  8
1
  6
CONTINUOUS
 62
4
 10
2.3113575E+002
 20
1.5633594E+002
 11
2.3513575E+002
 21
1.5900043E+002
  0
LINE
  8
1
  6
CONTINUOUS
 62
4
 10
2.4906483E+002
 20
1.6827893E+002
 11
2.5506972E+002
 21
1.7227893E+002
  0
LINE
  8
1
  6
CONTINUOUS
 62
4
 10
2.3113576E+002
 20
1.5873903E+002
 11
2.3513576E+002
 21
1.6140353E+002
  0
LINE
  8
1
  6
CONTINUOUS
 62
4
 10
2.4545725E+002
 20
1.6827893E+002
 11
2.5146214E+002
 21
1.7227893E+002
  0
LINE
  8
1
  6
CONTINUOUS
 62
4
 10
2.3113576E+002
 20
1.6114214E+002
 11
2.3513576E+002
 21
1.6380662E+002
  0
LINE
  8
1
  6
CONTINUOUS
 62
4
 10
2.4184966E+002
 20
1.6827892E+002
 11
2.4785455E+002
 21
1.7227892E+002
  0
LINE
  8
1
  6
CONTINUOUS
 62
4
 10
2.3113576E+002
 20
1.6354523E+002
 11
2.3513574E+002
 21
1.6620973E+002
  0
LINE
  8
1
  6
CONTINUOUS
 62
4
 10
2.3824208E+002
 20
1.6827892E+002
 11
2.4424697E+002
 21
1.7227892E+002
  0
LINE
  8
1
  6
CONTINUOUS
 62
4
 10
2.3113574E+002
 20
1.6594834E+002
 11
2.4063938E+002
 21
1.7227893E+002
  0
LINE
  8
1
  6
CONTINUOUS
 62
4
 10
2.3113574E+002
 20
1.6835143E+002
 11
2.370318E+002
 21
1.7227893E+002
  0
LINE
  8
1
  6
CONTINUOUS
 62
4
 10
1.8238265E+002
 20
1.3827893E+002
 11
1.8413575E+002
 21
1.3944672E+002
  0
LINE
  8
1
  6
CONTINUOUS
 62
4
 10
2.3113575E+002
 20
1.7075453E+002
 11
2.3513575E+002
 21
1.7341903E+002
  0
LINE
  8
1
  6
CONTINUOUS
 62
4
 10
1.8013992E+002
 20
1.3918809E+002
 11
1.8413575E+002
 21
1.4184981E+002
  0
LINE
  8
1
  6
CONTINUOUS
 62
4
 10
2.3113575E+002
 20
1.7315762E+002
 11
2.3513576E+002
 21
1.7582212E+002
  0
LINE
  8
1
  6
CONTINUOUS
 62
4
 10
1.8013575E+002
 20
1.4158842E+002
 11
1.8413574E+002
 21
1.4425292E+002
  0
LINE
  8
1
  6
CONTINUOUS
 62
4
 10
2.3113576E+002
 20
1.7556073E+002
 11
2.3513576E+002
 21
1.7822521E+002
  0
LINE
  8
1
  6
CONTINUOUS
 62
4
 10
1.8013574E+002
 20
1.4399151E+002
 11
1.8288575E+002
 21
1.4582336E+002
  0
LINE
  8
1
  6
CONTINUOUS
 62
4
 10
2.3113576E+002
 20
1.7796382E+002
 11
2.3513576E+002
 21
1.8062832E+002
  0
LINE
  8
1
  6
CONTINUOUS
 62
4
 10
1.8013575E+002
 20
1.4639462E+002
 11
1.8413575E+002
 21
1.4905911E+002
  0
LINE
  8
1
  6
CONTINUOUS
 62
4
 10
2.3013575E+002
 20
1.797008E+002
 11
2.3513574E+002
 21
1.8303143E+002
  0
LINE
  8
1
  6
CONTINUOUS
 62
4
 10
1.8013575E+002
 20
1.4879771E+002
 11
1.8413574E+002
 21
1.5146221E+002
  0
LINE
  8
1
  6
CONTINUOUS
 62
4
 10
2.298595E+002
 20
1.8191989E+002
 11
2.3475794E+002
 21
1.8518285E+002
  0
LINE
  8
1
  6
CONTINUOUS
 62
4
 10
1.8013574E+002
 20
1.5120081E+002
 11
1.8413575E+002
 21
1.5386531E+002
  0
LINE
  8
1
  6
CONTINUOUS
 62
4
 10
2.2819639E+002
 20
1.8321515E+002
 11
2.3364163E+002
 21
1.8684234E+002
  0
LINE
  8
1
  6
CONTINUOUS
 62
4
 10
1.8013574E+002
 20
1.536039E+002
 11
1.8413575E+002
 21
1.562684E+002
  0
LINE
  8
1
  6
CONTINUOUS
 62
4
 10
2.2468456E+002
 20
1.8327893E+002
 11
2.3177424E+002
 21
1.8800153E+002
  0
LINE
  8
1
  6
CONTINUOUS
 62
4
 10
1.8013575E+002
 20
1.5600701E+002
 11
1.8413575E+002
 21
1.5867151E+002
  0
LINE
  8
1
  6
CONTINUOUS
 62
4
 10
2.2107698E+002
 20
1.8327893E+002
 11
2.285831E+002
 21
1.8827892E+002
  0
LINE
  8
1
  6
CONTINUOUS
 62
4
 10
1.8013576E+002
 20
1.5841011E+002
 11
1.8413576E+002
 21
1.610746E+002
  0
LINE
  8
1
  6
CONTINUOUS
 62
4
 10
2.1746939E+002
 20
1.8327894E+002
 11
2.2497551E+002
 21
1.8827893E+002
  0
LINE
  8
1
  6
CONTINUOUS
 62
4
 10
1.8013574E+002
 20
1.6081321E+002
 11
1.8413575E+002
 21
1.6347771E+002
  0
LINE
  8
1
  6
CONTINUOUS
 62
4
 10
2.1386181E+002
 20
1.8327893E+002
 11
2.213679E+002
 21
1.8827892E+002
  0
LINE
  8
1
  6
CONTINUOUS
 62
4
 10
1.8013575E+002
 20
1.632163E+002
 11
1.8413575E+002
 21
1.658808E+002
  0
LINE
  8
1
  6
CONTINUOUS
 62
4
 10
2.1025422E+002
 20
1.8327893E+002
 11
2.1776031E+002
 21
1.8827893E+002
  0
LINE
  8
1
  6
CONTINUOUS
 62
4
 10
1.8013575E+002
 20
1.656194E+002
 11
1.8413576E+002
 21
1.682839E+002
  0
LINE
  8
1
  6
CONTINUOUS
 62
4
 10
2.0664664E+002
 20
1.8327893E+002
 11
2.1415273E+002
 21
1.8827893E+002
  0
LINE
  8
1
  6
CONTINUOUS
 62
4
 10
1.8013574E+002
 20
1.6802251E+002
 11
1.8413574E+002
 21
1.7068699E+002
  0
LINE
  8
1
  6
CONTINUOUS
 62
4
 10
2.0303905E+002
 20
1.8327892E+002
 11
2.1054514E+002
 21
1.8827893E+002
  0
LINE
  8
1
  6
CONTINUOUS
 62
4
 10
1.7691312E+002
 20
1.6827893E+002
 11
1.8413575E+002
 21
1.730901E+002
  0
LINE
  8
1
  6
CONTINUOUS
 62
4
 10
1.9943147E+002
 20
1.8327893E+002
 11
2.0693756E+002
 21
1.8827894E+002
  0
LINE
  8
1
  6
CONTINUOUS
 62
4
 10
1.7330553E+002
 20
1.6827893E+002
 11
1.7931042E+002
 21
1.7227894E+002
  0
LINE
  8
1
  6
CONTINUOUS
 62
4
 10
1.8013575E+002
 20
1.7282871E+002
 11
1.8413575E+002
 21
1.7549319E+002
  0
LINE
  8
1
  6
CONTINUOUS
 62
4
 10
1.9582387E+002
 20
1.8327893E+002
 11
2.0332997E+002
 21
1.8827893E+002
  0
LINE
  8
1
  6
CONTINUOUS
 62
4
 10
1.6969795E+002
 20
1.6827894E+002
 11
1.7570284E+002
 21
1.7227894E+002
  0
LINE
  8
1
  6
CONTINUOUS
 62
4
 10
1.8013575E+002
 20
1.752318E+002
 11
1.8413576E+002
 21
1.7789629E+002
  0
LINE
  8
1
  6
CONTINUOUS
 62
4
 10
1.9221628E+002
 20
1.8327894E+002
 11
1.997224E+002
 21
1.8827893E+002
  0
LINE
  8
1
  6
CONTINUOUS
 62
4
 10
1.6609036E+002
 20
1.6827893E+002
 11
1.7209525E+002
 21
1.7227893E+002
  0
LINE
  8
1
  6
CONTINUOUS
 62
4
 10
1.8013576E+002
 20
1.776349E+002
 11
1.8514365E+002
 21
1.8097078E+002
  0
LINE
  8
1
  6
CONTINUOUS
 62
4
 10
1.886087E+002
 20
1.8327894E+002
 11
1.9611482E+002
 21
1.8827893E+002
  0
LINE
  8
1
  6
CONTINUOUS
 62
4
 10
1.6248278E+002
 20
1.6827893E+002
 11
1.6848767E+002
 21
1.7227893E+002
  0
LINE
  8
1
  6
CONTINUOUS
 62
4
 10
1.8013575E+002
 20
1.8003799E+002
 11
1.9250723E+002
 21
1.8827894E+002
  0
LINE
  8
1
  6
CONTINUOUS
 62
4
 10
1.5887519E+002
 20
1.6827893E+002
 11
1.6488008E+002
 21
1.7227894E+002
  0
LINE
  8
1
  6
CONTINUOUS
 62
4
 10
1.8013575E+002
 20
1.824411E+002
 11
1.8889965E+002
 21
1.8827892E+002
  0
LINE
  8
1
  6
CONTINUOUS
 62
4
 10
1.5526761E+002
 20
1.6827894E+002
 11
1.612725E+002
 21
1.7227894E+002
  0
LINE
  8
1
  6
CONTINUOUS
 62
4
 10
1.8046594E+002
 20
1.8506415E+002
 11
1.8529205E+002
 21
1.8827893E+002
  0
LINE
  8
1
  6
CONTINUOUS
 62
4
 10
1.5166002E+002
 20
1.6827893E+002
 11
1.5766491E+002
 21
1.7227893E+002
  0
LINE
  8
1
  6
CONTINUOUS
 62
4
 10
1.4805244E+002
 20
1.6827893E+002
 11
1.5405733E+002
 21
1.7227893E+002
  0
LINE
  8
1
  6
CONTINUOUS
 62
4
 10
1.4444485E+002
 20
1.6827893E+002
 11
1.5044974E+002
 21
1.7227894E+002
  0
LINE
  8
1
  6
CONTINUOUS
 62
4
 10
1.4083727E+002
 20
1.6827894E+002
 11
1.4684216E+002
 21
1.7227894E+002
  0
LINE
  8
1
  6
CONTINUOUS
 62
4
 10
1.3722968E+002
 20
1.6827893E+002
 11
1.4323457E+002
 21
1.7227893E+002
  0
LINE
  8
1
  6
CONTINUOUS
 62
4
 10
1.336221E+002
 20
1.6827893E+002
 11
1.3962697E+002
 21
1.7227894E+002
  0
LINE
  8
1
  6
CONTINUOUS
 62
4
 10
1.3001451E+002
 20
1.6827894E+002
 11
1.3601939E+002
 21
1.7227894E+002
  0
LINE
  8
1
  6
CONTINUOUS
 62
4
 10
1.2640691E+002
 20
1.6827894E+002
 11
1.324118E+002
 21
1.7227894E+002
  0
LINE
  8
1
  6
CONTINUOUS
 62
4
 10
1.2279932E+002
 20
1.6827893E+002
 11
1.2880422E+002
 21
1.7227893E+002
  0
LINE
  8
1
  6
CONTINUOUS
 62
4
 10
1.1919174E+002
 20
1.6827893E+002
 11
1.2519663E+002
 21
1.7227894E+002
  0
LINE
  8
1
  6
CONTINUOUS
 62
4
 10
1.1558416E+002
 20
1.6827894E+002
 11
1.2158905E+002
 21
1.7227894E+002
  0
LINE
  8
1
  6
CONTINUOUS
 62
4
 10
8.795702E+001
 20
1.5227894E+002
 11
8.9135754E+001
 21
1.5306412E+002
  0
LINE
  8
1
  6
CONTINUOUS
 62
4
 10
1.1197657E+002
 20
1.6827894E+002
 11
1.1798146E+002
 21
1.7227894E+002
  0
LINE
  8
1
  6
CONTINUOUS
 62
4
 10
8.6135741E+001
 20
1.5346885E+002
 11
8.9135757E+001
 21
1.5546721E+002
  0
LINE
  8
1
  6
CONTINUOUS
 62
4
 10
1.0836899E+002
 20
1.6827895E+002
 11
1.1437388E+002
 21
1.7227893E+002
  0
LINE
  8
1
  6
CONTINUOUS
 62
4
 10
8.5245526E+001
 20
1.5527893E+002
 11
8.9135747E+001
 21
1.5787032E+002
  0
LINE
  8
1
  6
CONTINUOUS
 62
4
 10
1.047614E+002
 20
1.6827893E+002
 11
1.1076629E+002
 21
1.7227894E+002
  0
LINE
  8
1
  6
CONTINUOUS
 62
4
 10
8.4135748E+001
 20
1.569428E+002
 11
8.913575E+001
 21
1.6027341E+002
  0
LINE
  8
1
  6
CONTINUOUS
 62
4
 10
1.0115382E+002
 20
1.6827894E+002
 11
1.0715871E+002
 21
1.7227894E+002
  0
LINE
  8
1
  6
CONTINUOUS
 62
4
 10
8.413575E+001
 20
1.5934589E+002
 11
8.9135741E+001
 21
1.6267651E+002
  0
LINE
  8
1
  6
CONTINUOUS
 62
4
 10
9.7546232E+001
 20
1.6827894E+002
 11
1.0355112E+002
 21
1.7227894E+002
  0
LINE
  8
1
  6
CONTINUOUS
 62
4
 10
8.4135756E+001
 20
1.6174899E+002
 11
8.9135747E+001
 21
1.6507962E+002
  0
LINE
  8
1
  6
CONTINUOUS
 62
4
 10
9.3938647E+001
 20
1.6827895E+002
 11
9.9943536E+001
 21
1.7227893E+002
  0
LINE
  8
1
  6
CONTINUOUS
 62
4
 10
8.4135759E+001
 20
1.6415208E+002
 11
9.6335952E+001
 21
1.7227894E+002
  0
LINE
  8
1
  6
CONTINUOUS
 62
4
 10
8.6135752E+001
 20
1.6788744E+002
 11
8.7589481E+001
 21
1.6885581E+002
  0
LINE
  8
1
  6
CONTINUOUS
 62
4
 10
8.8135754E+001
 20
1.6921969E+002
 11
9.2728367E+001
 21
1.7227894E+002
  0
LINE
  8
1
  6
CONTINUOUS
 62
4
 10
8.8135742E+001
 20
1.7162278E+002
 11
8.9120783E+001
 21
1.7227894E+002
  0
VIEWPORT
 67
1
  8
0
  6
CONTINUOUS
 62
3
100
AcDbViewport
 10
2.1E+002
 20
1.485E+002
 30
0.0
 40
2.97E+002
 41
2.97E+002
 68
1
 69
1
1001
ACAD
1000
MVIEW
1002
{
1070
16
1010
0.0
1020
0.0
1030
0.0
1010
0.0
1020
0.0
1030
1.0
1040
0.0
1040
2.97E+002
1040
1.155E+002
1040
1.485E+002
1040
5.0E+001
1040
0.0
1040
0.0
1070
0
1070
1000
1070
1
1070
0
1070
0
1070
0
1070
0
1070
0
1040
0.0
1040
0.0
1040
0.0
1040
5.0E-001
1040
5.0E-001
1040
5.0E-001
1040
5.0E-001
1070
0
1002
{
1002
}
1002
}
  0
VIEWPORT
 67
1
  8
Drafting_Hidden_Entities
100
AcDbViewport
 62
3
 10
2.1E+002
 20
1.485E+002
 30
0.0
 40
4.2E+002
 41
2.97E+002
 68
2
 69
2
1001
ACAD
1000
MVIEW
1002
{
1070
16
1010
0.0
1020
0.0
1030
0.0
1010
0.0
1020
0.0
1030
1.0
1040
0.0
1040
2.97E+002
1040
2.1E+002
1040
1.485E+002
1040
5.0E+001
1040
0.0
1040
0.0
1070
0
1070
1000
1070
1
1070
0
1070
0
1070
0
1070
0
1070
0
1040
0.0
1040
0.0
1040
0.0
1040
5.0E-001
1040
5.0E-001
1040
5.0E-001
1040
5.0E-001
1070
0
1002
{
1002
}
1002
}
  0
ENDSEC
  0
EOF
