  0
SECTION
  2
HEADER
  9
$ACADVER
  1
AC1009
999
I-DEAS 13 NX Not Encoded
  9
$EXTMIN
 10
0.0
 20
0.0
  9
$EXTMAX
 10
2.1E+002
 20
2.97E+002
  9
$TEXTSIZE
 40
1.25E-001
  9
$LTSCALE
 40
1.0
  9
$CLAYER
  8
1
  9
$CECOLOR
 62
1
  9
$DIMASZ
 40
1.25E-001
  9
$DIMEXO
 40
6.25E-002
  9
$DIMDLI
 40
2.5E-001
  9
$DIMEXE
 40
1.25E-001
  9
$DIMTP
 40
5.0E-003
  9
$DIMTM
 40
-5.0E-003
  9
$DIMTXT
 40
3.0
  9
$DIMLIM
 70
0
  9
$DIMTIH
 70
1
  9
$DIMTOH
 70
1
  9
$DIMSE1
 70
0
  9
$DIMSE2
 70
0
  9
$DIMTAD
 70
0
  9
$DIMASO
 70
1
  9
$DIMALT
 70
0
  9
$DIMALTD
 70
0
  9
$DIMTOFL
 70
1
  9
$DIMTIX
 70
0
  9
$DIMSAH
 70
0
  9
$DIMSTYLE
  2
DSTYLE1
  9
$DIMTFAC
 40
1.0
  9
$DIMGAP
 40
6.25E-002
  9
$LUNITS
 70
2
  9
$LUPREC
 70
3
  9
$FILLETRAD
 40
7.0E-001
  9
$AUNITS
 70
0
  9
$AUPREC
 70
1
  9
$CHAMFERA
 40
1.0
  9
$CHAMFERB
 40
1.0
  9
$ANGBASE
 50
0.0
  9
$ANGDIR
 70
0
  9
$PEXTMIN
 10
0.0
 20
0.0
 30
0.0
  9
$PEXTMAX
 10
2.1E+002
 20
2.97E+002
 30
0.0
  9
$PLIMMIN
 10
0.0
 20
0.0
  9
$PLIMMAX
 10
2.1E+002
 20
2.97E+002
  9
$PDMODE
 70
2
  9
$PDSIZE
 40
-1.0E-002
  9
$SPLINETYPE
 70
6
  9
$TILEMODE
 70
0
  0
ENDSEC
  0
SECTION
  2
TABLES
  0
TABLE
  2
VPORT
 70
2
  0
VPORT
  2
*Active
 70
0
 10
0.0
 20
0.0
 11
2.1E+002
 21
2.97E+002
 12
1.05E+002
 22
1.485E+002
 13
0.0
 23
0.0
 14
1.0
 24
1.0
 15
0.0
 25
0.0
 16
0.0
 26
0.0
 36
1.0
 17
0.0
 27
0.0
 37
0.0
 40
2.97E+002
 41
7.0707071E-001
 42
5.0E+001
 43
0.0
 44
0.0
 50
0.0
 51
0.0
 71
0
 72
1000
 73
1
 74
3
 75
0
 76
0
 77
0
 78
0
  0
ENDTAB
  0
TABLE
  2
LTYPE
 70
8
  0
LTYPE
  2
HIDDENNEW0
  3
_ 
 70
64
 72
65
 73
3
 40
4.5
 49
1.5
 49
-1.5
 49
1.5
  0
LTYPE
  2
HIDDENNEW1
  3
_ 
 70
64
 72
65
 73
3
 40
4.5
 49
1.5
 49
-1.5
 49
1.5
  0
LTYPE
  2
HIDDEN
  3
_ 
 70
64
 72
65
 73
3
 40
4.5
 49
1.5
 49
-1.5
 49
1.5
  0
LTYPE
  2
CENTERLINE
  3
_ 
 70
64
 72
65
 73
5
 40
3.0E+001
 49
1.2E+001
 49
-1.5
 49
3.0
 49
-1.5
 49
1.2E+001
  0
LTYPE
  2
PHANTOM
  3
_ 
 70
64
 72
65
 73
7
 40
2.95E+001
 49
9.5
 49
-1.5
 49
3.0
 49
-1.5
 49
3.0
 49
-1.5
 49
9.5
  0
LTYPE
  2
SHORT_DASH
  3
_ 
 70
64
 72
65
 73
3
 40
3.0
 49
7.5E-001
 49
-1.5
 49
7.5E-001
  0
LTYPE
  2
LONG_DASH
  3
_ 
 70
64
 72
65
 73
3
 40
9.0
 49
2.25
 49
-4.5
 49
2.25
  0
LTYPE
  2
DASHDOT
  3
_ 
 70
64
 72
65
 73
5
 40
1.85E+001
 49
6.0
 49
-3.0
 49
5.0E-001
 49
-3.0
 49
6.0
  0
ENDTAB
  0
TABLE
  2
LAYER
 70
258
  0
LAYER
  2
0
 70
0
 62
7
  6
CONTINUOUS
  0
LAYER
  2
1
 70
0
 62
7
  6
CONTINUOUS
  0
LAYER
  2
AM_VIEWS
 70
0
 62
3
  6
CONTINUOUS
  0
LAYER
  2
Drafting_Hidden_Entities
 70
1
 62
7
  6
CONTINUOUS
  0
ENDTAB
  0
TABLE
  2
STYLE
 70
1
  0
STYLE
  2
STANDARD
 70
64
 40
0.0
 41
1.0
 50
0.0
 71
0
 42
1.0
  3
monotxt.shx
  4

  0
ENDTAB
  0
TABLE
  2
VIEW
 70
0
  0
ENDTAB
  0
TABLE
  2
DIMSTYLE
 70
4
  0
DIMSTYLE
  2
DSTYLE1
 70
0
  3

  4

  5

  6

  7

 40
1.0
 41
2.0
 42
5.0E-001
 43
3.8E-001
 44
5.0E-001
 45
1.0E-001
 46
0.0
 47
3.0E-001
 48
1.0
 71
0
 72
0
 73
0
 74
0
 75
0
 76
0
 77
1
 78
7
140
3.0
141
9.0E-002
142
0.0
143
3.9370079E-002
144
1.0
145
0.0
146
1.0
147
5.0E-001
170
0
171
2
172
0
173
0
174
0
175
0
176
0
177
0
178
0
  0
DIMSTYLE
  2
DSTYLE2
 70
0
  3

  4

  5

  6

  7

 40
1.0
 41
2.0
 42
5.0E-001
 43
3.8E-001
 44
5.0E-001
 45
1.0E-001
 46
0.0
 47
3.0E-001
 48
1.0
 71
0
 72
0
 73
0
 74
0
 75
1
 76
1
 77
1
 78
7
140
3.0
141
9.0E-002
142
0.0
143
3.9370079E-002
144
1.0
145
0.0
146
1.0
147
5.0E-001
170
0
171
2
172
0
173
0
174
0
175
0
176
0
177
0
178
0
  0
DIMSTYLE
  2
DSTYLE3
 70
0
  3

  4

  5

  6

  7

 40
1.0
 41
2.0
 42
5.0E-001
 43
3.8E-001
 44
5.0E-001
 45
1.0E-001
 46
0.0
 47
3.0E-001
 48
1.0
 71
0
 72
0
 73
0
 74
0
 75
0
 76
1
 77
1
 78
7
140
3.0
141
9.0E-002
142
0.0
143
3.9370079E-002
144
1.0
145
0.0
146
1.0
147
5.0E-001
170
0
171
2
172
0
173
0
174
0
175
0
176
0
177
0
178
0
  0
DIMSTYLE
  2
DSTYLE4
 70
0
  3

  4

  5

  6

  7

 40
1.0
 41
2.0
 42
5.0E-001
 43
3.8E-001
 44
5.0E-001
 45
0.0
 46
0.0
 47
3.0E-001
 48
1.0
 71
0
 72
0
 73
0
 74
0
 75
0
 76
0
 77
1
 78
3
140
3.0
141
9.0E-002
142
0.0
143
3.9370079E-002
144
1.0
145
0.0
146
1.0
147
5.0E-001
170
0
171
2
172
0
173
0
174
0
175
0
176
0
177
0
178
0
  0
ENDTAB
  0
ENDSEC
  0
SECTION
  2
BLOCKS
  0
BLOCK
  2
_AH12
  3
_AH
 10
0.0
 20
0.0
 70
64
  0
LINE
  8
0
  6
CONTINUOUS
 62
0
 10
0.0
 20
0.0
 11
1.0
 21
0.0
  0
LINE
  8
0
  6
CONTINUOUS
 62
0
 10
0.0
 20
0.0
 11
-1.0
 21
0.0
  0
ENDBLK
  0
BLOCK
  2
_AH13
  3
_AH
 10
0.0
 20
0.0
 70
64
  0
SOLID
  8
0
  6
CONTINUOUS
 62
0
 10
0.0
 20
0.0
 11
1.0
 21
-1.66667E-001
 12
1.0
 22
1.66667E-001
 13
0.0
 23
0.0
  0
ENDBLK
  0
BLOCK
  2
_AH14
  3
_AH
 10
0.0
 20
0.0
 70
64
  0
ENDBLK
  0
BLOCK
  2
_AH15
  3
_AH
 10
0.0
 20
0.0
 70
64
  0
CIRCLE
  8
0
  6
CONTINUOUS
 62
0
 10
0.0
 20
0.0
 40
1.66667E-001
  0
LINE
  8
0
  6
CONTINUOUS
 62
0
 10
0.0
 20
0.0
 11
-1.0
 21
0.0
  0
ENDBLK
  0
BLOCK
  2
_AH16
  3
_AH
 10
0.0
 20
0.0
 70
64
  0
POLYLINE
  8
0
  6
CONTINUOUS
 62
0
 66
1
 40
1.66667E-001
 41
1.66667E-001
 70
0
  0
VERTEX
  8
0
 42
1.0
 10
8.3335E-002
 20
0.0
 70
0
  0
VERTEX
  8
0
 42
1.0
 10
-8.3335E-002
 20
0.0
 70
0
  0
VERTEX
  8
0
 42
0.0
 10
8.3335E-002
 20
0.0
 70
0
  0
SEQEND
  0
LINE
  8
0
  6
CONTINUOUS
 62
0
 10
0.0
 20
0.0
 11
-1.0
 21
0.0
  0
ENDBLK
  0
BLOCK
  2
_AH17
  3
_AH
 10
0.0
 20
0.0
 70
64
  0
LINE
  8
0
  6
CONTINUOUS
 62
0
 10
-1.66667E-001
 20
-1.66667E-001
 11
1.66667E-001
 21
-1.66667E-001
  0
LINE
  8
0
  6
CONTINUOUS
 62
0
 10
1.66667E-001
 20
-1.66667E-001
 11
1.66667E-001
 21
1.66667E-001
  0
LINE
  8
0
  6
CONTINUOUS
 62
0
 10
1.66667E-001
 20
1.66667E-001
 11
-1.66667E-001
 21
1.66667E-001
  0
LINE
  8
0
  6
CONTINUOUS
 62
0
 10
-1.66667E-001
 20
1.66667E-001
 11
-1.66667E-001
 21
-1.66667E-001
  0
LINE
  8
0
  6
CONTINUOUS
 62
0
 10
0.0
 20
0.0
 11
-1.0
 21
0.0
  0
ENDBLK
  0
BLOCK
  2
_AH18
  3
_AH
 10
0.0
 20
0.0
 70
64
  0
SOLID
  8
0
  6
CONTINUOUS
 62
0
 10
-1.66667E-001
 20
-1.66667E-001
 11
1.66667E-001
 21
-1.66667E-001
 12
-1.66667E-001
 22
1.66667E-001
 13
1.66667E-001
 23
1.66667E-001
  0
LINE
  8
0
  6
CONTINUOUS
 62
0
 10
0.0
 20
0.0
 11
-1.0
 21
0.0
  0
ENDBLK
  0
BLOCK
  2
_AH19
  3
_AH
 10
0.0
 20
0.0
 70
64
  0
LINE
  8
0
  6
CONTINUOUS
 62
0
 10
-5.0E-001
 20
-5.0E-001
 11
5.0E-001
 21
5.0E-001
  0
LINE
  8
0
  6
CONTINUOUS
 62
0
 10
0.0
 20
0.0
 11
-1.0
 21
0.0
  0
ENDBLK
  0
BLOCK
  2
_AH20
  3
_AH
 10
0.0
 20
0.0
 70
64
  0
POLYLINE
  8
0
  6
CONTINUOUS
 62
0
 66
1
 40
5.0E-001
 41
5.0E-001
 70
0
  0
VERTEX
  8
0
 42
4.1421356E-001
 10
-1.66667E-001
 20
-1.66667E-001
 70
0
  0
VERTEX
  8
0
 42
0.0
 10
0.0
 20
0.0
 70
0
  0
SEQEND
  0
POLYLINE
  8
0
  6
CONTINUOUS
 62
0
 66
1
 40
5.0E-001
 41
5.0E-001
 70
0
  0
VERTEX
  8
0
 42
4.1421356E-001
 10
1.66667E-001
 20
1.66667E-001
 70
0
  0
VERTEX
  8
0
 42
0.0
 10
0.0
 20
0.0
 70
0
  0
SEQEND
  0
LINE
  8
0
  6
CONTINUOUS
 62
0
 10
0.0
 20
0.0
 11
-1.0
 21
0.0
  0
ENDBLK
  0
BLOCK
  2
_AH21
  3
_AH
 10
0.0
 20
0.0
 70
64
  0
LINE
  8
0
  6
CONTINUOUS
 62
0
 10
0.0
 20
0.0
 11
-1.0
 21
-1.66667E-001
  0
LINE
  8
0
  6
CONTINUOUS
 62
0
 10
-1.0
 20
-1.66667E-001
 11
-1.0
 21
1.66667E-001
  0
LINE
  8
0
  6
CONTINUOUS
 62
0
 10
-1.0
 20
1.66667E-001
 11
0.0
 21
0.0
  0
ENDBLK
  0
BLOCK
  2
_AH1
 70
0
 10
0.0
 20
0.0
  3
_AH1
  0
LINE
  8
0
  6
CONTINUOUS
 62
0
 10
-1.0
 20
1.66667E-001
 11
0.0
 21
0.0
  0
LINE
  8
0
  6
CONTINUOUS
 62
0
 10
0.0
 20
0.0
 11
-1.0
 21
-1.66667E-001
  0
LINE
  8
0
  6
CONTINUOUS
 62
0
 10
-1.0
 20
1.66667E-001
 11
-1.0
 21
-1.66667E-001
  0
LINE
  8
0
  6
CONTINUOUS
 62
0
 10
0.0
 20
0.0
 11
-1.0
 21
0.0
  0
ENDBLK
  0
BLOCK
  2
_AH2
 70
0
 10
0.0
 20
0.0
  3
_AH2
  0
LINE
  8
0
  6
CONTINUOUS
 62
0
 10
-1.0
 20
1.66667E-001
 11
0.0
 21
0.0
  0
LINE
  8
0
  6
CONTINUOUS
 62
0
 10
0.0
 20
0.0
 11
-1.0
 21
-1.66667E-001
  0
LINE
  8
0
  6
CONTINUOUS
 62
0
 10
0.0
 20
0.0
 11
-1.0
 21
0.0
  0
ENDBLK
  0
BLOCK
  2
*D49
  3
*D
 10
0.0
 20
0.0
 70
65
  0
LINE
  8
1
  6
CONTINUOUS
 62
4
 10
6.8643174E+001
 20
2.13355E+002
 11
6.8643174E+001
 21
1.68631E+002
  0
LINE
  8
1
  6
CONTINUOUS
 62
4
 10
1.0914317E+002
 20
2.13355E+002
 11
1.0914317E+002
 21
1.68631E+002
  0
LINE
  8
1
  6
CONTINUOUS
 62
4
 10
6.8643174E+001
 20
1.69131E+002
 11
8.8893174E+001
 21
1.69131E+002
  0
LINE
  8
1
  6
CONTINUOUS
 62
4
 10
1.0914317E+002
 20
1.69131E+002
 11
8.8893174E+001
 21
1.69131E+002
  0
TEXT
  8
1
  6
CONTINUOUS
 62
4
 10
8.4093174E+001
 20
1.69632E+002
 40
3.0
  1
40.5
 41
8.0E-001
  0
INSERT
  2
_AH2
  8
1
 62
4
 10
6.8643174E+001
 20
1.69131E+002
 41
2.0
 42
2.0
 43
2.0
 50
1.8E+002
  0
INSERT
  2
_AH2
  8
1
 62
4
 10
1.0914317E+002
 20
1.69131E+002
 41
2.0
 42
2.0
 43
2.0
 50
0.0
  0
ENDBLK
  0
BLOCK
  2
*D54
  3
*D
 10
0.0
 20
0.0
 70
65
  0
LINE
  8
1
  6
CONTINUOUS
 62
4
 10
6.8643174E+001
 20
1.8135E+002
 11
6.6643174E+001
 21
1.8168333E+002
  0
LINE
  8
1
  6
CONTINUOUS
 62
4
 10
6.8643174E+001
 20
1.8135E+002
 11
6.6643174E+001
 21
1.8101667E+002
  0
LINE
  8
1
  6
CONTINUOUS
 62
4
 10
6.8643174E+001
 20
1.8135E+002
 11
5.8065E+001
 21
1.8135E+002
  0
LINE
  8
1
  6
CONTINUOUS
 62
4
 10
7.6143174E+001
 20
1.8135E+002
 11
6.8643174E+001
 21
1.8135E+002
  0
TEXT
  8
1
  6
CONTINUOUS
 62
4
 10
5.9565E+001
 20
1.81851E+002
 40
3.0
  1
1.5
 41
8.0E-001
  0
ENDBLK
  0
BLOCK
  2
*D55
  3
*D
 10
0.0
 20
0.0
 70
65
  0
LINE
  8
1
  6
CONTINUOUS
 62
4
 10
7.0143174E+001
 20
1.94605E+002
 11
7.0143174E+001
 21
1.8085E+002
  0
LINE
  8
1
  6
CONTINUOUS
 62
4
 10
7.0143174E+001
 20
1.8135E+002
 11
8.8893174E+001
 21
1.8135E+002
  0
LINE
  8
1
  6
CONTINUOUS
 62
4
 10
1.0764317E+002
 20
1.8135E+002
 11
8.8893174E+001
 21
1.8135E+002
  0
TEXT
  8
1
  6
CONTINUOUS
 62
4
 10
8.4093174E+001
 20
1.81851E+002
 40
3.0
  1
37.5
 41
8.0E-001
  0
INSERT
  2
_AH2
  8
1
 62
4
 10
7.0143174E+001
 20
1.8135E+002
 41
2.0
 42
2.0
 43
2.0
 50
1.8E+002
  0
INSERT
  2
_AH2
  8
1
 62
4
 10
1.0764317E+002
 20
1.8135E+002
 41
2.0
 42
2.0
 43
2.0
 50
0.0
  0
ENDBLK
  0
BLOCK
  2
*D56
  3
*D
 10
0.0
 20
0.0
 70
65
  0
LINE
  8
1
  6
CONTINUOUS
 62
4
 10
1.0764317E+002
 20
1.94605E+002
 11
1.0764317E+002
 21
1.8085E+002
  0
LINE
  8
1
  6
CONTINUOUS
 62
4
 10
1.0914317E+002
 20
1.8135E+002
 11
1.1114317E+002
 21
1.8168333E+002
  0
LINE
  8
1
  6
CONTINUOUS
 62
4
 10
1.0914317E+002
 20
1.8135E+002
 11
1.1114317E+002
 21
1.8101667E+002
  0
LINE
  8
1
  6
CONTINUOUS
 62
4
 10
1.0164317E+002
 20
1.8135E+002
 11
1.0914317E+002
 21
1.8135E+002
  0
LINE
  8
1
  6
CONTINUOUS
 62
4
 10
1.0914317E+002
 20
1.8135E+002
 11
1.18867E+002
 21
1.8135E+002
  0
TEXT
  8
1
  6
CONTINUOUS
 62
4
 10
1.10167E+002
 20
1.81851E+002
 40
3.0
  1
1.5
 41
8.0E-001
  0
INSERT
  2
_AH2
  8
1
 62
4
 10
1.0914317E+002
 20
1.8135E+002
 41
2.0
 42
2.0
 43
2.0
 50
1.8E+002
  0
ENDBLK
  0
BLOCK
  2
*D60
  3
*D
 10
0.0
 20
0.0
 70
65
  0
LINE
  8
1
  6
CONTINUOUS
 62
4
 10
6.9643174E+001
 20
2.35355E+002
 11
5.9182E+001
 21
2.35355E+002
  0
LINE
  8
1
  6
CONTINUOUS
 62
4
 10
6.9643174E+001
 20
2.14855E+002
 11
5.9182E+001
 21
2.14855E+002
  0
LINE
  8
1
  6
CONTINUOUS
 62
4
 10
5.9682E+001
 20
2.35355E+002
 11
5.9682E+001
 21
2.25105E+002
  0
LINE
  8
1
  6
CONTINUOUS
 62
4
 10
5.9682E+001
 20
2.14855E+002
 11
5.9682E+001
 21
2.25105E+002
  0
TEXT
  8
1
  6
CONTINUOUS
 62
4
 10
5.9181E+001
 20
2.19105E+002
 40
3.0
  1
%%c20.5
 41
8.0E-001
 50
9.0E+001
  0
INSERT
  2
_AH2
  8
1
 62
4
 10
5.9682E+001
 20
2.35355E+002
 41
2.0
 42
2.0
 43
2.0
 50
9.0E+001
  0
INSERT
  2
_AH2
  8
1
 62
4
 10
5.9682E+001
 20
2.14855E+002
 41
2.0
 42
2.0
 43
2.0
 50
2.7E+002
  0
ENDBLK
  0
BLOCK
  2
*D61
  3
*D
 10
0.0
 20
0.0
 70
65
  0
LINE
  8
1
  6
CONTINUOUS
 62
4
 10
1.0914317E+002
 20
2.11605E+002
 11
1.19871E+002
 21
2.11605E+002
  0
LINE
  8
1
  6
CONTINUOUS
 62
4
 10
1.0914317E+002
 20
2.38605E+002
 11
1.19871E+002
 21
2.38605E+002
  0
LINE
  8
1
  6
CONTINUOUS
 62
4
 10
1.19371E+002
 20
2.11605E+002
 11
1.19371E+002
 21
2.25105E+002
  0
LINE
  8
1
  6
CONTINUOUS
 62
4
 10
1.19371E+002
 20
2.38605E+002
 11
1.19371E+002
 21
2.25105E+002
  0
TEXT
  8
1
  6
CONTINUOUS
 62
4
 10
1.1887E+002
 20
2.21505E+002
 40
3.0
  1
%%c27
 41
8.0E-001
 50
9.0E+001
  0
INSERT
  2
_AH2
  8
1
 62
4
 10
1.19371E+002
 20
2.11605E+002
 41
2.0
 42
2.0
 43
2.0
 50
2.7E+002
  0
INSERT
  2
_AH2
  8
1
 62
4
 10
1.19371E+002
 20
2.38605E+002
 41
2.0
 42
2.0
 43
2.0
 50
9.0E+001
  0
ENDBLK
  0
BLOCK
  2
*D62
  3
*D
 10
0.0
 20
0.0
 70
65
  0
LINE
  8
1
  6
CONTINUOUS
 62
4
 10
1.0814317E+002
 20
1.95105E+002
 11
1.27704E+002
 21
1.95105E+002
  0
LINE
  8
1
  6
CONTINUOUS
 62
4
 10
1.0814317E+002
 20
2.55105E+002
 11
1.27704E+002
 21
2.55105E+002
  0
LINE
  8
1
  6
CONTINUOUS
 62
4
 10
1.27204E+002
 20
1.95105E+002
 11
1.27204E+002
 21
2.25105E+002
  0
LINE
  8
1
  6
CONTINUOUS
 62
4
 10
1.27204E+002
 20
2.55105E+002
 11
1.27204E+002
 21
2.25105E+002
  0
TEXT
  8
1
  6
CONTINUOUS
 62
4
 10
1.26703E+002
 20
2.21505E+002
 40
3.0
  1
%%c60
 41
8.0E-001
 50
9.0E+001
  0
INSERT
  2
_AH2
  8
1
 62
4
 10
1.27204E+002
 20
1.95105E+002
 41
2.0
 42
2.0
 43
2.0
 50
2.7E+002
  0
INSERT
  2
_AH2
  8
1
 62
4
 10
1.27204E+002
 20
2.55105E+002
 41
2.0
 42
2.0
 43
2.0
 50
9.0E+001
  0
ENDBLK
  0
ENDSEC
  0
SECTION
  2
ENTITIES
  0
TEXT
  8
1
  6
CONTINUOUS
 62
7
 10
1.2
 20
1.2
 40
1.0
  1
*DETAIL_2
 41
3.0
  0
DIMENSION
  8
1
  6
CONTINUOUS
 62
4
  2
*D49
  3
DSTYLE1
 10
1.0914317E+002
 20
1.69131E+002
 11
8.8893174E+001
 21
1.71132E+002
 70
128
 13
6.8643174E+001
 23
2.13855E+002
 14
1.0914317E+002
 24
2.13855E+002
 40
3.0
 50
0.0
1001
ACAD
1000
DSTYLE
1002
{
1070
173
1070
0
1070
5
1000
_AH2
1002
}
  0
LINE
  8
1
  6
CONTINUOUS
 62
4
 10
2.0
 20
2.0
 11
2.08E+002
 21
2.0
  0
LINE
  8
1
  6
CONTINUOUS
 62
4
 10
2.08E+002
 20
2.0
 11
2.08E+002
 21
2.95E+002
  0
LINE
  8
1
  6
CONTINUOUS
 62
4
 10
2.08E+002
 20
2.95E+002
 11
2.0
 21
2.95E+002
  0
LINE
  8
1
  6
CONTINUOUS
 62
4
 10
2.0
 20
2.95E+002
 11
2.0
 21
2.0
  0
DIMENSION
  8
1
  6
CONTINUOUS
 62
4
  2
*D54
  3
DSTYLE2
 10
7.0143174E+001
 20
1.8135E+002
 11
6.3165E+001
 21
1.83351E+002
 70
128
 13
6.8643174E+001
 23
2.12105E+002
 14
7.0143174E+001
 24
1.95105E+002
 40
3.0
 50
0.0
1001
ACAD
1000
DSTYLE
1002
{
1070
173
1070
0
1070
5
1000
_AH2
1002
}
  0
DIMENSION
  8
1
  6
CONTINUOUS
 62
4
  2
*D55
  3
DSTYLE3
 10
1.0764317E+002
 20
1.8135E+002
 11
8.8893174E+001
 21
1.83351E+002
 70
128
 13
7.0143174E+001
 23
1.95105E+002
 14
1.0764317E+002
 24
1.95105E+002
 40
3.0
 50
0.0
1001
ACAD
1000
DSTYLE
1002
{
1070
173
1070
0
1070
5
1000
_AH2
1002
}
  0
DIMENSION
  8
1
  6
CONTINUOUS
 62
4
  2
*D56
  3
DSTYLE3
 10
1.0914317E+002
 20
1.8135E+002
 11
1.13767E+002
 21
1.83351E+002
 70
128
 13
1.0764317E+002
 23
1.95105E+002
 14
1.0914317E+002
 24
2.12105E+002
 40
3.0
 50
0.0
1001
ACAD
1000
DSTYLE
1002
{
1070
173
1070
0
1002
}
  0
LINE
  8
1
  6
DASHDOT
 62
4
 10
1.12513E+002
 20
2.25105E+002
 11
6.5201E+001
 21
2.25105E+002
  0
LINE
  8
1
  6
HIDDEN
 62
4
 10
7.0143174E+001
 20
2.35355E+002
 11
1.0764317E+002
 21
2.35355E+002
  0
LINE
  8
1
  6
HIDDEN
 62
4
 10
7.0143174E+001
 20
2.14855E+002
 11
1.0764317E+002
 21
2.14855E+002
  0
DIMENSION
  8
1
  6
CONTINUOUS
 62
4
  2
*D60
  3
DSTYLE1
 10
5.9682E+001
 20
2.14855E+002
 11
5.7681E+001
 21
2.25105E+002
 70
128
 13
7.0143174E+001
 23
2.35355E+002
 14
7.0143174E+001
 24
2.14855E+002
 40
3.0
 50
9.0E+001
1001
ACAD
1000
DSTYLE
1002
{
1070
173
1070
0
1070
5
1000
_AH2
1002
}
  0
DIMENSION
  8
1
  6
CONTINUOUS
 62
4
  2
*D61
  3
DSTYLE4
 10
1.19371E+002
 20
2.38605E+002
 11
1.1737E+002
 21
2.25105E+002
 70
128
 13
1.0864317E+002
 23
2.11605E+002
 14
1.0864317E+002
 24
2.38605E+002
 40
3.0
 50
9.0E+001
1001
ACAD
1000
DSTYLE
1002
{
1070
173
1070
0
1070
5
1000
_AH2
1002
}
  0
DIMENSION
  8
1
  6
CONTINUOUS
 62
4
  2
*D62
  3
DSTYLE4
 10
1.27204E+002
 20
2.55105E+002
 11
1.25203E+002
 21
2.25105E+002
 70
128
 13
1.0764317E+002
 23
1.95105E+002
 14
1.0764317E+002
 24
2.55105E+002
 40
3.0
 50
9.0E+001
1001
ACAD
1000
DSTYLE
1002
{
1070
173
1070
0
1070
5
1000
_AH2
1002
}
  0
TEXT
  8
1
  6
CONTINUOUS
 62
4
 10
1.49114E+002
 20
3.979
 40
5.0
  1

 41
8.0E-001
 72
2
 11
2.05114E+002
 21
3.979
  0
LINE
  8
1
  6
CONTINUOUS
 62
211
 10
7.0143174E+001
 20
2.55105E+002
 11
7.0143174E+001
 21
1.95105E+002
  0
LINE
  8
1
  6
CONTINUOUS
 62
211
 10
1.0764317E+002
 20
2.55105E+002
 11
1.0764317E+002
 21
1.95105E+002
  0
LINE
  8
1
  6
CONTINUOUS
 62
211
 10
1.0864317E+002
 20
2.38605E+002
 11
1.0864317E+002
 21
2.11605E+002
  0
LINE
  8
1
  6
CONTINUOUS
 62
211
 10
1.0914317E+002
 20
2.38105E+002
 11
1.0914317E+002
 21
2.12105E+002
  0
LINE
  8
1
  6
CONTINUOUS
 62
211
 10
6.8643174E+001
 20
2.38105E+002
 11
6.8643174E+001
 21
2.12105E+002
  0
LINE
  8
1
  6
CONTINUOUS
 62
211
 10
6.9143174E+001
 20
2.38605E+002
 11
6.9143174E+001
 21
2.11605E+002
  0
LINE
  8
1
  6
CONTINUOUS
 62
211
 10
1.0764317E+002
 20
2.55105E+002
 11
7.0143174E+001
 21
2.55105E+002
  0
LINE
  8
1
  6
CONTINUOUS
 62
211
 10
1.0764317E+002
 20
1.95105E+002
 11
7.0143174E+001
 21
1.95105E+002
  0
LINE
  8
1
  6
CONTINUOUS
 62
211
 10
1.0864317E+002
 20
2.38605E+002
 11
1.0764317E+002
 21
2.38605E+002
  0
LINE
  8
1
  6
CONTINUOUS
 62
211
 10
1.0864317E+002
 20
2.11605E+002
 11
1.0764317E+002
 21
2.11605E+002
  0
ARC
  8
1
  6
CONTINUOUS
 62
211
 10
1.0864317E+002
 20
2.38105E+002
 40
5.0E-001
 50
0.0
 51
8.9999996E+001
  0
ARC
  8
1
  6
CONTINUOUS
 62
211
 10
1.0864317E+002
 20
2.12105E+002
 40
5.0E-001
 50
2.7E+002
 51
3.5999999E+002
  0
ARC
  8
1
  6
CONTINUOUS
 62
211
 10
6.9143174E+001
 20
2.38105E+002
 40
5.0E-001
 50
9.0E+001
 51
1.8E+002
  0
ARC
  8
1
  6
CONTINUOUS
 62
211
 10
6.9143174E+001
 20
2.12105E+002
 40
5.0E-001
 50
1.8E+002
 51
2.6999999E+002
  0
LINE
  8
1
  6
CONTINUOUS
 62
211
 10
7.0143158E+001
 20
2.38605E+002
 11
6.9143174E+001
 21
2.38605E+002
  0
LINE
  8
1
  6
CONTINUOUS
 62
211
 10
7.0143158E+001
 20
2.11605E+002
 11
6.9143174E+001
 21
2.11605E+002
  0
VIEWPORT
 67
1
  8
0
  6
CONTINUOUS
 62
3
100
AcDbViewport
 10
1.05E+002
 20
1.485E+002
 30
0.0
 40
2.97E+002
 41
2.97E+002
 68
1
 69
1
1001
ACAD
1000
MVIEW
1002
{
1070
16
1010
0.0
1020
0.0
1030
0.0
1010
0.0
1020
0.0
1030
1.0
1040
0.0
1040
2.97E+002
1040
5.775E+001
1040
1.485E+002
1040
5.0E+001
1040
0.0
1040
0.0
1070
0
1070
1000
1070
1
1070
0
1070
0
1070
0
1070
0
1070
0
1040
0.0
1040
0.0
1040
0.0
1040
5.0E-001
1040
5.0E-001
1040
5.0E-001
1040
5.0E-001
1070
0
1002
{
1002
}
1002
}
  0
VIEWPORT
 67
1
  8
Drafting_Hidden_Entities
100
AcDbViewport
 62
3
 10
1.05E+002
 20
1.485E+002
 30
0.0
 40
2.1E+002
 41
2.97E+002
 68
2
 69
2
1001
ACAD
1000
MVIEW
1002
{
1070
16
1010
0.0
1020
0.0
1030
0.0
1010
0.0
1020
0.0
1030
1.0
1040
0.0
1040
2.97E+002
1040
1.05E+002
1040
1.485E+002
1040
5.0E+001
1040
0.0
1040
0.0
1070
0
1070
1000
1070
1
1070
0
1070
0
1070
0
1070
0
1070
0
1040
0.0
1040
0.0
1040
0.0
1040
5.0E-001
1040
5.0E-001
1040
5.0E-001
1040
5.0E-001
1070
0
1002
{
1002
}
1002
}
  0
ENDSEC
  0
EOF
