  0
SECTION
  2
HEADER
  9
$ACADVER
  1
AC1009
999
I-DEAS 13 NX Not Encoded
  9
$EXTMIN
 10
0.0
 20
0.0
  9
$EXTMAX
 10
4.2E+002
 20
2.97E+002
  9
$TEXTSIZE
 40
1.25E-001
  9
$LTSCALE
 40
1.0
  9
$CLAYER
  8
1
  9
$CECOLOR
 62
1
  9
$DIMASZ
 40
1.25E-001
  9
$DIMEXO
 40
6.25E-002
  9
$DIMDLI
 40
2.5E-001
  9
$DIMEXE
 40
1.25E-001
  9
$DIMTP
 40
5.0E-003
  9
$DIMTM
 40
-5.0E-003
  9
$DIMTXT
 40
3.0
  9
$DIMLIM
 70
0
  9
$DIMTIH
 70
1
  9
$DIMTOH
 70
1
  9
$DIMSE1
 70
0
  9
$DIMSE2
 70
0
  9
$DIMTAD
 70
0
  9
$DIMASO
 70
1
  9
$DIMALT
 70
0
  9
$DIMALTD
 70
0
  9
$DIMTOFL
 70
1
  9
$DIMTIX
 70
0
  9
$DIMSAH
 70
0
  9
$DIMSTYLE
  2
DSTYLE1
  9
$DIMTFAC
 40
1.0
  9
$DIMGAP
 40
6.25E-002
  9
$LUNITS
 70
2
  9
$LUPREC
 70
3
  9
$FILLETRAD
 40
7.0E-001
  9
$AUNITS
 70
0
  9
$AUPREC
 70
1
  9
$CHAMFERA
 40
1.0
  9
$CHAMFERB
 40
1.0
  9
$ANGBASE
 50
0.0
  9
$ANGDIR
 70
0
  9
$PEXTMIN
 10
0.0
 20
0.0
 30
0.0
  9
$PEXTMAX
 10
4.2E+002
 20
2.97E+002
 30
0.0
  9
$PLIMMIN
 10
0.0
 20
0.0
  9
$PLIMMAX
 10
4.2E+002
 20
2.97E+002
  9
$PDMODE
 70
2
  9
$PDSIZE
 40
-1.0E-002
  9
$SPLINETYPE
 70
6
  9
$TILEMODE
 70
0
  0
ENDSEC
  0
SECTION
  2
TABLES
  0
TABLE
  2
VPORT
 70
2
  0
VPORT
  2
*Active
 70
0
 10
0.0
 20
0.0
 11
4.2E+002
 21
2.97E+002
 12
2.1E+002
 22
1.485E+002
 13
0.0
 23
0.0
 14
1.0
 24
1.0
 15
0.0
 25
0.0
 16
0.0
 26
0.0
 36
1.0
 17
0.0
 27
0.0
 37
0.0
 40
2.97E+002
 41
1.4141414
 42
5.0E+001
 43
0.0
 44
0.0
 50
0.0
 51
0.0
 71
0
 72
1000
 73
1
 74
3
 75
0
 76
0
 77
0
 78
0
  0
ENDTAB
  0
TABLE
  2
LTYPE
 70
9
  0
LTYPE
  2
HIDDENNEW0
  3
_ 
 70
64
 72
65
 73
3
 40
4.5
 49
1.5
 49
-1.5
 49
1.5
  0
LTYPE
  2
HIDDENNEW1
  3
_ 
 70
64
 72
65
 73
3
 40
4.5
 49
1.5
 49
-1.5
 49
1.5
  0
LTYPE
  2
HIDDEN
  3
_ 
 70
64
 72
65
 73
3
 40
4.5
 49
1.5
 49
-1.5
 49
1.5
  0
LTYPE
  2
CENTERLINE
  3
_ 
 70
64
 72
65
 73
5
 40
3.0E+001
 49
1.2E+001
 49
-1.5
 49
3.0
 49
-1.5
 49
1.2E+001
  0
LTYPE
  2
PHANTOM
  3
_ 
 70
64
 72
65
 73
7
 40
2.95E+001
 49
9.5
 49
-1.5
 49
3.0
 49
-1.5
 49
3.0
 49
-1.5
 49
9.5
  0
LTYPE
  2
SHORT_DASH
  3
_ 
 70
64
 72
65
 73
3
 40
3.0
 49
7.5E-001
 49
-1.5
 49
7.5E-001
  0
LTYPE
  2
LONG_DASH
  3
_ 
 70
64
 72
65
 73
3
 40
9.0
 49
2.25
 49
-4.5
 49
2.25
  0
LTYPE
  2
DASHDOT
  3
_ 
 70
64
 72
65
 73
5
 40
1.85E+001
 49
6.0
 49
-3.0
 49
5.0E-001
 49
-3.0
 49
6.0
  0
LTYPE
  2
DASHSPACE
  3
_ 
 70
64
 72
65
 73
3
 40
3.0E+001
 49
6.0
 49
-1.8E+001
 49
6.0
  0
ENDTAB
  0
TABLE
  2
LAYER
 70
258
  0
LAYER
  2
0
 70
0
 62
7
  6
CONTINUOUS
  0
LAYER
  2
1
 70
0
 62
7
  6
CONTINUOUS
  0
LAYER
  2
AM_VIEWS
 70
0
 62
3
  6
CONTINUOUS
  0
LAYER
  2
Drafting_Hidden_Entities
 70
1
 62
7
  6
CONTINUOUS
  0
ENDTAB
  0
TABLE
  2
STYLE
 70
1
  0
STYLE
  2
STANDARD
 70
64
 40
0.0
 41
1.0
 50
0.0
 71
0
 42
1.0
  3
monotxt.shx
  4

  0
ENDTAB
  0
TABLE
  2
VIEW
 70
0
  0
ENDTAB
  0
TABLE
  2
DIMSTYLE
 70
3
  0
DIMSTYLE
  2
DSTYLE1
 70
0
  3

  4

  5

  6

  7

 40
1.0
 41
2.0
 42
1.5
 43
3.8E-001
 44
5.0E-001
 45
0.0
 46
0.0
 47
1.0
 48
1.0
 71
0
 72
0
 73
0
 74
0
 75
0
 76
0
 77
1
 78
3
140
4.0
141
9.0E-002
142
0.0
143
3.9370079E-002
144
1.0
145
0.0
146
1.0
147
5.0E-001
170
0
171
2
172
0
173
0
174
0
175
0
176
0
177
0
178
0
  0
DIMSTYLE
  2
DSTYLE2
 70
0
  3

  4

  5

  6

  7

 40
1.0
 41
1.5
 42
5.0E-001
 43
3.8E-001
 44
6.0E-001
 45
0.0
 46
0.0
 47
1.0
 48
1.0
 71
0
 72
0
 73
0
 74
0
 75
0
 76
0
 77
1
 78
3
140
4.0
141
9.0E-002
142
0.0
143
3.9370079E-002
144
1.0
145
0.0
146
1.0
147
5.0E-001
170
0
171
2
172
0
173
0
174
0
175
0
176
0
177
0
178
0
  0
DIMSTYLE
  2
DSTYLE3
 70
0
  3

  4

  5

  6

  7

 40
1.0
 41
1.5
 42
5.0E-001
 43
3.8E-001
 44
6.0E-001
 45
1.0E-001
 46
0.0
 47
1.0
 48
1.0
 71
0
 72
0
 73
0
 74
0
 75
0
 76
0
 77
1
 78
3
140
4.0
141
9.0E-002
142
0.0
143
3.9370079E-002
144
1.0
145
0.0
146
1.0
147
5.0E-001
170
0
171
2
172
0
173
0
174
0
175
0
176
0
177
0
178
0
  0
ENDTAB
  0
ENDSEC
  0
SECTION
  2
BLOCKS
  0
BLOCK
  2
_AH12
  3
_AH
 10
0.0
 20
0.0
 70
64
  0
LINE
  8
0
  6
CONTINUOUS
 62
0
 10
0.0
 20
0.0
 11
1.0
 21
0.0
  0
LINE
  8
0
  6
CONTINUOUS
 62
0
 10
0.0
 20
0.0
 11
-1.0
 21
0.0
  0
ENDBLK
  0
BLOCK
  2
_AH13
  3
_AH
 10
0.0
 20
0.0
 70
64
  0
SOLID
  8
0
  6
CONTINUOUS
 62
0
 10
0.0
 20
0.0
 11
1.0
 21
-1.66667E-001
 12
1.0
 22
1.66667E-001
 13
0.0
 23
0.0
  0
ENDBLK
  0
BLOCK
  2
_AH14
  3
_AH
 10
0.0
 20
0.0
 70
64
  0
ENDBLK
  0
BLOCK
  2
_AH15
  3
_AH
 10
0.0
 20
0.0
 70
64
  0
CIRCLE
  8
0
  6
CONTINUOUS
 62
0
 10
0.0
 20
0.0
 40
1.66667E-001
  0
LINE
  8
0
  6
CONTINUOUS
 62
0
 10
0.0
 20
0.0
 11
-1.0
 21
0.0
  0
ENDBLK
  0
BLOCK
  2
_AH16
  3
_AH
 10
0.0
 20
0.0
 70
64
  0
POLYLINE
  8
0
  6
CONTINUOUS
 62
0
 66
1
 40
1.66667E-001
 41
1.66667E-001
 70
0
  0
VERTEX
  8
0
 42
1.0
 10
8.3335E-002
 20
0.0
 70
0
  0
VERTEX
  8
0
 42
1.0
 10
-8.3335E-002
 20
0.0
 70
0
  0
VERTEX
  8
0
 42
0.0
 10
8.3335E-002
 20
0.0
 70
0
  0
SEQEND
  0
LINE
  8
0
  6
CONTINUOUS
 62
0
 10
0.0
 20
0.0
 11
-1.0
 21
0.0
  0
ENDBLK
  0
BLOCK
  2
_AH17
  3
_AH
 10
0.0
 20
0.0
 70
64
  0
LINE
  8
0
  6
CONTINUOUS
 62
0
 10
-1.66667E-001
 20
-1.66667E-001
 11
1.66667E-001
 21
-1.66667E-001
  0
LINE
  8
0
  6
CONTINUOUS
 62
0
 10
1.66667E-001
 20
-1.66667E-001
 11
1.66667E-001
 21
1.66667E-001
  0
LINE
  8
0
  6
CONTINUOUS
 62
0
 10
1.66667E-001
 20
1.66667E-001
 11
-1.66667E-001
 21
1.66667E-001
  0
LINE
  8
0
  6
CONTINUOUS
 62
0
 10
-1.66667E-001
 20
1.66667E-001
 11
-1.66667E-001
 21
-1.66667E-001
  0
LINE
  8
0
  6
CONTINUOUS
 62
0
 10
0.0
 20
0.0
 11
-1.0
 21
0.0
  0
ENDBLK
  0
BLOCK
  2
_AH18
  3
_AH
 10
0.0
 20
0.0
 70
64
  0
SOLID
  8
0
  6
CONTINUOUS
 62
0
 10
-1.66667E-001
 20
-1.66667E-001
 11
1.66667E-001
 21
-1.66667E-001
 12
-1.66667E-001
 22
1.66667E-001
 13
1.66667E-001
 23
1.66667E-001
  0
LINE
  8
0
  6
CONTINUOUS
 62
0
 10
0.0
 20
0.0
 11
-1.0
 21
0.0
  0
ENDBLK
  0
BLOCK
  2
_AH19
  3
_AH
 10
0.0
 20
0.0
 70
64
  0
LINE
  8
0
  6
CONTINUOUS
 62
0
 10
-5.0E-001
 20
-5.0E-001
 11
5.0E-001
 21
5.0E-001
  0
LINE
  8
0
  6
CONTINUOUS
 62
0
 10
0.0
 20
0.0
 11
-1.0
 21
0.0
  0
ENDBLK
  0
BLOCK
  2
_AH20
  3
_AH
 10
0.0
 20
0.0
 70
64
  0
POLYLINE
  8
0
  6
CONTINUOUS
 62
0
 66
1
 40
5.0E-001
 41
5.0E-001
 70
0
  0
VERTEX
  8
0
 42
4.1421356E-001
 10
-1.66667E-001
 20
-1.66667E-001
 70
0
  0
VERTEX
  8
0
 42
0.0
 10
0.0
 20
0.0
 70
0
  0
SEQEND
  0
POLYLINE
  8
0
  6
CONTINUOUS
 62
0
 66
1
 40
5.0E-001
 41
5.0E-001
 70
0
  0
VERTEX
  8
0
 42
4.1421356E-001
 10
1.66667E-001
 20
1.66667E-001
 70
0
  0
VERTEX
  8
0
 42
0.0
 10
0.0
 20
0.0
 70
0
  0
SEQEND
  0
LINE
  8
0
  6
CONTINUOUS
 62
0
 10
0.0
 20
0.0
 11
-1.0
 21
0.0
  0
ENDBLK
  0
BLOCK
  2
_AH21
  3
_AH
 10
0.0
 20
0.0
 70
64
  0
LINE
  8
0
  6
CONTINUOUS
 62
0
 10
0.0
 20
0.0
 11
-1.0
 21
-1.66667E-001
  0
LINE
  8
0
  6
CONTINUOUS
 62
0
 10
-1.0
 20
-1.66667E-001
 11
-1.0
 21
1.66667E-001
  0
LINE
  8
0
  6
CONTINUOUS
 62
0
 10
-1.0
 20
1.66667E-001
 11
0.0
 21
0.0
  0
ENDBLK
  0
BLOCK
  2
0208_1
 10
0.0
 20
0.0
 70
0
  0
ARC
  8
1
  6
CONTINUOUS
 62
211
 10
0.0
 20
0.0
 40
6.4849998E+001
 50
0.0
 51
1.8000001E+002
  0
ARC
  8
1
  6
CONTINUOUS
 62
211
 10
0.0
 20
0.0
 40
6.3849998E+001
 50
0.0
 51
1.8000001E+002
  0
POINT
  8
Drafting_Hidden_Entities
  6
CONTINUOUS
 62
1
 10
0.0
 20
0.0
  0
ENDBLK
  0
BLOCK
  2
_AH1
 70
0
 10
0.0
 20
0.0
  3
_AH1
  0
LINE
  8
0
  6
CONTINUOUS
 62
0
 10
-1.0
 20
1.66667E-001
 11
0.0
 21
0.0
  0
LINE
  8
0
  6
CONTINUOUS
 62
0
 10
0.0
 20
0.0
 11
-1.0
 21
-1.66667E-001
  0
LINE
  8
0
  6
CONTINUOUS
 62
0
 10
-1.0
 20
1.66667E-001
 11
-1.0
 21
-1.66667E-001
  0
LINE
  8
0
  6
CONTINUOUS
 62
0
 10
0.0
 20
0.0
 11
-1.0
 21
0.0
  0
ENDBLK
  0
BLOCK
  2
_AH2
 70
0
 10
0.0
 20
0.0
  3
_AH2
  0
LINE
  8
0
  6
CONTINUOUS
 62
0
 10
-1.0
 20
1.66667E-001
 11
0.0
 21
0.0
  0
LINE
  8
0
  6
CONTINUOUS
 62
0
 10
0.0
 20
0.0
 11
-1.0
 21
-1.66667E-001
  0
LINE
  8
0
  6
CONTINUOUS
 62
0
 10
0.0
 20
0.0
 11
-1.0
 21
0.0
  0
ENDBLK
  0
BLOCK
  2
*D45
  3
*D
 10
0.0
 20
0.0
 70
65
  0
LINE
  8
1
  6
CONTINUOUS
 62
4
 10
1.0452995E+002
 20
1.6237052E+002
 11
1.0452995E+002
 21
8.6089307E+001
  0
LINE
  8
1
  6
CONTINUOUS
 62
4
 10
1.4452995E+002
 20
1.6237052E+002
 11
1.4452995E+002
 21
8.6089307E+001
  0
LINE
  8
1
  6
CONTINUOUS
 62
4
 10
1.0452995E+002
 20
8.6589307E+001
 11
1.24809E+002
 21
8.6589307E+001
  0
LINE
  8
1
  6
CONTINUOUS
 62
4
 10
1.4452995E+002
 20
8.6589307E+001
 11
1.24809E+002
 21
8.6589307E+001
  0
TEXT
  8
1
  6
CONTINUOUS
 62
4
 10
1.20009E+002
 20
8.7090307E+001
 40
4.0
  1
%%c40
 41
8.0E-001
  0
INSERT
  2
_AH2
  8
1
 62
4
 10
1.0452995E+002
 20
8.6589307E+001
 41
2.0
 42
2.0
 43
2.0
 50
1.8E+002
  0
INSERT
  2
_AH2
  8
1
 62
4
 10
1.4452995E+002
 20
8.6589307E+001
 41
2.0
 42
2.0
 43
2.0
 50
0.0
  0
ENDBLK
  0
BLOCK
  2
*D54
  3
*D
 10
0.0
 20
0.0
 70
65
  0
LINE
  8
1
  6
CONTINUOUS
 62
4
 10
2.3916009E+002
 20
9.8520529E+001
 11
2.3916009E+002
 21
7.7705788E+001
  0
LINE
  8
1
  6
CONTINUOUS
 62
4
 10
2.9716009E+002
 20
9.8520529E+001
 11
2.9716009E+002
 21
7.7705788E+001
  0
LINE
  8
1
  6
CONTINUOUS
 62
4
 10
2.3916009E+002
 20
7.8205788E+001
 11
2.6816009E+002
 21
7.8205788E+001
  0
LINE
  8
1
  6
CONTINUOUS
 62
4
 10
2.9716009E+002
 20
7.8205788E+001
 11
2.6816009E+002
 21
7.8205788E+001
  0
TEXT
  8
1
  6
CONTINUOUS
 62
4
 10
2.6496009E+002
 20
7.8706788E+001
 40
4.0
  1
58
 41
8.0E-001
  0
INSERT
  2
_AH2
  8
1
 62
4
 10
2.3916009E+002
 20
7.8205788E+001
 41
2.0
 42
2.0
 43
2.0
 50
1.8E+002
  0
INSERT
  2
_AH2
  8
1
 62
4
 10
2.9716009E+002
 20
7.8205788E+001
 41
2.0
 42
2.0
 43
2.0
 50
0.0
  0
ENDBLK
  0
BLOCK
  2
*D161
  3
*D
 10
0.0
 20
0.0
 70
65
  0
LINE
  8
1
  6
CONTINUOUS
 62
4
 10
2.3766009E+002
 20
1.3887052E+002
 11
2.3766009E+002
 21
5.8656E+001
  0
LINE
  8
1
  6
CONTINUOUS
 62
4
 10
2.9866009E+002
 20
1.3887052E+002
 11
2.9866009E+002
 21
5.8656E+001
  0
LINE
  8
1
  6
CONTINUOUS
 62
4
 10
2.3766009E+002
 20
5.9256E+001
 11
2.6816009E+002
 21
5.9256E+001
  0
LINE
  8
1
  6
CONTINUOUS
 62
4
 10
2.9866009E+002
 20
5.9256E+001
 11
2.6816009E+002
 21
5.9256E+001
  0
TEXT
  8
1
  6
CONTINUOUS
 62
4
 10
2.6496009E+002
 20
5.9757E+001
 40
4.0
  1
61
 41
8.0E-001
  0
INSERT
  2
_AH2
  8
1
 62
4
 10
2.3766009E+002
 20
5.9256E+001
 41
1.5
 42
1.5
 43
1.5
 50
1.8E+002
  0
INSERT
  2
_AH2
  8
1
 62
4
 10
2.9866009E+002
 20
5.9256E+001
 41
1.5
 42
1.5
 43
1.5
 50
0.0
  0
ENDBLK
  0
BLOCK
  2
*D270
  3
*D
 10
0.0
 20
0.0
 70
65
  0
LINE
  8
1
  6
CONTINUOUS
 62
4
 10
2.9016009E+002
 20
2.1363246E+002
 11
2.9016009E+002
 21
2.4232E+002
  0
LINE
  8
1
  6
CONTINUOUS
 62
4
 10
2.4616009E+002
 20
2.1363246E+002
 11
2.4616009E+002
 21
2.4232E+002
  0
LINE
  8
1
  6
CONTINUOUS
 62
4
 10
2.9016009E+002
 20
2.4172E+002
 11
2.6816009E+002
 21
2.4172E+002
  0
LINE
  8
1
  6
CONTINUOUS
 62
4
 10
2.4616009E+002
 20
2.4172E+002
 11
2.6816009E+002
 21
2.4172E+002
  0
TEXT
  8
1
  6
CONTINUOUS
 62
4
 10
2.6496009E+002
 20
2.42221E+002
 40
4.0
  1
44
 41
8.0E-001
 50
3.6E+002
  0
INSERT
  2
_AH2
  8
1
 62
4
 10
2.9016009E+002
 20
2.4172E+002
 41
1.5
 42
1.5
 43
1.5
 50
0.0
  0
INSERT
  2
_AH2
  8
1
 62
4
 10
2.4616009E+002
 20
2.4172E+002
 41
1.5
 42
1.5
 43
1.5
 50
1.8E+002
  0
ENDBLK
  0
BLOCK
  2
*D271
  3
*D
 10
0.0
 20
0.0
 70
65
  0
LINE
  8
1
  6
CONTINUOUS
 62
4
 10
2.9260097E+002
 20
2.2877052E+002
 11
3.21011E+002
 21
2.2877052E+002
  0
LINE
  8
1
  6
CONTINUOUS
 62
4
 10
2.9666009E+002
 20
9.897052E+001
 11
3.21011E+002
 21
9.897052E+001
  0
LINE
  8
1
  6
CONTINUOUS
 62
4
 10
3.20411E+002
 20
2.2877052E+002
 11
3.20411E+002
 21
1.63446E+002
  0
LINE
  8
1
  6
CONTINUOUS
 62
4
 10
3.20411E+002
 20
9.897052E+001
 11
3.20411E+002
 21
1.63446E+002
  0
TEXT
  8
1
  6
CONTINUOUS
 62
4
 10
3.1991E+002
 20
1.53846E+002
 40
4.0
  1
%%c129.8
 41
8.0E-001
 50
9.0E+001
  0
INSERT
  2
_AH2
  8
1
 62
4
 10
3.20411E+002
 20
2.2877052E+002
 41
1.5
 42
1.5
 43
1.5
 50
9.0E+001
  0
INSERT
  2
_AH2
  8
1
 62
4
 10
3.20411E+002
 20
9.897052E+001
 41
1.5
 42
1.5
 43
1.5
 50
2.7E+002
  0
ENDBLK
  0
ENDSEC
  0
SECTION
  2
ENTITIES
  0
TEXT
  8
1
  6
CONTINUOUS
 62
7
 10
1.2
 20
1.2
 40
1.0
  1
*DETAIL_2
 41
3.0
  0
CIRCLE
  8
1
  6
CONTINUOUS
 62
211
 10
1.2452995E+002
 20
1.6387052E+002
 40
6.49E+001
  0
DIMENSION
  8
1
  6
CONTINUOUS
 62
4
  2
*D45
  3
DSTYLE1
 10
1.4452995E+002
 20
8.6589307E+001
 11
1.24809E+002
 21
8.9090307E+001
 70
129
 13
1.0452995E+002
 23
1.6387052E+002
 14
1.4452995E+002
 24
1.6387052E+002
 40
3.0
1001
ACAD
1000
DSTYLE
1002
{
1070
173
1070
0
1070
5
1000
_AH2
1002
}
  0
TEXT
  8
1
  6
CONTINUOUS
 62
4
 10
3.5676E+002
 20
4.703
 40
5.0
  1

 41
8.0E-001
 72
2
 11
4.1276E+002
 21
4.703
  0
LINE
  8
1
  6
CONTINUOUS
 62
1
 10
2.0
 20
2.0
 11
4.16E+002
 21
2.0
  0
LINE
  8
1
  6
DASHDOT
 62
4
 10
2.6816009E+002
 20
1.11561E+002
 11
2.6816009E+002
 21
2.1528403E+002
  0
LINE
  8
1
  6
CONTINUOUS
 62
211
 10
2.9022691E+002
 20
2.1346633E+002
 11
2.9110283E+002
 21
2.2783138E+002
  0
DIMENSION
  8
1
  6
CONTINUOUS
 62
4
  2
*D54
  3
DSTYLE1
 10
2.9716009E+002
 20
7.8205788E+001
 11
2.6816009E+002
 21
8.0706788E+001
 70
128
 13
2.3916009E+002
 23
1.0002053E+002
 14
2.9716009E+002
 24
1.0002053E+002
 40
3.0
 50
0.0
1001
ACAD
1000
DSTYLE
1002
{
1070
173
1070
0
1070
5
1000
_AH2
1002
}
  0
LINE
  8
1
  6
CONTINUOUS
 62
1
 10
4.16E+002
 20
2.0
 11
4.16E+002
 21
2.95E+002
  0
CIRCLE
  8
1
  6
CONTINUOUS
 62
211
 10
1.2452995E+002
 20
1.6387052E+002
 40
6.3849998E+001
  0
LINE
  8
1
  6
CONTINUOUS
 62
1
 10
4.16E+002
 20
2.95E+002
 11
2.0
 21
2.95E+002
  0
LINE
  8
1
  6
CONTINUOUS
 62
1
 10
2.0
 20
2.95E+002
 11
2.0
 21
2.0
  0
LINE
  8
1
  6
CONTINUOUS
 62
211
 10
2.9866009E+002
 20
1.8837052E+002
 11
2.9866009E+002
 21
1.3937052E+002
  0
LINE
  8
1
  6
DASHDOT
 62
4
 10
2.3317512E+002
 20
1.6387052E+002
 11
3.05294E+002
 21
1.6387052E+002
  0
LINE
  8
1
  6
CONTINUOUS
 62
211
 10
2.9816009E+002
 20
1.8887052E+002
 11
2.9716009E+002
 21
1.8887052E+002
  0
LINE
  8
1
  6
HIDDEN
 62
4
 10
2.9866009E+002
 20
1.8387052E+002
 11
2.3766009E+002
 21
1.8387052E+002
  0
ARC
  8
1
  6
CONTINUOUS
 62
211
 10
2.9816009E+002
 20
1.8837052E+002
 40
5.0E-001
 50
0.0
 51
9.0E+001
  0
ARC
  8
1
  6
CONTINUOUS
 62
211
 10
2.8897923E+002
 20
2.1354241E+002
 40
1.25
 50
2.7392631E+002
 51
3.5651068E+002
  0
LINE
  8
1
  6
CONTINUOUS
 62
211
 10
2.9616009E+002
 20
2.2877052E+002
 11
2.9210097E+002
 21
2.2877052E+002
  0
LINE
  8
1
  6
DASHSPACE
 62
211
 10
2.878601E+002
 20
1.6387052E+002
 11
2.8782071E+002
 21
1.6387052E+002
  0
LINE
  8
1
  6
DASHSPACE
 62
211
 10
2.878601E+002
 20
1.6387052E+002
 11
2.8782071E+002
 21
1.6387052E+002
  0
LINE
  8
1
  6
DASHSPACE
 62
211
 10
2.8786038E+002
 20
1.6387052E+002
 11
2.8782071E+002
 21
1.6387052E+002
  0
LINE
  8
1
  6
DASHSPACE
 62
211
 10
2.8786038E+002
 20
1.6387052E+002
 11
2.8782071E+002
 21
1.6387052E+002
  0
LINE
  8
1
  6
DASHSPACE
 62
211
 10
2.8785998E+002
 20
1.6387052E+002
 11
2.8782058E+002
 21
1.6387052E+002
  0
LINE
  8
1
  6
DASHSPACE
 62
211
 10
2.8785998E+002
 20
1.6387052E+002
 11
2.8782058E+002
 21
1.6387052E+002
  0
LINE
  8
1
  6
DASHSPACE
 62
211
 10
2.8786026E+002
 20
1.6387052E+002
 11
2.8782058E+002
 21
1.6387052E+002
  0
LINE
  8
1
  6
DASHSPACE
 62
211
 10
2.8786026E+002
 20
1.6387052E+002
 11
2.8782058E+002
 21
1.6387052E+002
  0
ARC
  8
1
  6
CONTINUOUS
 62
211
 10
2.9210097E+002
 20
2.2777052E+002
 40
1.0
 50
9.0E+001
 51
1.7651068E+002
  0
ARC
  8
1
  6
CONTINUOUS
 62
211
 10
2.9616009E+002
 20
2.2777052E+002
 40
1.0
 50
0.0
 51
9.0E+001
  0
LINE
  8
1
  6
CONTINUOUS
 62
211
 10
2.4609327E+002
 20
2.1346633E+002
 11
2.4521736E+002
 21
2.2783138E+002
  0
ARC
  8
1
  6
CONTINUOUS
 62
211
 10
2.4734096E+002
 20
2.1354241E+002
 40
1.25
 50
1.8348932E+002
 51
2.6607369E+002
  0
LINE
  8
1
  6
CONTINUOUS
 62
211
 10
2.4016009E+002
 20
2.2877052E+002
 11
2.4421921E+002
 21
2.2877052E+002
  0
LINE
  8
1
  6
HIDDEN
 62
4
 10
2.9516009E+002
 20
1.056215E+002
 11
2.9516009E+002
 21
2.2212052E+002
  0
LINE
  8
1
  6
CONTINUOUS
 62
211
 10
2.9116009E+002
 20
1.0002053E+002
 11
2.9116009E+002
 21
2.2810926E+002
  0
ARC
  8
1
  6
CONTINUOUS
 62
211
 10
2.4421921E+002
 20
2.2777052E+002
 40
1.0
 50
3.4893249
 51
9.0E+001
  0
ARC
  8
1
  6
CONTINUOUS
 62
211
 10
2.4016009E+002
 20
2.2777052E+002
 40
1.0
 50
9.0E+001
 51
1.8E+002
  0
LINE
  8
1
  6
CONTINUOUS
 62
211
 10
2.3916021E+002
 20
2.2412052E+002
 11
2.3916125E+002
 21
2.2407534E+002
  0
LINE
  8
1
  6
CONTINUOUS
 62
211
 10
2.6816009E+002
 20
1.9845737E+002
 11
2.6166009E+002
 21
1.9513052E+002
  0
LINE
  8
1
  6
CONTINUOUS
 62
211
 10
2.6166009E+002
 20
1.9513052E+002
 11
2.6166009E+002
 21
1.8548504E+002
  0
ARC
  8
1
  6
HIDDEN
 62
4
 10
2.4016021E+002
 20
2.241205E+002
 40
9.9997866E-001
 50
1.8258815E+002
 51
2.700006E+002
  0
ARC
  8
1
  6
HIDDEN
 62
4
 10
2.4016009E+002
 20
2.2212052E+002
 40
1.0000005
 50
1.7986E-005
 51
9.0E+001
  0
LINE
  8
1
  6
CONTINUOUS
 62
211
 10
2.9022691E+002
 20
1.1427471E+002
 11
2.9110283E+002
 21
9.9909657E+001
  0
ARC
  8
1
  6
CONTINUOUS
 62
211
 10
2.8897923E+002
 20
1.1419863E+002
 40
1.25
 50
3.4893249
 51
8.6073692E+001
  0
LINE
  8
1
  6
DASHSPACE
 62
211
 10
2.6815997E+002
 20
1.7594144E+002
 11
2.6815997E+002
 21
1.759434E+002
  0
LINE
  8
1
  6
DASHSPACE
 62
211
 10
2.6815997E+002
 20
1.7642052E+002
 11
2.6815997E+002
 21
1.7642246E+002
  0
LINE
  8
1
  6
DASHSPACE
 62
211
 10
2.6815997E+002
 20
1.7594144E+002
 11
2.6815997E+002
 21
1.759434E+002
  0
LINE
  8
1
  6
DASHSPACE
 62
211
 10
2.6816021E+002
 20
1.7594144E+002
 11
2.6816021E+002
 21
1.759434E+002
  0
LINE
  8
1
  6
DASHSPACE
 62
211
 10
2.6816021E+002
 20
1.7642052E+002
 11
2.6816021E+002
 21
1.7642246E+002
  0
LINE
  8
1
  6
DASHSPACE
 62
211
 10
2.6816021E+002
 20
1.7594144E+002
 11
2.6816021E+002
 21
1.759434E+002
  0
LINE
  8
1
  6
CONTINUOUS
 62
211
 10
2.9616009E+002
 20
9.897052E+001
 11
2.9210097E+002
 21
9.897052E+001
  0
LINE
  8
1
  6
CONTINUOUS
 62
211
 10
2.6166009E+002
 20
1.8548504E+002
 11
2.6816009E+002
 21
1.7690892E+002
  0
LINE
  8
1
  6
CONTINUOUS
 62
211
 10
2.6816009E+002
 20
1.9845737E+002
 11
2.7466009E+002
 21
1.9513052E+002
  0
LINE
  8
1
  6
CONTINUOUS
 62
211
 10
2.9816009E+002
 20
1.3887052E+002
 11
2.9716009E+002
 21
1.3887052E+002
  0
LINE
  8
1
  6
HIDDEN
 62
4
 10
2.9866009E+002
 20
1.4387052E+002
 11
2.3766009E+002
 21
1.4387052E+002
  0
ARC
  8
1
  6
CONTINUOUS
 62
211
 10
2.9816009E+002
 20
1.3937052E+002
 40
5.0E-001
 50
2.7E+002
 51
3.6E+002
  0
LINE
  8
1
  6
CONTINUOUS
 62
211
 10
2.7466009E+002
 20
1.9513052E+002
 11
2.7466009E+002
 21
1.8548504E+002
  0
LINE
  8
1
  6
DASHSPACE
 62
211
 10
2.6816021E+002
 20
1.7594144E+002
 11
2.6816021E+002
 21
1.759434E+002
  0
LINE
  8
1
  6
DASHSPACE
 62
211
 10
2.6816021E+002
 20
1.7642052E+002
 11
2.6816021E+002
 21
1.7642246E+002
  0
LINE
  8
1
  6
DASHSPACE
 62
211
 10
2.6816021E+002
 20
1.7594144E+002
 11
2.6816021E+002
 21
1.759434E+002
  0
LINE
  8
1
  6
DASHSPACE
 62
211
 10
2.6815997E+002
 20
1.7594144E+002
 11
2.6815997E+002
 21
1.759434E+002
  0
LINE
  8
1
  6
DASHSPACE
 62
211
 10
2.6815997E+002
 20
1.7642052E+002
 11
2.6815997E+002
 21
1.7642246E+002
  0
LINE
  8
1
  6
DASHSPACE
 62
211
 10
2.6815997E+002
 20
1.7594144E+002
 11
2.6815997E+002
 21
1.759434E+002
  0
LINE
  8
1
  6
DASHSPACE
 62
211
 10
2.6815997E+002
 20
1.7594144E+002
 11
2.6815997E+002
 21
1.759434E+002
  0
LINE
  8
1
  6
DASHSPACE
 62
211
 10
2.6815997E+002
 20
1.7642052E+002
 11
2.6815997E+002
 21
1.7642246E+002
  0
LINE
  8
1
  6
DASHSPACE
 62
1
 10
2.6815997E+002
 20
1.492996E+002
 11
2.6815997E+002
 21
1.4929764E+002
  0
LINE
  8
1
  6
DASHSPACE
 62
1
 10
2.6815997E+002
 20
1.5132052E+002
 11
2.6815997E+002
 21
1.5131858E+002
  0
LINE
  8
1
  6
DASHSPACE
 62
1
 10
2.6815997E+002
 20
1.492996E+002
 11
2.6815997E+002
 21
1.4929764E+002
  0
LINE
  8
1
  6
DASHSPACE
 62
211
 10
2.6815997E+002
 20
1.7594144E+002
 11
2.6815997E+002
 21
1.759434E+002
  0
LINE
  8
1
  6
DASHSPACE
 62
211
 10
2.6816021E+002
 20
1.7594144E+002
 11
2.6816021E+002
 21
1.759434E+002
  0
LINE
  8
1
  6
DASHSPACE
 62
211
 10
2.6816021E+002
 20
1.7642052E+002
 11
2.6816021E+002
 21
1.7642246E+002
  0
LINE
  8
1
  6
DASHSPACE
 62
211
 10
2.6816021E+002
 20
1.7594144E+002
 11
2.6816021E+002
 21
1.759434E+002
  0
LINE
  8
1
  6
CONTINUOUS
 62
211
 10
2.7466009E+002
 20
1.8548504E+002
 11
2.6816009E+002
 21
1.7690892E+002
  0
LINE
  8
1
  6
CONTINUOUS
 62
211
 10
2.6816009E+002
 20
1.2928367E+002
 11
2.6166009E+002
 21
1.3261052E+002
  0
LINE
  8
1
  6
CONTINUOUS
 62
211
 10
2.6166009E+002
 20
1.3261052E+002
 11
2.6166009E+002
 21
1.42256E+002
  0
LINE
  8
1
  6
DASHSPACE
 62
211
 10
2.6815997E+002
 20
1.492996E+002
 11
2.6815997E+002
 21
1.4929764E+002
  0
LINE
  8
1
  6
DASHSPACE
 62
211
 10
2.6815997E+002
 20
1.5132052E+002
 11
2.6815997E+002
 21
1.5131858E+002
  0
LINE
  8
1
  6
DASHSPACE
 62
211
 10
2.6815997E+002
 20
1.492996E+002
 11
2.6815997E+002
 21
1.4929764E+002
  0
LINE
  8
1
  6
DASHSPACE
 62
211
 10
2.6816021E+002
 20
1.492996E+002
 11
2.6816021E+002
 21
1.4929764E+002
  0
LINE
  8
1
  6
DASHSPACE
 62
211
 10
2.6816021E+002
 20
1.5132052E+002
 11
2.6816021E+002
 21
1.5131858E+002
  0
LINE
  8
1
  6
DASHSPACE
 62
211
 10
2.6816021E+002
 20
1.492996E+002
 11
2.6816021E+002
 21
1.4929764E+002
  0
LINE
  8
1
  6
CONTINUOUS
 62
211
 10
2.6166009E+002
 20
1.42256E+002
 11
2.6816009E+002
 21
1.5083212E+002
  0
LINE
  8
1
  6
CONTINUOUS
 62
211
 10
2.6816009E+002
 20
1.2928367E+002
 11
2.7466009E+002
 21
1.3261052E+002
  0
LINE
  8
1
  6
CONTINUOUS
 62
211
 10
2.7466009E+002
 20
1.3261052E+002
 11
2.7466009E+002
 21
1.42256E+002
  0
LINE
  8
1
  6
DASHSPACE
 62
211
 10
2.6816021E+002
 20
1.492996E+002
 11
2.6816021E+002
 21
1.4929764E+002
  0
LINE
  8
1
  6
DASHSPACE
 62
211
 10
2.6816021E+002
 20
1.5132052E+002
 11
2.6816021E+002
 21
1.5131858E+002
  0
LINE
  8
1
  6
DASHSPACE
 62
211
 10
2.6816021E+002
 20
1.492996E+002
 11
2.6816021E+002
 21
1.4929764E+002
  0
LINE
  8
1
  6
DASHSPACE
 62
211
 10
2.6815997E+002
 20
1.492996E+002
 11
2.6815997E+002
 21
1.4929764E+002
  0
LINE
  8
1
  6
DASHSPACE
 62
211
 10
2.6815997E+002
 20
1.5132052E+002
 11
2.6815997E+002
 21
1.5131858E+002
  0
LINE
  8
1
  6
DASHSPACE
 62
211
 10
2.6815997E+002
 20
1.492996E+002
 11
2.6815997E+002
 21
1.4929764E+002
  0
LINE
  8
1
  6
DASHSPACE
 62
211
 10
2.6815997E+002
 20
1.492996E+002
 11
2.6815997E+002
 21
1.4929764E+002
  0
LINE
  8
1
  6
DASHSPACE
 62
211
 10
2.6815997E+002
 20
1.5132052E+002
 11
2.6815997E+002
 21
1.5131858E+002
  0
LINE
  8
1
  6
DASHSPACE
 62
211
 10
2.6815997E+002
 20
1.492996E+002
 11
2.6815997E+002
 21
1.4929764E+002
  0
LINE
  8
1
  6
DASHSPACE
 62
211
 10
2.6816021E+002
 20
1.492996E+002
 11
2.6816021E+002
 21
1.4929764E+002
  0
LINE
  8
1
  6
DASHSPACE
 62
211
 10
2.6816021E+002
 20
1.5132052E+002
 11
2.6816021E+002
 21
1.5131858E+002
  0
LINE
  8
1
  6
DASHSPACE
 62
211
 10
2.6816021E+002
 20
1.492996E+002
 11
2.6816021E+002
 21
1.4929764E+002
  0
LINE
  8
1
  6
CONTINUOUS
 62
211
 10
2.7466009E+002
 20
1.42256E+002
 11
2.6816009E+002
 21
1.5083212E+002
  0
LINE
  8
1
  6
DASHSPACE
 62
211
 10
2.6816021E+002
 20
1.492996E+002
 11
2.6816021E+002
 21
1.4929764E+002
  0
LINE
  8
1
  6
DASHSPACE
 62
211
 10
2.6816021E+002
 20
1.5132052E+002
 11
2.6816021E+002
 21
1.5131858E+002
  0
LINE
  8
1
  6
DASHSPACE
 62
211
 10
2.6816021E+002
 20
1.492996E+002
 11
2.6816021E+002
 21
1.4929764E+002
  0
LINE
  8
1
  6
DASHSPACE
 62
211
 10
2.6815997E+002
 20
1.492996E+002
 11
2.6815997E+002
 21
1.4929764E+002
  0
LINE
  8
1
  6
DASHSPACE
 62
211
 10
2.6815997E+002
 20
1.5132052E+002
 11
2.6815997E+002
 21
1.5131858E+002
  0
LINE
  8
1
  6
DASHSPACE
 62
211
 10
2.6815997E+002
 20
1.492996E+002
 11
2.6815997E+002
 21
1.4929764E+002
  0
LINE
  8
1
  6
CENTERLINE
 62
4
 10
1.9937995E+002
 20
1.6387052E+002
 11
4.967995E+001
 21
1.6387052E+002
  0
DIMENSION
  8
1
  6
CONTINUOUS
 62
4
  2
*D161
  3
DSTYLE2
 10
2.9866009E+002
 20
5.9256E+001
 11
2.6816009E+002
 21
6.1757E+001
 70
128
 13
2.3766009E+002
 23
1.3937052E+002
 14
2.9866009E+002
 24
1.3937052E+002
 40
3.0
 50
0.0
1001
ACAD
1000
DSTYLE
1002
{
1070
173
1070
0
1070
5
1000
_AH2
1002
}
  0
ARC
  8
1
  6
CONTINUOUS
 62
211
 10
2.9210097E+002
 20
9.997052E+001
 40
1.0
 50
1.8348932E+002
 51
2.7E+002
  0
ARC
  8
1
  6
CONTINUOUS
 62
211
 10
2.9616009E+002
 20
9.997052E+001
 40
1.0
 50
2.7E+002
 51
3.6E+002
  0
CIRCLE
  8
1
  6
CONTINUOUS
 62
211
 10
1.2452995E+002
 20
1.6387052E+002
 40
4.65E+001
  0
LINE
  8
1
  6
CONTINUOUS
 62
211
 10
2.4609327E+002
 20
1.1427471E+002
 11
2.4521736E+002
 21
9.9909657E+001
  0
LINE
  8
1
  6
CONTINUOUS
 62
211
 10
2.4725516E+002
 20
2.1229536E+002
 11
2.6816021E+002
 21
2.1086055E+002
  0
ARC
  8
1
  6
CONTINUOUS
 62
211
 10
2.4734096E+002
 20
1.1419863E+002
 40
1.25
 50
9.3926308E+001
 51
1.7651068E+002
  0
LINE
  8
1
  6
CONTINUOUS
 62
211
 10
2.4016009E+002
 20
9.897052E+001
 11
2.4421921E+002
 21
9.897052E+001
  0
ARC
  8
1
  6
CONTINUOUS
 62
211
 10
2.4421921E+002
 20
9.997052E+001
 40
1.0
 50
2.7E+002
 51
3.5651068E+002
  0
LINE
  8
1
  6
CONTINUOUS
 62
211
 10
2.9016009E+002
 20
1.1427492E+002
 11
2.9016009E+002
 21
2.1313246E+002
  0
LINE
  8
1
  6
CONTINUOUS
 62
211
 10
2.8906502E+002
 20
2.1229536E+002
 11
2.8906502E+002
 21
1.1544568E+002
  0
LINE
  8
1
  6
CONTINUOUS
 62
211
 10
2.3766009E+002
 20
1.8837052E+002
 11
2.3766009E+002
 21
1.3937052E+002
  0
LINE
  8
1
  6
CONTINUOUS
 62
211
 10
2.3816009E+002
 20
1.8887052E+002
 11
2.3916009E+002
 21
1.8887052E+002
  0
ARC
  8
1
  6
CONTINUOUS
 62
211
 10
2.3816009E+002
 20
1.8837052E+002
 40
5.0E-001
 50
9.0E+001
 51
1.8E+002
  0
LINE
  8
1
  6
DASHSPACE
 62
211
 10
2.4846008E+002
 20
1.6387052E+002
 11
2.4849948E+002
 21
1.6387052E+002
  0
LINE
  8
1
  6
DASHSPACE
 62
211
 10
2.4846008E+002
 20
1.6387052E+002
 11
2.4849948E+002
 21
1.6387052E+002
  0
LINE
  8
1
  6
DASHSPACE
 62
211
 10
2.4845981E+002
 20
1.6387052E+002
 11
2.4849948E+002
 21
1.6387052E+002
  0
LINE
  8
1
  6
DASHSPACE
 62
211
 10
2.4845981E+002
 20
1.6387052E+002
 11
2.4849948E+002
 21
1.6387052E+002
  0
LINE
  8
1
  6
DASHSPACE
 62
211
 10
2.484602E+002
 20
1.6387052E+002
 11
2.484996E+002
 21
1.6387052E+002
  0
LINE
  8
1
  6
DASHSPACE
 62
211
 10
2.484602E+002
 20
1.6387052E+002
 11
2.484996E+002
 21
1.6387052E+002
  0
LINE
  8
1
  6
DASHSPACE
 62
211
 10
2.4845993E+002
 20
1.6387052E+002
 11
2.484996E+002
 21
1.6387052E+002
  0
LINE
  8
1
  6
DASHSPACE
 62
211
 10
2.4845993E+002
 20
1.6387052E+002
 11
2.484996E+002
 21
1.6387052E+002
  0
LINE
  8
1
  6
CONTINUOUS
 62
211
 10
2.3816009E+002
 20
1.3887052E+002
 11
2.3916009E+002
 21
1.3887052E+002
  0
ARC
  8
1
  6
CONTINUOUS
 62
211
 10
2.3816009E+002
 20
1.3937052E+002
 40
5.0E-001
 50
1.8E+002
 51
2.7E+002
  0
LINE
  8
1
  6
DASHSPACE
 62
1
 10
2.6816021E+002
 20
1.492996E+002
 11
2.6816021E+002
 21
1.4929764E+002
  0
LINE
  8
1
  6
DASHSPACE
 62
1
 10
2.6816021E+002
 20
1.5132052E+002
 11
2.6816021E+002
 21
1.5131858E+002
  0
LINE
  8
1
  6
DASHSPACE
 62
1
 10
2.6816021E+002
 20
1.492996E+002
 11
2.6816021E+002
 21
1.4929764E+002
  0
LINE
  8
1
  6
DASHSPACE
 62
211
 10
2.4846008E+002
 20
1.6387052E+002
 11
2.4849948E+002
 21
1.6387052E+002
  0
LINE
  8
1
  6
DASHSPACE
 62
211
 10
2.4846008E+002
 20
1.6387052E+002
 11
2.4849948E+002
 21
1.6387052E+002
  0
LINE
  8
1
  6
DASHSPACE
 62
211
 10
2.4845981E+002
 20
1.6387052E+002
 11
2.4849948E+002
 21
1.6387052E+002
  0
LINE
  8
1
  6
DASHSPACE
 62
211
 10
2.4845981E+002
 20
1.6387052E+002
 11
2.4849948E+002
 21
1.6387052E+002
  0
LINE
  8
1
  6
DASHSPACE
 62
211
 10
2.484602E+002
 20
1.6387052E+002
 11
2.484996E+002
 21
1.6387052E+002
  0
LINE
  8
1
  6
DASHSPACE
 62
211
 10
2.484602E+002
 20
1.6387052E+002
 11
2.484996E+002
 21
1.6387052E+002
  0
LINE
  8
1
  6
DASHSPACE
 62
211
 10
2.4845993E+002
 20
1.6387052E+002
 11
2.484996E+002
 21
1.6387052E+002
  0
LINE
  8
1
  6
DASHSPACE
 62
211
 10
2.4845993E+002
 20
1.6387052E+002
 11
2.484996E+002
 21
1.6387052E+002
  0
LINE
  8
1
  6
DASHSPACE
 62
211
 10
2.6816021E+002
 20
1.7594144E+002
 11
2.6816021E+002
 21
1.759434E+002
  0
LINE
  8
1
  6
DASHSPACE
 62
211
 10
2.6816021E+002
 20
1.7642052E+002
 11
2.6816021E+002
 21
1.7642246E+002
  0
LINE
  8
1
  6
DASHSPACE
 62
211
 10
2.6816021E+002
 20
1.7594144E+002
 11
2.6816021E+002
 21
1.759434E+002
  0
LINE
  8
1
  6
CONTINUOUS
 62
211
 10
2.4516009E+002
 20
1.0002053E+002
 11
2.4516009E+002
 21
2.2805928E+002
  0
LINE
  8
1
  6
CONTINUOUS
 62
211
 10
2.4725516E+002
 20
2.1229536E+002
 11
2.4725516E+002
 21
1.1544568E+002
  0
LINE
  8
1
  6
CONTINUOUS
 62
211
 10
2.4616009E+002
 20
1.1427492E+002
 11
2.4616009E+002
 21
2.1313246E+002
  0
LINE
  8
1
  6
HIDDEN
 62
4
 10
2.4116009E+002
 20
1.056215E+002
 11
2.4116009E+002
 21
2.2212052E+002
  0
LINE
  8
1
  6
CONTINUOUS
 62
211
 10
2.3916009E+002
 20
1.0002053E+002
 11
2.3916009E+002
 21
2.2772052E+002
  0
ARC
  8
1
  6
CONTINUOUS
 62
211
 10
2.4016009E+002
 20
9.997052E+001
 40
1.0
 50
1.8E+002
 51
2.7E+002
  0
LINE
  8
1
  6
CONTINUOUS
 62
211
 10
1.4864309E+002
 20
1.9578535E+002
 11
1.4864309E+002
 21
1.7047024E+002
  0
LINE
  8
1
  6
CONTINUOUS
 62
211
 10
1.4945575E+002
 20
1.9940917E+002
 11
1.4936183E+002
 21
1.9940647E+002
  0
LINE
  8
1
  6
CONTINUOUS
 62
211
 10
1.4936183E+002
 20
1.9940647E+002
 11
1.4927694E+002
 21
1.9938347E+002
  0
LINE
  8
1
  6
CONTINUOUS
 62
211
 10
1.4927694E+002
 20
1.9938347E+002
 11
1.4919833E+002
 21
1.9934067E+002
  0
LINE
  8
1
  6
CONTINUOUS
 62
211
 10
1.4919833E+002
 20
1.9934067E+002
 11
1.4905633E+002
 21
1.9919227E+002
  0
LINE
  8
1
  6
CONTINUOUS
 62
211
 10
1.4905633E+002
 20
1.9919227E+002
 11
1.4892935E+002
 21
1.9893807E+002
  0
LINE
  8
1
  6
CONTINUOUS
 62
211
 10
1.4892935E+002
 20
1.9893807E+002
 11
1.4881933E+002
 21
1.9853844E+002
  0
LINE
  8
1
  6
CONTINUOUS
 62
211
 10
1.4881933E+002
 20
1.9853844E+002
 11
1.4872851E+002
 21
1.9792194E+002
  0
LINE
  8
1
  6
CONTINUOUS
 62
211
 10
1.4872851E+002
 20
1.9792194E+002
 11
1.4866578E+002
 21
1.969995E+002
  0
LINE
  8
1
  6
CONTINUOUS
 62
211
 10
1.4866578E+002
 20
1.969995E+002
 11
1.4864309E+002
 21
1.9578535E+002
  0
LINE
  8
1
  6
CONTINUOUS
 62
211
 10
9.9190198E+001
 20
1.285131E+002
 11
9.9346219E+001
 21
1.2841552E+002
  0
LINE
  8
1
  6
CONTINUOUS
 62
211
 10
9.9346219E+001
 20
1.2841552E+002
 11
9.9497647E+001
 21
1.2835232E+002
  0
LINE
  8
1
  6
CONTINUOUS
 62
211
 10
9.9497647E+001
 20
1.2835232E+002
 11
9.9604154E+001
 21
1.2833187E+002
  0
LINE
  8
1
  6
CONTINUOUS
 62
211
 10
9.9604154E+001
 20
1.2833187E+002
 11
9.9698071E+001
 21
1.2833457E+002
  0
LINE
  8
1
  6
CONTINUOUS
 62
211
 10
9.9698071E+001
 20
1.2833457E+002
 11
9.9782956E+001
 21
1.2835757E+002
  0
LINE
  8
1
  6
CONTINUOUS
 62
211
 10
9.9782956E+001
 20
1.2835757E+002
 11
9.9861569E+001
 21
1.2840037E+002
  0
LINE
  8
1
  6
CONTINUOUS
 62
211
 10
9.9861569E+001
 20
1.2840037E+002
 11
1.0000357E+002
 21
1.2854877E+002
  0
LINE
  8
1
  6
CONTINUOUS
 62
211
 10
1.0000357E+002
 20
1.2854877E+002
 11
1.0013055E+002
 21
1.2880297E+002
  0
LINE
  8
1
  6
CONTINUOUS
 62
211
 10
1.0013055E+002
 20
1.2880297E+002
 11
1.0024057E+002
 21
1.292026E+002
  0
LINE
  8
1
  6
CONTINUOUS
 62
211
 10
1.0024057E+002
 20
1.292026E+002
 11
1.0033139E+002
 21
1.298191E+002
  0
LINE
  8
1
  6
CONTINUOUS
 62
211
 10
1.0033139E+002
 20
1.298191E+002
 11
1.0039412E+002
 21
1.3074154E+002
  0
LINE
  8
1
  6
CONTINUOUS
 62
211
 10
1.0039412E+002
 20
1.3074154E+002
 11
1.0041681E+002
 21
1.3195569E+002
  0
LINE
  8
1
  6
CONTINUOUS
 62
211
 10
1.0041681E+002
 20
1.572708E+002
 11
1.0041681E+002
 21
1.3195569E+002
  0
LINE
  8
1
  6
CONTINUOUS
 62
211
 10
2.3916021E+002
 20
1.0362052E+002
 11
2.3916125E+002
 21
1.036657E+002
  0
ARC
  8
1
  6
HIDDEN
 62
4
 10
2.4016021E+002
 20
1.0362054E+002
 40
9.9997866E-001
 50
8.9999396E+001
 51
1.7741185E+002
  0
ARC
  8
1
  6
HIDDEN
 62
4
 10
2.4016009E+002
 20
1.0562052E+002
 40
1.0000005
 50
2.7E+002
 51
3.5999998E+002
  0
LINE
  8
1
  6
CONTINUOUS
 62
211
 10
2.4725516E+002
 20
1.1544568E+002
 11
2.6816021E+002
 21
1.1688049E+002
  0
LINE
  8
1
  6
CONTINUOUS
 62
211
 10
2.8906482E+002
 20
1.1544569E+002
 11
2.6815997E+002
 21
1.1688049E+002
  0
LINE
  8
1
  6
CONTINUOUS
 62
211
 10
2.9715997E+002
 20
1.0362052E+002
 11
2.9715893E+002
 21
1.036657E+002
  0
ARC
  8
1
  6
HIDDEN
 62
4
 10
2.9615997E+002
 20
1.0362054E+002
 40
9.9997866E-001
 50
2.5881548
 51
9.0000604E+001
  0
ARC
  8
1
  6
HIDDEN
 62
4
 10
2.9616009E+002
 20
1.0562052E+002
 40
1.0000005
 50
1.8000002E+002
 51
2.7E+002
  0
DIMENSION
  8
1
  6
CONTINUOUS
 62
4
  2
*D270
  3
DSTYLE2
 10
2.4616009E+002
 20
2.4172E+002
 11
2.6816009E+002
 21
2.44221E+002
 70
129
 13
2.9016009E+002
 23
2.1313246E+002
 14
2.4616009E+002
 24
2.1313246E+002
 40
3.0
1001
ACAD
1000
DSTYLE
1002
{
1070
173
1070
0
1070
5
1000
_AH2
1002
}
  0
DIMENSION
  8
1
  6
CONTINUOUS
 62
4
  2
*D271
  3
DSTYLE3
 10
3.20411E+002
 20
9.897052E+001
 11
3.1791E+002
 21
1.63446E+002
 70
128
 13
2.9210097E+002
 23
2.2877052E+002
 14
2.9616009E+002
 24
9.897052E+001
 40
3.0
 50
9.0E+001
1001
ACAD
1000
DSTYLE
1002
{
1070
173
1070
0
1070
5
1000
_AH2
1002
}
  0
LINE
  8
1
  6
CENTERLINE
 62
4
 10
1.5852995E+002
 20
1.2554042E+002
 11
1.5852995E+002
 21
2.0160903E+002
  0
LINE
  8
1
  6
CONTINUOUS
 62
211
 10
2.6816009E+002
 20
1.1688048E+002
 11
2.6816009E+002
 21
2.1086055E+002
  0
LINE
  8
1
  6
CONTINUOUS
 62
211
 10
2.9866009E+002
 20
1.6387052E+002
 11
2.3766009E+002
 21
1.6387052E+002
  0
LINE
  8
1
  6
CONTINUOUS
 62
211
 10
2.9716009E+002
 20
1.0002053E+002
 11
2.9716009E+002
 21
2.2777052E+002
  0
LINE
  8
1
  6
DASHSPACE
 62
211
 10
2.878601E+002
 20
1.6387052E+002
 11
2.8782071E+002
 21
1.6387052E+002
  0
LINE
  8
1
  6
DASHSPACE
 62
211
 10
2.878601E+002
 20
1.6387052E+002
 11
2.8782071E+002
 21
1.6387052E+002
  0
LINE
  8
1
  6
DASHSPACE
 62
211
 10
2.8786038E+002
 20
1.6387052E+002
 11
2.8782071E+002
 21
1.6387052E+002
  0
LINE
  8
1
  6
DASHSPACE
 62
211
 10
2.8786038E+002
 20
1.6387052E+002
 11
2.8782071E+002
 21
1.6387052E+002
  0
LINE
  8
1
  6
CONTINUOUS
 62
211
 10
2.8906482E+002
 20
2.1229535E+002
 11
2.6815997E+002
 21
2.1086055E+002
  0
LINE
  8
1
  6
CONTINUOUS
 62
211
 10
2.9715997E+002
 20
2.2412052E+002
 11
2.9715893E+002
 21
2.2407534E+002
  0
ARC
  8
1
  6
HIDDEN
 62
4
 10
2.9615997E+002
 20
2.241205E+002
 40
9.9997866E-001
 50
2.699994E+002
 51
3.5741185E+002
  0
ARC
  8
1
  6
HIDDEN
 62
4
 10
2.9616009E+002
 20
2.2212052E+002
 40
1.0000005
 50
8.9999996E+001
 51
1.7999998E+002
  0
LINE
  8
1
  6
DASHSPACE
 62
211
 10
2.8785998E+002
 20
1.6387052E+002
 11
2.8782058E+002
 21
1.6387052E+002
  0
LINE
  8
1
  6
DASHSPACE
 62
211
 10
2.8785998E+002
 20
1.6387052E+002
 11
2.8782058E+002
 21
1.6387052E+002
  0
LINE
  8
1
  6
DASHSPACE
 62
211
 10
2.8786026E+002
 20
1.6387052E+002
 11
2.8782058E+002
 21
1.6387052E+002
  0
LINE
  8
1
  6
DASHSPACE
 62
211
 10
2.8786026E+002
 20
1.6387052E+002
 11
2.8782058E+002
 21
1.6387052E+002
  0
LINE
  8
1
  6
DASHSPACE
 62
211
 10
2.6815997E+002
 20
1.7594144E+002
 11
2.6815997E+002
 21
1.759434E+002
  0
LINE
  8
1
  6
DASHSPACE
 62
211
 10
2.6815997E+002
 20
1.7642052E+002
 11
2.6815997E+002
 21
1.7642246E+002
  0
LINE
  8
1
  6
DASHSPACE
 62
211
 10
2.6815997E+002
 20
1.7594144E+002
 11
2.6815997E+002
 21
1.759434E+002
  0
CIRCLE
  8
1
  6
CONTINUOUS
 62
211
 10
1.2452995E+002
 20
1.6387052E+002
 40
2.5E+001
  0
LINE
  8
1
  6
CONTINUOUS
 62
211
 10
1.4864309E+002
 20
1.3195569E+002
 11
1.4864309E+002
 21
1.572708E+002
  0
LINE
  8
1
  6
CONTINUOUS
 62
211
 10
1.4945575E+002
 20
1.2833187E+002
 11
1.4936183E+002
 21
1.2833457E+002
  0
LINE
  8
1
  6
CONTINUOUS
 62
211
 10
1.4936183E+002
 20
1.2833457E+002
 11
1.4927694E+002
 21
1.2835757E+002
  0
LINE
  8
1
  6
CONTINUOUS
 62
211
 10
1.4927694E+002
 20
1.2835757E+002
 11
1.4919833E+002
 21
1.2840037E+002
  0
LINE
  8
1
  6
CONTINUOUS
 62
211
 10
1.4919833E+002
 20
1.2840037E+002
 11
1.4905633E+002
 21
1.2854877E+002
  0
LINE
  8
1
  6
CONTINUOUS
 62
211
 10
1.4905633E+002
 20
1.2854877E+002
 11
1.4892935E+002
 21
1.2880297E+002
  0
LINE
  8
1
  6
CONTINUOUS
 62
211
 10
1.4892935E+002
 20
1.2880297E+002
 11
1.4881933E+002
 21
1.292026E+002
  0
LINE
  8
1
  6
CONTINUOUS
 62
211
 10
1.4881933E+002
 20
1.292026E+002
 11
1.4872851E+002
 21
1.298191E+002
  0
LINE
  8
1
  6
CONTINUOUS
 62
211
 10
1.4872851E+002
 20
1.298191E+002
 11
1.4866578E+002
 21
1.3074154E+002
  0
LINE
  8
1
  6
CONTINUOUS
 62
211
 10
1.4866578E+002
 20
1.3074154E+002
 11
1.4864309E+002
 21
1.3195569E+002
  0
CIRCLE
  8
1
  6
CONTINUOUS
 62
211
 10
1.2452995E+002
 20
1.6387052E+002
 40
5.925E+001
  0
CIRCLE
  8
1
  6
CONTINUOUS
 62
211
 10
1.2452995E+002
 20
1.6387052E+002
 40
4.35E+001
  0
LINE
  8
1
  6
CONTINUOUS
 62
211
 10
1.4920788E+002
 20
1.5987052E+002
 11
1.6784565E+002
 21
1.5987052E+002
  0
LINE
  8
1
  6
CONTINUOUS
 62
211
 10
8.1214249E+001
 20
1.5987052E+002
 11
9.9852025E+001
 21
1.5987052E+002
  0
LINE
  8
1
  6
CONTINUOUS
 62
211
 10
5.967995E+001
 20
1.6387052E+002
 11
9.952995E+001
 21
1.6387052E+002
  0
LINE
  8
1
  6
CENTERLINE
 62
4
 10
9.052995E+001
 20
1.2596E+002
 11
9.052995E+001
 21
2.0120034E+002
  0
LINE
  8
1
  6
CONTINUOUS
 62
211
 10
1.0041681E+002
 20
1.7047024E+002
 11
1.0041681E+002
 21
1.9578535E+002
  0
LINE
  8
1
  6
CONTINUOUS
 62
211
 10
9.9190198E+001
 20
1.9922794E+002
 11
9.9346219E+001
 21
1.9932552E+002
  0
LINE
  8
1
  6
CONTINUOUS
 62
211
 10
9.9346219E+001
 20
1.9932552E+002
 11
9.9497647E+001
 21
1.9938872E+002
  0
LINE
  8
1
  6
CONTINUOUS
 62
211
 10
9.9497647E+001
 20
1.9938872E+002
 11
9.9604154E+001
 21
1.9940917E+002
  0
LINE
  8
1
  6
CONTINUOUS
 62
211
 10
9.9604154E+001
 20
1.9940917E+002
 11
9.9698071E+001
 21
1.9940647E+002
  0
LINE
  8
1
  6
CONTINUOUS
 62
211
 10
9.9698071E+001
 20
1.9940647E+002
 11
9.9782956E+001
 21
1.9938347E+002
  0
LINE
  8
1
  6
CONTINUOUS
 62
211
 10
9.9782956E+001
 20
1.9938347E+002
 11
9.9861569E+001
 21
1.9934067E+002
  0
LINE
  8
1
  6
CONTINUOUS
 62
211
 10
9.9861569E+001
 20
1.9934067E+002
 11
1.0000357E+002
 21
1.9919227E+002
  0
LINE
  8
1
  6
CONTINUOUS
 62
211
 10
1.0000357E+002
 20
1.9919227E+002
 11
1.0013055E+002
 21
1.9893807E+002
  0
LINE
  8
1
  6
CONTINUOUS
 62
211
 10
1.0013055E+002
 20
1.9893807E+002
 11
1.0024057E+002
 21
1.9853844E+002
  0
LINE
  8
1
  6
CONTINUOUS
 62
211
 10
1.0024057E+002
 20
1.9853844E+002
 11
1.0033139E+002
 21
1.9792194E+002
  0
LINE
  8
1
  6
CONTINUOUS
 62
211
 10
1.0033139E+002
 20
1.9792194E+002
 11
1.0039412E+002
 21
1.969995E+002
  0
LINE
  8
1
  6
CONTINUOUS
 62
211
 10
1.0039412E+002
 20
1.969995E+002
 11
1.0041681E+002
 21
1.9578535E+002
  0
LINE
  8
1
  6
CONTINUOUS
 62
211
 10
1.4952995E+002
 20
1.6387052E+002
 11
1.8937995E+002
 21
1.6387052E+002
  0
CIRCLE
  8
1
  6
CONTINUOUS
 62
211
 10
1.2452995E+002
 20
1.6387052E+002
 40
2.0E+001
  0
LINE
  8
1
  6
CONTINUOUS
 62
211
 10
8.1214249E+001
 20
1.6787052E+002
 11
9.9852025E+001
 21
1.6787052E+002
  0
LINE
  8
1
  6
CONTINUOUS
 62
211
 10
1.4920788E+002
 20
1.6787052E+002
 11
1.6784565E+002
 21
1.6787052E+002
  0
LINE
  8
1
  6
CENTERLINE
 62
4
 10
1.2452995E+002
 20
9.4692E+001
 11
1.2452995E+002
 21
2.32635E+002
  0
VIEWPORT
 67
1
  8
0
  6
CONTINUOUS
 62
3
100
AcDbViewport
 10
2.1E+002
 20
1.485E+002
 30
0.0
 40
2.97E+002
 41
2.97E+002
 68
1
 69
1
1001
ACAD
1000
MVIEW
1002
{
1070
16
1010
0.0
1020
0.0
1030
0.0
1010
0.0
1020
0.0
1030
1.0
1040
0.0
1040
2.97E+002
1040
1.155E+002
1040
1.485E+002
1040
5.0E+001
1040
0.0
1040
0.0
1070
0
1070
1000
1070
1
1070
0
1070
0
1070
0
1070
0
1070
0
1040
0.0
1040
0.0
1040
0.0
1040
5.0E-001
1040
5.0E-001
1040
5.0E-001
1040
5.0E-001
1070
0
1002
{
1002
}
1002
}
  0
VIEWPORT
 67
1
  8
Drafting_Hidden_Entities
100
AcDbViewport
 62
3
 10
2.1E+002
 20
1.485E+002
 30
0.0
 40
4.2E+002
 41
2.97E+002
 68
2
 69
2
1001
ACAD
1000
MVIEW
1002
{
1070
16
1010
0.0
1020
0.0
1030
0.0
1010
0.0
1020
0.0
1030
1.0
1040
0.0
1040
2.97E+002
1040
2.1E+002
1040
1.485E+002
1040
5.0E+001
1040
0.0
1040
0.0
1070
0
1070
1000
1070
1
1070
0
1070
0
1070
0
1070
0
1070
0
1040
0.0
1040
0.0
1040
0.0
1040
5.0E-001
1040
5.0E-001
1040
5.0E-001
1040
5.0E-001
1070
0
1002
{
1002
}
1002
}
  0
ENDSEC
  0
EOF
