  0
SECTION
  2
HEADER
  9
$ACADVER
  1
AC1014
999
I-DEAS 13 NX Not Encoded
  9
$EXTMIN
 10
0.0
 20
0.0
  9
$EXTMAX
 10
6.0E+002
 20
2.1E+002
  9
$TEXTSIZE
 40
1.25E-001
  9
$LTSCALE
 40
1.0
  9
$CLAYER
  8
1
  9
$CECOLOR
 62
1
  9
$DIMASZ
 40
1.25E-001
  9
$DIMEXO
 40
6.25E-002
  9
$DIMDLI
 40
2.5E-001
  9
$DIMEXE
 40
1.25E-001
  9
$DIMTP
 40
5.0E-003
  9
$DIMTM
 40
-5.0E-003
  9
$DIMTXT
 40
3.0
  9
$DIMLIM
 70
0
  9
$DIMTIH
 70
1
  9
$DIMTOH
 70
1
  9
$DIMSE1
 70
0
  9
$DIMSE2
 70
0
  9
$DIMTAD
 70
0
  9
$DIMASO
 70
1
  9
$DIMALT
 70
0
  9
$DIMALTD
 70
0
  9
$DIMTOFL
 70
1
  9
$DIMTIX
 70
0
  9
$DIMSAH
 70
0
  9
$DIMSTYLE
  2
DSTYLE1
  9
$DIMTFAC
 40
1.0
  9
$DIMGAP
 40
6.25E-002
  9
$LUNITS
 70
2
  9
$LUPREC
 70
3
  9
$FILLETRAD
 40
7.0E-001
  9
$AUNITS
 70
0
  9
$AUPREC
 70
1
  9
$CHAMFERA
 40
1.0
  9
$CHAMFERB
 40
1.0
  9
$ANGBASE
 50
0.0
  9
$ANGDIR
 70
0
  9
$PEXTMIN
 10
0.0
 20
0.0
 30
0.0
  9
$PEXTMAX
 10
6.0E+002
 20
2.1E+002
 30
0.0
  9
$PLIMMIN
 10
0.0
 20
0.0
  9
$PLIMMAX
 10
6.0E+002
 20
2.1E+002
  9
$PDMODE
 70
2
  9
$PDSIZE
 40
-1.0E-002
  9
$SPLINETYPE
 70
6
  9
$TILEMODE
 70
0
  9
$HANDLING
 70
1
  9
$HANDSEED
  5
f4240
  0
ENDSEC
  0
SECTION
  2
TABLES
  0
TABLE
  2
VPORT
  5
64
100
AcDbSymbolTable
 70
2
  0
VPORT
  5
65
100
AcDbSymbolTableRecord
100
AcDbViewportTableRecord
  2
*Active
 70
0
 10
0.0
 20
0.0
 11
6.0E+002
 21
2.1E+002
 12
3.0E+002
 22
1.05E+002
 13
0.0
 23
0.0
 14
1.0
 24
1.0
 15
0.0
 25
0.0
 16
0.0
 26
0.0
 36
1.0
 17
0.0
 27
0.0
 37
0.0
 40
2.1E+002
 41
2.8571429
 42
5.0E+001
 43
0.0
 44
0.0
 50
0.0
 51
0.0
 71
0
 72
1000
 73
1
 74
3
 75
0
 76
0
 77
0
 78
0
  0
ENDTAB
  0
TABLE
  2
LTYPE
  5
66
100
AcDbSymbolTable
 70
7
  0
LTYPE
  5
67
100
AcDbSymbolTableRecord
100
AcDbLinetypeTableRecord
  2
BYBLOCK
 70
0
  3

 72
65
 73
0
 40
0.0
  0
LTYPE
  5
68
100
AcDbSymbolTableRecord
100
AcDbLinetypeTableRecord
  2
BYLAYER
 70
0
  3

 72
65
 73
0
 40
0.0
  0
LTYPE
  5
69
100
AcDbSymbolTableRecord
100
AcDbLinetypeTableRecord
  2
CONTINUOUS
 70
0
  3

 72
65
 73
0
 40
0.0
  0
LTYPE
  5
6a
100
AcDbSymbolTableRecord
100
AcDbLinetypeTableRecord
  2
HIDDENNEW0
  3
_ 
 70
64
 72
65
 73
3
 40
4.5
 49
1.5
 74
0
 49
-1.5
 74
0
 49
1.5
 74
0
  0
LTYPE
  5
6b
100
AcDbSymbolTableRecord
100
AcDbLinetypeTableRecord
  2
HIDDENNEW1
  3
_ 
 70
64
 72
65
 73
3
 40
4.5
 49
1.5
 74
0
 49
-1.5
 74
0
 49
1.5
 74
0
  0
LTYPE
  5
6c
100
AcDbSymbolTableRecord
100
AcDbLinetypeTableRecord
  2
HIDDEN
  3
_ 
 70
64
 72
65
 73
3
 40
4.5
 49
1.5
 74
0
 49
-1.5
 74
0
 49
1.5
 74
0
  0
LTYPE
  5
6d
100
AcDbSymbolTableRecord
100
AcDbLinetypeTableRecord
  2
CENTERLINE
  3
_ 
 70
64
 72
65
 73
5
 40
3.0E+001
 49
1.2E+001
 74
0
 49
-1.5
 74
0
 49
3.0
 74
0
 49
-1.5
 74
0
 49
1.2E+001
 74
0
  0
LTYPE
  5
6e
100
AcDbSymbolTableRecord
100
AcDbLinetypeTableRecord
  2
PHANTOM
  3
_ 
 70
64
 72
65
 73
7
 40
2.95E+001
 49
9.5
 74
0
 49
-1.5
 74
0
 49
3.0
 74
0
 49
-1.5
 74
0
 49
3.0
 74
0
 49
-1.5
 74
0
 49
9.5
 74
0
  0
LTYPE
  5
6f
100
AcDbSymbolTableRecord
100
AcDbLinetypeTableRecord
  2
SHORT_DASH
  3
_ 
 70
64
 72
65
 73
3
 40
3.0
 49
7.5E-001
 74
0
 49
-1.5
 74
0
 49
7.5E-001
 74
0
  0
LTYPE
  5
70
100
AcDbSymbolTableRecord
100
AcDbLinetypeTableRecord
  2
LONG_DASH
  3
_ 
 70
64
 72
65
 73
3
 40
9.0
 49
2.25
 74
0
 49
-4.5
 74
0
 49
2.25
 74
0
  0
ENDTAB
  0
TABLE
  2
LAYER
  5
71
100
AcDbSymbolTable
 70
258
  0
LAYER
  5
72
100
AcDbSymbolTableRecord
100
AcDbLayerTableRecord
  2
0
 70
0
 62
7
  6
CONTINUOUS
  0
LAYER
  5
73
100
AcDbSymbolTableRecord
100
AcDbLayerTableRecord
  2
1
 70
0
 62
7
  6
CONTINUOUS
  0
LAYER
  5
74
100
AcDbSymbolTableRecord
100
AcDbLayerTableRecord
  2
AM_VIEWS
 70
0
 62
3
  6
CONTINUOUS
  0
LAYER
  5
75
100
AcDbSymbolTableRecord
100
AcDbLayerTableRecord
  2
Drafting_Hidden_Entities
 70
1
 62
7
  6
CONTINUOUS
  0
ENDTAB
  0
TABLE
  2
STYLE
  5
76
100
AcDbSymbolTable
 70
1
  0
STYLE
  5
77
100
AcDbSymbolTableRecord
100
AcDbTextStyleTableRecord
  2
STANDARD
 70
64
 40
0.0
 41
1.0
 50
0.0
 71
0
 42
1.0
  3
monotxt.shx
  4
bigfont.shx
  0
ENDTAB
  0
TABLE
  2
VIEW
  5
78
100
AcDbSymbolTable
 70
0
  0
ENDTAB
  0
TABLE
  2
UCS
  5
79
100
AcDbSymbolTable
 70
0
  0
ENDTAB
  0
TABLE
  2
APPID
  5
7a
100
AcDbSymbolTable
 70
1
  0
APPID
  5
7b
100
AcDbSymbolTableRecord
100
AcDbRegAppTableRecord
  2
ACAD
 70
1
  0
ENDTAB
  0
TABLE
  2
DIMSTYLE
  5
7c
100
AcDbSymbolTable
 70
6
  0
DIMSTYLE
105
7d
100
AcDbSymbolTableRecord
100
AcDbDimStyleTableRecord
  2
DSTYLE1
 70
0
  3

  4

  5

  6

  7

 40
1.0
 41
1.5
 42
6.0E-001
 43
3.8E-001
 44
1.2
 45
1.0E-002
 46
0.0
 47
1.0
 48
1.0
 71
0
 72
0
 73
0
 74
0
 75
0
 76
0
 77
1
 78
11
140
3.0
141
9.0E-002
142
0.0
143
3.9370079E-002
144
1.0
145
0.0
146
1.0
147
6.0E-001
170
0
171
2
172
0
173
0
174
0
175
0
176
0
177
0
178
0
270
2
271
2
272
4
273
2
274
2
275
0
280
0
281
0
282
0
283
1
284
0
285
0
286
0
287
3
288
0
  0
DIMSTYLE
105
7e
100
AcDbSymbolTableRecord
100
AcDbDimStyleTableRecord
  2
DSTYLE2
 70
0
  3

  4

  5

  6

  7

 40
1.0
 41
1.5
 42
5.0E-001
 43
3.8E-001
 44
5.0E-001
 45
1.0E-002
 46
0.0
 47
1.0
 48
1.0
 71
0
 72
0
 73
0
 74
0
 75
1
 76
0
 77
1
 78
3
140
3.0
141
9.0E-002
142
0.0
143
3.9370079E-002
144
1.0
145
0.0
146
1.0
147
5.0E-001
170
0
171
2
172
0
173
0
174
0
175
0
176
0
177
0
178
0
270
2
271
2
272
4
273
2
274
2
275
0
280
0
281
0
282
0
283
1
284
0
285
0
286
0
287
3
288
0
  0
DIMSTYLE
105
7f
100
AcDbSymbolTableRecord
100
AcDbDimStyleTableRecord
  2
DSTYLE3
 70
0
  3

  4

  5

  6

  7

 40
1.0
 41
1.5
 42
1.8
 43
3.8E-001
 44
1.2
 45
1.0E-002
 46
0.0
 47
1.0
 48
1.0
 71
0
 72
0
 73
0
 74
0
 75
0
 76
0
 77
1
 78
11
140
3.0
141
9.0E-002
142
0.0
143
3.9370079E-002
144
1.0
145
0.0
146
1.0
147
6.0E-001
170
0
171
2
172
0
173
0
174
0
175
0
176
0
177
0
178
0
270
2
271
2
272
4
273
2
274
2
275
0
280
0
281
0
282
0
283
1
284
0
285
0
286
0
287
3
288
0
  0
DIMSTYLE
105
80
100
AcDbSymbolTableRecord
100
AcDbDimStyleTableRecord
  2
DSTYLE4
 70
0
  3

  4

  5

  6

  7

 40
1.0
 41
1.5
 42
1.8
 43
3.8E-001
 44
1.2
 45
1.0E-002
 46
0.0
 47
1.0
 48
1.0
 71
0
 72
0
 73
0
 74
0
 75
1
 76
0
 77
1
 78
11
140
3.0
141
9.0E-002
142
0.0
143
3.9370079E-002
144
1.0
145
0.0
146
1.0
147
6.0E-001
170
0
171
2
172
0
173
0
174
0
175
0
176
0
177
0
178
0
270
2
271
2
272
4
273
2
274
2
275
0
280
0
281
0
282
0
283
1
284
0
285
0
286
0
287
3
288
0
  0
DIMSTYLE
105
81
100
AcDbSymbolTableRecord
100
AcDbDimStyleTableRecord
  2
DSTYLE5
 70
0
  3

  4

  5

  6

  7

 40
1.0
 41
1.5
 42
1.8
 43
3.8E-001
 44
1.2
 45
1.0E-002
 46
0.0
 47
1.0
 48
1.0
 71
0
 72
0
 73
0
 74
0
 75
1
 76
1
 77
1
 78
11
140
3.0
141
9.0E-002
142
0.0
143
3.9370079E-002
144
1.0
145
0.0
146
1.0
147
6.0E-001
170
0
171
2
172
0
173
0
174
0
175
0
176
0
177
0
178
0
270
2
271
2
272
4
273
2
274
2
275
0
280
0
281
0
282
0
283
1
284
0
285
0
286
0
287
3
288
0
  0
DIMSTYLE
105
82
100
AcDbSymbolTableRecord
100
AcDbDimStyleTableRecord
  2
DSTYLE6
 70
0
  3

  4

  5

  6

  7

 40
1.0
 41
1.5
 42
5.0E-001
 43
3.8E-001
 44
5.0E-001
 45
1.0E-008
 46
0.0
 47
1.0
 48
1.0
 71
0
 72
0
 73
0
 74
0
 75
0
 76
0
 77
1
 78
11
140
3.0
141
9.0E-002
142
0.0
143
3.9370079E-002
144
1.0
145
0.0
146
1.0
147
5.0E-001
170
0
171
2
172
0
173
0
174
0
175
0
176
0
177
0
178
0
270
2
271
8
272
4
273
2
274
2
275
0
280
0
281
0
282
0
283
1
284
0
285
0
286
0
287
3
288
0
  0
ENDTAB
  0
TABLE
  2
BLOCK_RECORD
  5
83
100
AcDbSymbolTable
 70
0
  0
BLOCK_RECORD
  5
84
100
AcDbSymbolTableRecord
100
AcDbBlockTableRecord
  2
*MODEL_SPACE
  0
BLOCK_RECORD
  5
85
100
AcDbSymbolTableRecord
100
AcDbBlockTableRecord
  2
*PAPER_SPACE
  0
BLOCK_RECORD
  5
86
100
AcDbSymbolTableRecord
100
AcDbBlockTableRecord
  2
*D42
  0
BLOCK_RECORD
  5
87
100
AcDbSymbolTableRecord
100
AcDbBlockTableRecord
  2
*D43
  0
BLOCK_RECORD
  5
88
100
AcDbSymbolTableRecord
100
AcDbBlockTableRecord
  2
*D341
  0
BLOCK_RECORD
  5
89
100
AcDbSymbolTableRecord
100
AcDbBlockTableRecord
  2
*D343
  0
BLOCK_RECORD
  5
8a
100
AcDbSymbolTableRecord
100
AcDbBlockTableRecord
  2
*D344
  0
BLOCK_RECORD
  5
8b
100
AcDbSymbolTableRecord
100
AcDbBlockTableRecord
  2
*D348
  0
BLOCK_RECORD
  5
8c
100
AcDbSymbolTableRecord
100
AcDbBlockTableRecord
  2
_AH1
  0
BLOCK_RECORD
  5
8d
100
AcDbSymbolTableRecord
100
AcDbBlockTableRecord
  2
_AH2
  0
BLOCK_RECORD
  5
8e
100
AcDbSymbolTableRecord
100
AcDbBlockTableRecord
  2
_AH12
  3
_AH
  0
BLOCK_RECORD
  5
8f
100
AcDbSymbolTableRecord
100
AcDbBlockTableRecord
  2
_AH13
  3
_AH
  0
BLOCK_RECORD
  5
90
100
AcDbSymbolTableRecord
100
AcDbBlockTableRecord
  2
_AH14
  3
_AH
  0
BLOCK_RECORD
  5
91
100
AcDbSymbolTableRecord
100
AcDbBlockTableRecord
  2
_AH15
  3
_AH
  0
BLOCK_RECORD
  5
92
100
AcDbSymbolTableRecord
100
AcDbBlockTableRecord
  2
_AH16
  3
_AH
  0
BLOCK_RECORD
  5
93
100
AcDbSymbolTableRecord
100
AcDbBlockTableRecord
  2
_AH17
  3
_AH
  0
BLOCK_RECORD
  5
94
100
AcDbSymbolTableRecord
100
AcDbBlockTableRecord
  2
_AH18
  3
_AH
  0
BLOCK_RECORD
  5
95
100
AcDbSymbolTableRecord
100
AcDbBlockTableRecord
  2
_AH19
  3
_AH
  0
BLOCK_RECORD
  5
96
100
AcDbSymbolTableRecord
100
AcDbBlockTableRecord
  2
_AH20
  3
_AH
  0
BLOCK_RECORD
  5
97
100
AcDbSymbolTableRecord
100
AcDbBlockTableRecord
  2
_AH21
  3
_AH
  0
BLOCK_RECORD
  5
98
100
AcDbSymbolTableRecord
100
AcDbBlockTableRecord
  2
BTO6_1524_ANA
  0
BLOCK_RECORD
  5
99
100
AcDbSymbolTableRecord
100
AcDbBlockTableRecord
  2
BTO6_762_ANA
  0
BLOCK_RECORD
  5
9a
100
AcDbSymbolTableRecord
100
AcDbBlockTableRecord
  2
*TX593
  3
*TX
  0
ENDTAB
  0
ENDSEC
  0
SECTION
  2
BLOCKS
  0
BLOCK
  5
9b
100
AcDbEntity
100
AcDbBlockBegin
  2
*MODEL_SPACE
 70
0
 10
0.0
 20
0.0
 30
0.0
  3
*MODEL_SPACE
  1

  0
ENDBLK
  5
9c
100
AcDbEntity
100
AcDbBlockEnd
  0
BLOCK
  5
9d
100
AcDbEntity
100
AcDbBlockBegin
  2
*PAPER_SPACE
 70
0
 10
0.0
 20
0.0
 30
0.0
  3
*PAPER_SPACE
  1

  0
ENDBLK
  5
9e
100
AcDbEntity
100
AcDbBlockEnd
  0
BLOCK
  5
9f
100
AcDbEntity
100
AcDbBlockBegin
  2
_AH12
  3
_AH
 10
0.0
 20
0.0
 70
64
  0
LINE
  5
a0
100
AcDbEntity
  8
0
100
AcDbLine
  6
CONTINUOUS
 62
0
 10
0.0
 20
0.0
 11
1.0
 21
0.0
  0
LINE
  5
a1
100
AcDbEntity
  8
0
100
AcDbLine
  6
CONTINUOUS
 62
0
 10
0.0
 20
0.0
 11
-1.0
 21
0.0
  0
ENDBLK
  5
a2
100
AcDbEntity
100
AcDbBlockEnd
  0
BLOCK
  5
a3
100
AcDbEntity
100
AcDbBlockBegin
  2
_AH13
  3
_AH
 10
0.0
 20
0.0
 70
64
  0
SOLID
  5
a4
100
AcDbEntity
  8
0
100
AcDbTrace
  6
CONTINUOUS
 62
0
 10
0.0
 20
0.0
 11
1.0
 21
-1.66667E-001
 12
1.0
 22
1.66667E-001
 13
0.0
 23
0.0
  0
ENDBLK
  5
a5
100
AcDbEntity
100
AcDbBlockEnd
  0
BLOCK
  5
a6
100
AcDbEntity
100
AcDbBlockBegin
  2
_AH14
  3
_AH
 10
0.0
 20
0.0
 70
64
  0
ENDBLK
  5
a7
100
AcDbEntity
100
AcDbBlockEnd
  0
BLOCK
  5
a8
100
AcDbEntity
100
AcDbBlockBegin
  2
_AH15
  3
_AH
 10
0.0
 20
0.0
 70
64
  0
CIRCLE
  5
a9
100
AcDbEntity
  8
0
100
AcDbCircle
  6
CONTINUOUS
 62
0
 10
0.0
 20
0.0
 40
1.66667E-001
  0
LINE
  5
aa
100
AcDbEntity
  8
0
100
AcDbLine
  6
CONTINUOUS
 62
0
 10
0.0
 20
0.0
 11
-1.0
 21
0.0
  0
ENDBLK
  5
ab
100
AcDbEntity
100
AcDbBlockEnd
  0
BLOCK
  5
ac
100
AcDbEntity
100
AcDbBlockBegin
  2
_AH16
  3
_AH
 10
0.0
 20
0.0
 70
64
  0
POLYLINE
  5
ad
100
AcDbEntity
  8
0
100
AcDb2dPolyline
  6
CONTINUOUS
 62
0
 66
1
 40
1.66667E-001
 41
1.66667E-001
 70
0
  0
VERTEX
  5
ae
100
AcDbEntity
  8
0
100
AcDbVertex
100
AcDb2dVertex
 42
1.0
 10
8.3335E-002
 20
0.0
 70
0
  0
VERTEX
  5
af
100
AcDbEntity
  8
0
100
AcDbVertex
100
AcDb2dVertex
 42
1.0
 10
-8.3335E-002
 20
0.0
 70
0
  0
VERTEX
  5
b0
100
AcDbEntity
  8
0
100
AcDbVertex
100
AcDb2dVertex
 42
0.0
 10
8.3335E-002
 20
0.0
 70
0
  0
SEQEND
  5
b1
100
AcDbEntity
  0
LINE
  5
b2
100
AcDbEntity
  8
0
100
AcDbLine
  6
CONTINUOUS
 62
0
 10
0.0
 20
0.0
 11
-1.0
 21
0.0
  0
ENDBLK
  5
b3
100
AcDbEntity
100
AcDbBlockEnd
  0
BLOCK
  5
b4
100
AcDbEntity
100
AcDbBlockBegin
  2
_AH17
  3
_AH
 10
0.0
 20
0.0
 70
64
  0
LINE
  5
b5
100
AcDbEntity
  8
0
100
AcDbLine
  6
CONTINUOUS
 62
0
 10
-1.66667E-001
 20
-1.66667E-001
 11
1.66667E-001
 21
-1.66667E-001
  0
LINE
  5
b6
100
AcDbEntity
  8
0
100
AcDbLine
  6
CONTINUOUS
 62
0
 10
1.66667E-001
 20
-1.66667E-001
 11
1.66667E-001
 21
1.66667E-001
  0
LINE
  5
b7
100
AcDbEntity
  8
0
100
AcDbLine
  6
CONTINUOUS
 62
0
 10
1.66667E-001
 20
1.66667E-001
 11
-1.66667E-001
 21
1.66667E-001
  0
LINE
  5
b8
100
AcDbEntity
  8
0
100
AcDbLine
  6
CONTINUOUS
 62
0
 10
-1.66667E-001
 20
1.66667E-001
 11
-1.66667E-001
 21
-1.66667E-001
  0
LINE
  5
b9
100
AcDbEntity
  8
0
100
AcDbLine
  6
CONTINUOUS
 62
0
 10
0.0
 20
0.0
 11
-1.0
 21
0.0
  0
ENDBLK
  5
ba
100
AcDbEntity
100
AcDbBlockEnd
  0
BLOCK
  5
bb
100
AcDbEntity
100
AcDbBlockBegin
  2
_AH18
  3
_AH
 10
0.0
 20
0.0
 70
64
  0
SOLID
  5
bc
100
AcDbEntity
  8
0
100
AcDbTrace
  6
CONTINUOUS
 62
0
 10
-1.66667E-001
 20
-1.66667E-001
 11
1.66667E-001
 21
-1.66667E-001
 12
-1.66667E-001
 22
1.66667E-001
 13
1.66667E-001
 23
1.66667E-001
  0
LINE
  5
bd
100
AcDbEntity
  8
0
100
AcDbLine
  6
CONTINUOUS
 62
0
 10
0.0
 20
0.0
 11
-1.0
 21
0.0
  0
ENDBLK
  5
be
100
AcDbEntity
100
AcDbBlockEnd
  0
BLOCK
  5
bf
100
AcDbEntity
100
AcDbBlockBegin
  2
_AH19
  3
_AH
 10
0.0
 20
0.0
 70
64
  0
LINE
  5
c0
100
AcDbEntity
  8
0
100
AcDbLine
  6
CONTINUOUS
 62
0
 10
-5.0E-001
 20
-5.0E-001
 11
5.0E-001
 21
5.0E-001
  0
LINE
  5
c1
100
AcDbEntity
  8
0
100
AcDbLine
  6
CONTINUOUS
 62
0
 10
0.0
 20
0.0
 11
-1.0
 21
0.0
  0
ENDBLK
  5
c2
100
AcDbEntity
100
AcDbBlockEnd
  0
BLOCK
  5
c3
100
AcDbEntity
100
AcDbBlockBegin
  2
_AH20
  3
_AH
 10
0.0
 20
0.0
 70
64
  0
POLYLINE
  5
c4
100
AcDbEntity
  8
0
100
AcDb2dPolyline
  6
CONTINUOUS
 62
0
 66
1
 40
5.0E-001
 41
5.0E-001
 70
0
  0
VERTEX
  5
c5
100
AcDbEntity
  8
0
100
AcDbVertex
100
AcDb2dVertex
 42
4.1421356E-001
 10
-1.66667E-001
 20
-1.66667E-001
 70
0
  0
VERTEX
  5
c6
100
AcDbEntity
  8
0
100
AcDbVertex
100
AcDb2dVertex
 42
0.0
 10
0.0
 20
0.0
 70
0
  0
SEQEND
  5
c7
100
AcDbEntity
  0
POLYLINE
  5
c8
100
AcDbEntity
  8
0
100
AcDb2dPolyline
  6
CONTINUOUS
 62
0
 66
1
 40
5.0E-001
 41
5.0E-001
 70
0
  0
VERTEX
  5
c9
100
AcDbEntity
  8
0
100
AcDbVertex
100
AcDb2dVertex
 42
4.1421356E-001
 10
1.66667E-001
 20
1.66667E-001
 70
0
  0
VERTEX
  5
ca
100
AcDbEntity
  8
0
100
AcDbVertex
100
AcDb2dVertex
 42
0.0
 10
0.0
 20
0.0
 70
0
  0
SEQEND
  5
cb
100
AcDbEntity
  0
LINE
  5
cc
100
AcDbEntity
  8
0
100
AcDbLine
  6
CONTINUOUS
 62
0
 10
0.0
 20
0.0
 11
-1.0
 21
0.0
  0
ENDBLK
  5
cd
100
AcDbEntity
100
AcDbBlockEnd
  0
BLOCK
  5
ce
100
AcDbEntity
100
AcDbBlockBegin
  2
_AH21
  3
_AH
 10
0.0
 20
0.0
 70
64
  0
LINE
  5
cf
100
AcDbEntity
  8
0
100
AcDbLine
  6
CONTINUOUS
 62
0
 10
0.0
 20
0.0
 11
-1.0
 21
-1.66667E-001
  0
LINE
  5
d0
100
AcDbEntity
  8
0
100
AcDbLine
  6
CONTINUOUS
 62
0
 10
-1.0
 20
-1.66667E-001
 11
-1.0
 21
1.66667E-001
  0
LINE
  5
d1
100
AcDbEntity
  8
0
100
AcDbLine
  6
CONTINUOUS
 62
0
 10
-1.0
 20
1.66667E-001
 11
0.0
 21
0.0
  0
ENDBLK
  5
d2
100
AcDbEntity
100
AcDbBlockEnd
  0
BLOCK
  5
d3
100
AcDbEntity
100
AcDbBlockBegin
  2
BTO6_1524_ANA
 10
0.0
 20
0.0
 70
0
  0
LINE
  5
d4
100
AcDbEntity
  8
1
100
AcDbLine
  6
CONTINUOUS
 62
7
 10
7.35E+001
 20
-6.99
 11
7.35E+001
 21
-1.299E+001
  0
LINE
  5
d5
100
AcDbEntity
  8
1
100
AcDbLine
  6
CONTINUOUS
 62
7
 10
7.54E+001
 20
-6.99
 11
7.54E+001
 21
-1.299E+001
  0
ARC
  5
d6
100
AcDbEntity
  8
1
100
AcDbCircle
  6
CONTINUOUS
 62
7
 10
7.445E+001
 20
-6.99
 40
9.5E-001
100
AcDbArc
 50
0.0
 51
1.8E+002
  0
ARC
  5
d7
100
AcDbEntity
  8
1
100
AcDbCircle
  6
CONTINUOUS
 62
7
 10
7.445E+001
 20
-1.299E+001
 40
9.5E-001
100
AcDbArc
 50
1.8E+002
 51
3.6E+002
  0
LINE
  5
d8
100
AcDbEntity
  8
1
100
AcDbLine
  6
CONTINUOUS
 62
7
 10
7.89E+001
 20
-6.99
 11
7.89E+001
 21
-1.299E+001
  0
LINE
  5
d9
100
AcDbEntity
  8
1
100
AcDbLine
  6
CONTINUOUS
 62
7
 10
7.7E+001
 20
-6.99
 11
7.7E+001
 21
-1.299E+001
  0
ARC
  5
da
100
AcDbEntity
  8
1
100
AcDbCircle
  6
CONTINUOUS
 62
7
 10
7.795E+001
 20
-6.99
 40
9.5E-001
100
AcDbArc
 50
0.0
 51
1.8E+002
  0
ARC
  5
db
100
AcDbEntity
  8
1
100
AcDbCircle
  6
CONTINUOUS
 62
7
 10
7.795E+001
 20
-1.299E+001
 40
9.5E-001
100
AcDbArc
 50
1.8E+002
 51
3.6E+002
  0
LINE
  5
dc
100
AcDbEntity
  8
1
100
AcDbLine
  6
CONTINUOUS
 62
7
 10
6.825
 20
-5.85
 11
6.825
 21
-1.185E+001
  0
LINE
  5
dd
100
AcDbEntity
  8
1
100
AcDbLine
  6
CONTINUOUS
 62
7
 10
8.725
 20
-5.85
 11
8.725
 21
-1.185E+001
  0
ARC
  5
de
100
AcDbEntity
  8
1
100
AcDbCircle
  6
CONTINUOUS
 62
7
 10
7.775
 20
-5.85
 40
9.5E-001
100
AcDbArc
 50
0.0
 51
1.8E+002
  0
ARC
  5
df
100
AcDbEntity
  8
1
100
AcDbCircle
  6
CONTINUOUS
 62
7
 10
7.775
 20
-1.185E+001
 40
9.5E-001
100
AcDbArc
 50
1.8E+002
 51
3.6E+002
  0
LINE
  5
e0
100
AcDbEntity
  8
1
100
AcDbLine
  6
CONTINUOUS
 62
7
 10
1.2225E+001
 20
-5.85
 11
1.2225E+001
 21
-1.185E+001
  0
LINE
  5
e1
100
AcDbEntity
  8
1
100
AcDbLine
  6
CONTINUOUS
 62
7
 10
1.0325E+001
 20
-5.85
 11
1.0325E+001
 21
-1.185E+001
  0
ARC
  5
e2
100
AcDbEntity
  8
1
100
AcDbCircle
  6
CONTINUOUS
 62
7
 10
1.1275E+001
 20
-5.85
 40
9.5E-001
100
AcDbArc
 50
0.0
 51
1.8E+002
  0
ARC
  5
e3
100
AcDbEntity
  8
1
100
AcDbCircle
  6
CONTINUOUS
 62
7
 10
1.1275E+001
 20
-1.185E+001
 40
9.5E-001
100
AcDbArc
 50
1.8E+002
 51
3.6E+002
  0
LINE
  5
e4
100
AcDbEntity
  8
1
100
AcDbLine
  6
CONTINUOUS
 62
7
 10
1.635E+001
 20
-6.99
 11
1.635E+001
 21
-1.299E+001
  0
LINE
  5
e5
100
AcDbEntity
  8
1
100
AcDbLine
  6
CONTINUOUS
 62
7
 10
1.825E+001
 20
-6.99
 11
1.825E+001
 21
-1.299E+001
  0
ARC
  5
e6
100
AcDbEntity
  8
1
100
AcDbCircle
  6
CONTINUOUS
 62
7
 10
1.73E+001
 20
-6.99
 40
9.5E-001
100
AcDbArc
 50
0.0
 51
1.8E+002
  0
ARC
  5
e7
100
AcDbEntity
  8
1
100
AcDbCircle
  6
CONTINUOUS
 62
7
 10
1.73E+001
 20
-1.299E+001
 40
9.5E-001
100
AcDbArc
 50
1.8E+002
 51
3.6E+002
  0
LINE
  5
e8
100
AcDbEntity
  8
1
100
AcDbLine
  6
CONTINUOUS
 62
7
 10
2.175E+001
 20
-6.99
 11
2.175E+001
 21
-1.299E+001
  0
LINE
  5
e9
100
AcDbEntity
  8
1
100
AcDbLine
  6
CONTINUOUS
 62
7
 10
1.985E+001
 20
-6.99
 11
1.985E+001
 21
-1.299E+001
  0
ARC
  5
ea
100
AcDbEntity
  8
1
100
AcDbCircle
  6
CONTINUOUS
 62
7
 10
2.08E+001
 20
-6.99
 40
9.5E-001
100
AcDbArc
 50
0.0
 51
1.8E+002
  0
ARC
  5
eb
100
AcDbEntity
  8
1
100
AcDbCircle
  6
CONTINUOUS
 62
7
 10
2.08E+001
 20
-1.299E+001
 40
9.5E-001
100
AcDbArc
 50
1.8E+002
 51
3.6E+002
  0
LINE
  5
ec
100
AcDbEntity
  8
1
100
AcDbLine
  6
CONTINUOUS
 62
7
 10
2.5875E+001
 20
-5.85
 11
2.5875E+001
 21
-1.185E+001
  0
LINE
  5
ed
100
AcDbEntity
  8
1
100
AcDbLine
  6
CONTINUOUS
 62
7
 10
2.7775E+001
 20
-5.85
 11
2.7775E+001
 21
-1.185E+001
  0
ARC
  5
ee
100
AcDbEntity
  8
1
100
AcDbCircle
  6
CONTINUOUS
 62
7
 10
2.6825E+001
 20
-5.85
 40
9.5E-001
100
AcDbArc
 50
0.0
 51
1.8E+002
  0
ARC
  5
ef
100
AcDbEntity
  8
1
100
AcDbCircle
  6
CONTINUOUS
 62
7
 10
2.6825E+001
 20
-1.185E+001
 40
9.5E-001
100
AcDbArc
 50
1.8E+002
 51
3.6E+002
  0
LINE
  5
f0
100
AcDbEntity
  8
1
100
AcDbLine
  6
CONTINUOUS
 62
7
 10
3.1275E+001
 20
-5.85
 11
3.1275E+001
 21
-1.185E+001
  0
LINE
  5
f1
100
AcDbEntity
  8
1
100
AcDbLine
  6
CONTINUOUS
 62
7
 10
2.9375E+001
 20
-5.85
 11
2.9375E+001
 21
-1.185E+001
  0
ARC
  5
f2
100
AcDbEntity
  8
1
100
AcDbCircle
  6
CONTINUOUS
 62
7
 10
3.0325E+001
 20
-5.85
 40
9.5E-001
100
AcDbArc
 50
0.0
 51
1.8E+002
  0
ARC
  5
f3
100
AcDbEntity
  8
1
100
AcDbCircle
  6
CONTINUOUS
 62
7
 10
3.0325E+001
 20
-1.185E+001
 40
9.5E-001
100
AcDbArc
 50
1.8E+002
 51
3.6E+002
  0
LINE
  5
f4
100
AcDbEntity
  8
1
100
AcDbLine
  6
CONTINUOUS
 62
7
 10
3.715E+001
 20
-6.99
 11
3.715E+001
 21
-1.299E+001
  0
LINE
  5
f5
100
AcDbEntity
  8
1
100
AcDbLine
  6
CONTINUOUS
 62
7
 10
3.905E+001
 20
-6.99
 11
3.905E+001
 21
-1.299E+001
  0
ARC
  5
f6
100
AcDbEntity
  8
1
100
AcDbCircle
  6
CONTINUOUS
 62
7
 10
3.81E+001
 20
-6.99
 40
9.5E-001
100
AcDbArc
 50
0.0
 51
1.8E+002
  0
ARC
  5
f7
100
AcDbEntity
  8
1
100
AcDbCircle
  6
CONTINUOUS
 62
7
 10
3.81E+001
 20
-1.299E+001
 40
9.5E-001
100
AcDbArc
 50
1.8E+002
 51
3.6E+002
  0
LINE
  5
f8
100
AcDbEntity
  8
1
100
AcDbLine
  6
CONTINUOUS
 62
7
 10
4.4925E+001
 20
-5.85
 11
4.4925E+001
 21
-1.185E+001
  0
LINE
  5
f9
100
AcDbEntity
  8
1
100
AcDbLine
  6
CONTINUOUS
 62
7
 10
4.6825E+001
 20
-5.85
 11
4.6825E+001
 21
-1.185E+001
  0
ARC
  5
fa
100
AcDbEntity
  8
1
100
AcDbCircle
  6
CONTINUOUS
 62
7
 10
4.5875E+001
 20
-5.85
 40
9.5E-001
100
AcDbArc
 50
0.0
 51
1.8E+002
  0
ARC
  5
fb
100
AcDbEntity
  8
1
100
AcDbCircle
  6
CONTINUOUS
 62
7
 10
4.5875E+001
 20
-1.185E+001
 40
9.5E-001
100
AcDbArc
 50
1.8E+002
 51
3.6E+002
  0
LINE
  5
fc
100
AcDbEntity
  8
1
100
AcDbLine
  6
CONTINUOUS
 62
7
 10
5.0325E+001
 20
-5.85
 11
5.0325E+001
 21
-1.185E+001
  0
LINE
  5
fd
100
AcDbEntity
  8
1
100
AcDbLine
  6
CONTINUOUS
 62
7
 10
4.8425E+001
 20
-5.85
 11
4.8425E+001
 21
-1.185E+001
  0
ARC
  5
fe
100
AcDbEntity
  8
1
100
AcDbCircle
  6
CONTINUOUS
 62
7
 10
4.9375E+001
 20
-5.85
 40
9.5E-001
100
AcDbArc
 50
0.0
 51
1.8E+002
  0
ARC
  5
ff
100
AcDbEntity
  8
1
100
AcDbCircle
  6
CONTINUOUS
 62
7
 10
4.9375E+001
 20
-1.185E+001
 40
9.5E-001
100
AcDbArc
 50
1.8E+002
 51
3.6E+002
  0
LINE
  5
100
100
AcDbEntity
  8
1
100
AcDbLine
  6
CONTINUOUS
 62
7
 10
5.445E+001
 20
-6.99
 11
5.445E+001
 21
-1.299E+001
  0
LINE
  5
101
100
AcDbEntity
  8
1
100
AcDbLine
  6
CONTINUOUS
 62
7
 10
5.635E+001
 20
-6.99
 11
5.635E+001
 21
-1.299E+001
  0
ARC
  5
102
100
AcDbEntity
  8
1
100
AcDbCircle
  6
CONTINUOUS
 62
7
 10
5.54E+001
 20
-6.99
 40
9.5E-001
100
AcDbArc
 50
0.0
 51
1.8E+002
  0
ARC
  5
103
100
AcDbEntity
  8
1
100
AcDbCircle
  6
CONTINUOUS
 62
7
 10
5.54E+001
 20
-1.299E+001
 40
9.5E-001
100
AcDbArc
 50
1.8E+002
 51
3.6E+002
  0
LINE
  5
104
100
AcDbEntity
  8
1
100
AcDbLine
  6
CONTINUOUS
 62
7
 10
5.985E+001
 20
-6.99
 11
5.985E+001
 21
-1.299E+001
  0
LINE
  5
105
100
AcDbEntity
  8
1
100
AcDbLine
  6
CONTINUOUS
 62
7
 10
5.795E+001
 20
-6.99
 11
5.795E+001
 21
-1.299E+001
  0
ARC
  5
106
100
AcDbEntity
  8
1
100
AcDbCircle
  6
CONTINUOUS
 62
7
 10
5.89E+001
 20
-6.99
 40
9.5E-001
100
AcDbArc
 50
0.0
 51
1.8E+002
  0
ARC
  5
107
100
AcDbEntity
  8
1
100
AcDbCircle
  6
CONTINUOUS
 62
7
 10
5.89E+001
 20
-1.299E+001
 40
9.5E-001
100
AcDbArc
 50
1.8E+002
 51
3.6E+002
  0
LINE
  5
108
100
AcDbEntity
  8
1
100
AcDbLine
  6
CONTINUOUS
 62
7
 10
6.3975E+001
 20
-5.85
 11
6.3975E+001
 21
-1.185E+001
  0
LINE
  5
109
100
AcDbEntity
  8
1
100
AcDbLine
  6
CONTINUOUS
 62
7
 10
6.5875E+001
 20
-5.85
 11
6.5875E+001
 21
-1.185E+001
  0
ARC
  5
10a
100
AcDbEntity
  8
1
100
AcDbCircle
  6
CONTINUOUS
 62
7
 10
6.4925E+001
 20
-5.85
 40
9.5E-001
100
AcDbArc
 50
0.0
 51
1.8E+002
  0
ARC
  5
10b
100
AcDbEntity
  8
1
100
AcDbCircle
  6
CONTINUOUS
 62
7
 10
6.4925E+001
 20
-1.185E+001
 40
9.5E-001
100
AcDbArc
 50
1.8E+002
 51
3.6E+002
  0
LINE
  5
10c
100
AcDbEntity
  8
1
100
AcDbLine
  6
CONTINUOUS
 62
7
 10
6.9375E+001
 20
-5.85
 11
6.9375E+001
 21
-1.185E+001
  0
LINE
  5
10d
100
AcDbEntity
  8
1
100
AcDbLine
  6
CONTINUOUS
 62
7
 10
6.7475E+001
 20
-5.85
 11
6.7475E+001
 21
-1.185E+001
  0
ARC
  5
10e
100
AcDbEntity
  8
1
100
AcDbCircle
  6
CONTINUOUS
 62
7
 10
6.8425E+001
 20
-5.85
 40
9.5E-001
100
AcDbArc
 50
0.0
 51
1.8E+002
  0
ARC
  5
10f
100
AcDbEntity
  8
1
100
AcDbCircle
  6
CONTINUOUS
 62
7
 10
6.8425E+001
 20
-1.185E+001
 40
9.5E-001
100
AcDbArc
 50
1.8E+002
 51
3.6E+002
  0
LINE
  5
110
100
AcDbEntity
  8
1
100
AcDbLine
  6
CONTINUOUS
 62
7
 10
8.3025E+001
 20
-5.85
 11
8.3025E+001
 21
-1.185E+001
  0
LINE
  5
111
100
AcDbEntity
  8
1
100
AcDbLine
  6
CONTINUOUS
 62
7
 10
8.4925E+001
 20
-5.85
 11
8.4925E+001
 21
-1.185E+001
  0
ARC
  5
112
100
AcDbEntity
  8
1
100
AcDbCircle
  6
CONTINUOUS
 62
7
 10
8.3975E+001
 20
-5.85
 40
9.5E-001
100
AcDbArc
 50
0.0
 51
1.8E+002
  0
ARC
  5
113
100
AcDbEntity
  8
1
100
AcDbCircle
  6
CONTINUOUS
 62
7
 10
8.3975E+001
 20
-1.185E+001
 40
9.5E-001
100
AcDbArc
 50
1.8E+002
 51
3.6E+002
  0
LINE
  5
114
100
AcDbEntity
  8
1
100
AcDbLine
  6
CONTINUOUS
 62
7
 10
8.8425E+001
 20
-5.85
 11
8.8425E+001
 21
-1.185E+001
  0
LINE
  5
115
100
AcDbEntity
  8
1
100
AcDbLine
  6
CONTINUOUS
 62
7
 10
8.6525E+001
 20
-5.85
 11
8.6525E+001
 21
-1.185E+001
  0
ARC
  5
116
100
AcDbEntity
  8
1
100
AcDbCircle
  6
CONTINUOUS
 62
7
 10
8.7475E+001
 20
-5.85
 40
9.5E-001
100
AcDbArc
 50
0.0
 51
1.8E+002
  0
ARC
  5
117
100
AcDbEntity
  8
1
100
AcDbCircle
  6
CONTINUOUS
 62
7
 10
8.7475E+001
 20
-1.185E+001
 40
9.5E-001
100
AcDbArc
 50
1.8E+002
 51
3.6E+002
  0
LINE
  5
118
100
AcDbEntity
  8
1
100
AcDbLine
  6
CONTINUOUS
 62
7
 10
9.255E+001
 20
-6.99
 11
9.255E+001
 21
-1.299E+001
  0
LINE
  5
119
100
AcDbEntity
  8
1
100
AcDbLine
  6
CONTINUOUS
 62
7
 10
9.445E+001
 20
-6.99
 11
9.445E+001
 21
-1.299E+001
  0
ARC
  5
11a
100
AcDbEntity
  8
1
100
AcDbCircle
  6
CONTINUOUS
 62
7
 10
9.35E+001
 20
-6.99
 40
9.5E-001
100
AcDbArc
 50
0.0
 51
1.8E+002
  0
ARC
  5
11b
100
AcDbEntity
  8
1
100
AcDbCircle
  6
CONTINUOUS
 62
7
 10
9.35E+001
 20
-1.299E+001
 40
9.5E-001
100
AcDbArc
 50
1.8E+002
 51
3.6E+002
  0
LINE
  5
11c
100
AcDbEntity
  8
1
100
AcDbLine
  6
CONTINUOUS
 62
7
 10
9.795E+001
 20
-6.99
 11
9.795E+001
 21
-1.299E+001
  0
LINE
  5
11d
100
AcDbEntity
  8
1
100
AcDbLine
  6
CONTINUOUS
 62
7
 10
9.605E+001
 20
-6.99
 11
9.605E+001
 21
-1.299E+001
  0
ARC
  5
11e
100
AcDbEntity
  8
1
100
AcDbCircle
  6
CONTINUOUS
 62
7
 10
9.7E+001
 20
-6.99
 40
9.5E-001
100
AcDbArc
 50
0.0
 51
1.8E+002
  0
ARC
  5
11f
100
AcDbEntity
  8
1
100
AcDbCircle
  6
CONTINUOUS
 62
7
 10
9.7E+001
 20
-1.299E+001
 40
9.5E-001
100
AcDbArc
 50
1.8E+002
 51
3.6E+002
  0
LINE
  5
120
100
AcDbEntity
  8
1
100
AcDbLine
  6
CONTINUOUS
 62
7
 10
1.02075E+002
 20
-5.85
 11
1.02075E+002
 21
-1.185E+001
  0
LINE
  5
121
100
AcDbEntity
  8
1
100
AcDbLine
  6
CONTINUOUS
 62
7
 10
1.03975E+002
 20
-5.85
 11
1.03975E+002
 21
-1.185E+001
  0
ARC
  5
122
100
AcDbEntity
  8
1
100
AcDbCircle
  6
CONTINUOUS
 62
7
 10
1.03025E+002
 20
-5.85
 40
9.5E-001
100
AcDbArc
 50
0.0
 51
1.8E+002
  0
ARC
  5
123
100
AcDbEntity
  8
1
100
AcDbCircle
  6
CONTINUOUS
 62
7
 10
1.03025E+002
 20
-1.185E+001
 40
9.5E-001
100
AcDbArc
 50
1.8E+002
 51
3.6E+002
  0
LINE
  5
124
100
AcDbEntity
  8
1
100
AcDbLine
  6
CONTINUOUS
 62
7
 10
1.07475E+002
 20
-5.85
 11
1.07475E+002
 21
-1.185E+001
  0
LINE
  5
125
100
AcDbEntity
  8
1
100
AcDbLine
  6
CONTINUOUS
 62
7
 10
1.05575E+002
 20
-5.85
 11
1.05575E+002
 21
-1.185E+001
  0
ARC
  5
126
100
AcDbEntity
  8
1
100
AcDbCircle
  6
CONTINUOUS
 62
7
 10
1.06525E+002
 20
-5.85
 40
9.5E-001
100
AcDbArc
 50
0.0
 51
1.8E+002
  0
ARC
  5
127
100
AcDbEntity
  8
1
100
AcDbCircle
  6
CONTINUOUS
 62
7
 10
1.06525E+002
 20
-1.185E+001
 40
9.5E-001
100
AcDbArc
 50
1.8E+002
 51
3.6E+002
  0
LINE
  5
128
100
AcDbEntity
  8
1
100
AcDbLine
  6
CONTINUOUS
 62
7
 10
1.1335E+002
 20
-6.99
 11
1.1335E+002
 21
-1.299E+001
  0
LINE
  5
129
100
AcDbEntity
  8
1
100
AcDbLine
  6
CONTINUOUS
 62
7
 10
1.1525E+002
 20
-6.99
 11
1.1525E+002
 21
-1.299E+001
  0
ARC
  5
12a
100
AcDbEntity
  8
1
100
AcDbCircle
  6
CONTINUOUS
 62
7
 10
1.143E+002
 20
-6.99
 40
9.5E-001
100
AcDbArc
 50
0.0
 51
1.8E+002
  0
ARC
  5
12b
100
AcDbEntity
  8
1
100
AcDbCircle
  6
CONTINUOUS
 62
7
 10
1.143E+002
 20
-1.299E+001
 40
9.5E-001
100
AcDbArc
 50
1.8E+002
 51
3.6E+002
  0
LINE
  5
12c
100
AcDbEntity
  8
1
100
AcDbLine
  6
CONTINUOUS
 62
7
 10
1.21125E+002
 20
-5.85
 11
1.21125E+002
 21
-1.185E+001
  0
LINE
  5
12d
100
AcDbEntity
  8
1
100
AcDbLine
  6
CONTINUOUS
 62
7
 10
1.23025E+002
 20
-5.85
 11
1.23025E+002
 21
-1.185E+001
  0
ARC
  5
12e
100
AcDbEntity
  8
1
100
AcDbCircle
  6
CONTINUOUS
 62
7
 10
1.22075E+002
 20
-5.85
 40
9.5E-001
100
AcDbArc
 50
0.0
 51
1.8E+002
  0
ARC
  5
12f
100
AcDbEntity
  8
1
100
AcDbCircle
  6
CONTINUOUS
 62
7
 10
1.22075E+002
 20
-1.185E+001
 40
9.5E-001
100
AcDbArc
 50
1.8E+002
 51
3.6E+002
  0
LINE
  5
130
100
AcDbEntity
  8
1
100
AcDbLine
  6
CONTINUOUS
 62
7
 10
1.26525E+002
 20
-5.85
 11
1.26525E+002
 21
-1.185E+001
  0
LINE
  5
131
100
AcDbEntity
  8
1
100
AcDbLine
  6
CONTINUOUS
 62
7
 10
1.24625E+002
 20
-5.85
 11
1.24625E+002
 21
-1.185E+001
  0
ARC
  5
132
100
AcDbEntity
  8
1
100
AcDbCircle
  6
CONTINUOUS
 62
7
 10
1.25575E+002
 20
-5.85
 40
9.5E-001
100
AcDbArc
 50
0.0
 51
1.8E+002
  0
ARC
  5
133
100
AcDbEntity
  8
1
100
AcDbCircle
  6
CONTINUOUS
 62
7
 10
1.25575E+002
 20
-1.185E+001
 40
9.5E-001
100
AcDbArc
 50
1.8E+002
 51
3.6E+002
  0
LINE
  5
134
100
AcDbEntity
  8
1
100
AcDbLine
  6
CONTINUOUS
 62
7
 10
1.3065E+002
 20
-6.99
 11
1.3065E+002
 21
-1.299E+001
  0
LINE
  5
135
100
AcDbEntity
  8
1
100
AcDbLine
  6
CONTINUOUS
 62
7
 10
1.3255E+002
 20
-6.99
 11
1.3255E+002
 21
-1.299E+001
  0
ARC
  5
136
100
AcDbEntity
  8
1
100
AcDbCircle
  6
CONTINUOUS
 62
7
 10
1.316E+002
 20
-6.99
 40
9.5E-001
100
AcDbArc
 50
0.0
 51
1.8E+002
  0
ARC
  5
137
100
AcDbEntity
  8
1
100
AcDbCircle
  6
CONTINUOUS
 62
7
 10
1.316E+002
 20
-1.299E+001
 40
9.5E-001
100
AcDbArc
 50
1.8E+002
 51
3.6E+002
  0
LINE
  5
138
100
AcDbEntity
  8
1
100
AcDbLine
  6
CONTINUOUS
 62
7
 10
1.3605E+002
 20
-6.99
 11
1.3605E+002
 21
-1.299E+001
  0
LINE
  5
139
100
AcDbEntity
  8
1
100
AcDbLine
  6
CONTINUOUS
 62
7
 10
1.3415E+002
 20
-6.99
 11
1.3415E+002
 21
-1.299E+001
  0
ARC
  5
13a
100
AcDbEntity
  8
1
100
AcDbCircle
  6
CONTINUOUS
 62
7
 10
1.351E+002
 20
-6.99
 40
9.5E-001
100
AcDbArc
 50
0.0
 51
1.8E+002
  0
ARC
  5
13b
100
AcDbEntity
  8
1
100
AcDbCircle
  6
CONTINUOUS
 62
7
 10
1.351E+002
 20
-1.299E+001
 40
9.5E-001
100
AcDbArc
 50
1.8E+002
 51
3.6E+002
  0
LINE
  5
13c
100
AcDbEntity
  8
1
100
AcDbLine
  6
CONTINUOUS
 62
7
 10
1.40175E+002
 20
-5.85
 11
1.40175E+002
 21
-1.185E+001
  0
LINE
  5
13d
100
AcDbEntity
  8
1
100
AcDbLine
  6
CONTINUOUS
 62
7
 10
1.42075E+002
 20
-5.85
 11
1.42075E+002
 21
-1.185E+001
  0
ARC
  5
13e
100
AcDbEntity
  8
1
100
AcDbCircle
  6
CONTINUOUS
 62
7
 10
1.41125E+002
 20
-5.85
 40
9.5E-001
100
AcDbArc
 50
0.0
 51
1.8E+002
  0
ARC
  5
13f
100
AcDbEntity
  8
1
100
AcDbCircle
  6
CONTINUOUS
 62
7
 10
1.41125E+002
 20
-1.185E+001
 40
9.5E-001
100
AcDbArc
 50
1.8E+002
 51
3.6E+002
  0
LINE
  5
140
100
AcDbEntity
  8
1
100
AcDbLine
  6
CONTINUOUS
 62
7
 10
1.45575E+002
 20
-5.85
 11
1.45575E+002
 21
-1.185E+001
  0
LINE
  5
141
100
AcDbEntity
  8
1
100
AcDbLine
  6
CONTINUOUS
 62
7
 10
1.43675E+002
 20
-5.85
 11
1.43675E+002
 21
-1.185E+001
  0
ARC
  5
142
100
AcDbEntity
  8
1
100
AcDbCircle
  6
CONTINUOUS
 62
7
 10
1.44625E+002
 20
-5.85
 40
9.5E-001
100
AcDbArc
 50
0.0
 51
1.8E+002
  0
ARC
  5
143
100
AcDbEntity
  8
1
100
AcDbCircle
  6
CONTINUOUS
 62
7
 10
1.44625E+002
 20
-1.185E+001
 40
9.5E-001
100
AcDbArc
 50
1.8E+002
 51
3.6E+002
  0
POINT
  5
144
100
AcDbEntity
  8
Drafting_Hidden_Entities
100
AcDbPoint
  6
CONTINUOUS
 62
1
 10
0.0
 20
0.0
  0
ENDBLK
  5
145
100
AcDbEntity
100
AcDbBlockEnd
  0
BLOCK
  5
146
100
AcDbEntity
100
AcDbBlockBegin
  2
BTO6_762_ANA
 10
0.0
 20
0.0
 70
0
  0
LINE
  5
147
100
AcDbEntity
  8
1
100
AcDbLine
  6
CONTINUOUS
 62
7
 10
6.825
 20
-5.85
 11
6.825
 21
-1.185E+001
  0
LINE
  5
148
100
AcDbEntity
  8
1
100
AcDbLine
  6
CONTINUOUS
 62
7
 10
8.725
 20
-5.85
 11
8.725
 21
-1.185E+001
  0
ARC
  5
149
100
AcDbEntity
  8
1
100
AcDbCircle
  6
CONTINUOUS
 62
7
 10
7.775
 20
-5.85
 40
9.5E-001
100
AcDbArc
 50
0.0
 51
1.8E+002
  0
ARC
  5
14a
100
AcDbEntity
  8
1
100
AcDbCircle
  6
CONTINUOUS
 62
7
 10
7.775
 20
-1.185E+001
 40
9.5E-001
100
AcDbArc
 50
1.8E+002
 51
3.6E+002
  0
LINE
  5
14b
100
AcDbEntity
  8
1
100
AcDbLine
  6
CONTINUOUS
 62
7
 10
1.2225E+001
 20
-5.85
 11
1.2225E+001
 21
-1.185E+001
  0
LINE
  5
14c
100
AcDbEntity
  8
1
100
AcDbLine
  6
CONTINUOUS
 62
7
 10
1.0325E+001
 20
-5.85
 11
1.0325E+001
 21
-1.185E+001
  0
ARC
  5
14d
100
AcDbEntity
  8
1
100
AcDbCircle
  6
CONTINUOUS
 62
7
 10
1.1275E+001
 20
-5.85
 40
9.5E-001
100
AcDbArc
 50
0.0
 51
1.8E+002
  0
ARC
  5
14e
100
AcDbEntity
  8
1
100
AcDbCircle
  6
CONTINUOUS
 62
7
 10
1.1275E+001
 20
-1.185E+001
 40
9.5E-001
100
AcDbArc
 50
1.8E+002
 51
3.6E+002
  0
LINE
  5
14f
100
AcDbEntity
  8
1
100
AcDbLine
  6
CONTINUOUS
 62
7
 10
1.635E+001
 20
-6.99
 11
1.635E+001
 21
-1.299E+001
  0
LINE
  5
150
100
AcDbEntity
  8
1
100
AcDbLine
  6
CONTINUOUS
 62
7
 10
1.825E+001
 20
-6.99
 11
1.825E+001
 21
-1.299E+001
  0
ARC
  5
151
100
AcDbEntity
  8
1
100
AcDbCircle
  6
CONTINUOUS
 62
7
 10
1.73E+001
 20
-6.99
 40
9.5E-001
100
AcDbArc
 50
0.0
 51
1.8E+002
  0
ARC
  5
152
100
AcDbEntity
  8
1
100
AcDbCircle
  6
CONTINUOUS
 62
7
 10
1.73E+001
 20
-1.299E+001
 40
9.5E-001
100
AcDbArc
 50
1.8E+002
 51
3.6E+002
  0
LINE
  5
153
100
AcDbEntity
  8
1
100
AcDbLine
  6
CONTINUOUS
 62
7
 10
2.175E+001
 20
-6.99
 11
2.175E+001
 21
-1.299E+001
  0
LINE
  5
154
100
AcDbEntity
  8
1
100
AcDbLine
  6
CONTINUOUS
 62
7
 10
1.985E+001
 20
-6.99
 11
1.985E+001
 21
-1.299E+001
  0
ARC
  5
155
100
AcDbEntity
  8
1
100
AcDbCircle
  6
CONTINUOUS
 62
7
 10
2.08E+001
 20
-6.99
 40
9.5E-001
100
AcDbArc
 50
0.0
 51
1.8E+002
  0
ARC
  5
156
100
AcDbEntity
  8
1
100
AcDbCircle
  6
CONTINUOUS
 62
7
 10
2.08E+001
 20
-1.299E+001
 40
9.5E-001
100
AcDbArc
 50
1.8E+002
 51
3.6E+002
  0
LINE
  5
157
100
AcDbEntity
  8
1
100
AcDbLine
  6
CONTINUOUS
 62
7
 10
2.5875E+001
 20
-5.85
 11
2.5875E+001
 21
-1.185E+001
  0
LINE
  5
158
100
AcDbEntity
  8
1
100
AcDbLine
  6
CONTINUOUS
 62
7
 10
2.7775E+001
 20
-5.85
 11
2.7775E+001
 21
-1.185E+001
  0
ARC
  5
159
100
AcDbEntity
  8
1
100
AcDbCircle
  6
CONTINUOUS
 62
7
 10
2.6825E+001
 20
-5.85
 40
9.5E-001
100
AcDbArc
 50
0.0
 51
1.8E+002
  0
ARC
  5
15a
100
AcDbEntity
  8
1
100
AcDbCircle
  6
CONTINUOUS
 62
7
 10
2.6825E+001
 20
-1.185E+001
 40
9.5E-001
100
AcDbArc
 50
1.8E+002
 51
3.6E+002
  0
LINE
  5
15b
100
AcDbEntity
  8
1
100
AcDbLine
  6
CONTINUOUS
 62
7
 10
3.1275E+001
 20
-5.85
 11
3.1275E+001
 21
-1.185E+001
  0
LINE
  5
15c
100
AcDbEntity
  8
1
100
AcDbLine
  6
CONTINUOUS
 62
7
 10
2.9375E+001
 20
-5.85
 11
2.9375E+001
 21
-1.185E+001
  0
ARC
  5
15d
100
AcDbEntity
  8
1
100
AcDbCircle
  6
CONTINUOUS
 62
7
 10
3.0325E+001
 20
-5.85
 40
9.5E-001
100
AcDbArc
 50
0.0
 51
1.8E+002
  0
ARC
  5
15e
100
AcDbEntity
  8
1
100
AcDbCircle
  6
CONTINUOUS
 62
7
 10
3.0325E+001
 20
-1.185E+001
 40
9.5E-001
100
AcDbArc
 50
1.8E+002
 51
3.6E+002
  0
LINE
  5
15f
100
AcDbEntity
  8
1
100
AcDbLine
  6
CONTINUOUS
 62
7
 10
3.715E+001
 20
-6.99
 11
3.715E+001
 21
-1.299E+001
  0
LINE
  5
160
100
AcDbEntity
  8
1
100
AcDbLine
  6
CONTINUOUS
 62
7
 10
3.905E+001
 20
-6.99
 11
3.905E+001
 21
-1.299E+001
  0
ARC
  5
161
100
AcDbEntity
  8
1
100
AcDbCircle
  6
CONTINUOUS
 62
7
 10
3.81E+001
 20
-6.99
 40
9.5E-001
100
AcDbArc
 50
0.0
 51
1.8E+002
  0
ARC
  5
162
100
AcDbEntity
  8
1
100
AcDbCircle
  6
CONTINUOUS
 62
7
 10
3.81E+001
 20
-1.299E+001
 40
9.5E-001
100
AcDbArc
 50
1.8E+002
 51
3.6E+002
  0
LINE
  5
163
100
AcDbEntity
  8
1
100
AcDbLine
  6
CONTINUOUS
 62
7
 10
4.4925E+001
 20
-5.85
 11
4.4925E+001
 21
-1.185E+001
  0
LINE
  5
164
100
AcDbEntity
  8
1
100
AcDbLine
  6
CONTINUOUS
 62
7
 10
4.6825E+001
 20
-5.85
 11
4.6825E+001
 21
-1.185E+001
  0
ARC
  5
165
100
AcDbEntity
  8
1
100
AcDbCircle
  6
CONTINUOUS
 62
7
 10
4.5875E+001
 20
-5.85
 40
9.5E-001
100
AcDbArc
 50
0.0
 51
1.8E+002
  0
ARC
  5
166
100
AcDbEntity
  8
1
100
AcDbCircle
  6
CONTINUOUS
 62
7
 10
4.5875E+001
 20
-1.185E+001
 40
9.5E-001
100
AcDbArc
 50
1.8E+002
 51
3.6E+002
  0
LINE
  5
167
100
AcDbEntity
  8
1
100
AcDbLine
  6
CONTINUOUS
 62
7
 10
5.0325E+001
 20
-5.85
 11
5.0325E+001
 21
-1.185E+001
  0
LINE
  5
168
100
AcDbEntity
  8
1
100
AcDbLine
  6
CONTINUOUS
 62
7
 10
4.8425E+001
 20
-5.85
 11
4.8425E+001
 21
-1.185E+001
  0
ARC
  5
169
100
AcDbEntity
  8
1
100
AcDbCircle
  6
CONTINUOUS
 62
7
 10
4.9375E+001
 20
-5.85
 40
9.5E-001
100
AcDbArc
 50
0.0
 51
1.8E+002
  0
ARC
  5
16a
100
AcDbEntity
  8
1
100
AcDbCircle
  6
CONTINUOUS
 62
7
 10
4.9375E+001
 20
-1.185E+001
 40
9.5E-001
100
AcDbArc
 50
1.8E+002
 51
3.6E+002
  0
LINE
  5
16b
100
AcDbEntity
  8
1
100
AcDbLine
  6
CONTINUOUS
 62
7
 10
5.445E+001
 20
-6.99
 11
5.445E+001
 21
-1.299E+001
  0
LINE
  5
16c
100
AcDbEntity
  8
1
100
AcDbLine
  6
CONTINUOUS
 62
7
 10
5.635E+001
 20
-6.99
 11
5.635E+001
 21
-1.299E+001
  0
ARC
  5
16d
100
AcDbEntity
  8
1
100
AcDbCircle
  6
CONTINUOUS
 62
7
 10
5.54E+001
 20
-6.99
 40
9.5E-001
100
AcDbArc
 50
0.0
 51
1.8E+002
  0
ARC
  5
16e
100
AcDbEntity
  8
1
100
AcDbCircle
  6
CONTINUOUS
 62
7
 10
5.54E+001
 20
-1.299E+001
 40
9.5E-001
100
AcDbArc
 50
1.8E+002
 51
3.6E+002
  0
LINE
  5
16f
100
AcDbEntity
  8
1
100
AcDbLine
  6
CONTINUOUS
 62
7
 10
5.985E+001
 20
-6.99
 11
5.985E+001
 21
-1.299E+001
  0
LINE
  5
170
100
AcDbEntity
  8
1
100
AcDbLine
  6
CONTINUOUS
 62
7
 10
5.795E+001
 20
-6.99
 11
5.795E+001
 21
-1.299E+001
  0
ARC
  5
171
100
AcDbEntity
  8
1
100
AcDbCircle
  6
CONTINUOUS
 62
7
 10
5.89E+001
 20
-6.99
 40
9.5E-001
100
AcDbArc
 50
0.0
 51
1.8E+002
  0
ARC
  5
172
100
AcDbEntity
  8
1
100
AcDbCircle
  6
CONTINUOUS
 62
7
 10
5.89E+001
 20
-1.299E+001
 40
9.5E-001
100
AcDbArc
 50
1.8E+002
 51
3.6E+002
  0
LINE
  5
173
100
AcDbEntity
  8
1
100
AcDbLine
  6
CONTINUOUS
 62
7
 10
6.3975E+001
 20
-5.85
 11
6.3975E+001
 21
-1.185E+001
  0
LINE
  5
174
100
AcDbEntity
  8
1
100
AcDbLine
  6
CONTINUOUS
 62
7
 10
6.5875E+001
 20
-5.85
 11
6.5875E+001
 21
-1.185E+001
  0
ARC
  5
175
100
AcDbEntity
  8
1
100
AcDbCircle
  6
CONTINUOUS
 62
7
 10
6.4925E+001
 20
-5.85
 40
9.5E-001
100
AcDbArc
 50
0.0
 51
1.8E+002
  0
ARC
  5
176
100
AcDbEntity
  8
1
100
AcDbCircle
  6
CONTINUOUS
 62
7
 10
6.4925E+001
 20
-1.185E+001
 40
9.5E-001
100
AcDbArc
 50
1.8E+002
 51
3.6E+002
  0
LINE
  5
177
100
AcDbEntity
  8
1
100
AcDbLine
  6
CONTINUOUS
 62
7
 10
6.9375E+001
 20
-5.85
 11
6.9375E+001
 21
-1.185E+001
  0
LINE
  5
178
100
AcDbEntity
  8
1
100
AcDbLine
  6
CONTINUOUS
 62
7
 10
6.7475E+001
 20
-5.85
 11
6.7475E+001
 21
-1.185E+001
  0
ARC
  5
179
100
AcDbEntity
  8
1
100
AcDbCircle
  6
CONTINUOUS
 62
7
 10
6.8425E+001
 20
-5.85
 40
9.5E-001
100
AcDbArc
 50
0.0
 51
1.8E+002
  0
ARC
  5
17a
100
AcDbEntity
  8
1
100
AcDbCircle
  6
CONTINUOUS
 62
7
 10
6.8425E+001
 20
-1.185E+001
 40
9.5E-001
100
AcDbArc
 50
1.8E+002
 51
3.6E+002
  0
POINT
  5
17b
100
AcDbEntity
  8
Drafting_Hidden_Entities
100
AcDbPoint
  6
CONTINUOUS
 62
1
 10
0.0
 20
0.0
  0
ENDBLK
  5
17c
100
AcDbEntity
100
AcDbBlockEnd
  0
BLOCK
  5
17d
100
AcDbEntity
100
AcDbBlockBegin
  2
*TX593
  3
*TX
 10
0.0
 20
0.0
 70
65
  0
TEXT
  5
17e
100
AcDbEntity
  8
1
100
AcDbText
  6
CONTINUOUS
 62
7
 10
-2.4
 20
0.0
 40
3.0
  1
Éi
 41
1.3333333
 72
1
 11
0.0
 21
0.0
100
AcDbText
  0
TEXT
  5
17f
100
AcDbEntity
  8
1
100
AcDbText
  6
CONTINUOUS
 62
7
 10
-2.4
 20
-4.5
 40
3.0
  1
ìs
 41
1.3333333
 72
1
 11
0.0
 21
-4.5
100
AcDbText
  0
TEXT
  5
180
100
AcDbEntity
  8
1
100
AcDbText
  6
CONTINUOUS
 62
7
 10
-2.4
 20
-9.0
 40
3.0
  1
ò¹
 41
1.3333333
 72
1
 11
0.0
 21
-9.0
100
AcDbText
  0
TEXT
  5
181
100
AcDbEntity
  8
1
100
AcDbText
  6
CONTINUOUS
 62
7
 10
-2.4
 20
-1.35E+001
 40
3.0
  1
î³
 41
1.3333333
 72
1
 11
0.0
 21
-1.35E+001
100
AcDbText
  0
ENDBLK
  5
182
100
AcDbEntity
100
AcDbBlockEnd
  0
BLOCK
  5
183
100
AcDbEntity
100
AcDbBlockBegin
  2
_AH1
 70
0
 10
0.0
 20
0.0
  3
_AH1
  0
LINE
  5
184
100
AcDbEntity
  8
0
100
AcDbLine
  6
CONTINUOUS
 62
0
 10
-1.0
 20
1.66667E-001
 11
0.0
 21
0.0
  0
LINE
  5
185
100
AcDbEntity
  8
0
100
AcDbLine
  6
CONTINUOUS
 62
0
 10
0.0
 20
0.0
 11
-1.0
 21
-1.66667E-001
  0
LINE
  5
186
100
AcDbEntity
  8
0
100
AcDbLine
  6
CONTINUOUS
 62
0
 10
-1.0
 20
1.66667E-001
 11
-1.0
 21
-1.66667E-001
  0
LINE
  5
187
100
AcDbEntity
  8
0
100
AcDbLine
  6
CONTINUOUS
 62
0
 10
0.0
 20
0.0
 11
-1.0
 21
0.0
  0
ENDBLK
  5
188
100
AcDbEntity
100
AcDbBlockEnd
  0
BLOCK
  5
189
100
AcDbEntity
100
AcDbBlockBegin
  2
_AH2
 70
0
 10
0.0
 20
0.0
  3
_AH2
  0
LINE
  5
18a
100
AcDbEntity
  8
0
100
AcDbLine
  6
CONTINUOUS
 62
0
 10
-1.0
 20
1.66667E-001
 11
0.0
 21
0.0
  0
LINE
  5
18b
100
AcDbEntity
  8
0
100
AcDbLine
  6
CONTINUOUS
 62
0
 10
0.0
 20
0.0
 11
-1.0
 21
-1.66667E-001
  0
LINE
  5
18c
100
AcDbEntity
  8
0
100
AcDbLine
  6
CONTINUOUS
 62
0
 10
0.0
 20
0.0
 11
-1.0
 21
0.0
  0
ENDBLK
  5
18d
100
AcDbEntity
100
AcDbBlockEnd
  0
BLOCK
  5
18e
100
AcDbEntity
100
AcDbBlockBegin
  2
*D42
  3
*D
 10
0.0
 20
0.0
 70
65
  0
LINE
  5
18f
100
AcDbEntity
  8
1
100
AcDbLine
  6
CONTINUOUS
 62
1
 10
3.1321035E+001
 20
1.4725089E+002
 11
2.6388711E+001
 21
1.4725089E+002
  0
LINE
  5
190
100
AcDbEntity
  8
1
100
AcDbLine
  6
CONTINUOUS
 62
1
 10
3.1321035E+001
 20
1.2820089E+002
 11
2.6388711E+001
 21
1.2820089E+002
  0
LINE
  5
191
100
AcDbEntity
  8
1
100
AcDbLine
  6
CONTINUOUS
 62
1
 10
2.7588711E+001
 20
1.4725089E+002
 11
2.7588711E+001
 21
1.3772589E+002
  0
LINE
  5
192
100
AcDbEntity
  8
1
100
AcDbLine
  6
CONTINUOUS
 62
1
 10
2.7588711E+001
 20
1.2820089E+002
 11
2.7588711E+001
 21
1.3772589E+002
  0
TEXT
  5
193
100
AcDbEntity
  8
1
100
AcDbText
  6
CONTINUOUS
 62
1
 10
2.6987711E+001
 20
1.3172589E+002
 40
3.0
  1
19.05
 41
8.0E-001
 50
9.0E+001
100
AcDbText
  0
INSERT
  5
194
100
AcDbEntity
100
AcDbBlockReference
  2
_AH2
  8
1
 62
1
 10
2.7588711E+001
 20
1.4725089E+002
 41
1.5
 42
1.5
 43
1.5
 50
9.0E+001
  0
INSERT
  5
195
100
AcDbEntity
100
AcDbBlockReference
  2
_AH2
  8
1
 62
1
 10
2.7588711E+001
 20
1.2820089E+002
 41
1.5
 42
1.5
 43
1.5
 50
2.7E+002
  0
ENDBLK
  5
196
100
AcDbEntity
100
AcDbBlockEnd
  0
BLOCK
  5
197
100
AcDbEntity
100
AcDbBlockBegin
  2
*D43
  3
*D
 10
0.0
 20
0.0
 70
65
  0
LINE
  5
198
100
AcDbEntity
  8
1
100
AcDbLine
  6
CONTINUOUS
 62
1
 10
3.1421035E+001
 20
1.0915089E+002
 11
2.6888711E+001
 21
1.0915089E+002
  0
LINE
  5
199
100
AcDbEntity
  8
1
100
AcDbLine
  6
CONTINUOUS
 62
1
 10
2.7388711E+001
 20
1.2820089E+002
 11
2.7388711E+001
 21
1.1867589E+002
  0
LINE
  5
19a
100
AcDbEntity
  8
1
100
AcDbLine
  6
CONTINUOUS
 62
1
 10
2.7388711E+001
 20
1.0915089E+002
 11
2.7388711E+001
 21
1.1867589E+002
  0
TEXT
  5
19b
100
AcDbEntity
  8
1
100
AcDbText
  6
CONTINUOUS
 62
1
 10
2.6887711E+001
 20
1.1267589E+002
 40
3.0
  1
19.05
 41
8.0E-001
 50
9.0E+001
100
AcDbText
  0
INSERT
  5
19c
100
AcDbEntity
100
AcDbBlockReference
  2
_AH2
  8
1
 62
1
 10
2.7388711E+001
 20
1.2820089E+002
 41
1.5
 42
1.5
 43
1.5
 50
9.0E+001
  0
INSERT
  5
19d
100
AcDbEntity
100
AcDbBlockReference
  2
_AH2
  8
1
 62
1
 10
2.7388711E+001
 20
1.0915089E+002
 41
1.5
 42
1.5
 43
1.5
 50
2.7E+002
  0
ENDBLK
  5
19e
100
AcDbEntity
100
AcDbBlockEnd
  0
BLOCK
  5
19f
100
AcDbEntity
100
AcDbBlockBegin
  2
*D341
  3
*D
 10
0.0
 20
0.0
 70
65
  0
LINE
  5
1a0
100
AcDbEntity
  8
1
100
AcDbLine
  6
CONTINUOUS
 62
1
 10
4.1777074E+001
 20
8.8300888E+001
 11
4.1777074E+001
 21
6.2845033E+001
  0
LINE
  5
1a1
100
AcDbEntity
  8
1
100
AcDbLine
  6
CONTINUOUS
 62
1
 10
3.3077074E+001
 20
8.8300888E+001
 11
3.3077074E+001
 21
6.2845033E+001
  0
LINE
  5
1a2
100
AcDbEntity
  8
1
100
AcDbLine
  6
CONTINUOUS
 62
1
 10
4.1777074E+001
 20
6.4045033E+001
 11
3.7427074E+001
 21
6.4045033E+001
  0
LINE
  5
1a3
100
AcDbEntity
  8
1
100
AcDbLine
  6
CONTINUOUS
 62
1
 10
3.3077074E+001
 20
6.4045033E+001
 11
3.7427074E+001
 21
6.4045033E+001
  0
TEXT
  5
1a4
100
AcDbEntity
  8
1
100
AcDbText
  6
CONTINUOUS
 62
1
 10
3.3827074E+001
 20
6.4646033E+001
 40
3.0
  1
8.7
 41
8.0E-001
 50
3.6E+002
100
AcDbText
  0
INSERT
  5
1a5
100
AcDbEntity
100
AcDbBlockReference
  2
_AH2
  8
1
 62
1
 10
4.1777074E+001
 20
6.4045033E+001
 41
1.5
 42
1.5
 43
1.5
 50
0.0
  0
INSERT
  5
1a6
100
AcDbEntity
100
AcDbBlockReference
  2
_AH2
  8
1
 62
1
 10
3.3077074E+001
 20
6.4045033E+001
 41
1.5
 42
1.5
 43
1.5
 50
1.8E+002
  0
ENDBLK
  5
1a7
100
AcDbEntity
100
AcDbBlockEnd
  0
BLOCK
  5
1a8
100
AcDbEntity
100
AcDbBlockBegin
  2
*D343
  3
*D
 10
0.0
 20
0.0
 70
65
  0
LINE
  5
1a9
100
AcDbEntity
  8
1
100
AcDbLine
  6
CONTINUOUS
 62
1
 10
3.7427074E+001
 20
8.2084511E+001
 11
3.7427074E+001
 21
7.0160721E+001
  0
LINE
  5
1aa
100
AcDbEntity
  8
1
100
AcDbLine
  6
CONTINUOUS
 62
1
 10
3.7427074E+001
 20
7.1360721E+001
 11
4.1777074E+001
 21
7.1360721E+001
  0
LINE
  5
1ab
100
AcDbEntity
  8
1
100
AcDbLine
  6
CONTINUOUS
 62
1
 10
4.1777074E+001
 20
7.1360721E+001
 11
5.603779E+001
 21
7.1360721E+001
  0
TEXT
  5
1ac
100
AcDbEntity
  8
1
100
AcDbText
  6
CONTINUOUS
 62
1
 10
4.493779E+001
 20
7.1961721E+001
 40
3.0
  1
4.35
 41
8.0E-001
 50
3.6E+002
100
AcDbText
  0
INSERT
  5
1ad
100
AcDbEntity
100
AcDbBlockReference
  2
_AH2
  8
1
 62
1
 10
4.1777074E+001
 20
7.1360721E+001
 41
1.5
 42
1.5
 43
1.5
 50
0.0
  0
INSERT
  5
1ae
100
AcDbEntity
100
AcDbBlockReference
  2
_AH2
  8
1
 62
1
 10
3.7427074E+001
 20
7.1360721E+001
 41
1.5
 42
1.5
 43
1.5
 50
1.8E+002
  0
ENDBLK
  5
1af
100
AcDbEntity
100
AcDbBlockEnd
  0
BLOCK
  5
1b0
100
AcDbEntity
100
AcDbBlockBegin
  2
*D344
  3
*D
 10
0.0
 20
0.0
 70
65
  0
LINE
  5
1b1
100
AcDbEntity
  8
1
100
AcDbLine
  6
CONTINUOUS
 62
1
 10
3.7427074E+001
 20
7.1360721E+001
 11
3.3077074E+001
 21
7.1360721E+001
  0
LINE
  5
1b2
100
AcDbEntity
  8
1
100
AcDbLine
  6
CONTINUOUS
 62
1
 10
3.3077074E+001
 20
7.1360721E+001
 11
1.7421978E+001
 21
7.1360721E+001
  0
TEXT
  5
1b3
100
AcDbEntity
  8
1
100
AcDbText
  6
CONTINUOUS
 62
1
 10
1.8921978E+001
 20
7.1961721E+001
 40
3.0
  1
4.35
 41
8.0E-001
100
AcDbText
  0
INSERT
  5
1b4
100
AcDbEntity
100
AcDbBlockReference
  2
_AH2
  8
1
 62
1
 10
3.3077074E+001
 20
7.1360721E+001
 41
1.5
 42
1.5
 43
1.5
 50
1.8E+002
  0
INSERT
  5
1b5
100
AcDbEntity
100
AcDbBlockReference
  2
_AH2
  8
1
 62
1
 10
3.7427074E+001
 20
7.1360721E+001
 41
1.5
 42
1.5
 43
1.5
 50
0.0
  0
ENDBLK
  5
1b6
100
AcDbEntity
100
AcDbBlockEnd
  0
BLOCK
  5
1b7
100
AcDbEntity
100
AcDbBlockBegin
  2
*D348
  3
*D
 10
0.0
 20
0.0
 70
65
  0
LINE
  5
1b8
100
AcDbEntity
  8
1
100
AcDbLine
  6
CONTINUOUS
 62
1
 10
9.1195604E+001
 20
1.5149589E+002
 11
9.1195604E+001
 21
1.6810536E+002
  0
LINE
  5
1b9
100
AcDbEntity
  8
1
100
AcDbLine
  6
CONTINUOUS
 62
1
 10
5.483956E+002
 20
1.5160089E+002
 11
5.483956E+002
 21
1.6810536E+002
  0
LINE
  5
1ba
100
AcDbEntity
  8
1
100
AcDbLine
  6
CONTINUOUS
 62
1
 10
9.1195604E+001
 20
1.6760536E+002
 11
3.197956E+002
 21
1.6760536E+002
  0
LINE
  5
1bb
100
AcDbEntity
  8
1
100
AcDbLine
  6
CONTINUOUS
 62
1
 10
5.483956E+002
 20
1.6760536E+002
 11
3.197956E+002
 21
1.6760536E+002
  0
TEXT
  5
1bc
100
AcDbEntity
  8
1
100
AcDbText
  6
CONTINUOUS
 62
1
 10
3.137956E+002
 20
1.6810636E+002
 40
3.0
  1
457.2
 41
8.0E-001
100
AcDbText
  0
INSERT
  5
1bd
100
AcDbEntity
100
AcDbBlockReference
  2
_AH2
  8
1
 62
1
 10
9.1195604E+001
 20
1.6760536E+002
 41
1.5
 42
1.5
 43
1.5
 50
1.8E+002
  0
INSERT
  5
1be
100
AcDbEntity
100
AcDbBlockReference
  2
_AH2
  8
1
 62
1
 10
5.483956E+002
 20
1.6760536E+002
 41
1.5
 42
1.5
 43
1.5
 50
0.0
  0
ENDBLK
  5
1bf
100
AcDbEntity
100
AcDbBlockEnd
  0
ENDSEC
  0
SECTION
  2
ENTITIES
  0
DIMENSION
  5
1c0
100
AcDbEntity
  8
1
100
AcDbDimension
  6
CONTINUOUS
 62
1
  2
*D42
  3
DSTYLE1
 10
2.7588711E+001
 20
1.2820089E+002
 11
2.5487711E+001
 21
1.3772589E+002
 70
128
100
AcDbAlignedDimension
 13
3.1921035E+001
 23
1.4725089E+002
 14
3.1921035E+001
 24
1.2820089E+002
 40
3.6
 50
2.7E+002
100
AcDbRotatedDimension
1001
ACAD
1000
DSTYLE
1002
{
1070
173
1070
0
1070
5
1000
_AH2
1002
}
  0
DIMENSION
  5
1c1
100
AcDbEntity
  8
1
100
AcDbDimension
  6
CONTINUOUS
 62
1
  2
*D43
  3
DSTYLE2
 10
2.7388711E+001
 20
1.0915089E+002
 11
2.5387711E+001
 21
1.1867589E+002
 70
128
100
AcDbAlignedDimension
 13
3.1921035E+001
 23
1.2820089E+002
 14
3.1921035E+001
 24
1.0915089E+002
 40
0.0
 50
2.7E+002
100
AcDbRotatedDimension
1001
ACAD
1000
DSTYLE
1002
{
1070
173
1070
0
1070
5
1000
_AH2
1002
}
  0
LINE
  5
1c2
100
AcDbEntity
  8
1
100
AcDbLine
  6
CONTINUOUS
 62
7
 10
4.291956E+002
 20
9.2110888E+001
 11
4.291956E+002
 21
8.6460888E+001
  0
LINE
  5
1c3
100
AcDbEntity
  8
1
100
AcDbLine
  6
CONTINUOUS
 62
7
 10
2.386956E+002
 20
5.5115069E+001
 11
2.435956E+002
 21
5.5115069E+001
  0
LINE
  5
1c4
100
AcDbEntity
  8
1
100
AcDbLine
  6
CONTINUOUS
 62
7
 10
9.6095604E+001
 20
5.5115069E+001
 11
9.1195604E+001
 21
5.5115069E+001
  0
LINE
  5
1c5
100
AcDbEntity
  8
1
100
AcDbLine
  6
CONTINUOUS
 62
7
 10
9.1195604E+001
 20
1.3171089E+002
 11
9.1195604E+001
 21
1.5110089E+002
  0
LINE
  5
1c6
100
AcDbEntity
  8
1
100
AcDbLine
  6
CONTINUOUS
 62
7
 10
9.1195604E+001
 20
1.1266089E+002
 11
9.1195604E+001
 21
1.3171089E+002
  0
LINE
  5
1c7
100
AcDbEntity
  8
1
100
AcDbLine
  6
CONTINUOUS
 62
7
 10
2.435956E+002
 20
1.3171089E+002
 11
2.435956E+002
 21
1.5110089E+002
  0
LINE
  5
1c8
100
AcDbEntity
  8
1
100
AcDbLine
  6
CONTINUOUS
 62
7
 10
5.483956E+002
 20
1.1266089E+002
 11
5.483956E+002
 21
1.3171089E+002
  0
LINE
  5
1c9
100
AcDbEntity
  8
1
100
AcDbLine
  6
CONTINUOUS
 62
7
 10
4.199456E+002
 20
9.2110888E+001
 11
4.199456E+002
 21
8.6460888E+001
  0
LINE
  5
1ca
100
AcDbEntity
  8
1
100
AcDbLine
  6
CONTINUOUS
 62
7
 10
3.964956E+002
 20
9.3110888E+001
 11
3.998956E+002
 21
9.3110888E+001
  0
LINE
  5
1cb
100
AcDbEntity
  8
1
100
AcDbLine
  6
CONTINUOUS
 62
7
 10
4.206706E+002
 20
1.0635089E+002
 11
4.284706E+002
 21
1.0635089E+002
  0
LINE
  5
1cc
100
AcDbEntity
  8
1
100
AcDbLine
  6
CONTINUOUS
 62
7
 10
4.111456E+002
 20
9.3110888E+001
 11
4.189456E+002
 21
9.3110888E+001
  0
ARC
  5
1cd
100
AcDbEntity
  8
1
100
AcDbCircle
  6
CONTINUOUS
 62
7
 10
4.111456E+002
 20
9.2110888E+001
 40
1.0
100
AcDbArc
 50
9.0E+001
 51
1.8E+002
  0
ARC
  5
1ce
100
AcDbEntity
  8
1
100
AcDbCircle
  6
CONTINUOUS
 62
7
 10
4.189456E+002
 20
9.2110888E+001
 40
1.0
100
AcDbArc
 50
0.0
 51
9.0E+001
  0
ARC
  5
1cf
100
AcDbEntity
  8
1
100
AcDbCircle
  6
CONTINUOUS
 62
7
 10
4.206706E+002
 20
1.0735089E+002
 40
1.0
100
AcDbArc
 50
1.8E+002
 51
2.7E+002
  0
ARC
  5
1d0
100
AcDbEntity
  8
1
100
AcDbCircle
  6
CONTINUOUS
 62
7
 10
4.284706E+002
 20
1.0735089E+002
 40
1.0
100
AcDbArc
 50
2.7E+002
 51
3.6E+002
  0
ARC
  5
1d1
100
AcDbEntity
  8
1
100
AcDbCircle
  6
CONTINUOUS
 62
7
 10
3.964956E+002
 20
9.3610888E+001
 40
5.0E-001
100
AcDbArc
 50
1.8E+002
 51
2.7E+002
  0
ARC
  5
1d2
100
AcDbEntity
  8
1
100
AcDbCircle
  6
CONTINUOUS
 62
7
 10
3.998956E+002
 20
9.2110888E+001
 40
1.0
100
AcDbArc
 50
0.0
 51
9.0E+001
  0
LINE
  5
1d3
100
AcDbEntity
  8
1
100
AcDbLine
  6
CONTINUOUS
 62
7
 10
4.006206E+002
 20
1.1184964E+002
 11
4.006206E+002
 21
1.0735089E+002
  0
LINE
  5
1d4
100
AcDbEntity
  8
1
100
AcDbLine
  6
CONTINUOUS
 62
7
 10
4.104206E+002
 20
1.1184964E+002
 11
4.104206E+002
 21
1.0735089E+002
  0
LINE
  5
1d5
100
AcDbEntity
  8
1
100
AcDbLine
  6
CONTINUOUS
 62
7
 10
4.196706E+002
 20
1.1184964E+002
 11
4.196706E+002
 21
1.0735089E+002
  0
LINE
  5
1d6
100
AcDbEntity
  8
1
100
AcDbLine
  6
CONTINUOUS
 62
7
 10
4.294706E+002
 20
1.1184964E+002
 11
4.294706E+002
 21
1.0735089E+002
  0
LINE
  5
1d7
100
AcDbEntity
  8
1
100
AcDbLine
  6
CONTINUOUS
 62
7
 10
4.101456E+002
 20
9.2110888E+001
 11
4.101456E+002
 21
8.6460888E+001
  0
LINE
  5
1d8
100
AcDbEntity
  8
1
100
AcDbLine
  6
CONTINUOUS
 62
7
 10
4.008956E+002
 20
9.2110888E+001
 11
4.008956E+002
 21
8.6460888E+001
  0
ARC
  5
1d9
100
AcDbEntity
  8
1
100
AcDbCircle
  6
CONTINUOUS
 62
7
 10
4.301956E+002
 20
9.2110888E+001
 40
1.0
100
AcDbArc
 50
9.0E+001
 51
1.8E+002
  0
LINE
  5
1da
100
AcDbEntity
  8
1
100
AcDbLine
  6
CONTINUOUS
 62
7
 10
4.094206E+002
 20
1.0635089E+002
 11
4.016206E+002
 21
1.0635089E+002
  0
ARC
  5
1db
100
AcDbEntity
  8
1
100
AcDbCircle
  6
CONTINUOUS
 62
7
 10
4.094206E+002
 20
1.0735089E+002
 40
1.0
100
AcDbArc
 50
2.7E+002
 51
3.6E+002
  0
ARC
  5
1dc
100
AcDbEntity
  8
1
100
AcDbCircle
  6
CONTINUOUS
 62
7
 10
4.016206E+002
 20
1.0735089E+002
 40
1.0
100
AcDbArc
 50
1.8E+002
 51
2.7E+002
  0
LINE
  5
1dd
100
AcDbEntity
  8
1
100
AcDbLine
  6
CONTINUOUS
 62
7
 10
4.482456E+002
 20
9.2110888E+001
 11
4.482456E+002
 21
8.6460888E+001
  0
LINE
  5
1de
100
AcDbEntity
  8
1
100
AcDbLine
  6
CONTINUOUS
 62
7
 10
4.389956E+002
 20
9.2110888E+001
 11
4.389956E+002
 21
8.6460888E+001
  0
LINE
  5
1df
100
AcDbEntity
  8
1
100
AcDbLine
  6
CONTINUOUS
 62
7
 10
4.397206E+002
 20
1.0635089E+002
 11
4.475206E+002
 21
1.0635089E+002
  0
ARC
  5
1e0
100
AcDbEntity
  8
1
100
AcDbCircle
  6
CONTINUOUS
 62
7
 10
4.379956E+002
 20
9.2110888E+001
 40
1.0
100
AcDbArc
 50
0.0
 51
9.0E+001
  0
ARC
  5
1e1
100
AcDbEntity
  8
1
100
AcDbCircle
  6
CONTINUOUS
 62
7
 10
4.397206E+002
 20
1.0735089E+002
 40
1.0
100
AcDbArc
 50
1.8E+002
 51
2.7E+002
  0
ARC
  5
1e2
100
AcDbEntity
  8
1
100
AcDbCircle
  6
CONTINUOUS
 62
7
 10
4.475206E+002
 20
1.0735089E+002
 40
1.0
100
AcDbArc
 50
2.7E+002
 51
3.6E+002
  0
LINE
  5
1e3
100
AcDbEntity
  8
1
100
AcDbLine
  6
CONTINUOUS
 62
7
 10
4.387206E+002
 20
1.1184964E+002
 11
4.387206E+002
 21
1.0735089E+002
  0
LINE
  5
1e4
100
AcDbEntity
  8
1
100
AcDbLine
  6
CONTINUOUS
 62
7
 10
4.485206E+002
 20
1.1184964E+002
 11
4.485206E+002
 21
1.0735089E+002
  0
ARC
  5
1e5
100
AcDbEntity
  8
1
100
AcDbCircle
  6
CONTINUOUS
 62
7
 10
4.492456E+002
 20
9.2110888E+001
 40
1.0
100
AcDbArc
 50
9.0E+001
 51
1.8E+002
  0
LINE
  5
1e6
100
AcDbEntity
  8
1
100
AcDbLine
  6
CONTINUOUS
 62
7
 10
4.301956E+002
 20
9.3110888E+001
 11
4.379956E+002
 21
9.3110888E+001
  0
LINE
  5
1e7
100
AcDbEntity
  8
1
100
AcDbLine
  6
CONTINUOUS
 62
7
 10
4.672956E+002
 20
9.2110888E+001
 11
4.672956E+002
 21
8.6460888E+001
  0
LINE
  5
1e8
100
AcDbEntity
  8
1
100
AcDbLine
  6
CONTINUOUS
 62
7
 10
4.580456E+002
 20
9.2110888E+001
 11
4.580456E+002
 21
8.6460888E+001
  0
LINE
  5
1e9
100
AcDbEntity
  8
1
100
AcDbLine
  6
CONTINUOUS
 62
7
 10
4.587706E+002
 20
1.0635089E+002
 11
4.665706E+002
 21
1.0635089E+002
  0
ARC
  5
1ea
100
AcDbEntity
  8
1
100
AcDbCircle
  6
CONTINUOUS
 62
7
 10
4.570456E+002
 20
9.2110888E+001
 40
1.0
100
AcDbArc
 50
0.0
 51
9.0E+001
  0
ARC
  5
1eb
100
AcDbEntity
  8
1
100
AcDbCircle
  6
CONTINUOUS
 62
7
 10
4.587706E+002
 20
1.0735089E+002
 40
1.0
100
AcDbArc
 50
1.8E+002
 51
2.7E+002
  0
ARC
  5
1ec
100
AcDbEntity
  8
1
100
AcDbCircle
  6
CONTINUOUS
 62
7
 10
4.665706E+002
 20
1.0735089E+002
 40
1.0
100
AcDbArc
 50
2.7E+002
 51
3.6E+002
  0
LINE
  5
1ed
100
AcDbEntity
  8
1
100
AcDbLine
  6
CONTINUOUS
 62
7
 10
4.577706E+002
 20
1.1184964E+002
 11
4.577706E+002
 21
1.0735089E+002
  0
LINE
  5
1ee
100
AcDbEntity
  8
1
100
AcDbLine
  6
CONTINUOUS
 62
7
 10
4.675706E+002
 20
1.1184964E+002
 11
4.675706E+002
 21
1.0735089E+002
  0
ARC
  5
1ef
100
AcDbEntity
  8
1
100
AcDbCircle
  6
CONTINUOUS
 62
7
 10
4.682956E+002
 20
9.2110888E+001
 40
1.0
100
AcDbArc
 50
9.0E+001
 51
1.8E+002
  0
LINE
  5
1f0
100
AcDbEntity
  8
1
100
AcDbLine
  6
CONTINUOUS
 62
7
 10
4.492456E+002
 20
9.3110888E+001
 11
4.570456E+002
 21
9.3110888E+001
  0
LINE
  5
1f1
100
AcDbEntity
  8
1
100
AcDbLine
  6
CONTINUOUS
 62
7
 10
4.863456E+002
 20
9.2110888E+001
 11
4.863456E+002
 21
8.6460888E+001
  0
LINE
  5
1f2
100
AcDbEntity
  8
1
100
AcDbLine
  6
CONTINUOUS
 62
7
 10
4.770956E+002
 20
9.2110888E+001
 11
4.770956E+002
 21
8.6460888E+001
  0
LINE
  5
1f3
100
AcDbEntity
  8
1
100
AcDbLine
  6
CONTINUOUS
 62
7
 10
4.778206E+002
 20
1.0635089E+002
 11
4.856206E+002
 21
1.0635089E+002
  0
ARC
  5
1f4
100
AcDbEntity
  8
1
100
AcDbCircle
  6
CONTINUOUS
 62
7
 10
4.760956E+002
 20
9.2110888E+001
 40
1.0
100
AcDbArc
 50
0.0
 51
9.0E+001
  0
ARC
  5
1f5
100
AcDbEntity
  8
1
100
AcDbCircle
  6
CONTINUOUS
 62
7
 10
4.778206E+002
 20
1.0735089E+002
 40
1.0
100
AcDbArc
 50
1.8E+002
 51
2.7E+002
  0
ARC
  5
1f6
100
AcDbEntity
  8
1
100
AcDbCircle
  6
CONTINUOUS
 62
7
 10
4.856206E+002
 20
1.0735089E+002
 40
1.0
100
AcDbArc
 50
2.7E+002
 51
3.6E+002
  0
LINE
  5
1f7
100
AcDbEntity
  8
1
100
AcDbLine
  6
CONTINUOUS
 62
7
 10
4.768206E+002
 20
1.1184964E+002
 11
4.768206E+002
 21
1.0735089E+002
  0
LINE
  5
1f8
100
AcDbEntity
  8
1
100
AcDbLine
  6
CONTINUOUS
 62
7
 10
4.866206E+002
 20
1.1184964E+002
 11
4.866206E+002
 21
1.0735089E+002
  0
ARC
  5
1f9
100
AcDbEntity
  8
1
100
AcDbCircle
  6
CONTINUOUS
 62
7
 10
4.873456E+002
 20
9.2110888E+001
 40
1.0
100
AcDbArc
 50
9.0E+001
 51
1.8E+002
  0
LINE
  5
1fa
100
AcDbEntity
  8
1
100
AcDbLine
  6
CONTINUOUS
 62
7
 10
4.682956E+002
 20
9.3110888E+001
 11
4.760956E+002
 21
9.3110888E+001
  0
LINE
  5
1fb
100
AcDbEntity
  8
1
100
AcDbLine
  6
CONTINUOUS
 62
7
 10
5.053956E+002
 20
9.2110888E+001
 11
5.053956E+002
 21
8.6460888E+001
  0
LINE
  5
1fc
100
AcDbEntity
  8
1
100
AcDbLine
  6
CONTINUOUS
 62
7
 10
4.961456E+002
 20
9.2110888E+001
 11
4.961456E+002
 21
8.6460888E+001
  0
LINE
  5
1fd
100
AcDbEntity
  8
1
100
AcDbLine
  6
CONTINUOUS
 62
7
 10
4.968706E+002
 20
1.0635089E+002
 11
5.046706E+002
 21
1.0635089E+002
  0
ARC
  5
1fe
100
AcDbEntity
  8
1
100
AcDbCircle
  6
CONTINUOUS
 62
7
 10
4.951456E+002
 20
9.2110888E+001
 40
1.0
100
AcDbArc
 50
0.0
 51
9.0E+001
  0
ARC
  5
1ff
100
AcDbEntity
  8
1
100
AcDbCircle
  6
CONTINUOUS
 62
7
 10
4.968706E+002
 20
1.0735089E+002
 40
1.0
100
AcDbArc
 50
1.8E+002
 51
2.7E+002
  0
ARC
  5
200
100
AcDbEntity
  8
1
100
AcDbCircle
  6
CONTINUOUS
 62
7
 10
5.046706E+002
 20
1.0735089E+002
 40
1.0
100
AcDbArc
 50
2.7E+002
 51
3.6E+002
  0
LINE
  5
201
100
AcDbEntity
  8
1
100
AcDbLine
  6
CONTINUOUS
 62
7
 10
4.958706E+002
 20
1.1184964E+002
 11
4.958706E+002
 21
1.0735089E+002
  0
LINE
  5
202
100
AcDbEntity
  8
1
100
AcDbLine
  6
CONTINUOUS
 62
7
 10
5.056706E+002
 20
1.1184964E+002
 11
5.056706E+002
 21
1.0735089E+002
  0
ARC
  5
203
100
AcDbEntity
  8
1
100
AcDbCircle
  6
CONTINUOUS
 62
7
 10
5.063956E+002
 20
9.2110888E+001
 40
1.0
100
AcDbArc
 50
9.0E+001
 51
1.8E+002
  0
LINE
  5
204
100
AcDbEntity
  8
1
100
AcDbLine
  6
CONTINUOUS
 62
7
 10
4.873456E+002
 20
9.3110888E+001
 11
4.951456E+002
 21
9.3110888E+001
  0
LINE
  5
205
100
AcDbEntity
  8
1
100
AcDbLine
  6
CONTINUOUS
 62
7
 10
5.244456E+002
 20
9.2110888E+001
 11
5.244456E+002
 21
8.6460888E+001
  0
LINE
  5
206
100
AcDbEntity
  8
1
100
AcDbLine
  6
CONTINUOUS
 62
7
 10
5.151956E+002
 20
9.2110888E+001
 11
5.151956E+002
 21
8.6460888E+001
  0
LINE
  5
207
100
AcDbEntity
  8
1
100
AcDbLine
  6
CONTINUOUS
 62
7
 10
5.159206E+002
 20
1.0635089E+002
 11
5.237206E+002
 21
1.0635089E+002
  0
ARC
  5
208
100
AcDbEntity
  8
1
100
AcDbCircle
  6
CONTINUOUS
 62
7
 10
5.141956E+002
 20
9.2110888E+001
 40
1.0
100
AcDbArc
 50
0.0
 51
9.0E+001
  0
ARC
  5
209
100
AcDbEntity
  8
1
100
AcDbCircle
  6
CONTINUOUS
 62
7
 10
5.159206E+002
 20
1.0735089E+002
 40
1.0
100
AcDbArc
 50
1.8E+002
 51
2.7E+002
  0
ARC
  5
20a
100
AcDbEntity
  8
1
100
AcDbCircle
  6
CONTINUOUS
 62
7
 10
5.237206E+002
 20
1.0735089E+002
 40
1.0
100
AcDbArc
 50
2.7E+002
 51
3.6E+002
  0
LINE
  5
20b
100
AcDbEntity
  8
1
100
AcDbLine
  6
CONTINUOUS
 62
7
 10
5.149206E+002
 20
1.1184964E+002
 11
5.149206E+002
 21
1.0735089E+002
  0
LINE
  5
20c
100
AcDbEntity
  8
1
100
AcDbLine
  6
CONTINUOUS
 62
7
 10
5.247206E+002
 20
1.1179941E+002
 11
5.247206E+002
 21
1.0735089E+002
  0
ARC
  5
20d
100
AcDbEntity
  8
1
100
AcDbCircle
  6
CONTINUOUS
 62
7
 10
5.254456E+002
 20
9.2110888E+001
 40
1.0
100
AcDbArc
 50
9.0E+001
 51
1.8E+002
  0
LINE
  5
20e
100
AcDbEntity
  8
1
100
AcDbLine
  6
CONTINUOUS
 62
7
 10
5.063956E+002
 20
9.3110888E+001
 11
5.141956E+002
 21
9.3110888E+001
  0
LINE
  5
20f
100
AcDbEntity
  8
1
100
AcDbLine
  6
CONTINUOUS
 62
7
 10
5.434956E+002
 20
9.2110888E+001
 11
5.434956E+002
 21
8.6460888E+001
  0
LINE
  5
210
100
AcDbEntity
  8
1
100
AcDbLine
  6
CONTINUOUS
 62
7
 10
5.342456E+002
 20
9.2110888E+001
 11
5.342456E+002
 21
8.6460888E+001
  0
LINE
  5
211
100
AcDbEntity
  8
1
100
AcDbLine
  6
CONTINUOUS
 62
7
 10
5.349706E+002
 20
1.0635089E+002
 11
5.427706E+002
 21
1.0635089E+002
  0
ARC
  5
212
100
AcDbEntity
  8
1
100
AcDbCircle
  6
CONTINUOUS
 62
7
 10
5.332456E+002
 20
9.2110888E+001
 40
1.0
100
AcDbArc
 50
0.0
 51
9.0E+001
  0
ARC
  5
213
100
AcDbEntity
  8
1
100
AcDbCircle
  6
CONTINUOUS
 62
7
 10
5.349706E+002
 20
1.0735089E+002
 40
1.0
100
AcDbArc
 50
1.8E+002
 51
2.7E+002
  0
ARC
  5
214
100
AcDbEntity
  8
1
100
AcDbCircle
  6
CONTINUOUS
 62
7
 10
5.427706E+002
 20
1.0735089E+002
 40
1.0
100
AcDbArc
 50
2.7E+002
 51
3.6E+002
  0
LINE
  5
215
100
AcDbEntity
  8
1
100
AcDbLine
  6
CONTINUOUS
 62
7
 10
5.339706E+002
 20
1.1184964E+002
 11
5.339706E+002
 21
1.0735089E+002
  0
LINE
  5
216
100
AcDbEntity
  8
1
100
AcDbLine
  6
CONTINUOUS
 62
7
 10
5.437706E+002
 20
1.1184964E+002
 11
5.437706E+002
 21
1.0735089E+002
  0
ARC
  5
217
100
AcDbEntity
  8
1
100
AcDbCircle
  6
CONTINUOUS
 62
7
 10
5.444956E+002
 20
9.2110888E+001
 40
1.0
100
AcDbArc
 50
9.0E+001
 51
1.8E+002
  0
LINE
  5
218
100
AcDbEntity
  8
1
100
AcDbLine
  6
CONTINUOUS
 62
7
 10
5.254456E+002
 20
9.3110888E+001
 11
5.332456E+002
 21
9.3110888E+001
  0
LINE
  5
219
100
AcDbEntity
  8
1
100
AcDbLine
  6
CONTINUOUS
 62
7
 10
5.478956E+002
 20
9.3110888E+001
 11
5.444956E+002
 21
9.3110888E+001
  0
ARC
  5
21a
100
AcDbEntity
  8
1
100
AcDbCircle
  6
CONTINUOUS
 62
7
 10
5.478956E+002
 20
9.3610888E+001
 40
5.0E-001
100
AcDbArc
 50
2.7E+002
 51
3.6E+002
  0
LINE
  5
21b
100
AcDbEntity
  8
1
100
AcDbLine
  6
CONTINUOUS
 62
7
 10
2.482206E+002
 20
1.4960089E+002
 11
2.580206E+002
 21
1.4960089E+002
  0
LINE
  5
21c
100
AcDbEntity
  8
1
100
AcDbLine
  6
CONTINUOUS
 62
7
 10
4.204456E+002
 20
8.5960888E+001
 11
4.286956E+002
 21
8.5960888E+001
  0
ARC
  5
21d
100
AcDbEntity
  8
1
100
AcDbCircle
  6
CONTINUOUS
 62
7
 10
4.286956E+002
 20
8.6460888E+001
 40
5.0E-001
100
AcDbArc
 50
2.7E+002
 51
3.6E+002
  0
ARC
  5
21e
100
AcDbEntity
  8
1
100
AcDbCircle
  6
CONTINUOUS
 62
7
 10
4.204456E+002
 20
8.6460888E+001
 40
5.0E-001
100
AcDbArc
 50
1.8E+002
 51
2.7E+002
  0
LINE
  5
21f
100
AcDbEntity
  8
1
100
AcDbLine
  6
CONTINUOUS
 62
7
 10
4.013956E+002
 20
8.5960888E+001
 11
4.096456E+002
 21
8.5960888E+001
  0
ARC
  5
220
100
AcDbEntity
  8
1
100
AcDbCircle
  6
CONTINUOUS
 62
7
 10
4.096456E+002
 20
8.6460888E+001
 40
5.0E-001
100
AcDbArc
 50
2.7E+002
 51
3.6E+002
  0
ARC
  5
221
100
AcDbEntity
  8
1
100
AcDbCircle
  6
CONTINUOUS
 62
7
 10
4.013956E+002
 20
8.6460888E+001
 40
5.0E-001
100
AcDbArc
 50
1.8E+002
 51
2.7E+002
  0
LINE
  5
222
100
AcDbEntity
  8
1
100
AcDbLine
  6
CONTINUOUS
 62
7
 10
4.394956E+002
 20
8.5960888E+001
 11
4.477456E+002
 21
8.5960888E+001
  0
ARC
  5
223
100
AcDbEntity
  8
1
100
AcDbCircle
  6
CONTINUOUS
 62
7
 10
4.477456E+002
 20
8.6460888E+001
 40
5.0E-001
100
AcDbArc
 50
2.7E+002
 51
3.6E+002
  0
ARC
  5
224
100
AcDbEntity
  8
1
100
AcDbCircle
  6
CONTINUOUS
 62
7
 10
4.394956E+002
 20
8.6460888E+001
 40
5.0E-001
100
AcDbArc
 50
1.8E+002
 51
2.7E+002
  0
ARC
  5
225
100
AcDbEntity
  8
1
100
AcDbCircle
  6
CONTINUOUS
 62
7
 10
4.585456E+002
 20
8.6460888E+001
 40
5.0E-001
100
AcDbArc
 50
1.8E+002
 51
2.7E+002
  0
LINE
  5
226
100
AcDbEntity
  8
1
100
AcDbLine
  6
CONTINUOUS
 62
7
 10
4.585456E+002
 20
8.5960888E+001
 11
4.667956E+002
 21
8.5960888E+001
  0
ARC
  5
227
100
AcDbEntity
  8
1
100
AcDbCircle
  6
CONTINUOUS
 62
7
 10
4.667956E+002
 20
8.6460888E+001
 40
5.0E-001
100
AcDbArc
 50
2.7E+002
 51
3.6E+002
  0
LINE
  5
228
100
AcDbEntity
  8
1
100
AcDbLine
  6
CONTINUOUS
 62
7
 10
4.966456E+002
 20
8.5960888E+001
 11
5.048956E+002
 21
8.5960888E+001
  0
ARC
  5
229
100
AcDbEntity
  8
1
100
AcDbCircle
  6
CONTINUOUS
 62
7
 10
5.048956E+002
 20
8.6460888E+001
 40
5.0E-001
100
AcDbArc
 50
2.7E+002
 51
3.6E+002
  0
ARC
  5
22a
100
AcDbEntity
  8
1
100
AcDbCircle
  6
CONTINUOUS
 62
7
 10
4.966456E+002
 20
8.6460888E+001
 40
5.0E-001
100
AcDbArc
 50
1.8E+002
 51
2.7E+002
  0
LINE
  5
22b
100
AcDbEntity
  8
1
100
AcDbLine
  6
CONTINUOUS
 62
7
 10
4.775956E+002
 20
8.5960888E+001
 11
4.858456E+002
 21
8.5960888E+001
  0
ARC
  5
22c
100
AcDbEntity
  8
1
100
AcDbCircle
  6
CONTINUOUS
 62
7
 10
4.858456E+002
 20
8.6460888E+001
 40
5.0E-001
100
AcDbArc
 50
2.7E+002
 51
3.6E+002
  0
ARC
  5
22d
100
AcDbEntity
  8
1
100
AcDbCircle
  6
CONTINUOUS
 62
7
 10
4.775956E+002
 20
8.6460888E+001
 40
5.0E-001
100
AcDbArc
 50
1.8E+002
 51
2.7E+002
  0
LINE
  5
22e
100
AcDbEntity
  8
1
100
AcDbLine
  6
CONTINUOUS
 62
7
 10
5.156956E+002
 20
8.5960888E+001
 11
5.239456E+002
 21
8.5960888E+001
  0
ARC
  5
22f
100
AcDbEntity
  8
1
100
AcDbCircle
  6
CONTINUOUS
 62
7
 10
5.239456E+002
 20
8.6460888E+001
 40
5.0E-001
100
AcDbArc
 50
2.7E+002
 51
3.6E+002
  0
ARC
  5
230
100
AcDbEntity
  8
1
100
AcDbCircle
  6
CONTINUOUS
 62
7
 10
5.156956E+002
 20
8.6460888E+001
 40
5.0E-001
100
AcDbArc
 50
1.8E+002
 51
2.7E+002
  0
ARC
  5
231
100
AcDbEntity
  8
1
100
AcDbCircle
  6
CONTINUOUS
 62
7
 10
5.347456E+002
 20
8.6460888E+001
 40
5.0E-001
100
AcDbArc
 50
1.8E+002
 51
2.7E+002
  0
LINE
  5
232
100
AcDbEntity
  8
1
100
AcDbLine
  6
CONTINUOUS
 62
7
 10
5.347456E+002
 20
8.5960888E+001
 11
5.429956E+002
 21
8.5960888E+001
  0
ARC
  5
233
100
AcDbEntity
  8
1
100
AcDbCircle
  6
CONTINUOUS
 62
7
 10
5.429956E+002
 20
8.6460888E+001
 40
5.0E-001
100
AcDbArc
 50
2.7E+002
 51
3.6E+002
  0
LINE
  5
234
100
AcDbEntity
  8
1
100
AcDbLine
  6
CONTINUOUS
 62
7
 10
5.483956E+002
 20
9.3610888E+001
 11
5.483956E+002
 21
1.1266089E+002
  0
LINE
  5
235
100
AcDbEntity
  8
1
100
AcDbLine
  6
CONTINUOUS
 62
7
 10
2.4838544E+002
 20
1.4490089E+002
 11
2.5785577E+002
 21
1.4490089E+002
  0
LINE
  5
236
100
AcDbEntity
  8
1
100
AcDbLine
  6
CONTINUOUS
 62
7
 10
5.483956E+002
 20
1.3171089E+002
 11
5.483956E+002
 21
1.5110089E+002
  0
LINE
  5
237
100
AcDbEntity
  8
1
100
AcDbLine
  6
CONTINUOUS
 62
7
 10
4.006206E+002
 20
1.4960089E+002
 11
4.104206E+002
 21
1.4960089E+002
  0
LINE
  5
238
100
AcDbEntity
  8
1
100
AcDbLine
  6
CONTINUOUS
 62
7
 10
4.0078544E+002
 20
1.4490089E+002
 11
4.1025577E+002
 21
1.4490089E+002
  0
LINE
  5
239
100
AcDbEntity
  8
1
100
AcDbLine
  6
CONTINUOUS
 62
7
 10
4.1983544E+002
 20
1.4490089E+002
 11
4.2930577E+002
 21
1.4490089E+002
  0
LINE
  5
23a
100
AcDbEntity
  8
1
100
AcDbLine
  6
CONTINUOUS
 62
7
 10
4.196706E+002
 20
1.4960089E+002
 11
4.294706E+002
 21
1.4960089E+002
  0
LINE
  5
23b
100
AcDbEntity
  8
1
100
AcDbLine
  6
CONTINUOUS
 62
7
 10
4.387206E+002
 20
1.4960089E+002
 11
4.485206E+002
 21
1.4960089E+002
  0
LINE
  5
23c
100
AcDbEntity
  8
1
100
AcDbLine
  6
CONTINUOUS
 62
7
 10
4.3888544E+002
 20
1.4490089E+002
 11
4.4835577E+002
 21
1.4490089E+002
  0
LINE
  5
23d
100
AcDbEntity
  8
1
100
AcDbLine
  6
CONTINUOUS
 62
7
 10
4.5793544E+002
 20
1.4490089E+002
 11
4.6740577E+002
 21
1.4490089E+002
  0
LINE
  5
23e
100
AcDbEntity
  8
1
100
AcDbLine
  6
CONTINUOUS
 62
7
 10
4.577706E+002
 20
1.4960089E+002
 11
4.675706E+002
 21
1.4960089E+002
  0
LINE
  5
23f
100
AcDbEntity
  8
1
100
AcDbLine
  6
CONTINUOUS
 62
7
 10
4.9603544E+002
 20
1.4490089E+002
 11
5.0550577E+002
 21
1.4490089E+002
  0
LINE
  5
240
100
AcDbEntity
  8
1
100
AcDbLine
  6
CONTINUOUS
 62
7
 10
4.958706E+002
 20
1.4960089E+002
 11
5.056706E+002
 21
1.4960089E+002
  0
LINE
  5
241
100
AcDbEntity
  8
1
100
AcDbLine
  6
CONTINUOUS
 62
7
 10
5.149206E+002
 20
1.4960089E+002
 11
5.247206E+002
 21
1.4960089E+002
  0
LINE
  5
242
100
AcDbEntity
  8
1
100
AcDbLine
  6
CONTINUOUS
 62
7
 10
5.1508544E+002
 20
1.4490089E+002
 11
5.2455577E+002
 21
1.4490089E+002
  0
LINE
  5
243
100
AcDbEntity
  8
1
100
AcDbLine
  6
CONTINUOUS
 62
7
 10
5.339706E+002
 20
1.4960089E+002
 11
5.437706E+002
 21
1.4960089E+002
  0
LINE
  5
244
100
AcDbEntity
  8
1
100
AcDbLine
  6
CONTINUOUS
 62
7
 10
5.3413544E+002
 20
1.4490089E+002
 11
5.4360577E+002
 21
1.4490089E+002
  0
LINE
  5
245
100
AcDbEntity
  8
1
100
AcDbLine
  6
CONTINUOUS
 62
7
 10
4.291956E+002
 20
1.3021089E+002
 11
4.291956E+002
 21
1.2571214E+002
  0
LINE
  5
246
100
AcDbEntity
  8
1
100
AcDbLine
  6
CONTINUOUS
 62
7
 10
4.199456E+002
 20
1.3021089E+002
 11
4.199456E+002
 21
1.2571214E+002
  0
LINE
  5
247
100
AcDbEntity
  8
1
100
AcDbLine
  6
CONTINUOUS
 62
7
 10
3.964956E+002
 20
1.3121089E+002
 11
3.998956E+002
 21
1.3121089E+002
  0
ARC
  5
248
100
AcDbEntity
  8
1
100
AcDbCircle
  6
CONTINUOUS
 62
7
 10
4.299706E+002
 20
1.5110089E+002
 40
5.0E-001
100
AcDbArc
 50
9.0E+001
 51
1.8E+002
  0
LINE
  5
249
100
AcDbEntity
  8
1
100
AcDbLine
  6
CONTINUOUS
 62
7
 10
4.206706E+002
 20
1.4445089E+002
 11
4.284706E+002
 21
1.4445089E+002
  0
LINE
  5
24a
100
AcDbEntity
  8
1
100
AcDbLine
  6
CONTINUOUS
 62
7
 10
4.111456E+002
 20
1.3121089E+002
 11
4.189456E+002
 21
1.3121089E+002
  0
ARC
  5
24b
100
AcDbEntity
  8
1
100
AcDbCircle
  6
CONTINUOUS
 62
7
 10
4.111456E+002
 20
1.3021089E+002
 40
1.0
100
AcDbArc
 50
9.0E+001
 51
1.8E+002
  0
ARC
  5
24c
100
AcDbEntity
  8
1
100
AcDbCircle
  6
CONTINUOUS
 62
7
 10
4.189456E+002
 20
1.3021089E+002
 40
1.0
100
AcDbArc
 50
0.0
 51
9.0E+001
  0
ARC
  5
24d
100
AcDbEntity
  8
1
100
AcDbCircle
  6
CONTINUOUS
 62
7
 10
4.206706E+002
 20
1.4545089E+002
 40
1.0
100
AcDbArc
 50
1.8E+002
 51
2.7E+002
  0
ARC
  5
24e
100
AcDbEntity
  8
1
100
AcDbCircle
  6
CONTINUOUS
 62
7
 10
4.284706E+002
 20
1.4545089E+002
 40
1.0
100
AcDbArc
 50
2.7E+002
 51
3.6E+002
  0
ARC
  5
24f
100
AcDbEntity
  8
1
100
AcDbCircle
  6
CONTINUOUS
 62
7
 10
3.964956E+002
 20
1.3171089E+002
 40
5.0E-001
100
AcDbArc
 50
1.8E+002
 51
2.7E+002
  0
ARC
  5
250
100
AcDbEntity
  8
1
100
AcDbCircle
  6
CONTINUOUS
 62
7
 10
3.998956E+002
 20
1.3021089E+002
 40
1.0
100
AcDbArc
 50
0.0
 51
9.0E+001
  0
LINE
  5
251
100
AcDbEntity
  8
1
100
AcDbLine
  6
CONTINUOUS
 62
7
 10
4.006206E+002
 20
1.5110089E+002
 11
4.006206E+002
 21
1.4545089E+002
  0
LINE
  5
252
100
AcDbEntity
  8
1
100
AcDbLine
  6
CONTINUOUS
 62
7
 10
3.964956E+002
 20
1.5160089E+002
 11
4.001206E+002
 21
1.5160089E+002
  0
ARC
  5
253
100
AcDbEntity
  8
1
100
AcDbCircle
  6
CONTINUOUS
 62
7
 10
4.001206E+002
 20
1.5110089E+002
 40
5.0E-001
100
AcDbArc
 50
0.0
 51
9.0E+001
  0
ARC
  5
254
100
AcDbEntity
  8
1
100
AcDbCircle
  6
CONTINUOUS
 62
7
 10
3.964956E+002
 20
1.5110089E+002
 40
5.0E-001
100
AcDbArc
 50
9.0E+001
 51
1.8E+002
  0
LINE
  5
255
100
AcDbEntity
  8
1
100
AcDbLine
  6
CONTINUOUS
 62
7
 10
4.104206E+002
 20
1.5110089E+002
 11
4.104206E+002
 21
1.4545089E+002
  0
LINE
  5
256
100
AcDbEntity
  8
1
100
AcDbLine
  6
CONTINUOUS
 62
7
 10
4.196706E+002
 20
1.5110089E+002
 11
4.196706E+002
 21
1.4545089E+002
  0
LINE
  5
257
100
AcDbEntity
  8
1
100
AcDbLine
  6
CONTINUOUS
 62
7
 10
4.294706E+002
 20
1.5110089E+002
 11
4.294706E+002
 21
1.4545089E+002
  0
LINE
  5
258
100
AcDbEntity
  8
1
100
AcDbLine
  6
CONTINUOUS
 62
7
 10
4.109206E+002
 20
1.5160089E+002
 11
4.191706E+002
 21
1.5160089E+002
  0
ARC
  5
259
100
AcDbEntity
  8
1
100
AcDbCircle
  6
CONTINUOUS
 62
7
 10
4.191706E+002
 20
1.5110089E+002
 40
5.0E-001
100
AcDbArc
 50
0.0
 51
9.0E+001
  0
ARC
  5
25a
100
AcDbEntity
  8
1
100
AcDbCircle
  6
CONTINUOUS
 62
7
 10
4.109206E+002
 20
1.5110089E+002
 40
5.0E-001
100
AcDbArc
 50
9.0E+001
 51
1.8E+002
  0
LINE
  5
25b
100
AcDbEntity
  8
1
100
AcDbLine
  6
CONTINUOUS
 62
7
 10
4.101456E+002
 20
1.3021089E+002
 11
4.101456E+002
 21
1.2571214E+002
  0
LINE
  5
25c
100
AcDbEntity
  8
1
100
AcDbLine
  6
CONTINUOUS
 62
7
 10
4.008956E+002
 20
1.3021089E+002
 11
4.008956E+002
 21
1.2571214E+002
  0
ARC
  5
25d
100
AcDbEntity
  8
1
100
AcDbCircle
  6
CONTINUOUS
 62
7
 10
4.301956E+002
 20
1.3021089E+002
 40
1.0
100
AcDbArc
 50
9.0E+001
 51
1.8E+002
  0
LINE
  5
25e
100
AcDbEntity
  8
1
100
AcDbLine
  6
CONTINUOUS
 62
7
 10
4.094206E+002
 20
1.4445089E+002
 11
4.016206E+002
 21
1.4445089E+002
  0
ARC
  5
25f
100
AcDbEntity
  8
1
100
AcDbCircle
  6
CONTINUOUS
 62
7
 10
4.094206E+002
 20
1.4545089E+002
 40
1.0
100
AcDbArc
 50
2.7E+002
 51
3.6E+002
  0
ARC
  5
260
100
AcDbEntity
  8
1
100
AcDbCircle
  6
CONTINUOUS
 62
7
 10
4.016206E+002
 20
1.4545089E+002
 40
1.0
100
AcDbArc
 50
1.8E+002
 51
2.7E+002
  0
LINE
  5
261
100
AcDbEntity
  8
1
100
AcDbLine
  6
CONTINUOUS
 62
7
 10
4.482456E+002
 20
1.3021089E+002
 11
4.482456E+002
 21
1.2571214E+002
  0
LINE
  5
262
100
AcDbEntity
  8
1
100
AcDbLine
  6
CONTINUOUS
 62
7
 10
4.389956E+002
 20
1.3021089E+002
 11
4.389956E+002
 21
1.2571214E+002
  0
ARC
  5
263
100
AcDbEntity
  8
1
100
AcDbCircle
  6
CONTINUOUS
 62
7
 10
4.490206E+002
 20
1.5110089E+002
 40
5.0E-001
100
AcDbArc
 50
9.0E+001
 51
1.8E+002
  0
LINE
  5
264
100
AcDbEntity
  8
1
100
AcDbLine
  6
CONTINUOUS
 62
7
 10
4.397206E+002
 20
1.4445089E+002
 11
4.475206E+002
 21
1.4445089E+002
  0
ARC
  5
265
100
AcDbEntity
  8
1
100
AcDbCircle
  6
CONTINUOUS
 62
7
 10
4.379956E+002
 20
1.3021089E+002
 40
1.0
100
AcDbArc
 50
0.0
 51
9.0E+001
  0
ARC
  5
266
100
AcDbEntity
  8
1
100
AcDbCircle
  6
CONTINUOUS
 62
7
 10
4.397206E+002
 20
1.4545089E+002
 40
1.0
100
AcDbArc
 50
1.8E+002
 51
2.7E+002
  0
ARC
  5
267
100
AcDbEntity
  8
1
100
AcDbCircle
  6
CONTINUOUS
 62
7
 10
4.475206E+002
 20
1.4545089E+002
 40
1.0
100
AcDbArc
 50
2.7E+002
 51
3.6E+002
  0
LINE
  5
268
100
AcDbEntity
  8
1
100
AcDbLine
  6
CONTINUOUS
 62
7
 10
4.387206E+002
 20
1.5110089E+002
 11
4.387206E+002
 21
1.4545089E+002
  0
LINE
  5
269
100
AcDbEntity
  8
1
100
AcDbLine
  6
CONTINUOUS
 62
7
 10
4.485206E+002
 20
1.5110089E+002
 11
4.485206E+002
 21
1.4545089E+002
  0
ARC
  5
26a
100
AcDbEntity
  8
1
100
AcDbCircle
  6
CONTINUOUS
 62
7
 10
4.382206E+002
 20
1.5110089E+002
 40
5.0E-001
100
AcDbArc
 50
0.0
 51
9.0E+001
  0
ARC
  5
26b
100
AcDbEntity
  8
1
100
AcDbCircle
  6
CONTINUOUS
 62
7
 10
4.492456E+002
 20
1.3021089E+002
 40
1.0
100
AcDbArc
 50
9.0E+001
 51
1.8E+002
  0
LINE
  5
26c
100
AcDbEntity
  8
1
100
AcDbLine
  6
CONTINUOUS
 62
7
 10
4.299706E+002
 20
1.5160089E+002
 11
4.382206E+002
 21
1.5160089E+002
  0
LINE
  5
26d
100
AcDbEntity
  8
1
100
AcDbLine
  6
CONTINUOUS
 62
7
 10
4.301956E+002
 20
1.3121089E+002
 11
4.379956E+002
 21
1.3121089E+002
  0
LINE
  5
26e
100
AcDbEntity
  8
1
100
AcDbLine
  6
CONTINUOUS
 62
7
 10
4.672956E+002
 20
1.3021089E+002
 11
4.672956E+002
 21
1.2571214E+002
  0
LINE
  5
26f
100
AcDbEntity
  8
1
100
AcDbLine
  6
CONTINUOUS
 62
7
 10
4.580456E+002
 20
1.3021089E+002
 11
4.580456E+002
 21
1.2571214E+002
  0
ARC
  5
270
100
AcDbEntity
  8
1
100
AcDbCircle
  6
CONTINUOUS
 62
7
 10
4.680706E+002
 20
1.5110089E+002
 40
5.0E-001
100
AcDbArc
 50
9.0E+001
 51
1.8E+002
  0
LINE
  5
271
100
AcDbEntity
  8
1
100
AcDbLine
  6
CONTINUOUS
 62
7
 10
4.587706E+002
 20
1.4445089E+002
 11
4.665706E+002
 21
1.4445089E+002
  0
ARC
  5
272
100
AcDbEntity
  8
1
100
AcDbCircle
  6
CONTINUOUS
 62
7
 10
4.570456E+002
 20
1.3021089E+002
 40
1.0
100
AcDbArc
 50
0.0
 51
9.0E+001
  0
ARC
  5
273
100
AcDbEntity
  8
1
100
AcDbCircle
  6
CONTINUOUS
 62
7
 10
4.587706E+002
 20
1.4545089E+002
 40
1.0
100
AcDbArc
 50
1.8E+002
 51
2.7E+002
  0
ARC
  5
274
100
AcDbEntity
  8
1
100
AcDbCircle
  6
CONTINUOUS
 62
7
 10
4.665706E+002
 20
1.4545089E+002
 40
1.0
100
AcDbArc
 50
2.7E+002
 51
3.6E+002
  0
LINE
  5
275
100
AcDbEntity
  8
1
100
AcDbLine
  6
CONTINUOUS
 62
7
 10
4.577706E+002
 20
1.5110089E+002
 11
4.577706E+002
 21
1.4545089E+002
  0
LINE
  5
276
100
AcDbEntity
  8
1
100
AcDbLine
  6
CONTINUOUS
 62
7
 10
4.675706E+002
 20
1.5110089E+002
 11
4.675706E+002
 21
1.4545089E+002
  0
ARC
  5
277
100
AcDbEntity
  8
1
100
AcDbCircle
  6
CONTINUOUS
 62
7
 10
4.572706E+002
 20
1.5110089E+002
 40
5.0E-001
100
AcDbArc
 50
0.0
 51
9.0E+001
  0
ARC
  5
278
100
AcDbEntity
  8
1
100
AcDbCircle
  6
CONTINUOUS
 62
7
 10
4.682956E+002
 20
1.3021089E+002
 40
1.0
100
AcDbArc
 50
9.0E+001
 51
1.8E+002
  0
LINE
  5
279
100
AcDbEntity
  8
1
100
AcDbLine
  6
CONTINUOUS
 62
7
 10
4.490206E+002
 20
1.5160089E+002
 11
4.572706E+002
 21
1.5160089E+002
  0
LINE
  5
27a
100
AcDbEntity
  8
1
100
AcDbLine
  6
CONTINUOUS
 62
7
 10
4.492456E+002
 20
1.3121089E+002
 11
4.570456E+002
 21
1.3121089E+002
  0
LINE
  5
27b
100
AcDbEntity
  8
1
100
AcDbLine
  6
CONTINUOUS
 62
7
 10
4.863456E+002
 20
1.3021089E+002
 11
4.863456E+002
 21
1.2571214E+002
  0
LINE
  5
27c
100
AcDbEntity
  8
1
100
AcDbLine
  6
CONTINUOUS
 62
7
 10
4.770956E+002
 20
1.3021089E+002
 11
4.770956E+002
 21
1.2571214E+002
  0
ARC
  5
27d
100
AcDbEntity
  8
1
100
AcDbCircle
  6
CONTINUOUS
 62
7
 10
4.871206E+002
 20
1.5110089E+002
 40
5.0E-001
100
AcDbArc
 50
9.0E+001
 51
1.8E+002
  0
ARC
  5
27e
100
AcDbEntity
  8
1
100
AcDbCircle
  6
CONTINUOUS
 62
7
 10
4.760956E+002
 20
1.3021089E+002
 40
1.0
100
AcDbArc
 50
0.0
 51
9.0E+001
  0
ARC
  5
27f
100
AcDbEntity
  8
1
100
AcDbCircle
  6
CONTINUOUS
 62
7
 10
4.778206E+002
 20
1.4545089E+002
 40
1.0
100
AcDbArc
 50
1.8E+002
 51
2.7E+002
  0
ARC
  5
280
100
AcDbEntity
  8
1
100
AcDbCircle
  6
CONTINUOUS
 62
7
 10
4.856206E+002
 20
1.4545089E+002
 40
1.0
100
AcDbArc
 50
2.7E+002
 51
3.6E+002
  0
LINE
  5
281
100
AcDbEntity
  8
1
100
AcDbLine
  6
CONTINUOUS
 62
7
 10
4.768206E+002
 20
1.5110089E+002
 11
4.768206E+002
 21
1.4545089E+002
  0
LINE
  5
282
100
AcDbEntity
  8
1
100
AcDbLine
  6
CONTINUOUS
 62
7
 10
4.866206E+002
 20
1.5110089E+002
 11
4.866206E+002
 21
1.4545089E+002
  0
ARC
  5
283
100
AcDbEntity
  8
1
100
AcDbCircle
  6
CONTINUOUS
 62
7
 10
4.763206E+002
 20
1.5110089E+002
 40
5.0E-001
100
AcDbArc
 50
0.0
 51
9.0E+001
  0
ARC
  5
284
100
AcDbEntity
  8
1
100
AcDbCircle
  6
CONTINUOUS
 62
7
 10
4.873456E+002
 20
1.3021089E+002
 40
1.0
100
AcDbArc
 50
9.0E+001
 51
1.8E+002
  0
LINE
  5
285
100
AcDbEntity
  8
1
100
AcDbLine
  6
CONTINUOUS
 62
7
 10
4.680706E+002
 20
1.5160089E+002
 11
4.763206E+002
 21
1.5160089E+002
  0
LINE
  5
286
100
AcDbEntity
  8
1
100
AcDbLine
  6
CONTINUOUS
 62
7
 10
4.682956E+002
 20
1.3121089E+002
 11
4.760956E+002
 21
1.3121089E+002
  0
LINE
  5
287
100
AcDbEntity
  8
1
100
AcDbLine
  6
CONTINUOUS
 62
7
 10
5.053956E+002
 20
1.3021089E+002
 11
5.053956E+002
 21
1.2571214E+002
  0
LINE
  5
288
100
AcDbEntity
  8
1
100
AcDbLine
  6
CONTINUOUS
 62
7
 10
4.961456E+002
 20
1.3021089E+002
 11
4.961456E+002
 21
1.2571214E+002
  0
ARC
  5
289
100
AcDbEntity
  8
1
100
AcDbCircle
  6
CONTINUOUS
 62
7
 10
5.061706E+002
 20
1.5110089E+002
 40
5.0E-001
100
AcDbArc
 50
9.0E+001
 51
1.8E+002
  0
LINE
  5
28a
100
AcDbEntity
  8
1
100
AcDbLine
  6
CONTINUOUS
 62
7
 10
4.968706E+002
 20
1.4445089E+002
 11
5.046706E+002
 21
1.4445089E+002
  0
ARC
  5
28b
100
AcDbEntity
  8
1
100
AcDbCircle
  6
CONTINUOUS
 62
7
 10
4.951456E+002
 20
1.3021089E+002
 40
1.0
100
AcDbArc
 50
0.0
 51
9.0E+001
  0
ARC
  5
28c
100
AcDbEntity
  8
1
100
AcDbCircle
  6
CONTINUOUS
 62
7
 10
4.968706E+002
 20
1.4545089E+002
 40
1.0
100
AcDbArc
 50
1.8E+002
 51
2.7E+002
  0
ARC
  5
28d
100
AcDbEntity
  8
1
100
AcDbCircle
  6
CONTINUOUS
 62
7
 10
5.046706E+002
 20
1.4545089E+002
 40
1.0
100
AcDbArc
 50
2.7E+002
 51
3.6E+002
  0
LINE
  5
28e
100
AcDbEntity
  8
1
100
AcDbLine
  6
CONTINUOUS
 62
7
 10
4.958706E+002
 20
1.5110089E+002
 11
4.958706E+002
 21
1.4545089E+002
  0
LINE
  5
28f
100
AcDbEntity
  8
1
100
AcDbLine
  6
CONTINUOUS
 62
7
 10
5.056706E+002
 20
1.5110089E+002
 11
5.056706E+002
 21
1.4545089E+002
  0
ARC
  5
290
100
AcDbEntity
  8
1
100
AcDbCircle
  6
CONTINUOUS
 62
7
 10
4.953706E+002
 20
1.5110089E+002
 40
5.0E-001
100
AcDbArc
 50
0.0
 51
9.0E+001
  0
ARC
  5
291
100
AcDbEntity
  8
1
100
AcDbCircle
  6
CONTINUOUS
 62
7
 10
5.063956E+002
 20
1.3021089E+002
 40
1.0
100
AcDbArc
 50
9.0E+001
 51
1.8E+002
  0
LINE
  5
292
100
AcDbEntity
  8
1
100
AcDbLine
  6
CONTINUOUS
 62
7
 10
4.871206E+002
 20
1.5160089E+002
 11
4.953706E+002
 21
1.5160089E+002
  0
LINE
  5
293
100
AcDbEntity
  8
1
100
AcDbLine
  6
CONTINUOUS
 62
7
 10
4.873456E+002
 20
1.3121089E+002
 11
4.951456E+002
 21
1.3121089E+002
  0
LINE
  5
294
100
AcDbEntity
  8
1
100
AcDbLine
  6
CONTINUOUS
 62
7
 10
5.244456E+002
 20
1.3021089E+002
 11
5.244456E+002
 21
1.2571214E+002
  0
LINE
  5
295
100
AcDbEntity
  8
1
100
AcDbLine
  6
CONTINUOUS
 62
7
 10
5.151956E+002
 20
1.3021089E+002
 11
5.151956E+002
 21
1.2571214E+002
  0
ARC
  5
296
100
AcDbEntity
  8
1
100
AcDbCircle
  6
CONTINUOUS
 62
7
 10
5.252206E+002
 20
1.5110089E+002
 40
5.0E-001
100
AcDbArc
 50
9.0E+001
 51
1.8E+002
  0
LINE
  5
297
100
AcDbEntity
  8
1
100
AcDbLine
  6
CONTINUOUS
 62
7
 10
5.159206E+002
 20
1.4445089E+002
 11
5.237206E+002
 21
1.4445089E+002
  0
ARC
  5
298
100
AcDbEntity
  8
1
100
AcDbCircle
  6
CONTINUOUS
 62
7
 10
5.141956E+002
 20
1.3021089E+002
 40
1.0
100
AcDbArc
 50
0.0
 51
9.0E+001
  0
ARC
  5
299
100
AcDbEntity
  8
1
100
AcDbCircle
  6
CONTINUOUS
 62
7
 10
5.159206E+002
 20
1.4545089E+002
 40
1.0
100
AcDbArc
 50
1.8E+002
 51
2.7E+002
  0
ARC
  5
29a
100
AcDbEntity
  8
1
100
AcDbCircle
  6
CONTINUOUS
 62
7
 10
5.237206E+002
 20
1.4545089E+002
 40
1.0
100
AcDbArc
 50
2.7E+002
 51
3.6E+002
  0
LINE
  5
29b
100
AcDbEntity
  8
1
100
AcDbLine
  6
CONTINUOUS
 62
7
 10
5.149206E+002
 20
1.5110089E+002
 11
5.149206E+002
 21
1.4545089E+002
  0
LINE
  5
29c
100
AcDbEntity
  8
1
100
AcDbLine
  6
CONTINUOUS
 62
7
 10
5.247206E+002
 20
1.5110089E+002
 11
5.247206E+002
 21
1.4545089E+002
  0
ARC
  5
29d
100
AcDbEntity
  8
1
100
AcDbCircle
  6
CONTINUOUS
 62
7
 10
5.144206E+002
 20
1.5110089E+002
 40
5.0E-001
100
AcDbArc
 50
0.0
 51
9.0E+001
  0
ARC
  5
29e
100
AcDbEntity
  8
1
100
AcDbCircle
  6
CONTINUOUS
 62
7
 10
5.254456E+002
 20
1.3021089E+002
 40
1.0
100
AcDbArc
 50
9.0E+001
 51
1.8E+002
  0
LINE
  5
29f
100
AcDbEntity
  8
1
100
AcDbLine
  6
CONTINUOUS
 62
7
 10
5.061706E+002
 20
1.5160089E+002
 11
5.144206E+002
 21
1.5160089E+002
  0
LINE
  5
2a0
100
AcDbEntity
  8
1
100
AcDbLine
  6
CONTINUOUS
 62
7
 10
5.063956E+002
 20
1.3121089E+002
 11
5.141956E+002
 21
1.3121089E+002
  0
LINE
  5
2a1
100
AcDbEntity
  8
1
100
AcDbLine
  6
CONTINUOUS
 62
7
 10
5.434956E+002
 20
1.3021089E+002
 11
5.434956E+002
 21
1.2571214E+002
  0
LINE
  5
2a2
100
AcDbEntity
  8
1
100
AcDbLine
  6
CONTINUOUS
 62
7
 10
5.342456E+002
 20
1.3021089E+002
 11
5.342456E+002
 21
1.2571214E+002
  0
ARC
  5
2a3
100
AcDbEntity
  8
1
100
AcDbCircle
  6
CONTINUOUS
 62
7
 10
5.442706E+002
 20
1.5110089E+002
 40
5.0E-001
100
AcDbArc
 50
9.0E+001
 51
1.8E+002
  0
LINE
  5
2a4
100
AcDbEntity
  8
1
100
AcDbLine
  6
CONTINUOUS
 62
7
 10
5.349706E+002
 20
1.4445089E+002
 11
5.427706E+002
 21
1.4445089E+002
  0
ARC
  5
2a5
100
AcDbEntity
  8
1
100
AcDbCircle
  6
CONTINUOUS
 62
7
 10
5.332456E+002
 20
1.3021089E+002
 40
1.0
100
AcDbArc
 50
0.0
 51
9.0E+001
  0
ARC
  5
2a6
100
AcDbEntity
  8
1
100
AcDbCircle
  6
CONTINUOUS
 62
7
 10
5.349706E+002
 20
1.4545089E+002
 40
1.0
100
AcDbArc
 50
1.8E+002
 51
2.7E+002
  0
ARC
  5
2a7
100
AcDbEntity
  8
1
100
AcDbCircle
  6
CONTINUOUS
 62
7
 10
5.427706E+002
 20
1.4545089E+002
 40
1.0
100
AcDbArc
 50
2.7E+002
 51
3.6E+002
  0
LINE
  5
2a8
100
AcDbEntity
  8
1
100
AcDbLine
  6
CONTINUOUS
 62
7
 10
5.339706E+002
 20
1.5110089E+002
 11
5.339706E+002
 21
1.4545089E+002
  0
LINE
  5
2a9
100
AcDbEntity
  8
1
100
AcDbLine
  6
CONTINUOUS
 62
7
 10
5.437706E+002
 20
1.5110089E+002
 11
5.437706E+002
 21
1.4545089E+002
  0
ARC
  5
2aa
100
AcDbEntity
  8
1
100
AcDbCircle
  6
CONTINUOUS
 62
7
 10
5.334706E+002
 20
1.5110089E+002
 40
5.0E-001
100
AcDbArc
 50
0.0
 51
9.0E+001
  0
ARC
  5
2ab
100
AcDbEntity
  8
1
100
AcDbCircle
  6
CONTINUOUS
 62
7
 10
5.444956E+002
 20
1.3021089E+002
 40
1.0
100
AcDbArc
 50
9.0E+001
 51
1.8E+002
  0
LINE
  5
2ac
100
AcDbEntity
  8
1
100
AcDbLine
  6
CONTINUOUS
 62
7
 10
5.252206E+002
 20
1.5160089E+002
 11
5.334706E+002
 21
1.5160089E+002
  0
LINE
  5
2ad
100
AcDbEntity
  8
1
100
AcDbLine
  6
CONTINUOUS
 62
7
 10
5.254456E+002
 20
1.3121089E+002
 11
5.332456E+002
 21
1.3121089E+002
  0
LINE
  5
2ae
100
AcDbEntity
  8
1
100
AcDbLine
  6
CONTINUOUS
 62
7
 10
5.478956E+002
 20
1.3121089E+002
 11
5.444956E+002
 21
1.3121089E+002
  0
ARC
  5
2af
100
AcDbEntity
  8
1
100
AcDbCircle
  6
CONTINUOUS
 62
7
 10
5.478956E+002
 20
1.3171089E+002
 40
5.0E-001
100
AcDbArc
 50
2.7E+002
 51
3.6E+002
  0
ARC
  5
2b0
100
AcDbEntity
  8
1
100
AcDbCircle
  6
CONTINUOUS
 62
7
 10
5.478956E+002
 20
1.5110089E+002
 40
5.0E-001
100
AcDbArc
 50
0.0
 51
9.0E+001
  0
LINE
  5
2b1
100
AcDbEntity
  8
1
100
AcDbLine
  6
CONTINUOUS
 62
7
 10
5.478956E+002
 20
1.5160089E+002
 11
5.442706E+002
 21
1.5160089E+002
  0
LINE
  5
2b2
100
AcDbEntity
  8
1
100
AcDbLine
  6
CONTINUOUS
 62
7
 10
4.7698544E+002
 20
1.4490089E+002
 11
4.8645577E+002
 21
1.4490089E+002
  0
LINE
  5
2b3
100
AcDbEntity
  8
1
100
AcDbLine
  6
CONTINUOUS
 62
7
 10
4.768206E+002
 20
1.4960089E+002
 11
4.866206E+002
 21
1.4960089E+002
  0
LINE
  5
2b4
100
AcDbEntity
  8
1
100
AcDbLine
  6
CONTINUOUS
 62
7
 10
4.778206E+002
 20
1.4445089E+002
 11
4.856206E+002
 21
1.4445089E+002
  0
LINE
  5
2b5
100
AcDbEntity
  8
1
100
AcDbLine
  6
CONTINUOUS
 62
7
 10
2.6743544E+002
 20
1.4490089E+002
 11
2.7690577E+002
 21
1.4490089E+002
  0
LINE
  5
2b6
100
AcDbEntity
  8
1
100
AcDbLine
  6
CONTINUOUS
 62
7
 10
3.197956E+002
 20
1.1266089E+002
 11
3.197956E+002
 21
1.3121089E+002
  0
LINE
  5
2b7
100
AcDbEntity
  8
1
100
AcDbLine
  6
CONTINUOUS
 62
7
 10
2.005956E+002
 20
1.1116089E+002
 11
2.005956E+002
 21
1.0666214E+002
  0
LINE
  5
2b8
100
AcDbEntity
  8
1
100
AcDbLine
  6
CONTINUOUS
 62
7
 10
1.913456E+002
 20
1.1116089E+002
 11
1.913456E+002
 21
1.0666214E+002
  0
LINE
  5
2b9
100
AcDbEntity
  8
1
100
AcDbLine
  6
CONTINUOUS
 62
7
 10
1.678956E+002
 20
1.1216089E+002
 11
1.712956E+002
 21
1.1216089E+002
  0
LINE
  5
2ba
100
AcDbEntity
  8
1
100
AcDbLine
  6
CONTINUOUS
 62
7
 10
2.672706E+002
 20
1.4960089E+002
 11
2.770706E+002
 21
1.4960089E+002
  0
LINE
  5
2bb
100
AcDbEntity
  8
1
100
AcDbLine
  6
CONTINUOUS
 62
7
 10
1.920706E+002
 20
1.2540089E+002
 11
1.998706E+002
 21
1.2540089E+002
  0
LINE
  5
2bc
100
AcDbEntity
  8
1
100
AcDbLine
  6
CONTINUOUS
 62
7
 10
1.825456E+002
 20
1.1216089E+002
 11
1.903456E+002
 21
1.1216089E+002
  0
ARC
  5
2bd
100
AcDbEntity
  8
1
100
AcDbCircle
  6
CONTINUOUS
 62
7
 10
1.825456E+002
 20
1.1116089E+002
 40
1.0
100
AcDbArc
 50
9.0E+001
 51
1.8E+002
  0
ARC
  5
2be
100
AcDbEntity
  8
1
100
AcDbCircle
  6
CONTINUOUS
 62
7
 10
1.903456E+002
 20
1.1116089E+002
 40
1.0
100
AcDbArc
 50
0.0
 51
9.0E+001
  0
ARC
  5
2bf
100
AcDbEntity
  8
1
100
AcDbCircle
  6
CONTINUOUS
 62
7
 10
1.920706E+002
 20
1.2640089E+002
 40
1.0
100
AcDbArc
 50
1.8E+002
 51
2.7E+002
  0
ARC
  5
2c0
100
AcDbEntity
  8
1
100
AcDbCircle
  6
CONTINUOUS
 62
7
 10
1.998706E+002
 20
1.2640089E+002
 40
1.0
100
AcDbArc
 50
2.7E+002
 51
3.6E+002
  0
ARC
  5
2c1
100
AcDbEntity
  8
1
100
AcDbCircle
  6
CONTINUOUS
 62
7
 10
1.678956E+002
 20
1.1266089E+002
 40
5.0E-001
100
AcDbArc
 50
1.8E+002
 51
2.7E+002
  0
ARC
  5
2c2
100
AcDbEntity
  8
1
100
AcDbCircle
  6
CONTINUOUS
 62
7
 10
1.712956E+002
 20
1.1116089E+002
 40
1.0
100
AcDbArc
 50
0.0
 51
9.0E+001
  0
LINE
  5
2c3
100
AcDbEntity
  8
1
100
AcDbLine
  6
CONTINUOUS
 62
7
 10
1.720206E+002
 20
1.3089964E+002
 11
1.720206E+002
 21
1.2640089E+002
  0
LINE
  5
2c4
100
AcDbEntity
  8
1
100
AcDbLine
  6
CONTINUOUS
 62
7
 10
2.863206E+002
 20
1.4960089E+002
 11
2.961206E+002
 21
1.4960089E+002
  0
LINE
  5
2c5
100
AcDbEntity
  8
1
100
AcDbLine
  6
CONTINUOUS
 62
7
 10
2.8648544E+002
 20
1.4490089E+002
 11
2.9595577E+002
 21
1.4490089E+002
  0
LINE
  5
2c6
100
AcDbEntity
  8
1
100
AcDbLine
  6
CONTINUOUS
 62
7
 10
3.0553544E+002
 20
1.4490089E+002
 11
3.1500577E+002
 21
1.4490089E+002
  0
LINE
  5
2c7
100
AcDbEntity
  8
1
100
AcDbLine
  6
CONTINUOUS
 62
7
 10
1.818206E+002
 20
1.3089964E+002
 11
1.818206E+002
 21
1.2640089E+002
  0
LINE
  5
2c8
100
AcDbEntity
  8
1
100
AcDbLine
  6
CONTINUOUS
 62
7
 10
1.910706E+002
 20
1.3089964E+002
 11
1.910706E+002
 21
1.2640089E+002
  0
LINE
  5
2c9
100
AcDbEntity
  8
1
100
AcDbLine
  6
CONTINUOUS
 62
7
 10
2.008706E+002
 20
1.3089964E+002
 11
2.008706E+002
 21
1.2640089E+002
  0
LINE
  5
2ca
100
AcDbEntity
  8
1
100
AcDbLine
  6
CONTINUOUS
 62
7
 10
3.053706E+002
 20
1.4960089E+002
 11
3.151706E+002
 21
1.4960089E+002
  0
LINE
  5
2cb
100
AcDbEntity
  8
1
100
AcDbLine
  6
CONTINUOUS
 62
7
 10
9.5820604E+001
 20
1.4960089E+002
 11
1.056206E+002
 21
1.4960089E+002
  0
LINE
  5
2cc
100
AcDbEntity
  8
1
100
AcDbLine
  6
CENTERLINE
 62
6
 10
3.7427074E+001
 20
1.5366073E+002
 11
3.7427074E+001
 21
8.3884511E+001
  0
LINE
  5
2cd
100
AcDbEntity
  8
1
100
AcDbLine
  6
CONTINUOUS
 62
7
 10
3.4363544E+002
 20
1.4490089E+002
 11
3.5310577E+002
 21
1.4490089E+002
  0
LINE
  5
2ce
100
AcDbEntity
  8
1
100
AcDbLine
  6
CONTINUOUS
 62
7
 10
3.434706E+002
 20
1.4960089E+002
 11
3.532706E+002
 21
1.4960089E+002
  0
LINE
  5
2cf
100
AcDbEntity
  8
1
100
AcDbLine
  6
CONTINUOUS
 62
7
 10
1.815456E+002
 20
1.1116089E+002
 11
1.815456E+002
 21
1.0666214E+002
  0
LINE
  5
2d0
100
AcDbEntity
  8
1
100
AcDbLine
  6
CONTINUOUS
 62
7
 10
1.722956E+002
 20
1.1116089E+002
 11
1.722956E+002
 21
1.0666214E+002
  0
ARC
  5
2d1
100
AcDbEntity
  8
1
100
AcDbCircle
  6
CONTINUOUS
 62
7
 10
2.015956E+002
 20
1.1116089E+002
 40
1.0
100
AcDbArc
 50
9.0E+001
 51
1.8E+002
  0
LINE
  5
2d2
100
AcDbEntity
  8
1
100
AcDbLine
  6
CONTINUOUS
 62
7
 10
1.808206E+002
 20
1.2540089E+002
 11
1.730206E+002
 21
1.2540089E+002
  0
ARC
  5
2d3
100
AcDbEntity
  8
1
100
AcDbCircle
  6
CONTINUOUS
 62
7
 10
1.808206E+002
 20
1.2640089E+002
 40
1.0
100
AcDbArc
 50
2.7E+002
 51
3.6E+002
  0
ARC
  5
2d4
100
AcDbEntity
  8
1
100
AcDbCircle
  6
CONTINUOUS
 62
7
 10
1.730206E+002
 20
1.2640089E+002
 40
1.0
100
AcDbArc
 50
1.8E+002
 51
2.7E+002
  0
LINE
  5
2d5
100
AcDbEntity
  8
1
100
AcDbLine
  6
CONTINUOUS
 62
7
 10
2.196456E+002
 20
1.1116089E+002
 11
2.196456E+002
 21
1.0666214E+002
  0
LINE
  5
2d6
100
AcDbEntity
  8
1
100
AcDbLine
  6
CONTINUOUS
 62
7
 10
2.103956E+002
 20
1.1116089E+002
 11
2.103956E+002
 21
1.0666214E+002
  0
LINE
  5
2d7
100
AcDbEntity
  8
1
100
AcDbLine
  6
CONTINUOUS
 62
7
 10
3.625206E+002
 20
1.4960089E+002
 11
3.723206E+002
 21
1.4960089E+002
  0
LINE
  5
2d8
100
AcDbEntity
  8
1
100
AcDbLine
  6
CONTINUOUS
 62
7
 10
2.111206E+002
 20
1.2540089E+002
 11
2.189206E+002
 21
1.2540089E+002
  0
ARC
  5
2d9
100
AcDbEntity
  8
1
100
AcDbCircle
  6
CONTINUOUS
 62
7
 10
2.093956E+002
 20
1.1116089E+002
 40
1.0
100
AcDbArc
 50
0.0
 51
9.0E+001
  0
ARC
  5
2da
100
AcDbEntity
  8
1
100
AcDbCircle
  6
CONTINUOUS
 62
7
 10
2.111206E+002
 20
1.2640089E+002
 40
1.0
100
AcDbArc
 50
1.8E+002
 51
2.7E+002
  0
ARC
  5
2db
100
AcDbEntity
  8
1
100
AcDbCircle
  6
CONTINUOUS
 62
7
 10
2.189206E+002
 20
1.2640089E+002
 40
1.0
100
AcDbArc
 50
2.7E+002
 51
3.6E+002
  0
LINE
  5
2dc
100
AcDbEntity
  8
1
100
AcDbLine
  6
CONTINUOUS
 62
7
 10
2.101206E+002
 20
1.3089964E+002
 11
2.101206E+002
 21
1.2640089E+002
  0
LINE
  5
2dd
100
AcDbEntity
  8
1
100
AcDbLine
  6
CONTINUOUS
 62
7
 10
2.199206E+002
 20
1.3089964E+002
 11
2.199206E+002
 21
1.2640089E+002
  0
LINE
  5
2de
100
AcDbEntity
  8
1
100
AcDbLine
  6
CONTINUOUS
 62
7
 10
3.6268544E+002
 20
1.4490089E+002
 11
3.7215577E+002
 21
1.4490089E+002
  0
ARC
  5
2df
100
AcDbEntity
  8
1
100
AcDbCircle
  6
CONTINUOUS
 62
7
 10
2.206456E+002
 20
1.1116089E+002
 40
1.0
100
AcDbArc
 50
9.0E+001
 51
1.8E+002
  0
LINE
  5
2e0
100
AcDbEntity
  8
1
100
AcDbLine
  6
CONTINUOUS
 62
7
 10
3.815706E+002
 20
1.4960089E+002
 11
3.913706E+002
 21
1.4960089E+002
  0
LINE
  5
2e1
100
AcDbEntity
  8
1
100
AcDbLine
  6
CONTINUOUS
 62
7
 10
2.015956E+002
 20
1.1216089E+002
 11
2.093956E+002
 21
1.1216089E+002
  0
LINE
  5
2e2
100
AcDbEntity
  8
1
100
AcDbLine
  6
CONTINUOUS
 62
7
 10
2.386956E+002
 20
1.1116089E+002
 11
2.386956E+002
 21
1.0666214E+002
  0
LINE
  5
2e3
100
AcDbEntity
  8
1
100
AcDbLine
  6
CONTINUOUS
 62
7
 10
2.294456E+002
 20
1.1116089E+002
 11
2.294456E+002
 21
1.0666214E+002
  0
LINE
  5
2e4
100
AcDbEntity
  8
1
100
AcDbLine
  6
CONTINUOUS
 62
7
 10
3.8173544E+002
 20
1.4490089E+002
 11
3.9120577E+002
 21
1.4490089E+002
  0
LINE
  5
2e5
100
AcDbEntity
  8
1
100
AcDbLine
  6
CONTINUOUS
 62
7
 10
2.301706E+002
 20
1.2540089E+002
 11
2.379706E+002
 21
1.2540089E+002
  0
ARC
  5
2e6
100
AcDbEntity
  8
1
100
AcDbCircle
  6
CONTINUOUS
 62
7
 10
2.284456E+002
 20
1.1116089E+002
 40
1.0
100
AcDbArc
 50
0.0
 51
9.0E+001
  0
ARC
  5
2e7
100
AcDbEntity
  8
1
100
AcDbCircle
  6
CONTINUOUS
 62
7
 10
2.301706E+002
 20
1.2640089E+002
 40
1.0
100
AcDbArc
 50
1.8E+002
 51
2.7E+002
  0
ARC
  5
2e8
100
AcDbEntity
  8
1
100
AcDbCircle
  6
CONTINUOUS
 62
7
 10
2.379706E+002
 20
1.2640089E+002
 40
1.0
100
AcDbArc
 50
2.7E+002
 51
3.6E+002
  0
LINE
  5
2e9
100
AcDbEntity
  8
1
100
AcDbLine
  6
CONTINUOUS
 62
7
 10
2.291706E+002
 20
1.3089964E+002
 11
2.291706E+002
 21
1.2640089E+002
  0
LINE
  5
2ea
100
AcDbEntity
  8
1
100
AcDbLine
  6
CONTINUOUS
 62
7
 10
2.389706E+002
 20
1.3089964E+002
 11
2.389706E+002
 21
1.2640089E+002
  0
DIMENSION
  5
2eb
100
AcDbEntity
  8
1
100
AcDbDimension
  6
CONTINUOUS
 62
1
  2
*D341
  3
DSTYLE3
 10
3.3077074E+001
 20
6.4045033E+001
 11
3.7427074E+001
 21
6.6146033E+001
 70
128
100
AcDbAlignedDimension
 13
4.1777074E+001
 23
9.0100888E+001
 14
3.3077074E+001
 24
9.0100888E+001
 40
3.6
 50
0.0
100
AcDbRotatedDimension
1001
ACAD
1000
DSTYLE
1002
{
1070
173
1070
0
1070
5
1000
_AH2
1002
}
  0
LINE
  5
2ec
100
AcDbEntity
  8
1
100
AcDbLine
  6
CONTINUOUS
 62
7
 10
3.2458544E+002
 20
1.4490089E+002
 11
3.3405577E+002
 21
1.4490089E+002
  0
DIMENSION
  5
2ed
100
AcDbEntity
  8
1
100
AcDbDimension
  6
CONTINUOUS
 62
1
  2
*D343
  3
DSTYLE4
 10
3.7427074E+001
 20
7.1360721E+001
 11
4.973779E+001
 21
7.3461721E+001
 70
128
100
AcDbAlignedDimension
 13
4.1777074E+001
 23
9.0100888E+001
 14
3.7427074E+001
 24
8.3884511E+001
 40
3.6
 50
0.0
100
AcDbRotatedDimension
1001
ACAD
1000
DSTYLE
1002
{
1070
173
1070
0
1070
5
1000
_AH2
1002
}
  0
DIMENSION
  5
2ee
100
AcDbEntity
  8
1
100
AcDbDimension
  6
CONTINUOUS
 62
1
  2
*D344
  3
DSTYLE5
 10
3.7427074E+001
 20
7.1360721E+001
 11
2.3721978E+001
 21
7.3461721E+001
 70
128
100
AcDbAlignedDimension
 13
3.3077074E+001
 23
9.0100888E+001
 14
3.7427074E+001
 24
8.3884511E+001
 40
3.6
 50
0.0
100
AcDbRotatedDimension
1001
ACAD
1000
DSTYLE
1002
{
1070
173
1070
0
1070
5
1000
_AH2
1002
}
  0
LINE
  5
2ef
100
AcDbEntity
  8
1
100
AcDbLine
  6
CENTERLINE
 62
6
 10
3.1921035E+001
 20
1.4725089E+002
 11
4.2975836E+001
 21
1.4725089E+002
  0
LINE
  5
2f0
100
AcDbEntity
  8
1
100
AcDbLine
  6
CENTERLINE
 62
6
 10
3.1921035E+001
 20
1.0915089E+002
 11
4.2975836E+001
 21
1.0915089E+002
  0
LINE
  5
2f1
100
AcDbEntity
  8
1
100
AcDbLine
  6
CENTERLINE
 62
6
 10
3.1942397E+001
 20
9.0100888E+001
 11
4.2997197E+001
 21
9.0100888E+001
  0
DIMENSION
  5
2f2
100
AcDbEntity
  8
1
100
AcDbDimension
  6
CONTINUOUS
 62
1
  2
*D348
  3
DSTYLE6
 10
5.483956E+002
 20
1.6760536E+002
 11
3.197956E+002
 21
1.6960636E+002
 70
128
100
AcDbAlignedDimension
 13
9.1195604E+001
 23
1.5099589E+002
 14
5.483956E+002
 24
1.5110089E+002
 40
1.0
 50
0.0
100
AcDbRotatedDimension
1001
ACAD
1000
DSTYLE
1002
{
1070
173
1070
0
1070
5
1000
_AH2
1002
}
  0
ARC
  5
2f3
100
AcDbEntity
  8
1
100
AcDbCircle
  6
CONTINUOUS
 62
7
 10
2.396956E+002
 20
1.1116089E+002
 40
1.0
100
AcDbArc
 50
9.0E+001
 51
1.8E+002
  0
LINE
  5
2f4
100
AcDbEntity
  8
1
100
AcDbLine
  6
CENTERLINE
 62
6
 10
3.1921035E+001
 20
1.2820089E+002
 11
4.2975836E+001
 21
1.2820089E+002
  0
LINE
  5
2f5
100
AcDbEntity
  8
1
100
AcDbLine
  6
CENTERLINE
 62
6
 10
8.7481654E+001
 20
1.4725089E+002
 11
5.513956E+002
 21
1.4725089E+002
  0
LINE
  5
2f6
100
AcDbEntity
  8
1
100
AcDbLine
  6
CONTINUOUS
 62
7
 10
3.244206E+002
 20
1.4960089E+002
 11
3.342206E+002
 21
1.4960089E+002
  0
LINE
  5
2f7
100
AcDbEntity
  8
1
100
AcDbLine
  6
CONTINUOUS
 62
7
 10
2.206456E+002
 20
1.1216089E+002
 11
2.284456E+002
 21
1.1216089E+002
  0
LINE
  5
2f8
100
AcDbEntity
  8
1
100
AcDbLine
  6
CONTINUOUS
 62
7
 10
2.577456E+002
 20
1.1116089E+002
 11
2.577456E+002
 21
1.0666214E+002
  0
LINE
  5
2f9
100
AcDbEntity
  8
1
100
AcDbLine
  6
CONTINUOUS
 62
7
 10
2.484956E+002
 20
1.1116089E+002
 11
2.484956E+002
 21
1.0666214E+002
  0
LINE
  5
2fa
100
AcDbEntity
  8
1
100
AcDbLine
  6
CONTINUOUS
 62
7
 10
3.910956E+002
 20
5.5115069E+001
 11
3.959956E+002
 21
5.5115069E+001
  0
ARC
  5
2fb
100
AcDbEntity
  8
1
100
AcDbCircle
  6
CONTINUOUS
 62
7
 10
2.474956E+002
 20
1.1116089E+002
 40
1.0
100
AcDbArc
 50
0.0
 51
9.0E+001
  0
ARC
  5
2fc
100
AcDbEntity
  8
1
100
AcDbCircle
  6
CONTINUOUS
 62
7
 10
2.492206E+002
 20
1.2640089E+002
 40
1.0
100
AcDbArc
 50
1.8E+002
 51
2.7E+002
  0
ARC
  5
2fd
100
AcDbEntity
  8
1
100
AcDbCircle
  6
CONTINUOUS
 62
7
 10
2.570206E+002
 20
1.2640089E+002
 40
1.0
100
AcDbArc
 50
2.7E+002
 51
3.6E+002
  0
LINE
  5
2fe
100
AcDbEntity
  8
1
100
AcDbLine
  6
CONTINUOUS
 62
7
 10
2.484956E+002
 20
5.5115069E+001
 11
2.435956E+002
 21
5.5115069E+001
  0
LINE
  5
2ff
100
AcDbEntity
  8
1
100
AcDbLine
  6
CENTERLINE
 62
6
 10
8.7481654E+001
 20
1.2820089E+002
 11
5.513956E+002
 21
1.2820089E+002
  0
LINE
  5
300
100
AcDbEntity
  8
1
100
AcDbLine
  6
CONTINUOUS
 62
7
 10
9.5985439E+001
 20
1.4490089E+002
 11
1.0545577E+002
 21
1.4490089E+002
  0
LINE
  5
301
100
AcDbEntity
  8
1
100
AcDbLine
  6
CONTINUOUS
 62
7
 10
1.1503544E+002
 20
1.4490089E+002
 11
1.2450577E+002
 21
1.4490089E+002
  0
LINE
  5
302
100
AcDbEntity
  8
1
100
AcDbLine
  6
CONTINUOUS
 62
7
 10
1.148706E+002
 20
1.4960089E+002
 11
1.246706E+002
 21
1.4960089E+002
  0
LINE
  5
303
100
AcDbEntity
  8
1
100
AcDbLine
  6
CONTINUOUS
 62
7
 10
1.339206E+002
 20
1.4960089E+002
 11
1.437206E+002
 21
1.4960089E+002
  0
LINE
  5
304
100
AcDbEntity
  8
1
100
AcDbLine
  6
CONTINUOUS
 62
7
 10
1.3408544E+002
 20
1.4490089E+002
 11
1.4355577E+002
 21
1.4490089E+002
  0
LINE
  5
305
100
AcDbEntity
  8
1
100
AcDbLine
  6
CONTINUOUS
 62
7
 10
1.5313544E+002
 20
1.4490089E+002
 11
1.6260577E+002
 21
1.4490089E+002
  0
LINE
  5
306
100
AcDbEntity
  8
1
100
AcDbLine
  6
CONTINUOUS
 62
7
 10
1.529706E+002
 20
1.4960089E+002
 11
1.627706E+002
 21
1.4960089E+002
  0
LINE
  5
307
100
AcDbEntity
  8
1
100
AcDbLine
  6
CONTINUOUS
 62
7
 10
3.959956E+002
 20
1.3171089E+002
 11
3.959956E+002
 21
1.5110089E+002
  0
LINE
  5
308
100
AcDbEntity
  8
1
100
AcDbLine
  6
CONTINUOUS
 62
7
 10
2.767956E+002
 20
1.3021089E+002
 11
2.767956E+002
 21
1.2571214E+002
  0
LINE
  5
309
100
AcDbEntity
  8
1
100
AcDbLine
  6
CONTINUOUS
 62
7
 10
1.9123544E+002
 20
1.4490089E+002
 11
2.0070577E+002
 21
1.4490089E+002
  0
LINE
  5
30a
100
AcDbEntity
  8
1
100
AcDbLine
  6
CONTINUOUS
 62
7
 10
1.910706E+002
 20
1.4960089E+002
 11
2.008706E+002
 21
1.4960089E+002
  0
LINE
  5
30b
100
AcDbEntity
  8
1
100
AcDbLine
  6
CONTINUOUS
 62
7
 10
2.101206E+002
 20
1.4960089E+002
 11
2.199206E+002
 21
1.4960089E+002
  0
LINE
  5
30c
100
AcDbEntity
  8
1
100
AcDbLine
  6
CONTINUOUS
 62
7
 10
2.1028544E+002
 20
1.4490089E+002
 11
2.1975577E+002
 21
1.4490089E+002
  0
LINE
  5
30d
100
AcDbEntity
  8
1
100
AcDbLine
  6
CONTINUOUS
 62
7
 10
2.291706E+002
 20
1.4960089E+002
 11
2.389706E+002
 21
1.4960089E+002
  0
LINE
  5
30e
100
AcDbEntity
  8
1
100
AcDbLine
  6
CONTINUOUS
 62
7
 10
2.2933544E+002
 20
1.4490089E+002
 11
2.3880577E+002
 21
1.4490089E+002
  0
LINE
  5
30f
100
AcDbEntity
  8
1
100
AcDbLine
  6
CONTINUOUS
 62
7
 10
2.482206E+002
 20
1.3089964E+002
 11
2.482206E+002
 21
1.2640089E+002
  0
LINE
  5
310
100
AcDbEntity
  8
1
100
AcDbLine
  6
CENTERLINE
 62
6
 10
9.3395604E+001
 20
9.0100888E+001
 11
5.464956E+002
 21
9.0100888E+001
  0
LINE
  5
311
100
AcDbEntity
  8
1
100
AcDbLine
  6
CONTINUOUS
 62
7
 10
2.580206E+002
 20
1.3089964E+002
 11
2.580206E+002
 21
1.2640089E+002
  0
LINE
  5
312
100
AcDbEntity
  8
1
100
AcDbLine
  6
CONTINUOUS
 62
7
 10
1.243956E+002
 20
1.3021089E+002
 11
1.243956E+002
 21
1.2571214E+002
  0
LINE
  5
313
100
AcDbEntity
  8
1
100
AcDbLine
  6
CONTINUOUS
 62
7
 10
1.151456E+002
 20
1.3021089E+002
 11
1.151456E+002
 21
1.2571214E+002
  0
LINE
  5
314
100
AcDbEntity
  8
1
100
AcDbLine
  6
CONTINUOUS
 62
7
 10
9.1695604E+001
 20
1.3121089E+002
 11
9.5095604E+001
 21
1.3121089E+002
  0
ARC
  5
315
100
AcDbEntity
  8
1
100
AcDbCircle
  6
CONTINUOUS
 62
7
 10
1.251706E+002
 20
1.5110089E+002
 40
5.0E-001
100
AcDbArc
 50
9.0E+001
 51
1.8E+002
  0
LINE
  5
316
100
AcDbEntity
  8
1
100
AcDbLine
  6
CONTINUOUS
 62
7
 10
1.158706E+002
 20
1.4445089E+002
 11
1.236706E+002
 21
1.4445089E+002
  0
LINE
  5
317
100
AcDbEntity
  8
1
100
AcDbLine
  6
CONTINUOUS
 62
7
 10
1.063456E+002
 20
1.3121089E+002
 11
1.141456E+002
 21
1.3121089E+002
  0
ARC
  5
318
100
AcDbEntity
  8
1
100
AcDbCircle
  6
CONTINUOUS
 62
7
 10
1.063456E+002
 20
1.3021089E+002
 40
1.0
100
AcDbArc
 50
9.0E+001
 51
1.8E+002
  0
ARC
  5
319
100
AcDbEntity
  8
1
100
AcDbCircle
  6
CONTINUOUS
 62
7
 10
1.141456E+002
 20
1.3021089E+002
 40
1.0
100
AcDbArc
 50
0.0
 51
9.0E+001
  0
ARC
  5
31a
100
AcDbEntity
  8
1
100
AcDbCircle
  6
CONTINUOUS
 62
7
 10
1.158706E+002
 20
1.4545089E+002
 40
1.0
100
AcDbArc
 50
1.8E+002
 51
2.7E+002
  0
ARC
  5
31b
100
AcDbEntity
  8
1
100
AcDbCircle
  6
CONTINUOUS
 62
7
 10
1.236706E+002
 20
1.4545089E+002
 40
1.0
100
AcDbArc
 50
2.7E+002
 51
3.6E+002
  0
ARC
  5
31c
100
AcDbEntity
  8
1
100
AcDbCircle
  6
CONTINUOUS
 62
7
 10
9.1695604E+001
 20
1.3171089E+002
 40
5.0E-001
100
AcDbArc
 50
1.8E+002
 51
2.7E+002
  0
ARC
  5
31d
100
AcDbEntity
  8
1
100
AcDbCircle
  6
CONTINUOUS
 62
7
 10
9.5095604E+001
 20
1.3021089E+002
 40
1.0
100
AcDbArc
 50
0.0
 51
9.0E+001
  0
LINE
  5
31e
100
AcDbEntity
  8
1
100
AcDbLine
  6
CONTINUOUS
 62
7
 10
9.5820604E+001
 20
1.5110089E+002
 11
9.5820604E+001
 21
1.4545089E+002
  0
LINE
  5
31f
100
AcDbEntity
  8
1
100
AcDbLine
  6
CONTINUOUS
 62
7
 10
9.1695604E+001
 20
1.5160089E+002
 11
9.5320604E+001
 21
1.5160089E+002
  0
LINE
  5
320
100
AcDbEntity
  8
1
100
AcDbLine
  6
CONTINUOUS
 62
7
 10
2.675456E+002
 20
1.3021089E+002
 11
2.675456E+002
 21
1.2571214E+002
  0
ARC
  5
321
100
AcDbEntity
  8
1
100
AcDbCircle
  6
CONTINUOUS
 62
7
 10
2.587456E+002
 20
1.1116089E+002
 40
1.0
100
AcDbArc
 50
9.0E+001
 51
1.8E+002
  0
LINE
  5
322
100
AcDbEntity
  8
1
100
AcDbLine
  6
CONTINUOUS
 62
7
 10
2.440956E+002
 20
1.3121089E+002
 11
2.474956E+002
 21
1.3121089E+002
  0
LINE
  5
323
100
AcDbEntity
  8
1
100
AcDbLine
  6
CONTINUOUS
 62
7
 10
2.396956E+002
 20
1.1216089E+002
 11
2.474956E+002
 21
1.1216089E+002
  0
LINE
  5
324
100
AcDbEntity
  8
1
100
AcDbLine
  6
CONTINUOUS
 62
7
 10
2.767956E+002
 20
1.1116089E+002
 11
2.767956E+002
 21
1.0666214E+002
  0
LINE
  5
325
100
AcDbEntity
  8
1
100
AcDbLine
  6
CONTINUOUS
 62
7
 10
2.675456E+002
 20
1.1116089E+002
 11
2.675456E+002
 21
1.0666214E+002
  0
ARC
  5
326
100
AcDbEntity
  8
1
100
AcDbCircle
  6
CONTINUOUS
 62
7
 10
2.775706E+002
 20
1.5110089E+002
 40
5.0E-001
100
AcDbArc
 50
9.0E+001
 51
1.8E+002
  0
LINE
  5
327
100
AcDbEntity
  8
1
100
AcDbLine
  6
CONTINUOUS
 62
7
 10
2.682706E+002
 20
1.2540089E+002
 11
2.760706E+002
 21
1.2540089E+002
  0
ARC
  5
328
100
AcDbEntity
  8
1
100
AcDbCircle
  6
CONTINUOUS
 62
7
 10
2.665456E+002
 20
1.1116089E+002
 40
1.0
100
AcDbArc
 50
0.0
 51
9.0E+001
  0
ARC
  5
329
100
AcDbEntity
  8
1
100
AcDbCircle
  6
CONTINUOUS
 62
7
 10
2.682706E+002
 20
1.2640089E+002
 40
1.0
100
AcDbArc
 50
1.8E+002
 51
2.7E+002
  0
ARC
  5
32a
100
AcDbEntity
  8
1
100
AcDbCircle
  6
CONTINUOUS
 62
7
 10
2.760706E+002
 20
1.2640089E+002
 40
1.0
100
AcDbArc
 50
2.7E+002
 51
3.6E+002
  0
LINE
  5
32b
100
AcDbEntity
  8
1
100
AcDbLine
  6
CONTINUOUS
 62
7
 10
2.672706E+002
 20
1.3089964E+002
 11
2.672706E+002
 21
1.2640089E+002
  0
LINE
  5
32c
100
AcDbEntity
  8
1
100
AcDbLine
  6
CONTINUOUS
 62
7
 10
2.770706E+002
 20
1.3089964E+002
 11
2.770706E+002
 21
1.2640089E+002
  0
LINE
  5
32d
100
AcDbEntity
  8
1
100
AcDbLine
  6
CONTINUOUS
 62
7
 10
2.682706E+002
 20
1.4445089E+002
 11
2.760706E+002
 21
1.4445089E+002
  0
ARC
  5
32e
100
AcDbEntity
  8
1
100
AcDbCircle
  6
CONTINUOUS
 62
7
 10
2.777956E+002
 20
1.1116089E+002
 40
1.0
100
AcDbArc
 50
9.0E+001
 51
1.8E+002
  0
LINE
  5
32f
100
AcDbEntity
  8
1
100
AcDbLine
  6
CONTINUOUS
 62
7
 10
2.587456E+002
 20
1.3121089E+002
 11
2.665456E+002
 21
1.3121089E+002
  0
LINE
  5
330
100
AcDbEntity
  8
1
100
AcDbLine
  6
CONTINUOUS
 62
7
 10
2.587456E+002
 20
1.1216089E+002
 11
2.665456E+002
 21
1.1216089E+002
  0
LINE
  5
331
100
AcDbEntity
  8
1
100
AcDbLine
  6
CONTINUOUS
 62
7
 10
2.958456E+002
 20
1.1116089E+002
 11
2.958456E+002
 21
1.0666214E+002
  0
LINE
  5
332
100
AcDbEntity
  8
1
100
AcDbLine
  6
CONTINUOUS
 62
7
 10
2.865956E+002
 20
1.1116089E+002
 11
2.865956E+002
 21
1.0666214E+002
  0
ARC
  5
333
100
AcDbEntity
  8
1
100
AcDbCircle
  6
CONTINUOUS
 62
7
 10
2.587456E+002
 20
1.3021089E+002
 40
1.0
100
AcDbArc
 50
9.0E+001
 51
1.8E+002
  0
LINE
  5
334
100
AcDbEntity
  8
1
100
AcDbLine
  6
CONTINUOUS
 62
7
 10
2.873206E+002
 20
1.2540089E+002
 11
2.951206E+002
 21
1.2540089E+002
  0
ARC
  5
335
100
AcDbEntity
  8
1
100
AcDbCircle
  6
CONTINUOUS
 62
7
 10
2.855956E+002
 20
1.1116089E+002
 40
1.0
100
AcDbArc
 50
0.0
 51
9.0E+001
  0
ARC
  5
336
100
AcDbEntity
  8
1
100
AcDbCircle
  6
CONTINUOUS
 62
7
 10
2.873206E+002
 20
1.2640089E+002
 40
1.0
100
AcDbArc
 50
1.8E+002
 51
2.7E+002
  0
ARC
  5
337
100
AcDbEntity
  8
1
100
AcDbCircle
  6
CONTINUOUS
 62
7
 10
2.951206E+002
 20
1.2640089E+002
 40
1.0
100
AcDbArc
 50
2.7E+002
 51
3.6E+002
  0
LINE
  5
338
100
AcDbEntity
  8
1
100
AcDbLine
  6
CONTINUOUS
 62
7
 10
2.863206E+002
 20
1.3089964E+002
 11
2.863206E+002
 21
1.2640089E+002
  0
LINE
  5
339
100
AcDbEntity
  8
1
100
AcDbLine
  6
CONTINUOUS
 62
7
 10
2.961206E+002
 20
1.3089964E+002
 11
2.961206E+002
 21
1.2640089E+002
  0
ARC
  5
33a
100
AcDbEntity
  8
1
100
AcDbCircle
  6
CONTINUOUS
 62
7
 10
2.665456E+002
 20
1.3021089E+002
 40
1.0
100
AcDbArc
 50
0.0
 51
9.0E+001
  0
ARC
  5
33b
100
AcDbEntity
  8
1
100
AcDbCircle
  6
CONTINUOUS
 62
7
 10
2.968456E+002
 20
1.1116089E+002
 40
1.0
100
AcDbArc
 50
9.0E+001
 51
1.8E+002
  0
ARC
  5
33c
100
AcDbEntity
  8
1
100
AcDbCircle
  6
CONTINUOUS
 62
7
 10
2.682706E+002
 20
1.4545089E+002
 40
1.0
100
AcDbArc
 50
1.8E+002
 51
2.7E+002
  0
LINE
  5
33d
100
AcDbEntity
  8
1
100
AcDbLine
  6
CONTINUOUS
 62
7
 10
2.777956E+002
 20
1.1216089E+002
 11
2.855956E+002
 21
1.1216089E+002
  0
LINE
  5
33e
100
AcDbEntity
  8
1
100
AcDbLine
  6
CONTINUOUS
 62
7
 10
3.148956E+002
 20
1.1116089E+002
 11
3.148956E+002
 21
1.0666214E+002
  0
LINE
  5
33f
100
AcDbEntity
  8
1
100
AcDbLine
  6
CONTINUOUS
 62
7
 10
3.056456E+002
 20
1.1116089E+002
 11
3.056456E+002
 21
1.0666214E+002
  0
ARC
  5
340
100
AcDbEntity
  8
1
100
AcDbCircle
  6
CONTINUOUS
 62
7
 10
2.760706E+002
 20
1.4545089E+002
 40
1.0
100
AcDbArc
 50
2.7E+002
 51
3.6E+002
  0
LINE
  5
341
100
AcDbEntity
  8
1
100
AcDbLine
  6
CONTINUOUS
 62
7
 10
3.063706E+002
 20
1.2540089E+002
 11
3.141706E+002
 21
1.2540089E+002
  0
ARC
  5
342
100
AcDbEntity
  8
1
100
AcDbCircle
  6
CONTINUOUS
 62
7
 10
3.046456E+002
 20
1.1116089E+002
 40
1.0
100
AcDbArc
 50
0.0
 51
9.0E+001
  0
ARC
  5
343
100
AcDbEntity
  8
1
100
AcDbCircle
  6
CONTINUOUS
 62
7
 10
3.063706E+002
 20
1.2640089E+002
 40
1.0
100
AcDbArc
 50
1.8E+002
 51
2.7E+002
  0
ARC
  5
344
100
AcDbEntity
  8
1
100
AcDbCircle
  6
CONTINUOUS
 62
7
 10
3.141706E+002
 20
1.2640089E+002
 40
1.0
100
AcDbArc
 50
2.7E+002
 51
3.6E+002
  0
LINE
  5
345
100
AcDbEntity
  8
1
100
AcDbLine
  6
CONTINUOUS
 62
7
 10
3.053706E+002
 20
1.3089964E+002
 11
3.053706E+002
 21
1.2640089E+002
  0
LINE
  5
346
100
AcDbEntity
  8
1
100
AcDbLine
  6
CONTINUOUS
 62
7
 10
3.151706E+002
 20
1.3089964E+002
 11
3.151706E+002
 21
1.2640089E+002
  0
ARC
  5
347
100
AcDbEntity
  8
1
100
AcDbCircle
  6
CONTINUOUS
 62
7
 10
2.440956E+002
 20
1.3171089E+002
 40
5.0E-001
100
AcDbArc
 50
1.8E+002
 51
2.7E+002
  0
ARC
  5
348
100
AcDbEntity
  8
1
100
AcDbCircle
  6
CONTINUOUS
 62
7
 10
3.158956E+002
 20
1.1116089E+002
 40
1.0
100
AcDbArc
 50
9.0E+001
 51
1.8E+002
  0
ARC
  5
349
100
AcDbEntity
  8
1
100
AcDbCircle
  6
CONTINUOUS
 62
7
 10
2.474956E+002
 20
1.3021089E+002
 40
1.0
100
AcDbArc
 50
0.0
 51
9.0E+001
  0
LINE
  5
34a
100
AcDbEntity
  8
1
100
AcDbLine
  6
CONTINUOUS
 62
7
 10
2.968456E+002
 20
1.1216089E+002
 11
3.046456E+002
 21
1.1216089E+002
  0
LINE
  5
34b
100
AcDbEntity
  8
1
100
AcDbLine
  6
CONTINUOUS
 62
7
 10
3.192956E+002
 20
1.1216089E+002
 11
3.158956E+002
 21
1.1216089E+002
  0
ARC
  5
34c
100
AcDbEntity
  8
1
100
AcDbCircle
  6
CONTINUOUS
 62
7
 10
3.192956E+002
 20
1.1266089E+002
 40
5.0E-001
100
AcDbArc
 50
2.7E+002
 51
3.6E+002
  0
LINE
  5
34d
100
AcDbEntity
  8
1
100
AcDbLine
  6
CONTINUOUS
 62
7
 10
2.482206E+002
 20
1.5110089E+002
 11
2.482206E+002
 21
1.4545089E+002
  0
LINE
  5
34e
100
AcDbEntity
  8
1
100
AcDbLine
  6
CONTINUOUS
 62
7
 10
2.440956E+002
 20
1.5160089E+002
 11
2.477206E+002
 21
1.5160089E+002
  0
LINE
  5
34f
100
AcDbEntity
  8
1
100
AcDbLine
  6
CONTINUOUS
 62
7
 10
2.492206E+002
 20
1.2540089E+002
 11
2.570206E+002
 21
1.2540089E+002
  0
ARC
  5
350
100
AcDbEntity
  8
1
100
AcDbCircle
  6
CONTINUOUS
 62
7
 10
2.477206E+002
 20
1.5110089E+002
 40
5.0E-001
100
AcDbArc
 50
0.0
 51
9.0E+001
  0
LINE
  5
351
100
AcDbEntity
  8
1
100
AcDbLine
  6
CONTINUOUS
 62
7
 10
5.434956E+002
 20
5.5115069E+001
 11
5.483956E+002
 21
5.5115069E+001
  0
LINE
  5
352
100
AcDbEntity
  8
1
100
AcDbLine
  6
CONTINUOUS
 62
7
 10
4.008956E+002
 20
5.5115069E+001
 11
3.959956E+002
 21
5.5115069E+001
  0
LINE
  5
353
100
AcDbEntity
  8
1
100
AcDbLine
  6
CONTINUOUS
 62
7
 10
4.101456E+002
 20
5.73794E+001
 11
4.101456E+002
 21
4.96794E+001
  0
LINE
  5
354
100
AcDbEntity
  8
1
100
AcDbLine
  6
CONTINUOUS
 62
7
 10
4.291956E+002
 20
5.73794E+001
 11
4.291956E+002
 21
4.96794E+001
  0
LINE
  5
355
100
AcDbEntity
  8
1
100
AcDbLine
  6
CONTINUOUS
 62
7
 10
4.199456E+002
 20
5.73794E+001
 11
4.199456E+002
 21
4.96794E+001
  0
LINE
  5
356
100
AcDbEntity
  8
1
100
AcDbLine
  6
CONTINUOUS
 62
7
 10
4.389956E+002
 20
5.73794E+001
 11
4.389956E+002
 21
4.96794E+001
  0
LINE
  5
357
100
AcDbEntity
  8
1
100
AcDbLine
  6
CONTINUOUS
 62
7
 10
4.482456E+002
 20
5.73794E+001
 11
4.482456E+002
 21
4.96794E+001
  0
LINE
  5
358
100
AcDbEntity
  8
1
100
AcDbLine
  6
CONTINUOUS
 62
7
 10
4.580456E+002
 20
5.73794E+001
 11
4.580456E+002
 21
4.96794E+001
  0
LINE
  5
359
100
AcDbEntity
  8
1
100
AcDbLine
  6
CONTINUOUS
 62
7
 10
4.672956E+002
 20
5.73794E+001
 11
4.672956E+002
 21
4.96794E+001
  0
LINE
  5
35a
100
AcDbEntity
  8
1
100
AcDbLine
  6
CONTINUOUS
 62
7
 10
4.194456E+002
 20
5.59794E+001
 11
4.106456E+002
 21
5.59794E+001
  0
LINE
  5
35b
100
AcDbEntity
  8
1
100
AcDbLine
  6
CONTINUOUS
 62
7
 10
4.120456E+002
 20
5.59794E+001
 11
4.120456E+002
 21
4.96794E+001
  0
LINE
  5
35c
100
AcDbEntity
  8
1
100
AcDbLine
  6
CONTINUOUS
 62
7
 10
4.180456E+002
 20
5.59794E+001
 11
4.180456E+002
 21
4.96794E+001
  0
ARC
  5
35d
100
AcDbEntity
  8
1
100
AcDbCircle
  6
CONTINUOUS
 62
7
 10
4.194456E+002
 20
5.54794E+001
 40
5.0E-001
100
AcDbArc
 50
0.0
 51
9.0E+001
  0
ARC
  5
35e
100
AcDbEntity
  8
1
100
AcDbCircle
  6
CONTINUOUS
 62
7
 10
4.106456E+002
 20
5.54794E+001
 40
5.0E-001
100
AcDbArc
 50
9.0E+001
 51
1.8E+002
  0
ARC
  5
35f
100
AcDbEntity
  8
1
100
AcDbCircle
  6
CONTINUOUS
 62
7
 10
4.096456E+002
 20
5.73794E+001
 40
5.0E-001
100
AcDbArc
 50
0.0
 51
9.0E+001
  0
ARC
  5
360
100
AcDbEntity
  8
1
100
AcDbCircle
  6
CONTINUOUS
 62
7
 10
4.204456E+002
 20
5.73794E+001
 40
5.0E-001
100
AcDbArc
 50
9.0E+001
 51
1.8E+002
  0
ARC
  5
361
100
AcDbEntity
  8
1
100
AcDbCircle
  6
CONTINUOUS
 62
7
 10
4.204456E+002
 20
4.96794E+001
 40
5.0E-001
100
AcDbArc
 50
1.8E+002
 51
2.7E+002
  0
ARC
  5
362
100
AcDbEntity
  8
1
100
AcDbCircle
  6
CONTINUOUS
 62
7
 10
4.185456E+002
 20
4.96794E+001
 40
5.0E-001
100
AcDbArc
 50
1.8E+002
 51
2.7E+002
  0
ARC
  5
363
100
AcDbEntity
  8
1
100
AcDbCircle
  6
CONTINUOUS
 62
7
 10
4.115456E+002
 20
4.96794E+001
 40
5.0E-001
100
AcDbArc
 50
2.7E+002
 51
3.6E+002
  0
ARC
  5
364
100
AcDbEntity
  8
1
100
AcDbCircle
  6
CONTINUOUS
 62
7
 10
4.096456E+002
 20
4.96794E+001
 40
5.0E-001
100
AcDbArc
 50
2.7E+002
 51
3.6E+002
  0
ARC
  5
365
100
AcDbEntity
  8
1
100
AcDbCircle
  6
CONTINUOUS
 62
7
 10
3.964956E+002
 20
5.73794E+001
 40
5.0E-001
100
AcDbArc
 50
9.0E+001
 51
1.8E+002
  0
ARC
  5
366
100
AcDbEntity
  8
1
100
AcDbCircle
  6
CONTINUOUS
 62
7
 10
3.964956E+002
 20
4.96794E+001
 40
5.0E-001
100
AcDbArc
 50
1.8E+002
 51
2.7E+002
  0
LINE
  5
367
100
AcDbEntity
  8
1
100
AcDbLine
  6
CONTINUOUS
 62
7
 10
4.384956E+002
 20
5.59794E+001
 11
4.296956E+002
 21
5.59794E+001
  0
ARC
  5
368
100
AcDbEntity
  8
1
100
AcDbCircle
  6
CONTINUOUS
 62
7
 10
4.384956E+002
 20
5.54794E+001
 40
5.0E-001
100
AcDbArc
 50
0.0
 51
9.0E+001
  0
ARC
  5
369
100
AcDbEntity
  8
1
100
AcDbCircle
  6
CONTINUOUS
 62
7
 10
4.296956E+002
 20
5.54794E+001
 40
5.0E-001
100
AcDbArc
 50
9.0E+001
 51
1.8E+002
  0
LINE
  5
36a
100
AcDbEntity
  8
1
100
AcDbLine
  6
CONTINUOUS
 62
7
 10
4.310956E+002
 20
5.59794E+001
 11
4.310956E+002
 21
4.96794E+001
  0
LINE
  5
36b
100
AcDbEntity
  8
1
100
AcDbLine
  6
CONTINUOUS
 62
7
 10
4.370956E+002
 20
5.59794E+001
 11
4.370956E+002
 21
4.96794E+001
  0
ARC
  5
36c
100
AcDbEntity
  8
1
100
AcDbCircle
  6
CONTINUOUS
 62
7
 10
4.375956E+002
 20
4.96794E+001
 40
5.0E-001
100
AcDbArc
 50
1.8E+002
 51
2.7E+002
  0
ARC
  5
36d
100
AcDbEntity
  8
1
100
AcDbCircle
  6
CONTINUOUS
 62
7
 10
4.305956E+002
 20
4.96794E+001
 40
5.0E-001
100
AcDbArc
 50
2.7E+002
 51
3.6E+002
  0
ARC
  5
36e
100
AcDbEntity
  8
1
100
AcDbCircle
  6
CONTINUOUS
 62
7
 10
4.575456E+002
 20
5.54794E+001
 40
5.0E-001
100
AcDbArc
 50
0.0
 51
9.0E+001
  0
ARC
  5
36f
100
AcDbEntity
  8
1
100
AcDbCircle
  6
CONTINUOUS
 62
7
 10
4.487456E+002
 20
5.54794E+001
 40
5.0E-001
100
AcDbArc
 50
9.0E+001
 51
1.8E+002
  0
LINE
  5
370
100
AcDbEntity
  8
1
100
AcDbLine
  6
CONTINUOUS
 62
7
 10
4.561456E+002
 20
5.59794E+001
 11
4.561456E+002
 21
4.96794E+001
  0
LINE
  5
371
100
AcDbEntity
  8
1
100
AcDbLine
  6
CONTINUOUS
 62
7
 10
4.501456E+002
 20
5.59794E+001
 11
4.501456E+002
 21
4.96794E+001
  0
ARC
  5
372
100
AcDbEntity
  8
1
100
AcDbCircle
  6
CONTINUOUS
 62
7
 10
4.566456E+002
 20
4.96794E+001
 40
5.0E-001
100
AcDbArc
 50
1.8E+002
 51
2.7E+002
  0
ARC
  5
373
100
AcDbEntity
  8
1
100
AcDbCircle
  6
CONTINUOUS
 62
7
 10
4.496456E+002
 20
4.96794E+001
 40
5.0E-001
100
AcDbArc
 50
2.7E+002
 51
3.6E+002
  0
ARC
  5
374
100
AcDbEntity
  8
1
100
AcDbCircle
  6
CONTINUOUS
 62
7
 10
4.677956E+002
 20
5.54794E+001
 40
5.0E-001
100
AcDbArc
 50
9.0E+001
 51
1.8E+002
  0
LINE
  5
375
100
AcDbEntity
  8
1
100
AcDbLine
  6
CONTINUOUS
 62
7
 10
4.691956E+002
 20
5.59794E+001
 11
4.691956E+002
 21
4.96794E+001
  0
ARC
  5
376
100
AcDbEntity
  8
1
100
AcDbCircle
  6
CONTINUOUS
 62
7
 10
4.686956E+002
 20
4.96794E+001
 40
5.0E-001
100
AcDbArc
 50
2.7E+002
 51
3.6E+002
  0
ARC
  5
377
100
AcDbEntity
  8
1
100
AcDbCircle
  6
CONTINUOUS
 62
7
 10
4.286956E+002
 20
5.73794E+001
 40
5.0E-001
100
AcDbArc
 50
0.0
 51
9.0E+001
  0
ARC
  5
378
100
AcDbEntity
  8
1
100
AcDbCircle
  6
CONTINUOUS
 62
7
 10
4.286956E+002
 20
4.96794E+001
 40
5.0E-001
100
AcDbArc
 50
2.7E+002
 51
3.6E+002
  0
ARC
  5
379
100
AcDbEntity
  8
1
100
AcDbCircle
  6
CONTINUOUS
 62
7
 10
4.394956E+002
 20
5.73794E+001
 40
5.0E-001
100
AcDbArc
 50
9.0E+001
 51
1.8E+002
  0
ARC
  5
37a
100
AcDbEntity
  8
1
100
AcDbCircle
  6
CONTINUOUS
 62
7
 10
4.394956E+002
 20
4.96794E+001
 40
5.0E-001
100
AcDbArc
 50
1.8E+002
 51
2.7E+002
  0
ARC
  5
37b
100
AcDbEntity
  8
1
100
AcDbCircle
  6
CONTINUOUS
 62
7
 10
4.477456E+002
 20
5.73794E+001
 40
5.0E-001
100
AcDbArc
 50
0.0
 51
9.0E+001
  0
ARC
  5
37c
100
AcDbEntity
  8
1
100
AcDbCircle
  6
CONTINUOUS
 62
7
 10
4.477456E+002
 20
4.96794E+001
 40
5.0E-001
100
AcDbArc
 50
2.7E+002
 51
3.6E+002
  0
ARC
  5
37d
100
AcDbEntity
  8
1
100
AcDbCircle
  6
CONTINUOUS
 62
7
 10
4.585456E+002
 20
5.73794E+001
 40
5.0E-001
100
AcDbArc
 50
9.0E+001
 51
1.8E+002
  0
ARC
  5
37e
100
AcDbEntity
  8
1
100
AcDbCircle
  6
CONTINUOUS
 62
7
 10
4.585456E+002
 20
4.96794E+001
 40
5.0E-001
100
AcDbArc
 50
1.8E+002
 51
2.7E+002
  0
ARC
  5
37f
100
AcDbEntity
  8
1
100
AcDbCircle
  6
CONTINUOUS
 62
7
 10
4.667956E+002
 20
4.96794E+001
 40
5.0E-001
100
AcDbArc
 50
2.7E+002
 51
3.6E+002
  0
ARC
  5
380
100
AcDbEntity
  8
1
100
AcDbCircle
  6
CONTINUOUS
 62
7
 10
4.667956E+002
 20
5.73794E+001
 40
5.0E-001
100
AcDbArc
 50
0.0
 51
9.0E+001
  0
LINE
  5
381
100
AcDbEntity
  8
1
100
AcDbLine
  6
CONTINUOUS
 62
7
 10
5.478956E+002
 20
4.91794E+001
 11
3.964956E+002
 21
4.91794E+001
  0
LINE
  5
382
100
AcDbEntity
  8
1
100
AcDbLine
  6
CONTINUOUS
 62
7
 10
5.483956E+002
 20
5.73794E+001
 11
5.483956E+002
 21
4.96794E+001
  0
LINE
  5
383
100
AcDbEntity
  8
1
100
AcDbLine
  6
CONTINUOUS
 62
7
 10
5.244456E+002
 20
5.73794E+001
 11
5.244456E+002
 21
4.96794E+001
  0
LINE
  5
384
100
AcDbEntity
  8
1
100
AcDbLine
  6
CONTINUOUS
 62
7
 10
5.342456E+002
 20
5.73794E+001
 11
5.342456E+002
 21
4.96794E+001
  0
LINE
  5
385
100
AcDbEntity
  8
1
100
AcDbLine
  6
CONTINUOUS
 62
7
 10
5.434956E+002
 20
5.73794E+001
 11
5.434956E+002
 21
4.96794E+001
  0
LINE
  5
386
100
AcDbEntity
  8
1
100
AcDbLine
  6
CONTINUOUS
 62
7
 10
5.337456E+002
 20
5.59794E+001
 11
5.249456E+002
 21
5.59794E+001
  0
ARC
  5
387
100
AcDbEntity
  8
1
100
AcDbCircle
  6
CONTINUOUS
 62
7
 10
5.337456E+002
 20
5.54794E+001
 40
5.0E-001
100
AcDbArc
 50
0.0
 51
9.0E+001
  0
ARC
  5
388
100
AcDbEntity
  8
1
100
AcDbCircle
  6
CONTINUOUS
 62
7
 10
5.249456E+002
 20
5.54794E+001
 40
5.0E-001
100
AcDbArc
 50
9.0E+001
 51
1.8E+002
  0
LINE
  5
389
100
AcDbEntity
  8
1
100
AcDbLine
  6
CONTINUOUS
 62
7
 10
5.323456E+002
 20
5.59794E+001
 11
5.323456E+002
 21
4.96794E+001
  0
LINE
  5
38a
100
AcDbEntity
  8
1
100
AcDbLine
  6
CONTINUOUS
 62
7
 10
5.263456E+002
 20
5.59794E+001
 11
5.263456E+002
 21
4.96794E+001
  0
ARC
  5
38b
100
AcDbEntity
  8
1
100
AcDbCircle
  6
CONTINUOUS
 62
7
 10
5.328456E+002
 20
4.96794E+001
 40
5.0E-001
100
AcDbArc
 50
1.8E+002
 51
2.7E+002
  0
ARC
  5
38c
100
AcDbEntity
  8
1
100
AcDbCircle
  6
CONTINUOUS
 62
7
 10
5.258456E+002
 20
4.96794E+001
 40
5.0E-001
100
AcDbArc
 50
2.7E+002
 51
3.6E+002
  0
ARC
  5
38d
100
AcDbEntity
  8
1
100
AcDbCircle
  6
CONTINUOUS
 62
7
 10
5.239456E+002
 20
5.73794E+001
 40
5.0E-001
100
AcDbArc
 50
0.0
 51
9.0E+001
  0
ARC
  5
38e
100
AcDbEntity
  8
1
100
AcDbCircle
  6
CONTINUOUS
 62
7
 10
5.239456E+002
 20
4.96794E+001
 40
5.0E-001
100
AcDbArc
 50
2.7E+002
 51
3.6E+002
  0
ARC
  5
38f
100
AcDbEntity
  8
1
100
AcDbCircle
  6
CONTINUOUS
 62
7
 10
5.347456E+002
 20
5.73794E+001
 40
5.0E-001
100
AcDbArc
 50
9.0E+001
 51
1.8E+002
  0
ARC
  5
390
100
AcDbEntity
  8
1
100
AcDbCircle
  6
CONTINUOUS
 62
7
 10
5.347456E+002
 20
4.96794E+001
 40
5.0E-001
100
AcDbArc
 50
1.8E+002
 51
2.7E+002
  0
ARC
  5
391
100
AcDbEntity
  8
1
100
AcDbCircle
  6
CONTINUOUS
 62
7
 10
5.429956E+002
 20
4.96794E+001
 40
5.0E-001
100
AcDbArc
 50
2.7E+002
 51
3.6E+002
  0
ARC
  5
392
100
AcDbEntity
  8
1
100
AcDbCircle
  6
CONTINUOUS
 62
7
 10
5.429956E+002
 20
5.73794E+001
 40
5.0E-001
100
AcDbArc
 50
0.0
 51
9.0E+001
  0
ARC
  5
393
100
AcDbEntity
  8
1
100
AcDbCircle
  6
CONTINUOUS
 62
7
 10
5.478956E+002
 20
5.73794E+001
 40
5.0E-001
100
AcDbArc
 50
0.0
 51
9.0E+001
  0
ARC
  5
394
100
AcDbEntity
  8
1
100
AcDbCircle
  6
CONTINUOUS
 62
7
 10
5.478956E+002
 20
4.96794E+001
 40
5.0E-001
100
AcDbArc
 50
2.7E+002
 51
3.6E+002
  0
LINE
  5
395
100
AcDbEntity
  8
1
100
AcDbLine
  6
CONTINUOUS
 62
7
 10
4.487456E+002
 20
5.59794E+001
 11
4.575456E+002
 21
5.59794E+001
  0
LINE
  5
396
100
AcDbEntity
  8
1
100
AcDbLine
  6
CONTINUOUS
 62
7
 10
4.770956E+002
 20
5.73794E+001
 11
4.770956E+002
 21
4.96794E+001
  0
LINE
  5
397
100
AcDbEntity
  8
1
100
AcDbLine
  6
CONTINUOUS
 62
7
 10
4.863456E+002
 20
5.73794E+001
 11
4.863456E+002
 21
4.96794E+001
  0
ARC
  5
398
100
AcDbEntity
  8
1
100
AcDbCircle
  6
CONTINUOUS
 62
7
 10
4.765956E+002
 20
5.54794E+001
 40
5.0E-001
100
AcDbArc
 50
0.0
 51
9.0E+001
  0
LINE
  5
399
100
AcDbEntity
  8
1
100
AcDbLine
  6
CONTINUOUS
 62
7
 10
4.751956E+002
 20
5.59794E+001
 11
4.751956E+002
 21
4.96794E+001
  0
ARC
  5
39a
100
AcDbEntity
  8
1
100
AcDbCircle
  6
CONTINUOUS
 62
7
 10
4.756956E+002
 20
4.96794E+001
 40
5.0E-001
100
AcDbArc
 50
1.8E+002
 51
2.7E+002
  0
ARC
  5
39b
100
AcDbEntity
  8
1
100
AcDbCircle
  6
CONTINUOUS
 62
7
 10
4.868456E+002
 20
5.54794E+001
 40
5.0E-001
100
AcDbArc
 50
9.0E+001
 51
1.8E+002
  0
LINE
  5
39c
100
AcDbEntity
  8
1
100
AcDbLine
  6
CONTINUOUS
 62
7
 10
4.882456E+002
 20
5.59794E+001
 11
4.882456E+002
 21
4.96794E+001
  0
ARC
  5
39d
100
AcDbEntity
  8
1
100
AcDbCircle
  6
CONTINUOUS
 62
7
 10
4.877456E+002
 20
4.96794E+001
 40
5.0E-001
100
AcDbArc
 50
2.7E+002
 51
3.6E+002
  0
ARC
  5
39e
100
AcDbEntity
  8
1
100
AcDbCircle
  6
CONTINUOUS
 62
7
 10
4.775956E+002
 20
5.73794E+001
 40
5.0E-001
100
AcDbArc
 50
9.0E+001
 51
1.8E+002
  0
ARC
  5
39f
100
AcDbEntity
  8
1
100
AcDbCircle
  6
CONTINUOUS
 62
7
 10
4.775956E+002
 20
4.96794E+001
 40
5.0E-001
100
AcDbArc
 50
1.8E+002
 51
2.7E+002
  0
ARC
  5
3a0
100
AcDbEntity
  8
1
100
AcDbCircle
  6
CONTINUOUS
 62
7
 10
4.858456E+002
 20
4.96794E+001
 40
5.0E-001
100
AcDbArc
 50
2.7E+002
 51
3.6E+002
  0
ARC
  5
3a1
100
AcDbEntity
  8
1
100
AcDbCircle
  6
CONTINUOUS
 62
7
 10
4.858456E+002
 20
5.73794E+001
 40
5.0E-001
100
AcDbArc
 50
0.0
 51
9.0E+001
  0
LINE
  5
3a2
100
AcDbEntity
  8
1
100
AcDbLine
  6
CONTINUOUS
 62
7
 10
4.961456E+002
 20
5.73794E+001
 11
4.961456E+002
 21
4.96794E+001
  0
ARC
  5
3a3
100
AcDbEntity
  8
1
100
AcDbCircle
  6
CONTINUOUS
 62
7
 10
9.5320604E+001
 20
1.5110089E+002
 40
5.0E-001
100
AcDbArc
 50
0.0
 51
9.0E+001
  0
ARC
  5
3a4
100
AcDbEntity
  8
1
100
AcDbCircle
  6
CONTINUOUS
 62
7
 10
9.1695604E+001
 20
1.5110089E+002
 40
5.0E-001
100
AcDbArc
 50
9.0E+001
 51
1.8E+002
  0
LINE
  5
3a5
100
AcDbEntity
  8
1
100
AcDbLine
  6
CONTINUOUS
 62
7
 10
1.056206E+002
 20
1.5110089E+002
 11
1.056206E+002
 21
1.4545089E+002
  0
LINE
  5
3a6
100
AcDbEntity
  8
1
100
AcDbLine
  6
CONTINUOUS
 62
7
 10
1.148706E+002
 20
1.5110089E+002
 11
1.148706E+002
 21
1.4545089E+002
  0
LINE
  5
3a7
100
AcDbEntity
  8
1
100
AcDbLine
  6
CONTINUOUS
 62
7
 10
1.246706E+002
 20
1.5110089E+002
 11
1.246706E+002
 21
1.4545089E+002
  0
LINE
  5
3a8
100
AcDbEntity
  8
1
100
AcDbLine
  6
CONTINUOUS
 62
7
 10
1.061206E+002
 20
1.5160089E+002
 11
1.143706E+002
 21
1.5160089E+002
  0
ARC
  5
3a9
100
AcDbEntity
  8
1
100
AcDbCircle
  6
CONTINUOUS
 62
7
 10
1.143706E+002
 20
1.5110089E+002
 40
5.0E-001
100
AcDbArc
 50
0.0
 51
9.0E+001
  0
ARC
  5
3aa
100
AcDbEntity
  8
1
100
AcDbCircle
  6
CONTINUOUS
 62
7
 10
1.061206E+002
 20
1.5110089E+002
 40
5.0E-001
100
AcDbArc
 50
9.0E+001
 51
1.8E+002
  0
LINE
  5
3ab
100
AcDbEntity
  8
1
100
AcDbLine
  6
CONTINUOUS
 62
7
 10
5.053956E+002
 20
5.73794E+001
 11
5.053956E+002
 21
4.96794E+001
  0
LINE
  5
3ac
100
AcDbEntity
  8
1
100
AcDbLine
  6
CONTINUOUS
 62
7
 10
1.053456E+002
 20
1.3021089E+002
 11
1.053456E+002
 21
1.2571214E+002
  0
LINE
  5
3ad
100
AcDbEntity
  8
1
100
AcDbLine
  6
CONTINUOUS
 62
7
 10
9.6095604E+001
 20
1.3021089E+002
 11
9.6095604E+001
 21
1.2571214E+002
  0
ARC
  5
3ae
100
AcDbEntity
  8
1
100
AcDbCircle
  6
CONTINUOUS
 62
7
 10
1.253956E+002
 20
1.3021089E+002
 40
1.0
100
AcDbArc
 50
9.0E+001
 51
1.8E+002
  0
LINE
  5
3af
100
AcDbEntity
  8
1
100
AcDbLine
  6
CONTINUOUS
 62
7
 10
1.046206E+002
 20
1.4445089E+002
 11
9.6820604E+001
 21
1.4445089E+002
  0
ARC
  5
3b0
100
AcDbEntity
  8
1
100
AcDbCircle
  6
CONTINUOUS
 62
7
 10
1.046206E+002
 20
1.4545089E+002
 40
1.0
100
AcDbArc
 50
2.7E+002
 51
3.6E+002
  0
ARC
  5
3b1
100
AcDbEntity
  8
1
100
AcDbCircle
  6
CONTINUOUS
 62
7
 10
9.6820604E+001
 20
1.4545089E+002
 40
1.0
100
AcDbArc
 50
1.8E+002
 51
2.7E+002
  0
LINE
  5
3b2
100
AcDbEntity
  8
1
100
AcDbLine
  6
CONTINUOUS
 62
7
 10
1.434456E+002
 20
1.3021089E+002
 11
1.434456E+002
 21
1.2571214E+002
  0
LINE
  5
3b3
100
AcDbEntity
  8
1
100
AcDbLine
  6
CONTINUOUS
 62
7
 10
1.341956E+002
 20
1.3021089E+002
 11
1.341956E+002
 21
1.2571214E+002
  0
ARC
  5
3b4
100
AcDbEntity
  8
1
100
AcDbCircle
  6
CONTINUOUS
 62
7
 10
1.442206E+002
 20
1.5110089E+002
 40
5.0E-001
100
AcDbArc
 50
9.0E+001
 51
1.8E+002
  0
LINE
  5
3b5
100
AcDbEntity
  8
1
100
AcDbLine
  6
CONTINUOUS
 62
7
 10
1.349206E+002
 20
1.4445089E+002
 11
1.427206E+002
 21
1.4445089E+002
  0
ARC
  5
3b6
100
AcDbEntity
  8
1
100
AcDbCircle
  6
CONTINUOUS
 62
7
 10
1.331956E+002
 20
1.3021089E+002
 40
1.0
100
AcDbArc
 50
0.0
 51
9.0E+001
  0
ARC
  5
3b7
100
AcDbEntity
  8
1
100
AcDbCircle
  6
CONTINUOUS
 62
7
 10
1.349206E+002
 20
1.4545089E+002
 40
1.0
100
AcDbArc
 50
1.8E+002
 51
2.7E+002
  0
ARC
  5
3b8
100
AcDbEntity
  8
1
100
AcDbCircle
  6
CONTINUOUS
 62
7
 10
1.427206E+002
 20
1.4545089E+002
 40
1.0
100
AcDbArc
 50
2.7E+002
 51
3.6E+002
  0
LINE
  5
3b9
100
AcDbEntity
  8
1
100
AcDbLine
  6
CONTINUOUS
 62
7
 10
1.339206E+002
 20
1.5110089E+002
 11
1.339206E+002
 21
1.4545089E+002
  0
LINE
  5
3ba
100
AcDbEntity
  8
1
100
AcDbLine
  6
CONTINUOUS
 62
7
 10
1.437206E+002
 20
1.5110089E+002
 11
1.437206E+002
 21
1.4545089E+002
  0
ARC
  5
3bb
100
AcDbEntity
  8
1
100
AcDbCircle
  6
CONTINUOUS
 62
7
 10
1.334206E+002
 20
1.5110089E+002
 40
5.0E-001
100
AcDbArc
 50
0.0
 51
9.0E+001
  0
ARC
  5
3bc
100
AcDbEntity
  8
1
100
AcDbCircle
  6
CONTINUOUS
 62
7
 10
1.444456E+002
 20
1.3021089E+002
 40
1.0
100
AcDbArc
 50
9.0E+001
 51
1.8E+002
  0
LINE
  5
3bd
100
AcDbEntity
  8
1
100
AcDbLine
  6
CONTINUOUS
 62
7
 10
1.251706E+002
 20
1.5160089E+002
 11
1.334206E+002
 21
1.5160089E+002
  0
LINE
  5
3be
100
AcDbEntity
  8
1
100
AcDbLine
  6
CONTINUOUS
 62
7
 10
1.253956E+002
 20
1.3121089E+002
 11
1.331956E+002
 21
1.3121089E+002
  0
LINE
  5
3bf
100
AcDbEntity
  8
1
100
AcDbLine
  6
CONTINUOUS
 62
7
 10
1.624956E+002
 20
1.3021089E+002
 11
1.624956E+002
 21
1.2571214E+002
  0
LINE
  5
3c0
100
AcDbEntity
  8
1
100
AcDbLine
  6
CONTINUOUS
 62
7
 10
1.532456E+002
 20
1.3021089E+002
 11
1.532456E+002
 21
1.2571214E+002
  0
ARC
  5
3c1
100
AcDbEntity
  8
1
100
AcDbCircle
  6
CONTINUOUS
 62
7
 10
1.632706E+002
 20
1.5110089E+002
 40
5.0E-001
100
AcDbArc
 50
9.0E+001
 51
1.8E+002
  0
LINE
  5
3c2
100
AcDbEntity
  8
1
100
AcDbLine
  6
CONTINUOUS
 62
7
 10
1.539706E+002
 20
1.4445089E+002
 11
1.617706E+002
 21
1.4445089E+002
  0
ARC
  5
3c3
100
AcDbEntity
  8
1
100
AcDbCircle
  6
CONTINUOUS
 62
7
 10
1.522456E+002
 20
1.3021089E+002
 40
1.0
100
AcDbArc
 50
0.0
 51
9.0E+001
  0
ARC
  5
3c4
100
AcDbEntity
  8
1
100
AcDbCircle
  6
CONTINUOUS
 62
7
 10
1.539706E+002
 20
1.4545089E+002
 40
1.0
100
AcDbArc
 50
1.8E+002
 51
2.7E+002
  0
LINE
  5
3c5
100
AcDbEntity
  8
1
100
AcDbLine
  6
CONTINUOUS
 62
7
 10
4.868456E+002
 20
5.59794E+001
 11
4.956456E+002
 21
5.59794E+001
  0
ARC
  5
3c6
100
AcDbEntity
  8
1
100
AcDbCircle
  6
CONTINUOUS
 62
7
 10
1.617706E+002
 20
1.4545089E+002
 40
1.0
100
AcDbArc
 50
2.7E+002
 51
3.6E+002
  0
ARC
  5
3c7
100
AcDbEntity
  8
1
100
AcDbCircle
  6
CONTINUOUS
 62
7
 10
4.956456E+002
 20
5.54794E+001
 40
5.0E-001
100
AcDbArc
 50
0.0
 51
9.0E+001
  0
LINE
  5
3c8
100
AcDbEntity
  8
1
100
AcDbLine
  6
CONTINUOUS
 62
7
 10
4.942456E+002
 20
5.59794E+001
 11
4.942456E+002
 21
4.96794E+001
  0
ARC
  5
3c9
100
AcDbEntity
  8
1
100
AcDbCircle
  6
CONTINUOUS
 62
7
 10
4.947456E+002
 20
4.96794E+001
 40
5.0E-001
100
AcDbArc
 50
1.8E+002
 51
2.7E+002
  0
ARC
  5
3ca
100
AcDbEntity
  8
1
100
AcDbCircle
  6
CONTINUOUS
 62
7
 10
5.058956E+002
 20
5.54794E+001
 40
5.0E-001
100
AcDbArc
 50
9.0E+001
 51
1.8E+002
  0
LINE
  5
3cb
100
AcDbEntity
  8
1
100
AcDbLine
  6
CONTINUOUS
 62
7
 10
5.072956E+002
 20
5.59794E+001
 11
5.072956E+002
 21
4.96794E+001
  0
ARC
  5
3cc
100
AcDbEntity
  8
1
100
AcDbCircle
  6
CONTINUOUS
 62
7
 10
5.067956E+002
 20
4.96794E+001
 40
5.0E-001
100
AcDbArc
 50
2.7E+002
 51
3.6E+002
  0
LINE
  5
3cd
100
AcDbEntity
  8
1
100
AcDbLine
  6
CONTINUOUS
 62
7
 10
1.529706E+002
 20
1.5110089E+002
 11
1.529706E+002
 21
1.4545089E+002
  0
LINE
  5
3ce
100
AcDbEntity
  8
1
100
AcDbLine
  6
CONTINUOUS
 62
7
 10
1.627706E+002
 20
1.5110089E+002
 11
1.627706E+002
 21
1.4545089E+002
  0
ARC
  5
3cf
100
AcDbEntity
  8
1
100
AcDbCircle
  6
CONTINUOUS
 62
7
 10
1.524706E+002
 20
1.5110089E+002
 40
5.0E-001
100
AcDbArc
 50
0.0
 51
9.0E+001
  0
ARC
  5
3d0
100
AcDbEntity
  8
1
100
AcDbCircle
  6
CONTINUOUS
 62
7
 10
1.634956E+002
 20
1.3021089E+002
 40
1.0
100
AcDbArc
 50
9.0E+001
 51
1.8E+002
  0
LINE
  5
3d1
100
AcDbEntity
  8
1
100
AcDbLine
  6
CONTINUOUS
 62
7
 10
1.442206E+002
 20
1.5160089E+002
 11
1.524706E+002
 21
1.5160089E+002
  0
LINE
  5
3d2
100
AcDbEntity
  8
1
100
AcDbLine
  6
CONTINUOUS
 62
7
 10
1.444456E+002
 20
1.3121089E+002
 11
1.522456E+002
 21
1.3121089E+002
  0
LINE
  5
3d3
100
AcDbEntity
  8
1
100
AcDbLine
  6
CONTINUOUS
 62
7
 10
1.815456E+002
 20
1.3021089E+002
 11
1.815456E+002
 21
1.2571214E+002
  0
LINE
  5
3d4
100
AcDbEntity
  8
1
100
AcDbLine
  6
CONTINUOUS
 62
7
 10
1.722956E+002
 20
1.3021089E+002
 11
1.722956E+002
 21
1.2571214E+002
  0
ARC
  5
3d5
100
AcDbEntity
  8
1
100
AcDbCircle
  6
CONTINUOUS
 62
7
 10
4.966456E+002
 20
5.73794E+001
 40
5.0E-001
100
AcDbArc
 50
9.0E+001
 51
1.8E+002
  0
ARC
  5
3d6
100
AcDbEntity
  8
1
100
AcDbCircle
  6
CONTINUOUS
 62
7
 10
1.823206E+002
 20
1.5110089E+002
 40
5.0E-001
100
AcDbArc
 50
9.0E+001
 51
1.8E+002
  0
ARC
  5
3d7
100
AcDbEntity
  8
1
100
AcDbCircle
  6
CONTINUOUS
 62
7
 10
2.440956E+002
 20
1.5110089E+002
 40
5.0E-001
100
AcDbArc
 50
9.0E+001
 51
1.8E+002
  0
ARC
  5
3d8
100
AcDbEntity
  8
1
100
AcDbCircle
  6
CONTINUOUS
 62
7
 10
1.712956E+002
 20
1.3021089E+002
 40
1.0
100
AcDbArc
 50
0.0
 51
9.0E+001
  0
ARC
  5
3d9
100
AcDbEntity
  8
1
100
AcDbCircle
  6
CONTINUOUS
 62
7
 10
1.730206E+002
 20
1.4545089E+002
 40
1.0
100
AcDbArc
 50
1.8E+002
 51
2.7E+002
  0
ARC
  5
3da
100
AcDbEntity
  8
1
100
AcDbCircle
  6
CONTINUOUS
 62
7
 10
1.808206E+002
 20
1.4545089E+002
 40
1.0
100
AcDbArc
 50
2.7E+002
 51
3.6E+002
  0
LINE
  5
3db
100
AcDbEntity
  8
1
100
AcDbLine
  6
CONTINUOUS
 62
7
 10
1.720206E+002
 20
1.5110089E+002
 11
1.720206E+002
 21
1.4545089E+002
  0
LINE
  5
3dc
100
AcDbEntity
  8
1
100
AcDbLine
  6
CONTINUOUS
 62
7
 10
1.818206E+002
 20
1.5110089E+002
 11
1.818206E+002
 21
1.4545089E+002
  0
ARC
  5
3dd
100
AcDbEntity
  8
1
100
AcDbCircle
  6
CONTINUOUS
 62
7
 10
1.715206E+002
 20
1.5110089E+002
 40
5.0E-001
100
AcDbArc
 50
0.0
 51
9.0E+001
  0
ARC
  5
3de
100
AcDbEntity
  8
1
100
AcDbCircle
  6
CONTINUOUS
 62
7
 10
1.825456E+002
 20
1.3021089E+002
 40
1.0
100
AcDbArc
 50
9.0E+001
 51
1.8E+002
  0
ARC
  5
3df
100
AcDbEntity
  8
1
100
AcDbCircle
  6
CONTINUOUS
 62
7
 10
4.966456E+002
 20
4.96794E+001
 40
5.0E-001
100
AcDbArc
 50
1.8E+002
 51
2.7E+002
  0
ARC
  5
3e0
100
AcDbEntity
  8
1
100
AcDbCircle
  6
CONTINUOUS
 62
7
 10
5.048956E+002
 20
4.96794E+001
 40
5.0E-001
100
AcDbArc
 50
2.7E+002
 51
3.6E+002
  0
LINE
  5
3e1
100
AcDbEntity
  8
1
100
AcDbLine
  6
CONTINUOUS
 62
7
 10
1.632706E+002
 20
1.5160089E+002
 11
1.715206E+002
 21
1.5160089E+002
  0
LINE
  5
3e2
100
AcDbEntity
  8
1
100
AcDbLine
  6
CONTINUOUS
 62
7
 10
1.634956E+002
 20
1.3121089E+002
 11
1.712956E+002
 21
1.3121089E+002
  0
LINE
  5
3e3
100
AcDbEntity
  8
1
100
AcDbLine
  6
CONTINUOUS
 62
7
 10
2.005956E+002
 20
1.3021089E+002
 11
2.005956E+002
 21
1.2571214E+002
  0
LINE
  5
3e4
100
AcDbEntity
  8
1
100
AcDbLine
  6
CONTINUOUS
 62
7
 10
1.913456E+002
 20
1.3021089E+002
 11
1.913456E+002
 21
1.2571214E+002
  0
ARC
  5
3e5
100
AcDbEntity
  8
1
100
AcDbCircle
  6
CONTINUOUS
 62
7
 10
2.013706E+002
 20
1.5110089E+002
 40
5.0E-001
100
AcDbArc
 50
9.0E+001
 51
1.8E+002
  0
LINE
  5
3e6
100
AcDbEntity
  8
1
100
AcDbLine
  6
CONTINUOUS
 62
7
 10
1.920706E+002
 20
1.4445089E+002
 11
1.998706E+002
 21
1.4445089E+002
  0
ARC
  5
3e7
100
AcDbEntity
  8
1
100
AcDbCircle
  6
CONTINUOUS
 62
7
 10
5.048956E+002
 20
5.73794E+001
 40
5.0E-001
100
AcDbArc
 50
0.0
 51
9.0E+001
  0
ARC
  5
3e8
100
AcDbEntity
  8
1
100
AcDbCircle
  6
CONTINUOUS
 62
7
 10
1.903456E+002
 20
1.3021089E+002
 40
1.0
100
AcDbArc
 50
0.0
 51
9.0E+001
  0
ARC
  5
3e9
100
AcDbEntity
  8
1
100
AcDbCircle
  6
CONTINUOUS
 62
7
 10
1.920706E+002
 20
1.4545089E+002
 40
1.0
100
AcDbArc
 50
1.8E+002
 51
2.7E+002
  0
LINE
  5
3ea
100
AcDbEntity
  8
1
100
AcDbLine
  6
CONTINUOUS
 62
7
 10
5.478956E+002
 20
5.78794E+001
 11
3.964956E+002
 21
5.78794E+001
  0
LINE
  5
3eb
100
AcDbEntity
  8
1
100
AcDbLine
  6
CONTINUOUS
 62
7
 10
5.151956E+002
 20
5.73794E+001
 11
5.151956E+002
 21
4.96794E+001
  0
LINE
  5
3ec
100
AcDbEntity
  8
1
100
AcDbLine
  6
CONTINUOUS
 62
7
 10
5.058956E+002
 20
5.59794E+001
 11
5.146956E+002
 21
5.59794E+001
  0
ARC
  5
3ed
100
AcDbEntity
  8
1
100
AcDbCircle
  6
CONTINUOUS
 62
7
 10
5.146956E+002
 20
5.54794E+001
 40
5.0E-001
100
AcDbArc
 50
0.0
 51
9.0E+001
  0
LINE
  5
3ee
100
AcDbEntity
  8
1
100
AcDbLine
  6
CONTINUOUS
 62
7
 10
5.132956E+002
 20
5.59794E+001
 11
5.132956E+002
 21
4.96794E+001
  0
ARC
  5
3ef
100
AcDbEntity
  8
1
100
AcDbCircle
  6
CONTINUOUS
 62
7
 10
5.137956E+002
 20
4.96794E+001
 40
5.0E-001
100
AcDbArc
 50
1.8E+002
 51
2.7E+002
  0
ARC
  5
3f0
100
AcDbEntity
  8
1
100
AcDbCircle
  6
CONTINUOUS
 62
7
 10
5.156956E+002
 20
5.73794E+001
 40
5.0E-001
100
AcDbArc
 50
9.0E+001
 51
1.8E+002
  0
ARC
  5
3f1
100
AcDbEntity
  8
1
100
AcDbCircle
  6
CONTINUOUS
 62
7
 10
5.156956E+002
 20
4.96794E+001
 40
5.0E-001
100
AcDbArc
 50
1.8E+002
 51
2.7E+002
  0
LINE
  5
3f2
100
AcDbEntity
  8
1
100
AcDbLine
  6
CONTINUOUS
 62
7
 10
4.008956E+002
 20
5.73794E+001
 11
4.008956E+002
 21
4.96794E+001
  0
ARC
  5
3f3
100
AcDbEntity
  8
1
100
AcDbCircle
  6
CONTINUOUS
 62
7
 10
4.013956E+002
 20
5.73794E+001
 40
5.0E-001
100
AcDbArc
 50
9.0E+001
 51
1.8E+002
  0
ARC
  5
3f4
100
AcDbEntity
  8
1
100
AcDbCircle
  6
CONTINUOUS
 62
7
 10
4.013956E+002
 20
4.96794E+001
 40
5.0E-001
100
AcDbArc
 50
1.8E+002
 51
2.7E+002
  0
LINE
  5
3f5
100
AcDbEntity
  8
1
100
AcDbLine
  6
CONTINUOUS
 62
7
 10
4.677956E+002
 20
5.59794E+001
 11
4.765956E+002
 21
5.59794E+001
  0
LINE
  5
3f6
100
AcDbEntity
  8
1
100
AcDbLine
  6
CONTINUOUS
 62
7
 10
2.580206E+002
 20
1.5110089E+002
 11
2.580206E+002
 21
1.4545089E+002
  0
ARC
  5
3f7
100
AcDbEntity
  8
1
100
AcDbCircle
  6
CONTINUOUS
 62
7
 10
1.998706E+002
 20
1.4545089E+002
 40
1.0
100
AcDbArc
 50
2.7E+002
 51
3.6E+002
  0
LINE
  5
3f8
100
AcDbEntity
  8
1
100
AcDbLine
  6
CONTINUOUS
 62
7
 10
1.910706E+002
 20
1.5110089E+002
 11
1.910706E+002
 21
1.4545089E+002
  0
LINE
  5
3f9
100
AcDbEntity
  8
1
100
AcDbLine
  6
CONTINUOUS
 62
7
 10
2.008706E+002
 20
1.5110089E+002
 11
2.008706E+002
 21
1.4545089E+002
  0
ARC
  5
3fa
100
AcDbEntity
  8
1
100
AcDbCircle
  6
CONTINUOUS
 62
7
 10
1.905706E+002
 20
1.5110089E+002
 40
5.0E-001
100
AcDbArc
 50
0.0
 51
9.0E+001
  0
ARC
  5
3fb
100
AcDbEntity
  8
1
100
AcDbCircle
  6
CONTINUOUS
 62
7
 10
2.015956E+002
 20
1.3021089E+002
 40
1.0
100
AcDbArc
 50
9.0E+001
 51
1.8E+002
  0
LINE
  5
3fc
100
AcDbEntity
  8
1
100
AcDbLine
  6
CONTINUOUS
 62
7
 10
2.672706E+002
 20
1.5110089E+002
 11
2.672706E+002
 21
1.4545089E+002
  0
TEXT
  5
3fd
100
AcDbEntity
  8
1
100
AcDbText
  6
CONTINUOUS
 62
7
 10
3.0456945E+002
 20
1.7968448E+002
 40
4.0
  1

 41
8.0E-001
 72
1
 11
3.1896945E+002
 21
1.7968448E+002
100
AcDbText
  0
LINE
  5
3fe
100
AcDbEntity
  8
1
100
AcDbLine
  6
CONTINUOUS
 62
7
 10
7.3410195E+001
 20
1.2368079E+002
 11
7.3410195E+001
 21
9.6294012E+001
  0
LINE
  5
3ff
100
AcDbEntity
  8
1
100
AcDbLine
  6
CONTINUOUS
 62
7
 10
7.3410195E+001
 20
9.6294012E+001
 11
7.2621423E+001
 21
9.9237748E+001
  0
LINE
  5
400
100
AcDbEntity
  8
1
100
AcDbLine
  6
CONTINUOUS
 62
7
 10
7.3410195E+001
 20
9.6294012E+001
 11
7.4198967E+001
 21
9.9237748E+001
  0
LINE
  5
401
100
AcDbEntity
  8
1
100
AcDbLine
  6
CONTINUOUS
 62
7
 10
7.3410195E+001
 20
1.2368079E+002
 11
7.2621423E+001
 21
1.2073705E+002
  0
LINE
  5
402
100
AcDbEntity
  8
1
100
AcDbLine
  6
CONTINUOUS
 62
7
 10
7.3410195E+001
 20
1.2368079E+002
 11
7.4198967E+001
 21
1.2073705E+002
  0
INSERT
  5
403
100
AcDbEntity
100
AcDbBlockReference
  2
*TX593
  8
1
 10
6.9596017E+001
 20
1.159993E+002
  0
LINE
  5
404
100
AcDbEntity
  8
1
100
AcDbLine
  6
CONTINUOUS
 62
7
 10
2.770706E+002
 20
1.5110089E+002
 11
2.770706E+002
 21
1.4545089E+002
  0
LINE
  5
405
100
AcDbEntity
  8
1
100
AcDbLine
  6
CONTINUOUS
 62
7
 10
2.585206E+002
 20
1.5160089E+002
 11
2.667706E+002
 21
1.5160089E+002
  0
ARC
  5
406
100
AcDbEntity
  8
1
100
AcDbCircle
  6
CONTINUOUS
 62
7
 10
2.667706E+002
 20
1.5110089E+002
 40
5.0E-001
100
AcDbArc
 50
0.0
 51
9.0E+001
  0
ARC
  5
407
100
AcDbEntity
  8
1
100
AcDbCircle
  6
CONTINUOUS
 62
7
 10
2.585206E+002
 20
1.5110089E+002
 40
5.0E-001
100
AcDbArc
 50
9.0E+001
 51
1.8E+002
  0
LINE
  5
408
100
AcDbEntity
  8
1
100
AcDbLine
  6
CONTINUOUS
 62
7
 10
2.577456E+002
 20
1.3021089E+002
 11
2.577456E+002
 21
1.2571214E+002
  0
LINE
  5
409
100
AcDbEntity
  8
1
100
AcDbLine
  6
CONTINUOUS
 62
7
 10
2.484956E+002
 20
1.3021089E+002
 11
2.484956E+002
 21
1.2571214E+002
  0
ARC
  5
40a
100
AcDbEntity
  8
1
100
AcDbCircle
  6
CONTINUOUS
 62
7
 10
2.777956E+002
 20
1.3021089E+002
 40
1.0
100
AcDbArc
 50
9.0E+001
 51
1.8E+002
  0
LINE
  5
40b
100
AcDbEntity
  8
1
100
AcDbLine
  6
CONTINUOUS
 62
7
 10
2.570206E+002
 20
1.4445089E+002
 11
2.492206E+002
 21
1.4445089E+002
  0
ARC
  5
40c
100
AcDbEntity
  8
1
100
AcDbCircle
  6
CONTINUOUS
 62
7
 10
2.570206E+002
 20
1.4545089E+002
 40
1.0
100
AcDbArc
 50
2.7E+002
 51
3.6E+002
  0
ARC
  5
40d
100
AcDbEntity
  8
1
100
AcDbCircle
  6
CONTINUOUS
 62
7
 10
2.492206E+002
 20
1.4545089E+002
 40
1.0
100
AcDbArc
 50
1.8E+002
 51
2.7E+002
  0
LINE
  5
40e
100
AcDbEntity
  8
1
100
AcDbLine
  6
CONTINUOUS
 62
7
 10
2.958456E+002
 20
1.3021089E+002
 11
2.958456E+002
 21
1.2571214E+002
  0
LINE
  5
40f
100
AcDbEntity
  8
1
100
AcDbLine
  6
CONTINUOUS
 62
7
 10
2.865956E+002
 20
1.3021089E+002
 11
2.865956E+002
 21
1.2571214E+002
  0
ARC
  5
410
100
AcDbEntity
  8
1
100
AcDbCircle
  6
CONTINUOUS
 62
7
 10
2.966206E+002
 20
1.5110089E+002
 40
5.0E-001
100
AcDbArc
 50
9.0E+001
 51
1.8E+002
  0
LINE
  5
411
100
AcDbEntity
  8
1
100
AcDbLine
  6
CONTINUOUS
 62
7
 10
2.873206E+002
 20
1.4445089E+002
 11
2.951206E+002
 21
1.4445089E+002
  0
ARC
  5
412
100
AcDbEntity
  8
1
100
AcDbCircle
  6
CONTINUOUS
 62
7
 10
2.855956E+002
 20
1.3021089E+002
 40
1.0
100
AcDbArc
 50
0.0
 51
9.0E+001
  0
ARC
  5
413
100
AcDbEntity
  8
1
100
AcDbCircle
  6
CONTINUOUS
 62
7
 10
2.873206E+002
 20
1.4545089E+002
 40
1.0
100
AcDbArc
 50
1.8E+002
 51
2.7E+002
  0
ARC
  5
414
100
AcDbEntity
  8
1
100
AcDbCircle
  6
CONTINUOUS
 62
7
 10
2.951206E+002
 20
1.4545089E+002
 40
1.0
100
AcDbArc
 50
2.7E+002
 51
3.6E+002
  0
LINE
  5
415
100
AcDbEntity
  8
1
100
AcDbLine
  6
CONTINUOUS
 62
7
 10
2.863206E+002
 20
1.5110089E+002
 11
2.863206E+002
 21
1.4545089E+002
  0
LINE
  5
416
100
AcDbEntity
  8
1
100
AcDbLine
  6
CONTINUOUS
 62
7
 10
2.961206E+002
 20
1.5110089E+002
 11
2.961206E+002
 21
1.4545089E+002
  0
ARC
  5
417
100
AcDbEntity
  8
1
100
AcDbCircle
  6
CONTINUOUS
 62
7
 10
2.858206E+002
 20
1.5110089E+002
 40
5.0E-001
100
AcDbArc
 50
0.0
 51
9.0E+001
  0
ARC
  5
418
100
AcDbEntity
  8
1
100
AcDbCircle
  6
CONTINUOUS
 62
7
 10
2.968456E+002
 20
1.3021089E+002
 40
1.0
100
AcDbArc
 50
9.0E+001
 51
1.8E+002
  0
LINE
  5
419
100
AcDbEntity
  8
1
100
AcDbLine
  6
CONTINUOUS
 62
7
 10
2.775706E+002
 20
1.5160089E+002
 11
2.858206E+002
 21
1.5160089E+002
  0
LINE
  5
41a
100
AcDbEntity
  8
1
100
AcDbLine
  6
CONTINUOUS
 62
7
 10
2.777956E+002
 20
1.3121089E+002
 11
2.855956E+002
 21
1.3121089E+002
  0
LINE
  5
41b
100
AcDbEntity
  8
1
100
AcDbLine
  6
CONTINUOUS
 62
7
 10
1.823206E+002
 20
1.5160089E+002
 11
1.905706E+002
 21
1.5160089E+002
  0
LINE
  5
41c
100
AcDbEntity
  8
1
100
AcDbLine
  6
CONTINUOUS
 62
7
 10
1.825456E+002
 20
1.3121089E+002
 11
1.903456E+002
 21
1.3121089E+002
  0
LINE
  5
41d
100
AcDbEntity
  8
1
100
AcDbLine
  6
CENTERLINE
 62
6
 10
8.7375933E+001
 20
1.0915089E+002
 11
5.513956E+002
 21
1.0915089E+002
  0
LINE
  5
41e
100
AcDbEntity
  8
1
100
AcDbLine
  6
CONTINUOUS
 62
7
 10
2.196456E+002
 20
1.3021089E+002
 11
2.196456E+002
 21
1.2571214E+002
  0
LINE
  5
41f
100
AcDbEntity
  8
1
100
AcDbLine
  6
CONTINUOUS
 62
7
 10
2.103956E+002
 20
1.3021089E+002
 11
2.103956E+002
 21
1.2571214E+002
  0
ARC
  5
420
100
AcDbEntity
  8
1
100
AcDbCircle
  6
CONTINUOUS
 62
7
 10
2.204206E+002
 20
1.5110089E+002
 40
5.0E-001
100
AcDbArc
 50
9.0E+001
 51
1.8E+002
  0
LINE
  5
421
100
AcDbEntity
  8
1
100
AcDbLine
  6
CONTINUOUS
 62
7
 10
2.111206E+002
 20
1.4445089E+002
 11
2.189206E+002
 21
1.4445089E+002
  0
ARC
  5
422
100
AcDbEntity
  8
1
100
AcDbCircle
  6
CONTINUOUS
 62
7
 10
2.093956E+002
 20
1.3021089E+002
 40
1.0
100
AcDbArc
 50
0.0
 51
9.0E+001
  0
ARC
  5
423
100
AcDbEntity
  8
1
100
AcDbCircle
  6
CONTINUOUS
 62
7
 10
2.111206E+002
 20
1.4545089E+002
 40
1.0
100
AcDbArc
 50
1.8E+002
 51
2.7E+002
  0
ARC
  5
424
100
AcDbEntity
  8
1
100
AcDbCircle
  6
CONTINUOUS
 62
7
 10
2.189206E+002
 20
1.4545089E+002
 40
1.0
100
AcDbArc
 50
2.7E+002
 51
3.6E+002
  0
LINE
  5
425
100
AcDbEntity
  8
1
100
AcDbLine
  6
CONTINUOUS
 62
7
 10
2.101206E+002
 20
1.5110089E+002
 11
2.101206E+002
 21
1.4545089E+002
  0
LINE
  5
426
100
AcDbEntity
  8
1
100
AcDbLine
  6
CONTINUOUS
 62
7
 10
2.199206E+002
 20
1.5110089E+002
 11
2.199206E+002
 21
1.4545089E+002
  0
ARC
  5
427
100
AcDbEntity
  8
1
100
AcDbCircle
  6
CONTINUOUS
 62
7
 10
2.096206E+002
 20
1.5110089E+002
 40
5.0E-001
100
AcDbArc
 50
0.0
 51
9.0E+001
  0
ARC
  5
428
100
AcDbEntity
  8
1
100
AcDbCircle
  6
CONTINUOUS
 62
7
 10
2.206456E+002
 20
1.3021089E+002
 40
1.0
100
AcDbArc
 50
9.0E+001
 51
1.8E+002
  0
LINE
  5
429
100
AcDbEntity
  8
1
100
AcDbLine
  6
CONTINUOUS
 62
7
 10
2.013706E+002
 20
1.5160089E+002
 11
2.096206E+002
 21
1.5160089E+002
  0
LINE
  5
42a
100
AcDbEntity
  8
1
100
AcDbLine
  6
CONTINUOUS
 62
7
 10
2.015956E+002
 20
1.3121089E+002
 11
2.093956E+002
 21
1.3121089E+002
  0
LINE
  5
42b
100
AcDbEntity
  8
1
100
AcDbLine
  6
CONTINUOUS
 62
7
 10
3.148956E+002
 20
1.3021089E+002
 11
3.148956E+002
 21
1.2571214E+002
  0
LINE
  5
42c
100
AcDbEntity
  8
1
100
AcDbLine
  6
CONTINUOUS
 62
7
 10
3.056456E+002
 20
1.3021089E+002
 11
3.056456E+002
 21
1.2571214E+002
  0
ARC
  5
42d
100
AcDbEntity
  8
1
100
AcDbCircle
  6
CONTINUOUS
 62
7
 10
3.156706E+002
 20
1.5110089E+002
 40
5.0E-001
100
AcDbArc
 50
9.0E+001
 51
1.8E+002
  0
LINE
  5
42e
100
AcDbEntity
  8
1
100
AcDbLine
  6
CONTINUOUS
 62
7
 10
3.063706E+002
 20
1.4445089E+002
 11
3.141706E+002
 21
1.4445089E+002
  0
ARC
  5
42f
100
AcDbEntity
  8
1
100
AcDbCircle
  6
CONTINUOUS
 62
7
 10
3.046456E+002
 20
1.3021089E+002
 40
1.0
100
AcDbArc
 50
0.0
 51
9.0E+001
  0
ARC
  5
430
100
AcDbEntity
  8
1
100
AcDbCircle
  6
CONTINUOUS
 62
7
 10
3.063706E+002
 20
1.4545089E+002
 40
1.0
100
AcDbArc
 50
1.8E+002
 51
2.7E+002
  0
ARC
  5
431
100
AcDbEntity
  8
1
100
AcDbCircle
  6
CONTINUOUS
 62
7
 10
3.141706E+002
 20
1.4545089E+002
 40
1.0
100
AcDbArc
 50
2.7E+002
 51
3.6E+002
  0
LINE
  5
432
100
AcDbEntity
  8
1
100
AcDbLine
  6
CONTINUOUS
 62
7
 10
3.053706E+002
 20
1.5110089E+002
 11
3.053706E+002
 21
1.4545089E+002
  0
LINE
  5
433
100
AcDbEntity
  8
1
100
AcDbLine
  6
CONTINUOUS
 62
7
 10
3.151706E+002
 20
1.5110089E+002
 11
3.151706E+002
 21
1.4545089E+002
  0
ARC
  5
434
100
AcDbEntity
  8
1
100
AcDbCircle
  6
CONTINUOUS
 62
7
 10
3.048706E+002
 20
1.5110089E+002
 40
5.0E-001
100
AcDbArc
 50
0.0
 51
9.0E+001
  0
ARC
  5
435
100
AcDbEntity
  8
1
100
AcDbCircle
  6
CONTINUOUS
 62
7
 10
3.158956E+002
 20
1.3021089E+002
 40
1.0
100
AcDbArc
 50
9.0E+001
 51
1.8E+002
  0
LINE
  5
436
100
AcDbEntity
  8
1
100
AcDbLine
  6
CONTINUOUS
 62
7
 10
2.966206E+002
 20
1.5160089E+002
 11
3.048706E+002
 21
1.5160089E+002
  0
LINE
  5
437
100
AcDbEntity
  8
1
100
AcDbLine
  6
CONTINUOUS
 62
7
 10
2.968456E+002
 20
1.3121089E+002
 11
3.046456E+002
 21
1.3121089E+002
  0
LINE
  5
438
100
AcDbEntity
  8
1
100
AcDbLine
  6
CONTINUOUS
 62
7
 10
3.339456E+002
 20
1.3021089E+002
 11
3.339456E+002
 21
1.2571214E+002
  0
LINE
  5
439
100
AcDbEntity
  8
1
100
AcDbLine
  6
CONTINUOUS
 62
7
 10
3.246956E+002
 20
1.3021089E+002
 11
3.246956E+002
 21
1.2571214E+002
  0
ARC
  5
43a
100
AcDbEntity
  8
1
100
AcDbCircle
  6
CONTINUOUS
 62
7
 10
3.347206E+002
 20
1.5110089E+002
 40
5.0E-001
100
AcDbArc
 50
9.0E+001
 51
1.8E+002
  0
ARC
  5
43b
100
AcDbEntity
  8
1
100
AcDbCircle
  6
CONTINUOUS
 62
7
 10
3.236956E+002
 20
1.3021089E+002
 40
1.0
100
AcDbArc
 50
0.0
 51
9.0E+001
  0
ARC
  5
43c
100
AcDbEntity
  8
1
100
AcDbCircle
  6
CONTINUOUS
 62
7
 10
3.254206E+002
 20
1.4545089E+002
 40
1.0
100
AcDbArc
 50
1.8E+002
 51
2.7E+002
  0
LINE
  5
43d
100
AcDbEntity
  8
1
100
AcDbLine
  6
CONTINUOUS
 62
7
 10
2.386956E+002
 20
1.3021089E+002
 11
2.386956E+002
 21
1.2571214E+002
  0
LINE
  5
43e
100
AcDbEntity
  8
1
100
AcDbLine
  6
CONTINUOUS
 62
7
 10
2.294456E+002
 20
1.3021089E+002
 11
2.294456E+002
 21
1.2571214E+002
  0
ARC
  5
43f
100
AcDbEntity
  8
1
100
AcDbCircle
  6
CONTINUOUS
 62
7
 10
2.394706E+002
 20
1.5110089E+002
 40
5.0E-001
100
AcDbArc
 50
9.0E+001
 51
1.8E+002
  0
LINE
  5
440
100
AcDbEntity
  8
1
100
AcDbLine
  6
CONTINUOUS
 62
7
 10
2.301706E+002
 20
1.4445089E+002
 11
2.379706E+002
 21
1.4445089E+002
  0
ARC
  5
441
100
AcDbEntity
  8
1
100
AcDbCircle
  6
CONTINUOUS
 62
7
 10
3.332206E+002
 20
1.4545089E+002
 40
1.0
100
AcDbArc
 50
2.7E+002
 51
3.6E+002
  0
LINE
  5
442
100
AcDbEntity
  8
1
100
AcDbLine
  6
CONTINUOUS
 62
7
 10
3.244206E+002
 20
1.5110089E+002
 11
3.244206E+002
 21
1.4545089E+002
  0
ARC
  5
443
100
AcDbEntity
  8
1
100
AcDbCircle
  6
CONTINUOUS
 62
7
 10
2.284456E+002
 20
1.3021089E+002
 40
1.0
100
AcDbArc
 50
0.0
 51
9.0E+001
  0
ARC
  5
444
100
AcDbEntity
  8
1
100
AcDbCircle
  6
CONTINUOUS
 62
7
 10
2.301706E+002
 20
1.4545089E+002
 40
1.0
100
AcDbArc
 50
1.8E+002
 51
2.7E+002
  0
ARC
  5
445
100
AcDbEntity
  8
1
100
AcDbCircle
  6
CONTINUOUS
 62
7
 10
2.379706E+002
 20
1.4545089E+002
 40
1.0
100
AcDbArc
 50
2.7E+002
 51
3.6E+002
  0
LINE
  5
446
100
AcDbEntity
  8
1
100
AcDbLine
  6
CONTINUOUS
 62
7
 10
2.291706E+002
 20
1.5110089E+002
 11
2.291706E+002
 21
1.4545089E+002
  0
LINE
  5
447
100
AcDbEntity
  8
1
100
AcDbLine
  6
CONTINUOUS
 62
7
 10
3.342206E+002
 20
1.5110089E+002
 11
3.342206E+002
 21
1.4545089E+002
  0
LINE
  5
448
100
AcDbEntity
  8
1
100
AcDbLine
  6
CONTINUOUS
 62
7
 10
2.389706E+002
 20
1.5110089E+002
 11
2.389706E+002
 21
1.4545089E+002
  0
ARC
  5
449
100
AcDbEntity
  8
1
100
AcDbCircle
  6
CONTINUOUS
 62
7
 10
2.286706E+002
 20
1.5110089E+002
 40
5.0E-001
100
AcDbArc
 50
0.0
 51
9.0E+001
  0
ARC
  5
44a
100
AcDbEntity
  8
1
100
AcDbCircle
  6
CONTINUOUS
 62
7
 10
3.239206E+002
 20
1.5110089E+002
 40
5.0E-001
100
AcDbArc
 50
0.0
 51
9.0E+001
  0
ARC
  5
44b
100
AcDbEntity
  8
1
100
AcDbCircle
  6
CONTINUOUS
 62
7
 10
2.396956E+002
 20
1.3021089E+002
 40
1.0
100
AcDbArc
 50
9.0E+001
 51
1.8E+002
  0
LINE
  5
44c
100
AcDbEntity
  8
1
100
AcDbLine
  6
CONTINUOUS
 62
7
 10
2.204206E+002
 20
1.5160089E+002
 11
2.286706E+002
 21
1.5160089E+002
  0
LINE
  5
44d
100
AcDbEntity
  8
1
100
AcDbLine
  6
CONTINUOUS
 62
7
 10
2.206456E+002
 20
1.3121089E+002
 11
2.284456E+002
 21
1.3121089E+002
  0
LINE
  5
44e
100
AcDbEntity
  8
1
100
AcDbLine
  6
CONTINUOUS
 62
7
 10
2.430956E+002
 20
1.3121089E+002
 11
2.396956E+002
 21
1.3121089E+002
  0
ARC
  5
44f
100
AcDbEntity
  8
1
100
AcDbCircle
  6
CONTINUOUS
 62
7
 10
3.349456E+002
 20
1.3021089E+002
 40
1.0
100
AcDbArc
 50
9.0E+001
 51
1.8E+002
  0
LINE
  5
450
100
AcDbEntity
  8
1
100
AcDbLine
  6
CONTINUOUS
 62
7
 10
3.156706E+002
 20
1.5160089E+002
 11
3.239206E+002
 21
1.5160089E+002
  0
LINE
  5
451
100
AcDbEntity
  8
1
100
AcDbLine
  6
CONTINUOUS
 62
7
 10
3.158956E+002
 20
1.3121089E+002
 11
3.236956E+002
 21
1.3121089E+002
  0
LINE
  5
452
100
AcDbEntity
  8
1
100
AcDbLine
  6
CONTINUOUS
 62
7
 10
3.529956E+002
 20
1.3021089E+002
 11
3.529956E+002
 21
1.2571214E+002
  0
LINE
  5
453
100
AcDbEntity
  8
1
100
AcDbLine
  6
CONTINUOUS
 62
7
 10
3.437456E+002
 20
1.3021089E+002
 11
3.437456E+002
 21
1.2571214E+002
  0
ARC
  5
454
100
AcDbEntity
  8
1
100
AcDbCircle
  6
CONTINUOUS
 62
7
 10
3.537706E+002
 20
1.5110089E+002
 40
5.0E-001
100
AcDbArc
 50
9.0E+001
 51
1.8E+002
  0
LINE
  5
455
100
AcDbEntity
  8
1
100
AcDbLine
  6
CONTINUOUS
 62
7
 10
3.444706E+002
 20
1.4445089E+002
 11
3.522706E+002
 21
1.4445089E+002
  0
ARC
  5
456
100
AcDbEntity
  8
1
100
AcDbCircle
  6
CONTINUOUS
 62
7
 10
3.427456E+002
 20
1.3021089E+002
 40
1.0
100
AcDbArc
 50
0.0
 51
9.0E+001
  0
ARC
  5
457
100
AcDbEntity
  8
1
100
AcDbCircle
  6
CONTINUOUS
 62
7
 10
3.444706E+002
 20
1.4545089E+002
 40
1.0
100
AcDbArc
 50
1.8E+002
 51
2.7E+002
  0
ARC
  5
458
100
AcDbEntity
  8
1
100
AcDbCircle
  6
CONTINUOUS
 62
7
 10
3.522706E+002
 20
1.4545089E+002
 40
1.0
100
AcDbArc
 50
2.7E+002
 51
3.6E+002
  0
LINE
  5
459
100
AcDbEntity
  8
1
100
AcDbLine
  6
CONTINUOUS
 62
7
 10
3.434706E+002
 20
1.5110089E+002
 11
3.434706E+002
 21
1.4545089E+002
  0
LINE
  5
45a
100
AcDbEntity
  8
1
100
AcDbLine
  6
CONTINUOUS
 62
7
 10
3.532706E+002
 20
1.5110089E+002
 11
3.532706E+002
 21
1.4545089E+002
  0
ARC
  5
45b
100
AcDbEntity
  8
1
100
AcDbCircle
  6
CONTINUOUS
 62
7
 10
3.429706E+002
 20
1.5110089E+002
 40
5.0E-001
100
AcDbArc
 50
0.0
 51
9.0E+001
  0
ARC
  5
45c
100
AcDbEntity
  8
1
100
AcDbCircle
  6
CONTINUOUS
 62
7
 10
3.539956E+002
 20
1.3021089E+002
 40
1.0
100
AcDbArc
 50
9.0E+001
 51
1.8E+002
  0
LINE
  5
45d
100
AcDbEntity
  8
1
100
AcDbLine
  6
CONTINUOUS
 62
7
 10
3.347206E+002
 20
1.5160089E+002
 11
3.429706E+002
 21
1.5160089E+002
  0
LINE
  5
45e
100
AcDbEntity
  8
1
100
AcDbLine
  6
CONTINUOUS
 62
7
 10
3.349456E+002
 20
1.3121089E+002
 11
3.427456E+002
 21
1.3121089E+002
  0
LINE
  5
45f
100
AcDbEntity
  8
1
100
AcDbLine
  6
CONTINUOUS
 62
7
 10
3.720456E+002
 20
1.3021089E+002
 11
3.720456E+002
 21
1.2571214E+002
  0
LINE
  5
460
100
AcDbEntity
  8
1
100
AcDbLine
  6
CONTINUOUS
 62
7
 10
3.627956E+002
 20
1.3021089E+002
 11
3.627956E+002
 21
1.2571214E+002
  0
ARC
  5
461
100
AcDbEntity
  8
1
100
AcDbCircle
  6
CONTINUOUS
 62
7
 10
3.728206E+002
 20
1.5110089E+002
 40
5.0E-001
100
AcDbArc
 50
9.0E+001
 51
1.8E+002
  0
LINE
  5
462
100
AcDbEntity
  8
1
100
AcDbLine
  6
CONTINUOUS
 62
7
 10
3.635206E+002
 20
1.4445089E+002
 11
3.713206E+002
 21
1.4445089E+002
  0
ARC
  5
463
100
AcDbEntity
  8
1
100
AcDbCircle
  6
CONTINUOUS
 62
7
 10
3.617956E+002
 20
1.3021089E+002
 40
1.0
100
AcDbArc
 50
0.0
 51
9.0E+001
  0
ARC
  5
464
100
AcDbEntity
  8
1
100
AcDbCircle
  6
CONTINUOUS
 62
7
 10
3.635206E+002
 20
1.4545089E+002
 40
1.0
100
AcDbArc
 50
1.8E+002
 51
2.7E+002
  0
ARC
  5
465
100
AcDbEntity
  8
1
100
AcDbCircle
  6
CONTINUOUS
 62
7
 10
3.713206E+002
 20
1.4545089E+002
 40
1.0
100
AcDbArc
 50
2.7E+002
 51
3.6E+002
  0
LINE
  5
466
100
AcDbEntity
  8
1
100
AcDbLine
  6
CONTINUOUS
 62
7
 10
3.625206E+002
 20
1.5110089E+002
 11
3.625206E+002
 21
1.4545089E+002
  0
LINE
  5
467
100
AcDbEntity
  8
1
100
AcDbLine
  6
CONTINUOUS
 62
7
 10
3.723206E+002
 20
1.5110089E+002
 11
3.723206E+002
 21
1.4545089E+002
  0
ARC
  5
468
100
AcDbEntity
  8
1
100
AcDbCircle
  6
CONTINUOUS
 62
7
 10
3.620206E+002
 20
1.5110089E+002
 40
5.0E-001
100
AcDbArc
 50
0.0
 51
9.0E+001
  0
ARC
  5
469
100
AcDbEntity
  8
1
100
AcDbCircle
  6
CONTINUOUS
 62
7
 10
3.730456E+002
 20
1.3021089E+002
 40
1.0
100
AcDbArc
 50
9.0E+001
 51
1.8E+002
  0
LINE
  5
46a
100
AcDbEntity
  8
1
100
AcDbLine
  6
CONTINUOUS
 62
7
 10
3.537706E+002
 20
1.5160089E+002
 11
3.620206E+002
 21
1.5160089E+002
  0
LINE
  5
46b
100
AcDbEntity
  8
1
100
AcDbLine
  6
CONTINUOUS
 62
7
 10
3.539956E+002
 20
1.3121089E+002
 11
3.617956E+002
 21
1.3121089E+002
  0
LINE
  5
46c
100
AcDbEntity
  8
1
100
AcDbLine
  6
CONTINUOUS
 62
7
 10
3.910956E+002
 20
1.3021089E+002
 11
3.910956E+002
 21
1.2571214E+002
  0
LINE
  5
46d
100
AcDbEntity
  8
1
100
AcDbLine
  6
CONTINUOUS
 62
7
 10
3.818456E+002
 20
1.3021089E+002
 11
3.818456E+002
 21
1.2571214E+002
  0
ARC
  5
46e
100
AcDbEntity
  8
1
100
AcDbCircle
  6
CONTINUOUS
 62
7
 10
3.918706E+002
 20
1.5110089E+002
 40
5.0E-001
100
AcDbArc
 50
9.0E+001
 51
1.8E+002
  0
LINE
  5
46f
100
AcDbEntity
  8
1
100
AcDbLine
  6
CONTINUOUS
 62
7
 10
3.825706E+002
 20
1.4445089E+002
 11
3.903706E+002
 21
1.4445089E+002
  0
ARC
  5
470
100
AcDbEntity
  8
1
100
AcDbCircle
  6
CONTINUOUS
 62
7
 10
3.808456E+002
 20
1.3021089E+002
 40
1.0
100
AcDbArc
 50
0.0
 51
9.0E+001
  0
ARC
  5
471
100
AcDbEntity
  8
1
100
AcDbCircle
  6
CONTINUOUS
 62
7
 10
3.825706E+002
 20
1.4545089E+002
 40
1.0
100
AcDbArc
 50
1.8E+002
 51
2.7E+002
  0
ARC
  5
472
100
AcDbEntity
  8
1
100
AcDbCircle
  6
CONTINUOUS
 62
7
 10
3.903706E+002
 20
1.4545089E+002
 40
1.0
100
AcDbArc
 50
2.7E+002
 51
3.6E+002
  0
LINE
  5
473
100
AcDbEntity
  8
1
100
AcDbLine
  6
CONTINUOUS
 62
7
 10
3.815706E+002
 20
1.5110089E+002
 11
3.815706E+002
 21
1.4545089E+002
  0
LINE
  5
474
100
AcDbEntity
  8
1
100
AcDbLine
  6
CONTINUOUS
 62
7
 10
3.913706E+002
 20
1.5110089E+002
 11
3.913706E+002
 21
1.4545089E+002
  0
ARC
  5
475
100
AcDbEntity
  8
1
100
AcDbCircle
  6
CONTINUOUS
 62
7
 10
3.810706E+002
 20
1.5110089E+002
 40
5.0E-001
100
AcDbArc
 50
0.0
 51
9.0E+001
  0
ARC
  5
476
100
AcDbEntity
  8
1
100
AcDbCircle
  6
CONTINUOUS
 62
7
 10
3.920956E+002
 20
1.3021089E+002
 40
1.0
100
AcDbArc
 50
9.0E+001
 51
1.8E+002
  0
LINE
  5
477
100
AcDbEntity
  8
1
100
AcDbLine
  6
CONTINUOUS
 62
7
 10
3.728206E+002
 20
1.5160089E+002
 11
3.810706E+002
 21
1.5160089E+002
  0
LINE
  5
478
100
AcDbEntity
  8
1
100
AcDbLine
  6
CONTINUOUS
 62
7
 10
3.730456E+002
 20
1.3121089E+002
 11
3.808456E+002
 21
1.3121089E+002
  0
LINE
  5
479
100
AcDbEntity
  8
1
100
AcDbLine
  6
CONTINUOUS
 62
7
 10
3.954956E+002
 20
1.3121089E+002
 11
3.920956E+002
 21
1.3121089E+002
  0
ARC
  5
47a
100
AcDbEntity
  8
1
100
AcDbCircle
  6
CONTINUOUS
 62
7
 10
3.954956E+002
 20
1.3171089E+002
 40
5.0E-001
100
AcDbArc
 50
2.7E+002
 51
3.6E+002
  0
ARC
  5
47b
100
AcDbEntity
  8
1
100
AcDbCircle
  6
CONTINUOUS
 62
7
 10
3.954956E+002
 20
1.5110089E+002
 40
5.0E-001
100
AcDbArc
 50
0.0
 51
9.0E+001
  0
LINE
  5
47c
100
AcDbEntity
  8
1
100
AcDbLine
  6
CONTINUOUS
 62
7
 10
3.954956E+002
 20
1.5160089E+002
 11
3.918706E+002
 21
1.5160089E+002
  0
LINE
  5
47d
100
AcDbEntity
  8
1
100
AcDbLine
  6
CONTINUOUS
 62
7
 10
2.767956E+002
 20
9.2110888E+001
 11
2.767956E+002
 21
8.6460888E+001
  0
LINE
  5
47e
100
AcDbEntity
  8
1
100
AcDbLine
  6
CONTINUOUS
 62
7
 10
2.675456E+002
 20
9.2110888E+001
 11
2.675456E+002
 21
8.6460888E+001
  0
LINE
  5
47f
100
AcDbEntity
  8
1
100
AcDbLine
  6
CONTINUOUS
 62
7
 10
2.440956E+002
 20
9.3110888E+001
 11
2.474956E+002
 21
9.3110888E+001
  0
LINE
  5
480
100
AcDbEntity
  8
1
100
AcDbLine
  6
CONTINUOUS
 62
7
 10
2.682706E+002
 20
1.0635089E+002
 11
2.760706E+002
 21
1.0635089E+002
  0
LINE
  5
481
100
AcDbEntity
  8
1
100
AcDbLine
  6
CONTINUOUS
 62
7
 10
2.587456E+002
 20
9.3110888E+001
 11
2.665456E+002
 21
9.3110888E+001
  0
ARC
  5
482
100
AcDbEntity
  8
1
100
AcDbCircle
  6
CONTINUOUS
 62
7
 10
2.587456E+002
 20
9.2110888E+001
 40
1.0
100
AcDbArc
 50
9.0E+001
 51
1.8E+002
  0
ARC
  5
483
100
AcDbEntity
  8
1
100
AcDbCircle
  6
CONTINUOUS
 62
7
 10
2.665456E+002
 20
9.2110888E+001
 40
1.0
100
AcDbArc
 50
0.0
 51
9.0E+001
  0
ARC
  5
484
100
AcDbEntity
  8
1
100
AcDbCircle
  6
CONTINUOUS
 62
7
 10
2.682706E+002
 20
1.0735089E+002
 40
1.0
100
AcDbArc
 50
1.8E+002
 51
2.7E+002
  0
ARC
  5
485
100
AcDbEntity
  8
1
100
AcDbCircle
  6
CONTINUOUS
 62
7
 10
2.760706E+002
 20
1.0735089E+002
 40
1.0
100
AcDbArc
 50
2.7E+002
 51
3.6E+002
  0
ARC
  5
486
100
AcDbEntity
  8
1
100
AcDbCircle
  6
CONTINUOUS
 62
7
 10
2.440956E+002
 20
9.3610888E+001
 40
5.0E-001
100
AcDbArc
 50
1.8E+002
 51
2.7E+002
  0
ARC
  5
487
100
AcDbEntity
  8
1
100
AcDbCircle
  6
CONTINUOUS
 62
7
 10
2.474956E+002
 20
9.2110888E+001
 40
1.0
100
AcDbArc
 50
0.0
 51
9.0E+001
  0
LINE
  5
488
100
AcDbEntity
  8
1
100
AcDbLine
  6
CONTINUOUS
 62
7
 10
2.482206E+002
 20
1.1184964E+002
 11
2.482206E+002
 21
1.0735089E+002
  0
LINE
  5
489
100
AcDbEntity
  8
1
100
AcDbLine
  6
CONTINUOUS
 62
7
 10
2.580206E+002
 20
1.1184964E+002
 11
2.580206E+002
 21
1.0735089E+002
  0
LINE
  5
48a
100
AcDbEntity
  8
1
100
AcDbLine
  6
CONTINUOUS
 62
7
 10
2.672706E+002
 20
1.1184964E+002
 11
2.672706E+002
 21
1.0735089E+002
  0
LINE
  5
48b
100
AcDbEntity
  8
1
100
AcDbLine
  6
CONTINUOUS
 62
7
 10
2.770706E+002
 20
1.1184964E+002
 11
2.770706E+002
 21
1.0735089E+002
  0
LINE
  5
48c
100
AcDbEntity
  8
1
100
AcDbLine
  6
CONTINUOUS
 62
7
 10
2.577456E+002
 20
9.2110888E+001
 11
2.577456E+002
 21
8.6460888E+001
  0
LINE
  5
48d
100
AcDbEntity
  8
1
100
AcDbLine
  6
CONTINUOUS
 62
7
 10
2.484956E+002
 20
9.2110888E+001
 11
2.484956E+002
 21
8.6460888E+001
  0
ARC
  5
48e
100
AcDbEntity
  8
1
100
AcDbCircle
  6
CONTINUOUS
 62
7
 10
2.777956E+002
 20
9.2110888E+001
 40
1.0
100
AcDbArc
 50
9.0E+001
 51
1.8E+002
  0
LINE
  5
48f
100
AcDbEntity
  8
1
100
AcDbLine
  6
CONTINUOUS
 62
7
 10
2.570206E+002
 20
1.0635089E+002
 11
2.492206E+002
 21
1.0635089E+002
  0
ARC
  5
490
100
AcDbEntity
  8
1
100
AcDbCircle
  6
CONTINUOUS
 62
7
 10
2.570206E+002
 20
1.0735089E+002
 40
1.0
100
AcDbArc
 50
2.7E+002
 51
3.6E+002
  0
ARC
  5
491
100
AcDbEntity
  8
1
100
AcDbCircle
  6
CONTINUOUS
 62
7
 10
2.492206E+002
 20
1.0735089E+002
 40
1.0
100
AcDbArc
 50
1.8E+002
 51
2.7E+002
  0
LINE
  5
492
100
AcDbEntity
  8
1
100
AcDbLine
  6
CONTINUOUS
 62
7
 10
2.958456E+002
 20
9.2110888E+001
 11
2.958456E+002
 21
8.6460888E+001
  0
LINE
  5
493
100
AcDbEntity
  8
1
100
AcDbLine
  6
CONTINUOUS
 62
7
 10
2.865956E+002
 20
9.2110888E+001
 11
2.865956E+002
 21
8.6460888E+001
  0
LINE
  5
494
100
AcDbEntity
  8
1
100
AcDbLine
  6
CONTINUOUS
 62
7
 10
2.873206E+002
 20
1.0635089E+002
 11
2.951206E+002
 21
1.0635089E+002
  0
ARC
  5
495
100
AcDbEntity
  8
1
100
AcDbCircle
  6
CONTINUOUS
 62
7
 10
2.855956E+002
 20
9.2110888E+001
 40
1.0
100
AcDbArc
 50
0.0
 51
9.0E+001
  0
ARC
  5
496
100
AcDbEntity
  8
1
100
AcDbCircle
  6
CONTINUOUS
 62
7
 10
2.873206E+002
 20
1.0735089E+002
 40
1.0
100
AcDbArc
 50
1.8E+002
 51
2.7E+002
  0
ARC
  5
497
100
AcDbEntity
  8
1
100
AcDbCircle
  6
CONTINUOUS
 62
7
 10
2.951206E+002
 20
1.0735089E+002
 40
1.0
100
AcDbArc
 50
2.7E+002
 51
3.6E+002
  0
LINE
  5
498
100
AcDbEntity
  8
1
100
AcDbLine
  6
CONTINUOUS
 62
7
 10
2.863206E+002
 20
1.1184964E+002
 11
2.863206E+002
 21
1.0735089E+002
  0
LINE
  5
499
100
AcDbEntity
  8
1
100
AcDbLine
  6
CONTINUOUS
 62
7
 10
2.961206E+002
 20
1.1184964E+002
 11
2.961206E+002
 21
1.0735089E+002
  0
ARC
  5
49a
100
AcDbEntity
  8
1
100
AcDbCircle
  6
CONTINUOUS
 62
7
 10
2.968456E+002
 20
9.2110888E+001
 40
1.0
100
AcDbArc
 50
9.0E+001
 51
1.8E+002
  0
LINE
  5
49b
100
AcDbEntity
  8
1
100
AcDbLine
  6
CONTINUOUS
 62
7
 10
2.777956E+002
 20
9.3110888E+001
 11
2.855956E+002
 21
9.3110888E+001
  0
LINE
  5
49c
100
AcDbEntity
  8
1
100
AcDbLine
  6
CONTINUOUS
 62
7
 10
3.148956E+002
 20
9.2110888E+001
 11
3.148956E+002
 21
8.6460888E+001
  0
LINE
  5
49d
100
AcDbEntity
  8
1
100
AcDbLine
  6
CONTINUOUS
 62
7
 10
3.056456E+002
 20
9.2110888E+001
 11
3.056456E+002
 21
8.6460888E+001
  0
LINE
  5
49e
100
AcDbEntity
  8
1
100
AcDbLine
  6
CONTINUOUS
 62
7
 10
3.063706E+002
 20
1.0635089E+002
 11
3.141706E+002
 21
1.0635089E+002
  0
ARC
  5
49f
100
AcDbEntity
  8
1
100
AcDbCircle
  6
CONTINUOUS
 62
7
 10
3.046456E+002
 20
9.2110888E+001
 40
1.0
100
AcDbArc
 50
0.0
 51
9.0E+001
  0
ARC
  5
4a0
100
AcDbEntity
  8
1
100
AcDbCircle
  6
CONTINUOUS
 62
7
 10
3.063706E+002
 20
1.0735089E+002
 40
1.0
100
AcDbArc
 50
1.8E+002
 51
2.7E+002
  0
ARC
  5
4a1
100
AcDbEntity
  8
1
100
AcDbCircle
  6
CONTINUOUS
 62
7
 10
3.141706E+002
 20
1.0735089E+002
 40
1.0
100
AcDbArc
 50
2.7E+002
 51
3.6E+002
  0
LINE
  5
4a2
100
AcDbEntity
  8
1
100
AcDbLine
  6
CONTINUOUS
 62
7
 10
3.053706E+002
 20
1.1184964E+002
 11
3.053706E+002
 21
1.0735089E+002
  0
LINE
  5
4a3
100
AcDbEntity
  8
1
100
AcDbLine
  6
CONTINUOUS
 62
7
 10
3.151706E+002
 20
1.1184964E+002
 11
3.151706E+002
 21
1.0735089E+002
  0
ARC
  5
4a4
100
AcDbEntity
  8
1
100
AcDbCircle
  6
CONTINUOUS
 62
7
 10
3.158956E+002
 20
9.2110888E+001
 40
1.0
100
AcDbArc
 50
9.0E+001
 51
1.8E+002
  0
LINE
  5
4a5
100
AcDbEntity
  8
1
100
AcDbLine
  6
CONTINUOUS
 62
7
 10
2.968456E+002
 20
9.3110888E+001
 11
3.046456E+002
 21
9.3110888E+001
  0
LINE
  5
4a6
100
AcDbEntity
  8
1
100
AcDbLine
  6
CONTINUOUS
 62
7
 10
3.339456E+002
 20
9.2110888E+001
 11
3.339456E+002
 21
8.6460888E+001
  0
LINE
  5
4a7
100
AcDbEntity
  8
1
100
AcDbLine
  6
CONTINUOUS
 62
7
 10
3.246956E+002
 20
9.2110888E+001
 11
3.246956E+002
 21
8.6460888E+001
  0
LINE
  5
4a8
100
AcDbEntity
  8
1
100
AcDbLine
  6
CONTINUOUS
 62
7
 10
3.254206E+002
 20
1.0635089E+002
 11
3.332206E+002
 21
1.0635089E+002
  0
ARC
  5
4a9
100
AcDbEntity
  8
1
100
AcDbCircle
  6
CONTINUOUS
 62
7
 10
3.236956E+002
 20
9.2110888E+001
 40
1.0
100
AcDbArc
 50
0.0
 51
9.0E+001
  0
ARC
  5
4aa
100
AcDbEntity
  8
1
100
AcDbCircle
  6
CONTINUOUS
 62
7
 10
3.254206E+002
 20
1.0735089E+002
 40
1.0
100
AcDbArc
 50
1.8E+002
 51
2.7E+002
  0
ARC
  5
4ab
100
AcDbEntity
  8
1
100
AcDbCircle
  6
CONTINUOUS
 62
7
 10
3.332206E+002
 20
1.0735089E+002
 40
1.0
100
AcDbArc
 50
2.7E+002
 51
3.6E+002
  0
LINE
  5
4ac
100
AcDbEntity
  8
1
100
AcDbLine
  6
CONTINUOUS
 62
7
 10
3.244206E+002
 20
1.1184964E+002
 11
3.244206E+002
 21
1.0735089E+002
  0
LINE
  5
4ad
100
AcDbEntity
  8
1
100
AcDbLine
  6
CONTINUOUS
 62
7
 10
3.342206E+002
 20
1.1184964E+002
 11
3.342206E+002
 21
1.0735089E+002
  0
ARC
  5
4ae
100
AcDbEntity
  8
1
100
AcDbCircle
  6
CONTINUOUS
 62
7
 10
3.349456E+002
 20
9.2110888E+001
 40
1.0
100
AcDbArc
 50
9.0E+001
 51
1.8E+002
  0
LINE
  5
4af
100
AcDbEntity
  8
1
100
AcDbLine
  6
CONTINUOUS
 62
7
 10
3.158956E+002
 20
9.3110888E+001
 11
3.236956E+002
 21
9.3110888E+001
  0
LINE
  5
4b0
100
AcDbEntity
  8
1
100
AcDbLine
  6
CONTINUOUS
 62
7
 10
3.529956E+002
 20
9.2110888E+001
 11
3.529956E+002
 21
8.6460888E+001
  0
LINE
  5
4b1
100
AcDbEntity
  8
1
100
AcDbLine
  6
CONTINUOUS
 62
7
 10
3.437456E+002
 20
9.2110888E+001
 11
3.437456E+002
 21
8.6460888E+001
  0
LINE
  5
4b2
100
AcDbEntity
  8
1
100
AcDbLine
  6
CONTINUOUS
 62
7
 10
3.444706E+002
 20
1.0635089E+002
 11
3.522706E+002
 21
1.0635089E+002
  0
ARC
  5
4b3
100
AcDbEntity
  8
1
100
AcDbCircle
  6
CONTINUOUS
 62
7
 10
3.427456E+002
 20
9.2110888E+001
 40
1.0
100
AcDbArc
 50
0.0
 51
9.0E+001
  0
ARC
  5
4b4
100
AcDbEntity
  8
1
100
AcDbCircle
  6
CONTINUOUS
 62
7
 10
3.444706E+002
 20
1.0735089E+002
 40
1.0
100
AcDbArc
 50
1.8E+002
 51
2.7E+002
  0
ARC
  5
4b5
100
AcDbEntity
  8
1
100
AcDbCircle
  6
CONTINUOUS
 62
7
 10
3.522706E+002
 20
1.0735089E+002
 40
1.0
100
AcDbArc
 50
2.7E+002
 51
3.6E+002
  0
LINE
  5
4b6
100
AcDbEntity
  8
1
100
AcDbLine
  6
CONTINUOUS
 62
7
 10
3.434706E+002
 20
1.1184964E+002
 11
3.434706E+002
 21
1.0735089E+002
  0
LINE
  5
4b7
100
AcDbEntity
  8
1
100
AcDbLine
  6
CONTINUOUS
 62
7
 10
3.532706E+002
 20
1.1184964E+002
 11
3.532706E+002
 21
1.0735089E+002
  0
ARC
  5
4b8
100
AcDbEntity
  8
1
100
AcDbCircle
  6
CONTINUOUS
 62
7
 10
3.539956E+002
 20
9.2110888E+001
 40
1.0
100
AcDbArc
 50
9.0E+001
 51
1.8E+002
  0
LINE
  5
4b9
100
AcDbEntity
  8
1
100
AcDbLine
  6
CONTINUOUS
 62
7
 10
3.349456E+002
 20
9.3110888E+001
 11
3.427456E+002
 21
9.3110888E+001
  0
LINE
  5
4ba
100
AcDbEntity
  8
1
100
AcDbLine
  6
CONTINUOUS
 62
7
 10
3.720456E+002
 20
9.2110888E+001
 11
3.720456E+002
 21
8.6460888E+001
  0
LINE
  5
4bb
100
AcDbEntity
  8
1
100
AcDbLine
  6
CONTINUOUS
 62
7
 10
3.627956E+002
 20
9.2110888E+001
 11
3.627956E+002
 21
8.6460888E+001
  0
LINE
  5
4bc
100
AcDbEntity
  8
1
100
AcDbLine
  6
CONTINUOUS
 62
7
 10
3.635206E+002
 20
1.0635089E+002
 11
3.713206E+002
 21
1.0635089E+002
  0
ARC
  5
4bd
100
AcDbEntity
  8
1
100
AcDbCircle
  6
CONTINUOUS
 62
7
 10
3.617956E+002
 20
9.2110888E+001
 40
1.0
100
AcDbArc
 50
0.0
 51
9.0E+001
  0
ARC
  5
4be
100
AcDbEntity
  8
1
100
AcDbCircle
  6
CONTINUOUS
 62
7
 10
3.635206E+002
 20
1.0735089E+002
 40
1.0
100
AcDbArc
 50
1.8E+002
 51
2.7E+002
  0
ARC
  5
4bf
100
AcDbEntity
  8
1
100
AcDbCircle
  6
CONTINUOUS
 62
7
 10
3.713206E+002
 20
1.0735089E+002
 40
1.0
100
AcDbArc
 50
2.7E+002
 51
3.6E+002
  0
LINE
  5
4c0
100
AcDbEntity
  8
1
100
AcDbLine
  6
CONTINUOUS
 62
7
 10
3.625206E+002
 20
1.1184964E+002
 11
3.625206E+002
 21
1.0735089E+002
  0
LINE
  5
4c1
100
AcDbEntity
  8
1
100
AcDbLine
  6
CONTINUOUS
 62
7
 10
3.723206E+002
 20
1.1179941E+002
 11
3.723206E+002
 21
1.0735089E+002
  0
ARC
  5
4c2
100
AcDbEntity
  8
1
100
AcDbCircle
  6
CONTINUOUS
 62
7
 10
3.730456E+002
 20
9.2110888E+001
 40
1.0
100
AcDbArc
 50
9.0E+001
 51
1.8E+002
  0
LINE
  5
4c3
100
AcDbEntity
  8
1
100
AcDbLine
  6
CONTINUOUS
 62
7
 10
3.539956E+002
 20
9.3110888E+001
 11
3.617956E+002
 21
9.3110888E+001
  0
LINE
  5
4c4
100
AcDbEntity
  8
1
100
AcDbLine
  6
CONTINUOUS
 62
7
 10
3.910956E+002
 20
9.2110888E+001
 11
3.910956E+002
 21
8.6460888E+001
  0
LINE
  5
4c5
100
AcDbEntity
  8
1
100
AcDbLine
  6
CONTINUOUS
 62
7
 10
3.818456E+002
 20
9.2110888E+001
 11
3.818456E+002
 21
8.6460888E+001
  0
LINE
  5
4c6
100
AcDbEntity
  8
1
100
AcDbLine
  6
CONTINUOUS
 62
7
 10
3.825706E+002
 20
1.0635089E+002
 11
3.903706E+002
 21
1.0635089E+002
  0
ARC
  5
4c7
100
AcDbEntity
  8
1
100
AcDbCircle
  6
CONTINUOUS
 62
7
 10
3.808456E+002
 20
9.2110888E+001
 40
1.0
100
AcDbArc
 50
0.0
 51
9.0E+001
  0
ARC
  5
4c8
100
AcDbEntity
  8
1
100
AcDbCircle
  6
CONTINUOUS
 62
7
 10
3.825706E+002
 20
1.0735089E+002
 40
1.0
100
AcDbArc
 50
1.8E+002
 51
2.7E+002
  0
ARC
  5
4c9
100
AcDbEntity
  8
1
100
AcDbCircle
  6
CONTINUOUS
 62
7
 10
3.903706E+002
 20
1.0735089E+002
 40
1.0
100
AcDbArc
 50
2.7E+002
 51
3.6E+002
  0
LINE
  5
4ca
100
AcDbEntity
  8
1
100
AcDbLine
  6
CONTINUOUS
 62
7
 10
3.815706E+002
 20
1.1184964E+002
 11
3.815706E+002
 21
1.0735089E+002
  0
LINE
  5
4cb
100
AcDbEntity
  8
1
100
AcDbLine
  6
CONTINUOUS
 62
7
 10
3.913706E+002
 20
1.1184964E+002
 11
3.913706E+002
 21
1.0735089E+002
  0
ARC
  5
4cc
100
AcDbEntity
  8
1
100
AcDbCircle
  6
CONTINUOUS
 62
7
 10
3.920956E+002
 20
9.2110888E+001
 40
1.0
100
AcDbArc
 50
9.0E+001
 51
1.8E+002
  0
LINE
  5
4cd
100
AcDbEntity
  8
1
100
AcDbLine
  6
CONTINUOUS
 62
7
 10
3.730456E+002
 20
9.3110888E+001
 11
3.808456E+002
 21
9.3110888E+001
  0
LINE
  5
4ce
100
AcDbEntity
  8
1
100
AcDbLine
  6
CONTINUOUS
 62
7
 10
3.954956E+002
 20
9.3110888E+001
 11
3.920956E+002
 21
9.3110888E+001
  0
ARC
  5
4cf
100
AcDbEntity
  8
1
100
AcDbCircle
  6
CONTINUOUS
 62
7
 10
3.954956E+002
 20
9.3610888E+001
 40
5.0E-001
100
AcDbArc
 50
2.7E+002
 51
3.6E+002
  0
LINE
  5
4d0
100
AcDbEntity
  8
1
100
AcDbLine
  6
CONTINUOUS
 62
7
 10
2.435956E+002
 20
9.3610888E+001
 11
2.435956E+002
 21
1.1216089E+002
  0
LINE
  5
4d1
100
AcDbEntity
  8
1
100
AcDbLine
  6
CONTINUOUS
 62
7
 10
2.680456E+002
 20
8.5960888E+001
 11
2.762956E+002
 21
8.5960888E+001
  0
ARC
  5
4d2
100
AcDbEntity
  8
1
100
AcDbCircle
  6
CONTINUOUS
 62
7
 10
2.762956E+002
 20
8.6460888E+001
 40
5.0E-001
100
AcDbArc
 50
2.7E+002
 51
3.6E+002
  0
ARC
  5
4d3
100
AcDbEntity
  8
1
100
AcDbCircle
  6
CONTINUOUS
 62
7
 10
2.680456E+002
 20
8.6460888E+001
 40
5.0E-001
100
AcDbArc
 50
1.8E+002
 51
2.7E+002
  0
LINE
  5
4d4
100
AcDbEntity
  8
1
100
AcDbLine
  6
CONTINUOUS
 62
7
 10
2.489956E+002
 20
8.5960888E+001
 11
2.572456E+002
 21
8.5960888E+001
  0
ARC
  5
4d5
100
AcDbEntity
  8
1
100
AcDbCircle
  6
CONTINUOUS
 62
7
 10
2.572456E+002
 20
8.6460888E+001
 40
5.0E-001
100
AcDbArc
 50
2.7E+002
 51
3.6E+002
  0
ARC
  5
4d6
100
AcDbEntity
  8
1
100
AcDbCircle
  6
CONTINUOUS
 62
7
 10
2.489956E+002
 20
8.6460888E+001
 40
5.0E-001
100
AcDbArc
 50
1.8E+002
 51
2.7E+002
  0
LINE
  5
4d7
100
AcDbEntity
  8
1
100
AcDbLine
  6
CONTINUOUS
 62
7
 10
2.870956E+002
 20
8.5960888E+001
 11
2.953456E+002
 21
8.5960888E+001
  0
ARC
  5
4d8
100
AcDbEntity
  8
1
100
AcDbCircle
  6
CONTINUOUS
 62
7
 10
2.953456E+002
 20
8.6460888E+001
 40
5.0E-001
100
AcDbArc
 50
2.7E+002
 51
3.6E+002
  0
ARC
  5
4d9
100
AcDbEntity
  8
1
100
AcDbCircle
  6
CONTINUOUS
 62
7
 10
2.870956E+002
 20
8.6460888E+001
 40
5.0E-001
100
AcDbArc
 50
1.8E+002
 51
2.7E+002
  0
ARC
  5
4da
100
AcDbEntity
  8
1
100
AcDbCircle
  6
CONTINUOUS
 62
7
 10
3.061456E+002
 20
8.6460888E+001
 40
5.0E-001
100
AcDbArc
 50
1.8E+002
 51
2.7E+002
  0
LINE
  5
4db
100
AcDbEntity
  8
1
100
AcDbLine
  6
CONTINUOUS
 62
7
 10
3.061456E+002
 20
8.5960888E+001
 11
3.143956E+002
 21
8.5960888E+001
  0
ARC
  5
4dc
100
AcDbEntity
  8
1
100
AcDbCircle
  6
CONTINUOUS
 62
7
 10
3.143956E+002
 20
8.6460888E+001
 40
5.0E-001
100
AcDbArc
 50
2.7E+002
 51
3.6E+002
  0
LINE
  5
4dd
100
AcDbEntity
  8
1
100
AcDbLine
  6
CONTINUOUS
 62
7
 10
3.442456E+002
 20
8.5960888E+001
 11
3.524956E+002
 21
8.5960888E+001
  0
ARC
  5
4de
100
AcDbEntity
  8
1
100
AcDbCircle
  6
CONTINUOUS
 62
7
 10
3.524956E+002
 20
8.6460888E+001
 40
5.0E-001
100
AcDbArc
 50
2.7E+002
 51
3.6E+002
  0
ARC
  5
4df
100
AcDbEntity
  8
1
100
AcDbCircle
  6
CONTINUOUS
 62
7
 10
3.442456E+002
 20
8.6460888E+001
 40
5.0E-001
100
AcDbArc
 50
1.8E+002
 51
2.7E+002
  0
LINE
  5
4e0
100
AcDbEntity
  8
1
100
AcDbLine
  6
CONTINUOUS
 62
7
 10
3.251956E+002
 20
8.5960888E+001
 11
3.334456E+002
 21
8.5960888E+001
  0
ARC
  5
4e1
100
AcDbEntity
  8
1
100
AcDbCircle
  6
CONTINUOUS
 62
7
 10
3.334456E+002
 20
8.6460888E+001
 40
5.0E-001
100
AcDbArc
 50
2.7E+002
 51
3.6E+002
  0
ARC
  5
4e2
100
AcDbEntity
  8
1
100
AcDbCircle
  6
CONTINUOUS
 62
7
 10
3.251956E+002
 20
8.6460888E+001
 40
5.0E-001
100
AcDbArc
 50
1.8E+002
 51
2.7E+002
  0
LINE
  5
4e3
100
AcDbEntity
  8
1
100
AcDbLine
  6
CONTINUOUS
 62
7
 10
3.632956E+002
 20
8.5960888E+001
 11
3.715456E+002
 21
8.5960888E+001
  0
ARC
  5
4e4
100
AcDbEntity
  8
1
100
AcDbCircle
  6
CONTINUOUS
 62
7
 10
3.715456E+002
 20
8.6460888E+001
 40
5.0E-001
100
AcDbArc
 50
2.7E+002
 51
3.6E+002
  0
ARC
  5
4e5
100
AcDbEntity
  8
1
100
AcDbCircle
  6
CONTINUOUS
 62
7
 10
3.632956E+002
 20
8.6460888E+001
 40
5.0E-001
100
AcDbArc
 50
1.8E+002
 51
2.7E+002
  0
ARC
  5
4e6
100
AcDbEntity
  8
1
100
AcDbCircle
  6
CONTINUOUS
 62
7
 10
3.823456E+002
 20
8.6460888E+001
 40
5.0E-001
100
AcDbArc
 50
1.8E+002
 51
2.7E+002
  0
LINE
  5
4e7
100
AcDbEntity
  8
1
100
AcDbLine
  6
CONTINUOUS
 62
7
 10
3.823456E+002
 20
8.5960888E+001
 11
3.905956E+002
 21
8.5960888E+001
  0
ARC
  5
4e8
100
AcDbEntity
  8
1
100
AcDbCircle
  6
CONTINUOUS
 62
7
 10
3.905956E+002
 20
8.6460888E+001
 40
5.0E-001
100
AcDbArc
 50
2.7E+002
 51
3.6E+002
  0
LINE
  5
4e9
100
AcDbEntity
  8
1
100
AcDbLine
  6
CONTINUOUS
 62
7
 10
3.959956E+002
 20
9.3610888E+001
 11
3.959956E+002
 21
1.1216089E+002
  0
LINE
  5
4ea
100
AcDbEntity
  8
1
100
AcDbLine
  6
CONTINUOUS
 62
7
 10
2.435956E+002
 20
5.73794E+001
 11
2.435956E+002
 21
4.96794E+001
  0
LINE
  5
4eb
100
AcDbEntity
  8
1
100
AcDbLine
  6
CONTINUOUS
 62
7
 10
2.577456E+002
 20
5.73794E+001
 11
2.577456E+002
 21
4.96794E+001
  0
LINE
  5
4ec
100
AcDbEntity
  8
1
100
AcDbLine
  6
CONTINUOUS
 62
7
 10
2.767956E+002
 20
5.73794E+001
 11
2.767956E+002
 21
4.96794E+001
  0
LINE
  5
4ed
100
AcDbEntity
  8
1
100
AcDbLine
  6
CONTINUOUS
 62
7
 10
2.675456E+002
 20
5.73794E+001
 11
2.675456E+002
 21
4.96794E+001
  0
LINE
  5
4ee
100
AcDbEntity
  8
1
100
AcDbLine
  6
CONTINUOUS
 62
7
 10
2.865956E+002
 20
5.73794E+001
 11
2.865956E+002
 21
4.96794E+001
  0
LINE
  5
4ef
100
AcDbEntity
  8
1
100
AcDbLine
  6
CONTINUOUS
 62
7
 10
2.958456E+002
 20
5.73794E+001
 11
2.958456E+002
 21
4.96794E+001
  0
LINE
  5
4f0
100
AcDbEntity
  8
1
100
AcDbLine
  6
CONTINUOUS
 62
7
 10
3.056456E+002
 20
5.73794E+001
 11
3.056456E+002
 21
4.96794E+001
  0
LINE
  5
4f1
100
AcDbEntity
  8
1
100
AcDbLine
  6
CONTINUOUS
 62
7
 10
3.148956E+002
 20
5.73794E+001
 11
3.148956E+002
 21
4.96794E+001
  0
LINE
  5
4f2
100
AcDbEntity
  8
1
100
AcDbLine
  6
CONTINUOUS
 62
7
 10
2.670456E+002
 20
5.59794E+001
 11
2.582456E+002
 21
5.59794E+001
  0
LINE
  5
4f3
100
AcDbEntity
  8
1
100
AcDbLine
  6
CONTINUOUS
 62
7
 10
2.596456E+002
 20
5.59794E+001
 11
2.596456E+002
 21
4.96794E+001
  0
LINE
  5
4f4
100
AcDbEntity
  8
1
100
AcDbLine
  6
CONTINUOUS
 62
7
 10
2.656456E+002
 20
5.59794E+001
 11
2.656456E+002
 21
4.96794E+001
  0
ARC
  5
4f5
100
AcDbEntity
  8
1
100
AcDbCircle
  6
CONTINUOUS
 62
7
 10
2.670456E+002
 20
5.54794E+001
 40
5.0E-001
100
AcDbArc
 50
0.0
 51
9.0E+001
  0
ARC
  5
4f6
100
AcDbEntity
  8
1
100
AcDbCircle
  6
CONTINUOUS
 62
7
 10
2.582456E+002
 20
5.54794E+001
 40
5.0E-001
100
AcDbArc
 50
9.0E+001
 51
1.8E+002
  0
ARC
  5
4f7
100
AcDbEntity
  8
1
100
AcDbCircle
  6
CONTINUOUS
 62
7
 10
2.572456E+002
 20
5.73794E+001
 40
5.0E-001
100
AcDbArc
 50
0.0
 51
9.0E+001
  0
ARC
  5
4f8
100
AcDbEntity
  8
1
100
AcDbCircle
  6
CONTINUOUS
 62
7
 10
2.680456E+002
 20
5.73794E+001
 40
5.0E-001
100
AcDbArc
 50
9.0E+001
 51
1.8E+002
  0
ARC
  5
4f9
100
AcDbEntity
  8
1
100
AcDbCircle
  6
CONTINUOUS
 62
7
 10
2.680456E+002
 20
4.96794E+001
 40
5.0E-001
100
AcDbArc
 50
1.8E+002
 51
2.7E+002
  0
ARC
  5
4fa
100
AcDbEntity
  8
1
100
AcDbCircle
  6
CONTINUOUS
 62
7
 10
2.661456E+002
 20
4.96794E+001
 40
5.0E-001
100
AcDbArc
 50
1.8E+002
 51
2.7E+002
  0
ARC
  5
4fb
100
AcDbEntity
  8
1
100
AcDbCircle
  6
CONTINUOUS
 62
7
 10
2.591456E+002
 20
4.96794E+001
 40
5.0E-001
100
AcDbArc
 50
2.7E+002
 51
3.6E+002
  0
ARC
  5
4fc
100
AcDbEntity
  8
1
100
AcDbCircle
  6
CONTINUOUS
 62
7
 10
2.572456E+002
 20
4.96794E+001
 40
5.0E-001
100
AcDbArc
 50
2.7E+002
 51
3.6E+002
  0
ARC
  5
4fd
100
AcDbEntity
  8
1
100
AcDbCircle
  6
CONTINUOUS
 62
7
 10
2.440956E+002
 20
5.73794E+001
 40
5.0E-001
100
AcDbArc
 50
9.0E+001
 51
1.8E+002
  0
ARC
  5
4fe
100
AcDbEntity
  8
1
100
AcDbCircle
  6
CONTINUOUS
 62
7
 10
2.440956E+002
 20
4.96794E+001
 40
5.0E-001
100
AcDbArc
 50
1.8E+002
 51
2.7E+002
  0
LINE
  5
4ff
100
AcDbEntity
  8
1
100
AcDbLine
  6
CONTINUOUS
 62
7
 10
2.860956E+002
 20
5.59794E+001
 11
2.772956E+002
 21
5.59794E+001
  0
ARC
  5
500
100
AcDbEntity
  8
1
100
AcDbCircle
  6
CONTINUOUS
 62
7
 10
2.860956E+002
 20
5.54794E+001
 40
5.0E-001
100
AcDbArc
 50
0.0
 51
9.0E+001
  0
ARC
  5
501
100
AcDbEntity
  8
1
100
AcDbCircle
  6
CONTINUOUS
 62
7
 10
2.772956E+002
 20
5.54794E+001
 40
5.0E-001
100
AcDbArc
 50
9.0E+001
 51
1.8E+002
  0
LINE
  5
502
100
AcDbEntity
  8
1
100
AcDbLine
  6
CONTINUOUS
 62
7
 10
2.786956E+002
 20
5.59794E+001
 11
2.786956E+002
 21
4.96794E+001
  0
LINE
  5
503
100
AcDbEntity
  8
1
100
AcDbLine
  6
CONTINUOUS
 62
7
 10
2.846956E+002
 20
5.59794E+001
 11
2.846956E+002
 21
4.96794E+001
  0
ARC
  5
504
100
AcDbEntity
  8
1
100
AcDbCircle
  6
CONTINUOUS
 62
7
 10
2.851956E+002
 20
4.96794E+001
 40
5.0E-001
100
AcDbArc
 50
1.8E+002
 51
2.7E+002
  0
ARC
  5
505
100
AcDbEntity
  8
1
100
AcDbCircle
  6
CONTINUOUS
 62
7
 10
2.781956E+002
 20
4.96794E+001
 40
5.0E-001
100
AcDbArc
 50
2.7E+002
 51
3.6E+002
  0
ARC
  5
506
100
AcDbEntity
  8
1
100
AcDbCircle
  6
CONTINUOUS
 62
7
 10
3.051456E+002
 20
5.54794E+001
 40
5.0E-001
100
AcDbArc
 50
0.0
 51
9.0E+001
  0
ARC
  5
507
100
AcDbEntity
  8
1
100
AcDbCircle
  6
CONTINUOUS
 62
7
 10
2.963456E+002
 20
5.54794E+001
 40
5.0E-001
100
AcDbArc
 50
9.0E+001
 51
1.8E+002
  0
LINE
  5
508
100
AcDbEntity
  8
1
100
AcDbLine
  6
CONTINUOUS
 62
7
 10
3.037456E+002
 20
5.59794E+001
 11
3.037456E+002
 21
4.96794E+001
  0
LINE
  5
509
100
AcDbEntity
  8
1
100
AcDbLine
  6
CONTINUOUS
 62
7
 10
2.977456E+002
 20
5.59794E+001
 11
2.977456E+002
 21
4.96794E+001
  0
ARC
  5
50a
100
AcDbEntity
  8
1
100
AcDbCircle
  6
CONTINUOUS
 62
7
 10
3.042456E+002
 20
4.96794E+001
 40
5.0E-001
100
AcDbArc
 50
1.8E+002
 51
2.7E+002
  0
ARC
  5
50b
100
AcDbEntity
  8
1
100
AcDbCircle
  6
CONTINUOUS
 62
7
 10
2.972456E+002
 20
4.96794E+001
 40
5.0E-001
100
AcDbArc
 50
2.7E+002
 51
3.6E+002
  0
ARC
  5
50c
100
AcDbEntity
  8
1
100
AcDbCircle
  6
CONTINUOUS
 62
7
 10
3.153956E+002
 20
5.54794E+001
 40
5.0E-001
100
AcDbArc
 50
9.0E+001
 51
1.8E+002
  0
LINE
  5
50d
100
AcDbEntity
  8
1
100
AcDbLine
  6
CONTINUOUS
 62
7
 10
3.167956E+002
 20
5.59794E+001
 11
3.167956E+002
 21
4.96794E+001
  0
ARC
  5
50e
100
AcDbEntity
  8
1
100
AcDbCircle
  6
CONTINUOUS
 62
7
 10
3.162956E+002
 20
4.96794E+001
 40
5.0E-001
100
AcDbArc
 50
2.7E+002
 51
3.6E+002
  0
ARC
  5
50f
100
AcDbEntity
  8
1
100
AcDbCircle
  6
CONTINUOUS
 62
7
 10
2.762956E+002
 20
5.73794E+001
 40
5.0E-001
100
AcDbArc
 50
0.0
 51
9.0E+001
  0
ARC
  5
510
100
AcDbEntity
  8
1
100
AcDbCircle
  6
CONTINUOUS
 62
7
 10
2.762956E+002
 20
4.96794E+001
 40
5.0E-001
100
AcDbArc
 50
2.7E+002
 51
3.6E+002
  0
ARC
  5
511
100
AcDbEntity
  8
1
100
AcDbCircle
  6
CONTINUOUS
 62
7
 10
2.870956E+002
 20
5.73794E+001
 40
5.0E-001
100
AcDbArc
 50
9.0E+001
 51
1.8E+002
  0
ARC
  5
512
100
AcDbEntity
  8
1
100
AcDbCircle
  6
CONTINUOUS
 62
7
 10
2.870956E+002
 20
4.96794E+001
 40
5.0E-001
100
AcDbArc
 50
1.8E+002
 51
2.7E+002
  0
ARC
  5
513
100
AcDbEntity
  8
1
100
AcDbCircle
  6
CONTINUOUS
 62
7
 10
2.953456E+002
 20
5.73794E+001
 40
5.0E-001
100
AcDbArc
 50
0.0
 51
9.0E+001
  0
ARC
  5
514
100
AcDbEntity
  8
1
100
AcDbCircle
  6
CONTINUOUS
 62
7
 10
2.953456E+002
 20
4.96794E+001
 40
5.0E-001
100
AcDbArc
 50
2.7E+002
 51
3.6E+002
  0
ARC
  5
515
100
AcDbEntity
  8
1
100
AcDbCircle
  6
CONTINUOUS
 62
7
 10
3.061456E+002
 20
5.73794E+001
 40
5.0E-001
100
AcDbArc
 50
9.0E+001
 51
1.8E+002
  0
ARC
  5
516
100
AcDbEntity
  8
1
100
AcDbCircle
  6
CONTINUOUS
 62
7
 10
3.061456E+002
 20
4.96794E+001
 40
5.0E-001
100
AcDbArc
 50
1.8E+002
 51
2.7E+002
  0
ARC
  5
517
100
AcDbEntity
  8
1
100
AcDbCircle
  6
CONTINUOUS
 62
7
 10
3.143956E+002
 20
4.96794E+001
 40
5.0E-001
100
AcDbArc
 50
2.7E+002
 51
3.6E+002
  0
ARC
  5
518
100
AcDbEntity
  8
1
100
AcDbCircle
  6
CONTINUOUS
 62
7
 10
3.143956E+002
 20
5.73794E+001
 40
5.0E-001
100
AcDbArc
 50
0.0
 51
9.0E+001
  0
LINE
  5
519
100
AcDbEntity
  8
1
100
AcDbLine
  6
CONTINUOUS
 62
7
 10
3.954956E+002
 20
4.91794E+001
 11
2.440956E+002
 21
4.91794E+001
  0
LINE
  5
51a
100
AcDbEntity
  8
1
100
AcDbLine
  6
CONTINUOUS
 62
7
 10
3.959956E+002
 20
5.73794E+001
 11
3.959956E+002
 21
4.96794E+001
  0
LINE
  5
51b
100
AcDbEntity
  8
1
100
AcDbLine
  6
CONTINUOUS
 62
7
 10
3.720456E+002
 20
5.73794E+001
 11
3.720456E+002
 21
4.96794E+001
  0
LINE
  5
51c
100
AcDbEntity
  8
1
100
AcDbLine
  6
CONTINUOUS
 62
7
 10
3.818456E+002
 20
5.73794E+001
 11
3.818456E+002
 21
4.96794E+001
  0
LINE
  5
51d
100
AcDbEntity
  8
1
100
AcDbLine
  6
CONTINUOUS
 62
7
 10
3.910956E+002
 20
5.73794E+001
 11
3.910956E+002
 21
4.96794E+001
  0
LINE
  5
51e
100
AcDbEntity
  8
1
100
AcDbLine
  6
CONTINUOUS
 62
7
 10
3.813456E+002
 20
5.59794E+001
 11
3.725456E+002
 21
5.59794E+001
  0
ARC
  5
51f
100
AcDbEntity
  8
1
100
AcDbCircle
  6
CONTINUOUS
 62
7
 10
3.813456E+002
 20
5.54794E+001
 40
5.0E-001
100
AcDbArc
 50
0.0
 51
9.0E+001
  0
ARC
  5
520
100
AcDbEntity
  8
1
100
AcDbCircle
  6
CONTINUOUS
 62
7
 10
3.725456E+002
 20
5.54794E+001
 40
5.0E-001
100
AcDbArc
 50
9.0E+001
 51
1.8E+002
  0
LINE
  5
521
100
AcDbEntity
  8
1
100
AcDbLine
  6
CONTINUOUS
 62
7
 10
3.799456E+002
 20
5.59794E+001
 11
3.799456E+002
 21
4.96794E+001
  0
LINE
  5
522
100
AcDbEntity
  8
1
100
AcDbLine
  6
CONTINUOUS
 62
7
 10
3.739456E+002
 20
5.59794E+001
 11
3.739456E+002
 21
4.96794E+001
  0
ARC
  5
523
100
AcDbEntity
  8
1
100
AcDbCircle
  6
CONTINUOUS
 62
7
 10
3.804456E+002
 20
4.96794E+001
 40
5.0E-001
100
AcDbArc
 50
1.8E+002
 51
2.7E+002
  0
ARC
  5
524
100
AcDbEntity
  8
1
100
AcDbCircle
  6
CONTINUOUS
 62
7
 10
3.734456E+002
 20
4.96794E+001
 40
5.0E-001
100
AcDbArc
 50
2.7E+002
 51
3.6E+002
  0
ARC
  5
525
100
AcDbEntity
  8
1
100
AcDbCircle
  6
CONTINUOUS
 62
7
 10
3.715456E+002
 20
5.73794E+001
 40
5.0E-001
100
AcDbArc
 50
0.0
 51
9.0E+001
  0
ARC
  5
526
100
AcDbEntity
  8
1
100
AcDbCircle
  6
CONTINUOUS
 62
7
 10
3.715456E+002
 20
4.96794E+001
 40
5.0E-001
100
AcDbArc
 50
2.7E+002
 51
3.6E+002
  0
ARC
  5
527
100
AcDbEntity
  8
1
100
AcDbCircle
  6
CONTINUOUS
 62
7
 10
3.823456E+002
 20
5.73794E+001
 40
5.0E-001
100
AcDbArc
 50
9.0E+001
 51
1.8E+002
  0
ARC
  5
528
100
AcDbEntity
  8
1
100
AcDbCircle
  6
CONTINUOUS
 62
7
 10
3.823456E+002
 20
4.96794E+001
 40
5.0E-001
100
AcDbArc
 50
1.8E+002
 51
2.7E+002
  0
ARC
  5
529
100
AcDbEntity
  8
1
100
AcDbCircle
  6
CONTINUOUS
 62
7
 10
3.905956E+002
 20
4.96794E+001
 40
5.0E-001
100
AcDbArc
 50
2.7E+002
 51
3.6E+002
  0
ARC
  5
52a
100
AcDbEntity
  8
1
100
AcDbCircle
  6
CONTINUOUS
 62
7
 10
3.905956E+002
 20
5.73794E+001
 40
5.0E-001
100
AcDbArc
 50
0.0
 51
9.0E+001
  0
ARC
  5
52b
100
AcDbEntity
  8
1
100
AcDbCircle
  6
CONTINUOUS
 62
7
 10
3.954956E+002
 20
5.73794E+001
 40
5.0E-001
100
AcDbArc
 50
0.0
 51
9.0E+001
  0
ARC
  5
52c
100
AcDbEntity
  8
1
100
AcDbCircle
  6
CONTINUOUS
 62
7
 10
3.954956E+002
 20
4.96794E+001
 40
5.0E-001
100
AcDbArc
 50
2.7E+002
 51
3.6E+002
  0
LINE
  5
52d
100
AcDbEntity
  8
1
100
AcDbLine
  6
CONTINUOUS
 62
7
 10
2.963456E+002
 20
5.59794E+001
 11
3.051456E+002
 21
5.59794E+001
  0
LINE
  5
52e
100
AcDbEntity
  8
1
100
AcDbLine
  6
CONTINUOUS
 62
7
 10
3.246956E+002
 20
5.73794E+001
 11
3.246956E+002
 21
4.96794E+001
  0
LINE
  5
52f
100
AcDbEntity
  8
1
100
AcDbLine
  6
CONTINUOUS
 62
7
 10
3.339456E+002
 20
5.73794E+001
 11
3.339456E+002
 21
4.96794E+001
  0
ARC
  5
530
100
AcDbEntity
  8
1
100
AcDbCircle
  6
CONTINUOUS
 62
7
 10
3.241956E+002
 20
5.54794E+001
 40
5.0E-001
100
AcDbArc
 50
0.0
 51
9.0E+001
  0
LINE
  5
531
100
AcDbEntity
  8
1
100
AcDbLine
  6
CONTINUOUS
 62
7
 10
3.227956E+002
 20
5.59794E+001
 11
3.227956E+002
 21
4.96794E+001
  0
ARC
  5
532
100
AcDbEntity
  8
1
100
AcDbCircle
  6
CONTINUOUS
 62
7
 10
3.232956E+002
 20
4.96794E+001
 40
5.0E-001
100
AcDbArc
 50
1.8E+002
 51
2.7E+002
  0
ARC
  5
533
100
AcDbEntity
  8
1
100
AcDbCircle
  6
CONTINUOUS
 62
7
 10
3.344456E+002
 20
5.54794E+001
 40
5.0E-001
100
AcDbArc
 50
9.0E+001
 51
1.8E+002
  0
LINE
  5
534
100
AcDbEntity
  8
1
100
AcDbLine
  6
CONTINUOUS
 62
7
 10
3.358456E+002
 20
5.59794E+001
 11
3.358456E+002
 21
4.96794E+001
  0
ARC
  5
535
100
AcDbEntity
  8
1
100
AcDbCircle
  6
CONTINUOUS
 62
7
 10
3.353456E+002
 20
4.96794E+001
 40
5.0E-001
100
AcDbArc
 50
2.7E+002
 51
3.6E+002
  0
ARC
  5
536
100
AcDbEntity
  8
1
100
AcDbCircle
  6
CONTINUOUS
 62
7
 10
3.251956E+002
 20
5.73794E+001
 40
5.0E-001
100
AcDbArc
 50
9.0E+001
 51
1.8E+002
  0
ARC
  5
537
100
AcDbEntity
  8
1
100
AcDbCircle
  6
CONTINUOUS
 62
7
 10
3.251956E+002
 20
4.96794E+001
 40
5.0E-001
100
AcDbArc
 50
1.8E+002
 51
2.7E+002
  0
ARC
  5
538
100
AcDbEntity
  8
1
100
AcDbCircle
  6
CONTINUOUS
 62
7
 10
3.334456E+002
 20
4.96794E+001
 40
5.0E-001
100
AcDbArc
 50
2.7E+002
 51
3.6E+002
  0
ARC
  5
539
100
AcDbEntity
  8
1
100
AcDbCircle
  6
CONTINUOUS
 62
7
 10
3.334456E+002
 20
5.73794E+001
 40
5.0E-001
100
AcDbArc
 50
0.0
 51
9.0E+001
  0
LINE
  5
53a
100
AcDbEntity
  8
1
100
AcDbLine
  6
CONTINUOUS
 62
7
 10
3.437456E+002
 20
5.73794E+001
 11
3.437456E+002
 21
4.96794E+001
  0
LINE
  5
53b
100
AcDbEntity
  8
1
100
AcDbLine
  6
CONTINUOUS
 62
7
 10
3.529956E+002
 20
5.73794E+001
 11
3.529956E+002
 21
4.96794E+001
  0
LINE
  5
53c
100
AcDbEntity
  8
1
100
AcDbLine
  6
CONTINUOUS
 62
7
 10
3.344456E+002
 20
5.59794E+001
 11
3.432456E+002
 21
5.59794E+001
  0
ARC
  5
53d
100
AcDbEntity
  8
1
100
AcDbCircle
  6
CONTINUOUS
 62
7
 10
3.432456E+002
 20
5.54794E+001
 40
5.0E-001
100
AcDbArc
 50
0.0
 51
9.0E+001
  0
LINE
  5
53e
100
AcDbEntity
  8
1
100
AcDbLine
  6
CONTINUOUS
 62
7
 10
3.418456E+002
 20
5.59794E+001
 11
3.418456E+002
 21
4.96794E+001
  0
ARC
  5
53f
100
AcDbEntity
  8
1
100
AcDbCircle
  6
CONTINUOUS
 62
7
 10
3.423456E+002
 20
4.96794E+001
 40
5.0E-001
100
AcDbArc
 50
1.8E+002
 51
2.7E+002
  0
ARC
  5
540
100
AcDbEntity
  8
1
100
AcDbCircle
  6
CONTINUOUS
 62
7
 10
3.534956E+002
 20
5.54794E+001
 40
5.0E-001
100
AcDbArc
 50
9.0E+001
 51
1.8E+002
  0
LINE
  5
541
100
AcDbEntity
  8
1
100
AcDbLine
  6
CONTINUOUS
 62
7
 10
3.548956E+002
 20
5.59794E+001
 11
3.548956E+002
 21
4.96794E+001
  0
ARC
  5
542
100
AcDbEntity
  8
1
100
AcDbCircle
  6
CONTINUOUS
 62
7
 10
3.543956E+002
 20
4.96794E+001
 40
5.0E-001
100
AcDbArc
 50
2.7E+002
 51
3.6E+002
  0
ARC
  5
543
100
AcDbEntity
  8
1
100
AcDbCircle
  6
CONTINUOUS
 62
7
 10
3.442456E+002
 20
5.73794E+001
 40
5.0E-001
100
AcDbArc
 50
9.0E+001
 51
1.8E+002
  0
ARC
  5
544
100
AcDbEntity
  8
1
100
AcDbCircle
  6
CONTINUOUS
 62
7
 10
3.442456E+002
 20
4.96794E+001
 40
5.0E-001
100
AcDbArc
 50
1.8E+002
 51
2.7E+002
  0
ARC
  5
545
100
AcDbEntity
  8
1
100
AcDbCircle
  6
CONTINUOUS
 62
7
 10
3.524956E+002
 20
4.96794E+001
 40
5.0E-001
100
AcDbArc
 50
2.7E+002
 51
3.6E+002
  0
ARC
  5
546
100
AcDbEntity
  8
1
100
AcDbCircle
  6
CONTINUOUS
 62
7
 10
3.524956E+002
 20
5.73794E+001
 40
5.0E-001
100
AcDbArc
 50
0.0
 51
9.0E+001
  0
LINE
  5
547
100
AcDbEntity
  8
1
100
AcDbLine
  6
CONTINUOUS
 62
7
 10
3.954956E+002
 20
5.78794E+001
 11
2.440956E+002
 21
5.78794E+001
  0
LINE
  5
548
100
AcDbEntity
  8
1
100
AcDbLine
  6
CONTINUOUS
 62
7
 10
3.627956E+002
 20
5.73794E+001
 11
3.627956E+002
 21
4.96794E+001
  0
LINE
  5
549
100
AcDbEntity
  8
1
100
AcDbLine
  6
CONTINUOUS
 62
7
 10
3.534956E+002
 20
5.59794E+001
 11
3.622956E+002
 21
5.59794E+001
  0
ARC
  5
54a
100
AcDbEntity
  8
1
100
AcDbCircle
  6
CONTINUOUS
 62
7
 10
3.622956E+002
 20
5.54794E+001
 40
5.0E-001
100
AcDbArc
 50
0.0
 51
9.0E+001
  0
LINE
  5
54b
100
AcDbEntity
  8
1
100
AcDbLine
  6
CONTINUOUS
 62
7
 10
3.608956E+002
 20
5.59794E+001
 11
3.608956E+002
 21
4.96794E+001
  0
ARC
  5
54c
100
AcDbEntity
  8
1
100
AcDbCircle
  6
CONTINUOUS
 62
7
 10
3.613956E+002
 20
4.96794E+001
 40
5.0E-001
100
AcDbArc
 50
1.8E+002
 51
2.7E+002
  0
ARC
  5
54d
100
AcDbEntity
  8
1
100
AcDbCircle
  6
CONTINUOUS
 62
7
 10
3.632956E+002
 20
5.73794E+001
 40
5.0E-001
100
AcDbArc
 50
9.0E+001
 51
1.8E+002
  0
ARC
  5
54e
100
AcDbEntity
  8
1
100
AcDbCircle
  6
CONTINUOUS
 62
7
 10
3.632956E+002
 20
4.96794E+001
 40
5.0E-001
100
AcDbArc
 50
1.8E+002
 51
2.7E+002
  0
LINE
  5
54f
100
AcDbEntity
  8
1
100
AcDbLine
  6
CONTINUOUS
 62
7
 10
2.484956E+002
 20
5.73794E+001
 11
2.484956E+002
 21
4.96794E+001
  0
ARC
  5
550
100
AcDbEntity
  8
1
100
AcDbCircle
  6
CONTINUOUS
 62
7
 10
2.489956E+002
 20
5.73794E+001
 40
5.0E-001
100
AcDbArc
 50
9.0E+001
 51
1.8E+002
  0
ARC
  5
551
100
AcDbEntity
  8
1
100
AcDbCircle
  6
CONTINUOUS
 62
7
 10
2.489956E+002
 20
4.96794E+001
 40
5.0E-001
100
AcDbArc
 50
1.8E+002
 51
2.7E+002
  0
LINE
  5
552
100
AcDbEntity
  8
1
100
AcDbLine
  6
CONTINUOUS
 62
7
 10
3.254206E+002
 20
1.4445089E+002
 11
3.332206E+002
 21
1.4445089E+002
  0
LINE
  5
553
100
AcDbEntity
  8
1
100
AcDbLine
  6
CONTINUOUS
 62
7
 10
3.153956E+002
 20
5.59794E+001
 11
3.241956E+002
 21
5.59794E+001
  0
LINE
  5
554
100
AcDbEntity
  8
1
100
AcDbLine
  6
CONTINUOUS
 62
7
 10
4.721956E+002
 20
1.1266089E+002
 11
4.721956E+002
 21
1.3121089E+002
  0
LINE
  5
555
100
AcDbEntity
  8
1
100
AcDbLine
  6
CONTINUOUS
 62
7
 10
3.529956E+002
 20
1.1116089E+002
 11
3.529956E+002
 21
1.0666214E+002
  0
LINE
  5
556
100
AcDbEntity
  8
1
100
AcDbLine
  6
CONTINUOUS
 62
7
 10
3.437456E+002
 20
1.1116089E+002
 11
3.437456E+002
 21
1.0666214E+002
  0
LINE
  5
557
100
AcDbEntity
  8
1
100
AcDbLine
  6
CONTINUOUS
 62
7
 10
3.202956E+002
 20
1.1216089E+002
 11
3.236956E+002
 21
1.1216089E+002
  0
LINE
  5
558
100
AcDbEntity
  8
1
100
AcDbLine
  6
CONTINUOUS
 62
7
 10
3.444706E+002
 20
1.2540089E+002
 11
3.522706E+002
 21
1.2540089E+002
  0
LINE
  5
559
100
AcDbEntity
  8
1
100
AcDbLine
  6
CONTINUOUS
 62
7
 10
3.349456E+002
 20
1.1216089E+002
 11
3.427456E+002
 21
1.1216089E+002
  0
ARC
  5
55a
100
AcDbEntity
  8
1
100
AcDbCircle
  6
CONTINUOUS
 62
7
 10
3.349456E+002
 20
1.1116089E+002
 40
1.0
100
AcDbArc
 50
9.0E+001
 51
1.8E+002
  0
ARC
  5
55b
100
AcDbEntity
  8
1
100
AcDbCircle
  6
CONTINUOUS
 62
7
 10
3.427456E+002
 20
1.1116089E+002
 40
1.0
100
AcDbArc
 50
0.0
 51
9.0E+001
  0
ARC
  5
55c
100
AcDbEntity
  8
1
100
AcDbCircle
  6
CONTINUOUS
 62
7
 10
3.444706E+002
 20
1.2640089E+002
 40
1.0
100
AcDbArc
 50
1.8E+002
 51
2.7E+002
  0
ARC
  5
55d
100
AcDbEntity
  8
1
100
AcDbCircle
  6
CONTINUOUS
 62
7
 10
3.522706E+002
 20
1.2640089E+002
 40
1.0
100
AcDbArc
 50
2.7E+002
 51
3.6E+002
  0
ARC
  5
55e
100
AcDbEntity
  8
1
100
AcDbCircle
  6
CONTINUOUS
 62
7
 10
3.202956E+002
 20
1.1266089E+002
 40
5.0E-001
100
AcDbArc
 50
1.8E+002
 51
2.7E+002
  0
ARC
  5
55f
100
AcDbEntity
  8
1
100
AcDbCircle
  6
CONTINUOUS
 62
7
 10
3.236956E+002
 20
1.1116089E+002
 40
1.0
100
AcDbArc
 50
0.0
 51
9.0E+001
  0
LINE
  5
560
100
AcDbEntity
  8
1
100
AcDbLine
  6
CONTINUOUS
 62
7
 10
3.244206E+002
 20
1.3089964E+002
 11
3.244206E+002
 21
1.2640089E+002
  0
LINE
  5
561
100
AcDbEntity
  8
1
100
AcDbLine
  6
CONTINUOUS
 62
7
 10
3.342206E+002
 20
1.3089964E+002
 11
3.342206E+002
 21
1.2640089E+002
  0
LINE
  5
562
100
AcDbEntity
  8
1
100
AcDbLine
  6
CONTINUOUS
 62
7
 10
3.434706E+002
 20
1.3089964E+002
 11
3.434706E+002
 21
1.2640089E+002
  0
LINE
  5
563
100
AcDbEntity
  8
1
100
AcDbLine
  6
CONTINUOUS
 62
7
 10
3.532706E+002
 20
1.3089964E+002
 11
3.532706E+002
 21
1.2640089E+002
  0
LINE
  5
564
100
AcDbEntity
  8
1
100
AcDbLine
  6
CONTINUOUS
 62
7
 10
3.339456E+002
 20
1.1116089E+002
 11
3.339456E+002
 21
1.0666214E+002
  0
LINE
  5
565
100
AcDbEntity
  8
1
100
AcDbLine
  6
CONTINUOUS
 62
7
 10
3.246956E+002
 20
1.1116089E+002
 11
3.246956E+002
 21
1.0666214E+002
  0
ARC
  5
566
100
AcDbEntity
  8
1
100
AcDbCircle
  6
CONTINUOUS
 62
7
 10
3.539956E+002
 20
1.1116089E+002
 40
1.0
100
AcDbArc
 50
9.0E+001
 51
1.8E+002
  0
LINE
  5
567
100
AcDbEntity
  8
1
100
AcDbLine
  6
CONTINUOUS
 62
7
 10
3.332206E+002
 20
1.2540089E+002
 11
3.254206E+002
 21
1.2540089E+002
  0
ARC
  5
568
100
AcDbEntity
  8
1
100
AcDbCircle
  6
CONTINUOUS
 62
7
 10
3.332206E+002
 20
1.2640089E+002
 40
1.0
100
AcDbArc
 50
2.7E+002
 51
3.6E+002
  0
ARC
  5
569
100
AcDbEntity
  8
1
100
AcDbCircle
  6
CONTINUOUS
 62
7
 10
3.254206E+002
 20
1.2640089E+002
 40
1.0
100
AcDbArc
 50
1.8E+002
 51
2.7E+002
  0
LINE
  5
56a
100
AcDbEntity
  8
1
100
AcDbLine
  6
CONTINUOUS
 62
7
 10
3.720456E+002
 20
1.1116089E+002
 11
3.720456E+002
 21
1.0666214E+002
  0
LINE
  5
56b
100
AcDbEntity
  8
1
100
AcDbLine
  6
CONTINUOUS
 62
7
 10
3.627956E+002
 20
1.1116089E+002
 11
3.627956E+002
 21
1.0666214E+002
  0
LINE
  5
56c
100
AcDbEntity
  8
1
100
AcDbLine
  6
CONTINUOUS
 62
7
 10
3.635206E+002
 20
1.2540089E+002
 11
3.713206E+002
 21
1.2540089E+002
  0
ARC
  5
56d
100
AcDbEntity
  8
1
100
AcDbCircle
  6
CONTINUOUS
 62
7
 10
3.617956E+002
 20
1.1116089E+002
 40
1.0
100
AcDbArc
 50
0.0
 51
9.0E+001
  0
ARC
  5
56e
100
AcDbEntity
  8
1
100
AcDbCircle
  6
CONTINUOUS
 62
7
 10
3.635206E+002
 20
1.2640089E+002
 40
1.0
100
AcDbArc
 50
1.8E+002
 51
2.7E+002
  0
ARC
  5
56f
100
AcDbEntity
  8
1
100
AcDbCircle
  6
CONTINUOUS
 62
7
 10
3.713206E+002
 20
1.2640089E+002
 40
1.0
100
AcDbArc
 50
2.7E+002
 51
3.6E+002
  0
LINE
  5
570
100
AcDbEntity
  8
1
100
AcDbLine
  6
CONTINUOUS
 62
7
 10
3.625206E+002
 20
1.3089964E+002
 11
3.625206E+002
 21
1.2640089E+002
  0
LINE
  5
571
100
AcDbEntity
  8
1
100
AcDbLine
  6
CONTINUOUS
 62
7
 10
3.723206E+002
 20
1.3089964E+002
 11
3.723206E+002
 21
1.2640089E+002
  0
ARC
  5
572
100
AcDbEntity
  8
1
100
AcDbCircle
  6
CONTINUOUS
 62
7
 10
3.730456E+002
 20
1.1116089E+002
 40
1.0
100
AcDbArc
 50
9.0E+001
 51
1.8E+002
  0
LINE
  5
573
100
AcDbEntity
  8
1
100
AcDbLine
  6
CONTINUOUS
 62
7
 10
3.539956E+002
 20
1.1216089E+002
 11
3.617956E+002
 21
1.1216089E+002
  0
LINE
  5
574
100
AcDbEntity
  8
1
100
AcDbLine
  6
CONTINUOUS
 62
7
 10
3.910956E+002
 20
1.1116089E+002
 11
3.910956E+002
 21
1.0666214E+002
  0
LINE
  5
575
100
AcDbEntity
  8
1
100
AcDbLine
  6
CONTINUOUS
 62
7
 10
3.818456E+002
 20
1.1116089E+002
 11
3.818456E+002
 21
1.0666214E+002
  0
LINE
  5
576
100
AcDbEntity
  8
1
100
AcDbLine
  6
CONTINUOUS
 62
7
 10
3.825706E+002
 20
1.2540089E+002
 11
3.903706E+002
 21
1.2540089E+002
  0
ARC
  5
577
100
AcDbEntity
  8
1
100
AcDbCircle
  6
CONTINUOUS
 62
7
 10
3.808456E+002
 20
1.1116089E+002
 40
1.0
100
AcDbArc
 50
0.0
 51
9.0E+001
  0
ARC
  5
578
100
AcDbEntity
  8
1
100
AcDbCircle
  6
CONTINUOUS
 62
7
 10
3.825706E+002
 20
1.2640089E+002
 40
1.0
100
AcDbArc
 50
1.8E+002
 51
2.7E+002
  0
ARC
  5
579
100
AcDbEntity
  8
1
100
AcDbCircle
  6
CONTINUOUS
 62
7
 10
3.903706E+002
 20
1.2640089E+002
 40
1.0
100
AcDbArc
 50
2.7E+002
 51
3.6E+002
  0
LINE
  5
57a
100
AcDbEntity
  8
1
100
AcDbLine
  6
CONTINUOUS
 62
7
 10
3.815706E+002
 20
1.3089964E+002
 11
3.815706E+002
 21
1.2640089E+002
  0
LINE
  5
57b
100
AcDbEntity
  8
1
100
AcDbLine
  6
CONTINUOUS
 62
7
 10
3.913706E+002
 20
1.3089964E+002
 11
3.913706E+002
 21
1.2640089E+002
  0
ARC
  5
57c
100
AcDbEntity
  8
1
100
AcDbCircle
  6
CONTINUOUS
 62
7
 10
3.920956E+002
 20
1.1116089E+002
 40
1.0
100
AcDbArc
 50
9.0E+001
 51
1.8E+002
  0
LINE
  5
57d
100
AcDbEntity
  8
1
100
AcDbLine
  6
CONTINUOUS
 62
7
 10
3.730456E+002
 20
1.1216089E+002
 11
3.808456E+002
 21
1.1216089E+002
  0
LINE
  5
57e
100
AcDbEntity
  8
1
100
AcDbLine
  6
CONTINUOUS
 62
7
 10
4.101456E+002
 20
1.1116089E+002
 11
4.101456E+002
 21
1.0666214E+002
  0
LINE
  5
57f
100
AcDbEntity
  8
1
100
AcDbLine
  6
CONTINUOUS
 62
7
 10
4.008956E+002
 20
1.1116089E+002
 11
4.008956E+002
 21
1.0666214E+002
  0
ARC
  5
580
100
AcDbEntity
  8
1
100
AcDbCircle
  6
CONTINUOUS
 62
7
 10
3.998956E+002
 20
1.1116089E+002
 40
1.0
100
AcDbArc
 50
0.0
 51
9.0E+001
  0
ARC
  5
581
100
AcDbEntity
  8
1
100
AcDbCircle
  6
CONTINUOUS
 62
7
 10
4.016206E+002
 20
1.2640089E+002
 40
1.0
100
AcDbArc
 50
1.8E+002
 51
2.7E+002
  0
ARC
  5
582
100
AcDbEntity
  8
1
100
AcDbCircle
  6
CONTINUOUS
 62
7
 10
4.094206E+002
 20
1.2640089E+002
 40
1.0
100
AcDbArc
 50
2.7E+002
 51
3.6E+002
  0
LINE
  5
583
100
AcDbEntity
  8
1
100
AcDbLine
  6
CONTINUOUS
 62
7
 10
4.006206E+002
 20
1.3089964E+002
 11
4.006206E+002
 21
1.2640089E+002
  0
LINE
  5
584
100
AcDbEntity
  8
1
100
AcDbLine
  6
CONTINUOUS
 62
7
 10
4.104206E+002
 20
1.3089964E+002
 11
4.104206E+002
 21
1.2640089E+002
  0
ARC
  5
585
100
AcDbEntity
  8
1
100
AcDbCircle
  6
CONTINUOUS
 62
7
 10
4.111456E+002
 20
1.1116089E+002
 40
1.0
100
AcDbArc
 50
9.0E+001
 51
1.8E+002
  0
LINE
  5
586
100
AcDbEntity
  8
1
100
AcDbLine
  6
CONTINUOUS
 62
7
 10
3.920956E+002
 20
1.1216089E+002
 11
3.998956E+002
 21
1.1216089E+002
  0
LINE
  5
587
100
AcDbEntity
  8
1
100
AcDbLine
  6
CONTINUOUS
 62
7
 10
4.291956E+002
 20
1.1116089E+002
 11
4.291956E+002
 21
1.0666214E+002
  0
LINE
  5
588
100
AcDbEntity
  8
1
100
AcDbLine
  6
CONTINUOUS
 62
7
 10
4.199456E+002
 20
1.1116089E+002
 11
4.199456E+002
 21
1.0666214E+002
  0
LINE
  5
589
100
AcDbEntity
  8
1
100
AcDbLine
  6
CONTINUOUS
 62
7
 10
4.206706E+002
 20
1.2540089E+002
 11
4.284706E+002
 21
1.2540089E+002
  0
ARC
  5
58a
100
AcDbEntity
  8
1
100
AcDbCircle
  6
CONTINUOUS
 62
7
 10
4.189456E+002
 20
1.1116089E+002
 40
1.0
100
AcDbArc
 50
0.0
 51
9.0E+001
  0
ARC
  5
58b
100
AcDbEntity
  8
1
100
AcDbCircle
  6
CONTINUOUS
 62
7
 10
4.206706E+002
 20
1.2640089E+002
 40
1.0
100
AcDbArc
 50
1.8E+002
 51
2.7E+002
  0
ARC
  5
58c
100
AcDbEntity
  8
1
100
AcDbCircle
  6
CONTINUOUS
 62
7
 10
4.284706E+002
 20
1.2640089E+002
 40
1.0
100
AcDbArc
 50
2.7E+002
 51
3.6E+002
  0
LINE
  5
58d
100
AcDbEntity
  8
1
100
AcDbLine
  6
CONTINUOUS
 62
7
 10
4.196706E+002
 20
1.3089964E+002
 11
4.196706E+002
 21
1.2640089E+002
  0
LINE
  5
58e
100
AcDbEntity
  8
1
100
AcDbLine
  6
CONTINUOUS
 62
7
 10
4.294706E+002
 20
1.3089964E+002
 11
4.294706E+002
 21
1.2640089E+002
  0
ARC
  5
58f
100
AcDbEntity
  8
1
100
AcDbCircle
  6
CONTINUOUS
 62
7
 10
4.301956E+002
 20
1.1116089E+002
 40
1.0
100
AcDbArc
 50
9.0E+001
 51
1.8E+002
  0
LINE
  5
590
100
AcDbEntity
  8
1
100
AcDbLine
  6
CONTINUOUS
 62
7
 10
4.111456E+002
 20
1.1216089E+002
 11
4.189456E+002
 21
1.1216089E+002
  0
LINE
  5
591
100
AcDbEntity
  8
1
100
AcDbLine
  6
CONTINUOUS
 62
7
 10
4.482456E+002
 20
1.1116089E+002
 11
4.482456E+002
 21
1.0666214E+002
  0
LINE
  5
592
100
AcDbEntity
  8
1
100
AcDbLine
  6
CONTINUOUS
 62
7
 10
4.389956E+002
 20
1.1116089E+002
 11
4.389956E+002
 21
1.0666214E+002
  0
LINE
  5
593
100
AcDbEntity
  8
1
100
AcDbLine
  6
CONTINUOUS
 62
7
 10
4.397206E+002
 20
1.2540089E+002
 11
4.475206E+002
 21
1.2540089E+002
  0
ARC
  5
594
100
AcDbEntity
  8
1
100
AcDbCircle
  6
CONTINUOUS
 62
7
 10
4.379956E+002
 20
1.1116089E+002
 40
1.0
100
AcDbArc
 50
0.0
 51
9.0E+001
  0
ARC
  5
595
100
AcDbEntity
  8
1
100
AcDbCircle
  6
CONTINUOUS
 62
7
 10
4.397206E+002
 20
1.2640089E+002
 40
1.0
100
AcDbArc
 50
1.8E+002
 51
2.7E+002
  0
ARC
  5
596
100
AcDbEntity
  8
1
100
AcDbCircle
  6
CONTINUOUS
 62
7
 10
4.475206E+002
 20
1.2640089E+002
 40
1.0
100
AcDbArc
 50
2.7E+002
 51
3.6E+002
  0
LINE
  5
597
100
AcDbEntity
  8
1
100
AcDbLine
  6
CONTINUOUS
 62
7
 10
4.387206E+002
 20
1.3089964E+002
 11
4.387206E+002
 21
1.2640089E+002
  0
LINE
  5
598
100
AcDbEntity
  8
1
100
AcDbLine
  6
CONTINUOUS
 62
7
 10
4.485206E+002
 20
1.3089964E+002
 11
4.485206E+002
 21
1.2640089E+002
  0
ARC
  5
599
100
AcDbEntity
  8
1
100
AcDbCircle
  6
CONTINUOUS
 62
7
 10
4.492456E+002
 20
1.1116089E+002
 40
1.0
100
AcDbArc
 50
9.0E+001
 51
1.8E+002
  0
LINE
  5
59a
100
AcDbEntity
  8
1
100
AcDbLine
  6
CONTINUOUS
 62
7
 10
4.301956E+002
 20
1.1216089E+002
 11
4.379956E+002
 21
1.1216089E+002
  0
LINE
  5
59b
100
AcDbEntity
  8
1
100
AcDbLine
  6
CONTINUOUS
 62
7
 10
4.672956E+002
 20
1.1116089E+002
 11
4.672956E+002
 21
1.0666214E+002
  0
LINE
  5
59c
100
AcDbEntity
  8
1
100
AcDbLine
  6
CONTINUOUS
 62
7
 10
4.580456E+002
 20
1.1116089E+002
 11
4.580456E+002
 21
1.0666214E+002
  0
LINE
  5
59d
100
AcDbEntity
  8
1
100
AcDbLine
  6
CONTINUOUS
 62
7
 10
4.587706E+002
 20
1.2540089E+002
 11
4.665706E+002
 21
1.2540089E+002
  0
ARC
  5
59e
100
AcDbEntity
  8
1
100
AcDbCircle
  6
CONTINUOUS
 62
7
 10
4.570456E+002
 20
1.1116089E+002
 40
1.0
100
AcDbArc
 50
0.0
 51
9.0E+001
  0
ARC
  5
59f
100
AcDbEntity
  8
1
100
AcDbCircle
  6
CONTINUOUS
 62
7
 10
4.587706E+002
 20
1.2640089E+002
 40
1.0
100
AcDbArc
 50
1.8E+002
 51
2.7E+002
  0
ARC
  5
5a0
100
AcDbEntity
  8
1
100
AcDbCircle
  6
CONTINUOUS
 62
7
 10
4.665706E+002
 20
1.2640089E+002
 40
1.0
100
AcDbArc
 50
2.7E+002
 51
3.6E+002
  0
LINE
  5
5a1
100
AcDbEntity
  8
1
100
AcDbLine
  6
CONTINUOUS
 62
7
 10
4.577706E+002
 20
1.3089964E+002
 11
4.577706E+002
 21
1.2640089E+002
  0
LINE
  5
5a2
100
AcDbEntity
  8
1
100
AcDbLine
  6
CONTINUOUS
 62
7
 10
4.675706E+002
 20
1.3089964E+002
 11
4.675706E+002
 21
1.2640089E+002
  0
ARC
  5
5a3
100
AcDbEntity
  8
1
100
AcDbCircle
  6
CONTINUOUS
 62
7
 10
4.682956E+002
 20
1.1116089E+002
 40
1.0
100
AcDbArc
 50
9.0E+001
 51
1.8E+002
  0
LINE
  5
5a4
100
AcDbEntity
  8
1
100
AcDbLine
  6
CONTINUOUS
 62
7
 10
4.492456E+002
 20
1.1216089E+002
 11
4.570456E+002
 21
1.1216089E+002
  0
LINE
  5
5a5
100
AcDbEntity
  8
1
100
AcDbLine
  6
CONTINUOUS
 62
7
 10
4.716956E+002
 20
1.1216089E+002
 11
4.682956E+002
 21
1.1216089E+002
  0
ARC
  5
5a6
100
AcDbEntity
  8
1
100
AcDbCircle
  6
CONTINUOUS
 62
7
 10
4.716956E+002
 20
1.1266089E+002
 40
5.0E-001
100
AcDbArc
 50
2.7E+002
 51
3.6E+002
  0
LINE
  5
5a7
100
AcDbEntity
  8
1
100
AcDbLine
  6
CONTINUOUS
 62
7
 10
4.016206E+002
 20
1.2540089E+002
 11
4.094206E+002
 21
1.2540089E+002
  0
ARC
  5
5a8
100
AcDbEntity
  8
1
100
AcDbCircle
  6
CONTINUOUS
 62
7
 10
2.430956E+002
 20
1.3171089E+002
 40
5.0E-001
100
AcDbArc
 50
2.7E+002
 51
3.6E+002
  0
ARC
  5
5a9
100
AcDbEntity
  8
1
100
AcDbCircle
  6
CONTINUOUS
 62
7
 10
2.430956E+002
 20
1.5110089E+002
 40
5.0E-001
100
AcDbArc
 50
0.0
 51
9.0E+001
  0
LINE
  5
5aa
100
AcDbEntity
  8
1
100
AcDbLine
  6
CONTINUOUS
 62
7
 10
2.430956E+002
 20
1.5160089E+002
 11
2.394706E+002
 21
1.5160089E+002
  0
LINE
  5
5ab
100
AcDbEntity
  8
1
100
AcDbLine
  6
CONTINUOUS
 62
7
 10
1.243956E+002
 20
9.2110888E+001
 11
1.243956E+002
 21
8.6460888E+001
  0
LINE
  5
5ac
100
AcDbEntity
  8
1
100
AcDbLine
  6
CONTINUOUS
 62
7
 10
1.151456E+002
 20
9.2110888E+001
 11
1.151456E+002
 21
8.6460888E+001
  0
LINE
  5
5ad
100
AcDbEntity
  8
1
100
AcDbLine
  6
CONTINUOUS
 62
7
 10
9.1695604E+001
 20
9.3110888E+001
 11
9.5095604E+001
 21
9.3110888E+001
  0
LINE
  5
5ae
100
AcDbEntity
  8
1
100
AcDbLine
  6
CONTINUOUS
 62
7
 10
1.158706E+002
 20
1.0635089E+002
 11
1.236706E+002
 21
1.0635089E+002
  0
LINE
  5
5af
100
AcDbEntity
  8
1
100
AcDbLine
  6
CONTINUOUS
 62
7
 10
1.063456E+002
 20
9.3110888E+001
 11
1.141456E+002
 21
9.3110888E+001
  0
ARC
  5
5b0
100
AcDbEntity
  8
1
100
AcDbCircle
  6
CONTINUOUS
 62
7
 10
1.063456E+002
 20
9.2110888E+001
 40
1.0
100
AcDbArc
 50
9.0E+001
 51
1.8E+002
  0
ARC
  5
5b1
100
AcDbEntity
  8
1
100
AcDbCircle
  6
CONTINUOUS
 62
7
 10
1.141456E+002
 20
9.2110888E+001
 40
1.0
100
AcDbArc
 50
0.0
 51
9.0E+001
  0
ARC
  5
5b2
100
AcDbEntity
  8
1
100
AcDbCircle
  6
CONTINUOUS
 62
7
 10
1.158706E+002
 20
1.0735089E+002
 40
1.0
100
AcDbArc
 50
1.8E+002
 51
2.7E+002
  0
ARC
  5
5b3
100
AcDbEntity
  8
1
100
AcDbCircle
  6
CONTINUOUS
 62
7
 10
1.236706E+002
 20
1.0735089E+002
 40
1.0
100
AcDbArc
 50
2.7E+002
 51
3.6E+002
  0
ARC
  5
5b4
100
AcDbEntity
  8
1
100
AcDbCircle
  6
CONTINUOUS
 62
7
 10
9.1695604E+001
 20
9.3610888E+001
 40
5.0E-001
100
AcDbArc
 50
1.8E+002
 51
2.7E+002
  0
ARC
  5
5b5
100
AcDbEntity
  8
1
100
AcDbCircle
  6
CONTINUOUS
 62
7
 10
9.5095604E+001
 20
9.2110888E+001
 40
1.0
100
AcDbArc
 50
0.0
 51
9.0E+001
  0
LINE
  5
5b6
100
AcDbEntity
  8
1
100
AcDbLine
  6
CONTINUOUS
 62
7
 10
9.5820604E+001
 20
1.1184964E+002
 11
9.5820604E+001
 21
1.0735089E+002
  0
LINE
  5
5b7
100
AcDbEntity
  8
1
100
AcDbLine
  6
CONTINUOUS
 62
7
 10
1.056206E+002
 20
1.1184964E+002
 11
1.056206E+002
 21
1.0735089E+002
  0
LINE
  5
5b8
100
AcDbEntity
  8
1
100
AcDbLine
  6
CONTINUOUS
 62
7
 10
1.148706E+002
 20
1.1184964E+002
 11
1.148706E+002
 21
1.0735089E+002
  0
LINE
  5
5b9
100
AcDbEntity
  8
1
100
AcDbLine
  6
CONTINUOUS
 62
7
 10
1.246706E+002
 20
1.1184964E+002
 11
1.246706E+002
 21
1.0735089E+002
  0
LINE
  5
5ba
100
AcDbEntity
  8
1
100
AcDbLine
  6
CONTINUOUS
 62
7
 10
1.053456E+002
 20
9.2110888E+001
 11
1.053456E+002
 21
8.6460888E+001
  0
LINE
  5
5bb
100
AcDbEntity
  8
1
100
AcDbLine
  6
CONTINUOUS
 62
7
 10
9.6095604E+001
 20
9.2110888E+001
 11
9.6095604E+001
 21
8.6460888E+001
  0
ARC
  5
5bc
100
AcDbEntity
  8
1
100
AcDbCircle
  6
CONTINUOUS
 62
7
 10
1.253956E+002
 20
9.2110888E+001
 40
1.0
100
AcDbArc
 50
9.0E+001
 51
1.8E+002
  0
LINE
  5
5bd
100
AcDbEntity
  8
1
100
AcDbLine
  6
CONTINUOUS
 62
7
 10
1.046206E+002
 20
1.0635089E+002
 11
9.6820604E+001
 21
1.0635089E+002
  0
ARC
  5
5be
100
AcDbEntity
  8
1
100
AcDbCircle
  6
CONTINUOUS
 62
7
 10
1.046206E+002
 20
1.0735089E+002
 40
1.0
100
AcDbArc
 50
2.7E+002
 51
3.6E+002
  0
ARC
  5
5bf
100
AcDbEntity
  8
1
100
AcDbCircle
  6
CONTINUOUS
 62
7
 10
9.6820604E+001
 20
1.0735089E+002
 40
1.0
100
AcDbArc
 50
1.8E+002
 51
2.7E+002
  0
LINE
  5
5c0
100
AcDbEntity
  8
1
100
AcDbLine
  6
CONTINUOUS
 62
7
 10
1.434456E+002
 20
9.2110888E+001
 11
1.434456E+002
 21
8.6460888E+001
  0
LINE
  5
5c1
100
AcDbEntity
  8
1
100
AcDbLine
  6
CONTINUOUS
 62
7
 10
1.341956E+002
 20
9.2110888E+001
 11
1.341956E+002
 21
8.6460888E+001
  0
LINE
  5
5c2
100
AcDbEntity
  8
1
100
AcDbLine
  6
CONTINUOUS
 62
7
 10
1.349206E+002
 20
1.0635089E+002
 11
1.427206E+002
 21
1.0635089E+002
  0
ARC
  5
5c3
100
AcDbEntity
  8
1
100
AcDbCircle
  6
CONTINUOUS
 62
7
 10
1.331956E+002
 20
9.2110888E+001
 40
1.0
100
AcDbArc
 50
0.0
 51
9.0E+001
  0
ARC
  5
5c4
100
AcDbEntity
  8
1
100
AcDbCircle
  6
CONTINUOUS
 62
7
 10
1.349206E+002
 20
1.0735089E+002
 40
1.0
100
AcDbArc
 50
1.8E+002
 51
2.7E+002
  0
ARC
  5
5c5
100
AcDbEntity
  8
1
100
AcDbCircle
  6
CONTINUOUS
 62
7
 10
1.427206E+002
 20
1.0735089E+002
 40
1.0
100
AcDbArc
 50
2.7E+002
 51
3.6E+002
  0
LINE
  5
5c6
100
AcDbEntity
  8
1
100
AcDbLine
  6
CONTINUOUS
 62
7
 10
1.339206E+002
 20
1.1184964E+002
 11
1.339206E+002
 21
1.0735089E+002
  0
LINE
  5
5c7
100
AcDbEntity
  8
1
100
AcDbLine
  6
CONTINUOUS
 62
7
 10
1.437206E+002
 20
1.1184964E+002
 11
1.437206E+002
 21
1.0735089E+002
  0
ARC
  5
5c8
100
AcDbEntity
  8
1
100
AcDbCircle
  6
CONTINUOUS
 62
7
 10
1.444456E+002
 20
9.2110888E+001
 40
1.0
100
AcDbArc
 50
9.0E+001
 51
1.8E+002
  0
LINE
  5
5c9
100
AcDbEntity
  8
1
100
AcDbLine
  6
CONTINUOUS
 62
7
 10
1.253956E+002
 20
9.3110888E+001
 11
1.331956E+002
 21
9.3110888E+001
  0
LINE
  5
5ca
100
AcDbEntity
  8
1
100
AcDbLine
  6
CONTINUOUS
 62
7
 10
1.624956E+002
 20
9.2110888E+001
 11
1.624956E+002
 21
8.6460888E+001
  0
LINE
  5
5cb
100
AcDbEntity
  8
1
100
AcDbLine
  6
CONTINUOUS
 62
7
 10
1.532456E+002
 20
9.2110888E+001
 11
1.532456E+002
 21
8.6460888E+001
  0
LINE
  5
5cc
100
AcDbEntity
  8
1
100
AcDbLine
  6
CONTINUOUS
 62
7
 10
1.539706E+002
 20
1.0635089E+002
 11
1.617706E+002
 21
1.0635089E+002
  0
ARC
  5
5cd
100
AcDbEntity
  8
1
100
AcDbCircle
  6
CONTINUOUS
 62
7
 10
1.522456E+002
 20
9.2110888E+001
 40
1.0
100
AcDbArc
 50
0.0
 51
9.0E+001
  0
ARC
  5
5ce
100
AcDbEntity
  8
1
100
AcDbCircle
  6
CONTINUOUS
 62
7
 10
1.539706E+002
 20
1.0735089E+002
 40
1.0
100
AcDbArc
 50
1.8E+002
 51
2.7E+002
  0
ARC
  5
5cf
100
AcDbEntity
  8
1
100
AcDbCircle
  6
CONTINUOUS
 62
7
 10
1.617706E+002
 20
1.0735089E+002
 40
1.0
100
AcDbArc
 50
2.7E+002
 51
3.6E+002
  0
LINE
  5
5d0
100
AcDbEntity
  8
1
100
AcDbLine
  6
CONTINUOUS
 62
7
 10
1.529706E+002
 20
1.1184964E+002
 11
1.529706E+002
 21
1.0735089E+002
  0
LINE
  5
5d1
100
AcDbEntity
  8
1
100
AcDbLine
  6
CONTINUOUS
 62
7
 10
1.627706E+002
 20
1.1184964E+002
 11
1.627706E+002
 21
1.0735089E+002
  0
ARC
  5
5d2
100
AcDbEntity
  8
1
100
AcDbCircle
  6
CONTINUOUS
 62
7
 10
1.634956E+002
 20
9.2110888E+001
 40
1.0
100
AcDbArc
 50
9.0E+001
 51
1.8E+002
  0
LINE
  5
5d3
100
AcDbEntity
  8
1
100
AcDbLine
  6
CONTINUOUS
 62
7
 10
1.444456E+002
 20
9.3110888E+001
 11
1.522456E+002
 21
9.3110888E+001
  0
LINE
  5
5d4
100
AcDbEntity
  8
1
100
AcDbLine
  6
CONTINUOUS
 62
7
 10
1.815456E+002
 20
9.2110888E+001
 11
1.815456E+002
 21
8.6460888E+001
  0
LINE
  5
5d5
100
AcDbEntity
  8
1
100
AcDbLine
  6
CONTINUOUS
 62
7
 10
1.722956E+002
 20
9.2110888E+001
 11
1.722956E+002
 21
8.6460888E+001
  0
LINE
  5
5d6
100
AcDbEntity
  8
1
100
AcDbLine
  6
CONTINUOUS
 62
7
 10
1.730206E+002
 20
1.0635089E+002
 11
1.808206E+002
 21
1.0635089E+002
  0
ARC
  5
5d7
100
AcDbEntity
  8
1
100
AcDbCircle
  6
CONTINUOUS
 62
7
 10
1.712956E+002
 20
9.2110888E+001
 40
1.0
100
AcDbArc
 50
0.0
 51
9.0E+001
  0
ARC
  5
5d8
100
AcDbEntity
  8
1
100
AcDbCircle
  6
CONTINUOUS
 62
7
 10
1.730206E+002
 20
1.0735089E+002
 40
1.0
100
AcDbArc
 50
1.8E+002
 51
2.7E+002
  0
ARC
  5
5d9
100
AcDbEntity
  8
1
100
AcDbCircle
  6
CONTINUOUS
 62
7
 10
1.808206E+002
 20
1.0735089E+002
 40
1.0
100
AcDbArc
 50
2.7E+002
 51
3.6E+002
  0
LINE
  5
5da
100
AcDbEntity
  8
1
100
AcDbLine
  6
CONTINUOUS
 62
7
 10
1.720206E+002
 20
1.1184964E+002
 11
1.720206E+002
 21
1.0735089E+002
  0
LINE
  5
5db
100
AcDbEntity
  8
1
100
AcDbLine
  6
CONTINUOUS
 62
7
 10
1.818206E+002
 20
1.1184964E+002
 11
1.818206E+002
 21
1.0735089E+002
  0
ARC
  5
5dc
100
AcDbEntity
  8
1
100
AcDbCircle
  6
CONTINUOUS
 62
7
 10
1.825456E+002
 20
9.2110888E+001
 40
1.0
100
AcDbArc
 50
9.0E+001
 51
1.8E+002
  0
LINE
  5
5dd
100
AcDbEntity
  8
1
100
AcDbLine
  6
CONTINUOUS
 62
7
 10
1.634956E+002
 20
9.3110888E+001
 11
1.712956E+002
 21
9.3110888E+001
  0
LINE
  5
5de
100
AcDbEntity
  8
1
100
AcDbLine
  6
CONTINUOUS
 62
7
 10
2.005956E+002
 20
9.2110888E+001
 11
2.005956E+002
 21
8.6460888E+001
  0
LINE
  5
5df
100
AcDbEntity
  8
1
100
AcDbLine
  6
CONTINUOUS
 62
7
 10
1.913456E+002
 20
9.2110888E+001
 11
1.913456E+002
 21
8.6460888E+001
  0
LINE
  5
5e0
100
AcDbEntity
  8
1
100
AcDbLine
  6
CONTINUOUS
 62
7
 10
1.920706E+002
 20
1.0635089E+002
 11
1.998706E+002
 21
1.0635089E+002
  0
ARC
  5
5e1
100
AcDbEntity
  8
1
100
AcDbCircle
  6
CONTINUOUS
 62
7
 10
1.903456E+002
 20
9.2110888E+001
 40
1.0
100
AcDbArc
 50
0.0
 51
9.0E+001
  0
ARC
  5
5e2
100
AcDbEntity
  8
1
100
AcDbCircle
  6
CONTINUOUS
 62
7
 10
1.920706E+002
 20
1.0735089E+002
 40
1.0
100
AcDbArc
 50
1.8E+002
 51
2.7E+002
  0
ARC
  5
5e3
100
AcDbEntity
  8
1
100
AcDbCircle
  6
CONTINUOUS
 62
7
 10
1.998706E+002
 20
1.0735089E+002
 40
1.0
100
AcDbArc
 50
2.7E+002
 51
3.6E+002
  0
LINE
  5
5e4
100
AcDbEntity
  8
1
100
AcDbLine
  6
CONTINUOUS
 62
7
 10
1.910706E+002
 20
1.1184964E+002
 11
1.910706E+002
 21
1.0735089E+002
  0
LINE
  5
5e5
100
AcDbEntity
  8
1
100
AcDbLine
  6
CONTINUOUS
 62
7
 10
2.008706E+002
 20
1.1184964E+002
 11
2.008706E+002
 21
1.0735089E+002
  0
ARC
  5
5e6
100
AcDbEntity
  8
1
100
AcDbCircle
  6
CONTINUOUS
 62
7
 10
2.015956E+002
 20
9.2110888E+001
 40
1.0
100
AcDbArc
 50
9.0E+001
 51
1.8E+002
  0
LINE
  5
5e7
100
AcDbEntity
  8
1
100
AcDbLine
  6
CONTINUOUS
 62
7
 10
1.825456E+002
 20
9.3110888E+001
 11
1.903456E+002
 21
9.3110888E+001
  0
LINE
  5
5e8
100
AcDbEntity
  8
1
100
AcDbLine
  6
CONTINUOUS
 62
7
 10
2.196456E+002
 20
9.2110888E+001
 11
2.196456E+002
 21
8.6460888E+001
  0
LINE
  5
5e9
100
AcDbEntity
  8
1
100
AcDbLine
  6
CONTINUOUS
 62
7
 10
2.103956E+002
 20
9.2110888E+001
 11
2.103956E+002
 21
8.6460888E+001
  0
LINE
  5
5ea
100
AcDbEntity
  8
1
100
AcDbLine
  6
CONTINUOUS
 62
7
 10
2.111206E+002
 20
1.0635089E+002
 11
2.189206E+002
 21
1.0635089E+002
  0
ARC
  5
5eb
100
AcDbEntity
  8
1
100
AcDbCircle
  6
CONTINUOUS
 62
7
 10
2.093956E+002
 20
9.2110888E+001
 40
1.0
100
AcDbArc
 50
0.0
 51
9.0E+001
  0
ARC
  5
5ec
100
AcDbEntity
  8
1
100
AcDbCircle
  6
CONTINUOUS
 62
7
 10
2.111206E+002
 20
1.0735089E+002
 40
1.0
100
AcDbArc
 50
1.8E+002
 51
2.7E+002
  0
ARC
  5
5ed
100
AcDbEntity
  8
1
100
AcDbCircle
  6
CONTINUOUS
 62
7
 10
2.189206E+002
 20
1.0735089E+002
 40
1.0
100
AcDbArc
 50
2.7E+002
 51
3.6E+002
  0
LINE
  5
5ee
100
AcDbEntity
  8
1
100
AcDbLine
  6
CONTINUOUS
 62
7
 10
2.101206E+002
 20
1.1184964E+002
 11
2.101206E+002
 21
1.0735089E+002
  0
LINE
  5
5ef
100
AcDbEntity
  8
1
100
AcDbLine
  6
CONTINUOUS
 62
7
 10
2.199206E+002
 20
1.1179941E+002
 11
2.199206E+002
 21
1.0735089E+002
  0
ARC
  5
5f0
100
AcDbEntity
  8
1
100
AcDbCircle
  6
CONTINUOUS
 62
7
 10
2.206456E+002
 20
9.2110888E+001
 40
1.0
100
AcDbArc
 50
9.0E+001
 51
1.8E+002
  0
LINE
  5
5f1
100
AcDbEntity
  8
1
100
AcDbLine
  6
CONTINUOUS
 62
7
 10
2.015956E+002
 20
9.3110888E+001
 11
2.093956E+002
 21
9.3110888E+001
  0
LINE
  5
5f2
100
AcDbEntity
  8
1
100
AcDbLine
  6
CONTINUOUS
 62
7
 10
2.386956E+002
 20
9.2110888E+001
 11
2.386956E+002
 21
8.6460888E+001
  0
LINE
  5
5f3
100
AcDbEntity
  8
1
100
AcDbLine
  6
CONTINUOUS
 62
7
 10
2.294456E+002
 20
9.2110888E+001
 11
2.294456E+002
 21
8.6460888E+001
  0
LINE
  5
5f4
100
AcDbEntity
  8
1
100
AcDbLine
  6
CONTINUOUS
 62
7
 10
2.301706E+002
 20
1.0635089E+002
 11
2.379706E+002
 21
1.0635089E+002
  0
ARC
  5
5f5
100
AcDbEntity
  8
1
100
AcDbCircle
  6
CONTINUOUS
 62
7
 10
2.284456E+002
 20
9.2110888E+001
 40
1.0
100
AcDbArc
 50
0.0
 51
9.0E+001
  0
ARC
  5
5f6
100
AcDbEntity
  8
1
100
AcDbCircle
  6
CONTINUOUS
 62
7
 10
2.301706E+002
 20
1.0735089E+002
 40
1.0
100
AcDbArc
 50
1.8E+002
 51
2.7E+002
  0
ARC
  5
5f7
100
AcDbEntity
  8
1
100
AcDbCircle
  6
CONTINUOUS
 62
7
 10
2.379706E+002
 20
1.0735089E+002
 40
1.0
100
AcDbArc
 50
2.7E+002
 51
3.6E+002
  0
LINE
  5
5f8
100
AcDbEntity
  8
1
100
AcDbLine
  6
CONTINUOUS
 62
7
 10
2.291706E+002
 20
1.1184964E+002
 11
2.291706E+002
 21
1.0735089E+002
  0
LINE
  5
5f9
100
AcDbEntity
  8
1
100
AcDbLine
  6
CONTINUOUS
 62
7
 10
2.389706E+002
 20
1.1184964E+002
 11
2.389706E+002
 21
1.0735089E+002
  0
ARC
  5
5fa
100
AcDbEntity
  8
1
100
AcDbCircle
  6
CONTINUOUS
 62
7
 10
2.396956E+002
 20
9.2110888E+001
 40
1.0
100
AcDbArc
 50
9.0E+001
 51
1.8E+002
  0
LINE
  5
5fb
100
AcDbEntity
  8
1
100
AcDbLine
  6
CONTINUOUS
 62
7
 10
2.206456E+002
 20
9.3110888E+001
 11
2.284456E+002
 21
9.3110888E+001
  0
LINE
  5
5fc
100
AcDbEntity
  8
1
100
AcDbLine
  6
CONTINUOUS
 62
7
 10
2.430956E+002
 20
9.3110888E+001
 11
2.396956E+002
 21
9.3110888E+001
  0
ARC
  5
5fd
100
AcDbEntity
  8
1
100
AcDbCircle
  6
CONTINUOUS
 62
7
 10
2.430956E+002
 20
9.3610888E+001
 40
5.0E-001
100
AcDbArc
 50
2.7E+002
 51
3.6E+002
  0
LINE
  5
5fe
100
AcDbEntity
  8
1
100
AcDbLine
  6
CONTINUOUS
 62
7
 10
9.1195604E+001
 20
9.3610888E+001
 11
9.1195604E+001
 21
1.1266089E+002
  0
LINE
  5
5ff
100
AcDbEntity
  8
1
100
AcDbLine
  6
CONTINUOUS
 62
7
 10
1.243956E+002
 20
1.1116089E+002
 11
1.243956E+002
 21
1.0666214E+002
  0
LINE
  5
600
100
AcDbEntity
  8
1
100
AcDbLine
  6
CONTINUOUS
 62
7
 10
1.151456E+002
 20
1.1116089E+002
 11
1.151456E+002
 21
1.0666214E+002
  0
LINE
  5
601
100
AcDbEntity
  8
1
100
AcDbLine
  6
CONTINUOUS
 62
7
 10
9.1695604E+001
 20
1.1216089E+002
 11
9.5095604E+001
 21
1.1216089E+002
  0
LINE
  5
602
100
AcDbEntity
  8
1
100
AcDbLine
  6
CONTINUOUS
 62
7
 10
1.158706E+002
 20
1.2540089E+002
 11
1.236706E+002
 21
1.2540089E+002
  0
LINE
  5
603
100
AcDbEntity
  8
1
100
AcDbLine
  6
CONTINUOUS
 62
7
 10
1.063456E+002
 20
1.1216089E+002
 11
1.141456E+002
 21
1.1216089E+002
  0
ARC
  5
604
100
AcDbEntity
  8
1
100
AcDbCircle
  6
CONTINUOUS
 62
7
 10
1.063456E+002
 20
1.1116089E+002
 40
1.0
100
AcDbArc
 50
9.0E+001
 51
1.8E+002
  0
ARC
  5
605
100
AcDbEntity
  8
1
100
AcDbCircle
  6
CONTINUOUS
 62
7
 10
1.141456E+002
 20
1.1116089E+002
 40
1.0
100
AcDbArc
 50
0.0
 51
9.0E+001
  0
ARC
  5
606
100
AcDbEntity
  8
1
100
AcDbCircle
  6
CONTINUOUS
 62
7
 10
1.158706E+002
 20
1.2640089E+002
 40
1.0
100
AcDbArc
 50
1.8E+002
 51
2.7E+002
  0
ARC
  5
607
100
AcDbEntity
  8
1
100
AcDbCircle
  6
CONTINUOUS
 62
7
 10
1.236706E+002
 20
1.2640089E+002
 40
1.0
100
AcDbArc
 50
2.7E+002
 51
3.6E+002
  0
ARC
  5
608
100
AcDbEntity
  8
1
100
AcDbCircle
  6
CONTINUOUS
 62
7
 10
9.1695604E+001
 20
1.1266089E+002
 40
5.0E-001
100
AcDbArc
 50
1.8E+002
 51
2.7E+002
  0
ARC
  5
609
100
AcDbEntity
  8
1
100
AcDbCircle
  6
CONTINUOUS
 62
7
 10
9.5095604E+001
 20
1.1116089E+002
 40
1.0
100
AcDbArc
 50
0.0
 51
9.0E+001
  0
LINE
  5
60a
100
AcDbEntity
  8
1
100
AcDbLine
  6
CONTINUOUS
 62
7
 10
9.5820604E+001
 20
1.3089964E+002
 11
9.5820604E+001
 21
1.2640089E+002
  0
LINE
  5
60b
100
AcDbEntity
  8
1
100
AcDbLine
  6
CONTINUOUS
 62
7
 10
1.056206E+002
 20
1.3089964E+002
 11
1.056206E+002
 21
1.2640089E+002
  0
LINE
  5
60c
100
AcDbEntity
  8
1
100
AcDbLine
  6
CONTINUOUS
 62
7
 10
1.148706E+002
 20
1.3089964E+002
 11
1.148706E+002
 21
1.2640089E+002
  0
LINE
  5
60d
100
AcDbEntity
  8
1
100
AcDbLine
  6
CONTINUOUS
 62
7
 10
1.246706E+002
 20
1.3089964E+002
 11
1.246706E+002
 21
1.2640089E+002
  0
LINE
  5
60e
100
AcDbEntity
  8
1
100
AcDbLine
  6
CONTINUOUS
 62
7
 10
1.053456E+002
 20
1.1116089E+002
 11
1.053456E+002
 21
1.0666214E+002
  0
LINE
  5
60f
100
AcDbEntity
  8
1
100
AcDbLine
  6
CONTINUOUS
 62
7
 10
9.6095604E+001
 20
1.1116089E+002
 11
9.6095604E+001
 21
1.0666214E+002
  0
ARC
  5
610
100
AcDbEntity
  8
1
100
AcDbCircle
  6
CONTINUOUS
 62
7
 10
1.253956E+002
 20
1.1116089E+002
 40
1.0
100
AcDbArc
 50
9.0E+001
 51
1.8E+002
  0
LINE
  5
611
100
AcDbEntity
  8
1
100
AcDbLine
  6
CONTINUOUS
 62
7
 10
1.046206E+002
 20
1.2540089E+002
 11
9.6820604E+001
 21
1.2540089E+002
  0
ARC
  5
612
100
AcDbEntity
  8
1
100
AcDbCircle
  6
CONTINUOUS
 62
7
 10
1.046206E+002
 20
1.2640089E+002
 40
1.0
100
AcDbArc
 50
2.7E+002
 51
3.6E+002
  0
ARC
  5
613
100
AcDbEntity
  8
1
100
AcDbCircle
  6
CONTINUOUS
 62
7
 10
9.6820604E+001
 20
1.2640089E+002
 40
1.0
100
AcDbArc
 50
1.8E+002
 51
2.7E+002
  0
LINE
  5
614
100
AcDbEntity
  8
1
100
AcDbLine
  6
CONTINUOUS
 62
7
 10
1.434456E+002
 20
1.1116089E+002
 11
1.434456E+002
 21
1.0666214E+002
  0
LINE
  5
615
100
AcDbEntity
  8
1
100
AcDbLine
  6
CONTINUOUS
 62
7
 10
1.341956E+002
 20
1.1116089E+002
 11
1.341956E+002
 21
1.0666214E+002
  0
LINE
  5
616
100
AcDbEntity
  8
1
100
AcDbLine
  6
CONTINUOUS
 62
7
 10
1.349206E+002
 20
1.2540089E+002
 11
1.427206E+002
 21
1.2540089E+002
  0
ARC
  5
617
100
AcDbEntity
  8
1
100
AcDbCircle
  6
CONTINUOUS
 62
7
 10
1.331956E+002
 20
1.1116089E+002
 40
1.0
100
AcDbArc
 50
0.0
 51
9.0E+001
  0
ARC
  5
618
100
AcDbEntity
  8
1
100
AcDbCircle
  6
CONTINUOUS
 62
7
 10
1.349206E+002
 20
1.2640089E+002
 40
1.0
100
AcDbArc
 50
1.8E+002
 51
2.7E+002
  0
ARC
  5
619
100
AcDbEntity
  8
1
100
AcDbCircle
  6
CONTINUOUS
 62
7
 10
1.427206E+002
 20
1.2640089E+002
 40
1.0
100
AcDbArc
 50
2.7E+002
 51
3.6E+002
  0
LINE
  5
61a
100
AcDbEntity
  8
1
100
AcDbLine
  6
CONTINUOUS
 62
7
 10
1.339206E+002
 20
1.3089964E+002
 11
1.339206E+002
 21
1.2640089E+002
  0
LINE
  5
61b
100
AcDbEntity
  8
1
100
AcDbLine
  6
CONTINUOUS
 62
7
 10
1.437206E+002
 20
1.3089964E+002
 11
1.437206E+002
 21
1.2640089E+002
  0
ARC
  5
61c
100
AcDbEntity
  8
1
100
AcDbCircle
  6
CONTINUOUS
 62
7
 10
1.444456E+002
 20
1.1116089E+002
 40
1.0
100
AcDbArc
 50
9.0E+001
 51
1.8E+002
  0
LINE
  5
61d
100
AcDbEntity
  8
1
100
AcDbLine
  6
CONTINUOUS
 62
7
 10
1.253956E+002
 20
1.1216089E+002
 11
1.331956E+002
 21
1.1216089E+002
  0
LINE
  5
61e
100
AcDbEntity
  8
1
100
AcDbLine
  6
CONTINUOUS
 62
7
 10
1.532456E+002
 20
1.1116089E+002
 11
1.532456E+002
 21
1.0666214E+002
  0
ARC
  5
61f
100
AcDbEntity
  8
1
100
AcDbCircle
  6
CONTINUOUS
 62
7
 10
1.522456E+002
 20
1.1116089E+002
 40
1.0
100
AcDbArc
 50
0.0
 51
9.0E+001
  0
ARC
  5
620
100
AcDbEntity
  8
1
100
AcDbCircle
  6
CONTINUOUS
 62
7
 10
1.539706E+002
 20
1.2640089E+002
 40
1.0
100
AcDbArc
 50
1.8E+002
 51
2.7E+002
  0
LINE
  5
621
100
AcDbEntity
  8
1
100
AcDbLine
  6
CONTINUOUS
 62
7
 10
1.529706E+002
 20
1.3089964E+002
 11
1.529706E+002
 21
1.2640089E+002
  0
LINE
  5
622
100
AcDbEntity
  8
1
100
AcDbLine
  6
CONTINUOUS
 62
7
 10
1.444456E+002
 20
1.1216089E+002
 11
1.522456E+002
 21
1.1216089E+002
  0
LINE
  5
623
100
AcDbEntity
  8
1
100
AcDbLine
  6
CONTINUOUS
 62
7
 10
1.624956E+002
 20
1.1116089E+002
 11
1.624956E+002
 21
1.0666214E+002
  0
LINE
  5
624
100
AcDbEntity
  8
1
100
AcDbLine
  6
CONTINUOUS
 62
7
 10
1.539706E+002
 20
1.2540089E+002
 11
1.617706E+002
 21
1.2540089E+002
  0
ARC
  5
625
100
AcDbEntity
  8
1
100
AcDbCircle
  6
CONTINUOUS
 62
7
 10
1.617706E+002
 20
1.2640089E+002
 40
1.0
100
AcDbArc
 50
2.7E+002
 51
3.6E+002
  0
LINE
  5
626
100
AcDbEntity
  8
1
100
AcDbLine
  6
CONTINUOUS
 62
7
 10
1.627706E+002
 20
1.3089964E+002
 11
1.627706E+002
 21
1.2640089E+002
  0
ARC
  5
627
100
AcDbEntity
  8
1
100
AcDbCircle
  6
CONTINUOUS
 62
7
 10
1.634956E+002
 20
1.1116089E+002
 40
1.0
100
AcDbArc
 50
9.0E+001
 51
1.8E+002
  0
LINE
  5
628
100
AcDbEntity
  8
1
100
AcDbLine
  6
CONTINUOUS
 62
7
 10
1.668956E+002
 20
1.1216089E+002
 11
1.634956E+002
 21
1.1216089E+002
  0
ARC
  5
629
100
AcDbEntity
  8
1
100
AcDbCircle
  6
CONTINUOUS
 62
7
 10
1.668956E+002
 20
1.1266089E+002
 40
5.0E-001
100
AcDbArc
 50
2.7E+002
 51
3.6E+002
  0
LINE
  5
62a
100
AcDbEntity
  8
1
100
AcDbLine
  6
CONTINUOUS
 62
7
 10
1.156456E+002
 20
8.5960888E+001
 11
1.238956E+002
 21
8.5960888E+001
  0
ARC
  5
62b
100
AcDbEntity
  8
1
100
AcDbCircle
  6
CONTINUOUS
 62
7
 10
1.238956E+002
 20
8.6460888E+001
 40
5.0E-001
100
AcDbArc
 50
2.7E+002
 51
3.6E+002
  0
ARC
  5
62c
100
AcDbEntity
  8
1
100
AcDbCircle
  6
CONTINUOUS
 62
7
 10
1.156456E+002
 20
8.6460888E+001
 40
5.0E-001
100
AcDbArc
 50
1.8E+002
 51
2.7E+002
  0
LINE
  5
62d
100
AcDbEntity
  8
1
100
AcDbLine
  6
CONTINUOUS
 62
7
 10
9.6595604E+001
 20
8.5960888E+001
 11
1.048456E+002
 21
8.5960888E+001
  0
ARC
  5
62e
100
AcDbEntity
  8
1
100
AcDbCircle
  6
CONTINUOUS
 62
7
 10
1.048456E+002
 20
8.6460888E+001
 40
5.0E-001
100
AcDbArc
 50
2.7E+002
 51
3.6E+002
  0
ARC
  5
62f
100
AcDbEntity
  8
1
100
AcDbCircle
  6
CONTINUOUS
 62
7
 10
9.6595604E+001
 20
8.6460888E+001
 40
5.0E-001
100
AcDbArc
 50
1.8E+002
 51
2.7E+002
  0
LINE
  5
630
100
AcDbEntity
  8
1
100
AcDbLine
  6
CONTINUOUS
 62
7
 10
1.346956E+002
 20
8.5960888E+001
 11
1.429456E+002
 21
8.5960888E+001
  0
ARC
  5
631
100
AcDbEntity
  8
1
100
AcDbCircle
  6
CONTINUOUS
 62
7
 10
1.429456E+002
 20
8.6460888E+001
 40
5.0E-001
100
AcDbArc
 50
2.7E+002
 51
3.6E+002
  0
ARC
  5
632
100
AcDbEntity
  8
1
100
AcDbCircle
  6
CONTINUOUS
 62
7
 10
1.346956E+002
 20
8.6460888E+001
 40
5.0E-001
100
AcDbArc
 50
1.8E+002
 51
2.7E+002
  0
ARC
  5
633
100
AcDbEntity
  8
1
100
AcDbCircle
  6
CONTINUOUS
 62
7
 10
1.537456E+002
 20
8.6460888E+001
 40
5.0E-001
100
AcDbArc
 50
1.8E+002
 51
2.7E+002
  0
LINE
  5
634
100
AcDbEntity
  8
1
100
AcDbLine
  6
CONTINUOUS
 62
7
 10
1.537456E+002
 20
8.5960888E+001
 11
1.619956E+002
 21
8.5960888E+001
  0
ARC
  5
635
100
AcDbEntity
  8
1
100
AcDbCircle
  6
CONTINUOUS
 62
7
 10
1.619956E+002
 20
8.6460888E+001
 40
5.0E-001
100
AcDbArc
 50
2.7E+002
 51
3.6E+002
  0
LINE
  5
636
100
AcDbEntity
  8
1
100
AcDbLine
  6
CONTINUOUS
 62
7
 10
1.918456E+002
 20
8.5960888E+001
 11
2.000956E+002
 21
8.5960888E+001
  0
ARC
  5
637
100
AcDbEntity
  8
1
100
AcDbCircle
  6
CONTINUOUS
 62
7
 10
2.000956E+002
 20
8.6460888E+001
 40
5.0E-001
100
AcDbArc
 50
2.7E+002
 51
3.6E+002
  0
ARC
  5
638
100
AcDbEntity
  8
1
100
AcDbCircle
  6
CONTINUOUS
 62
7
 10
1.918456E+002
 20
8.6460888E+001
 40
5.0E-001
100
AcDbArc
 50
1.8E+002
 51
2.7E+002
  0
LINE
  5
639
100
AcDbEntity
  8
1
100
AcDbLine
  6
CONTINUOUS
 62
7
 10
1.727956E+002
 20
8.5960888E+001
 11
1.810456E+002
 21
8.5960888E+001
  0
ARC
  5
63a
100
AcDbEntity
  8
1
100
AcDbCircle
  6
CONTINUOUS
 62
7
 10
1.810456E+002
 20
8.6460888E+001
 40
5.0E-001
100
AcDbArc
 50
2.7E+002
 51
3.6E+002
  0
ARC
  5
63b
100
AcDbEntity
  8
1
100
AcDbCircle
  6
CONTINUOUS
 62
7
 10
1.727956E+002
 20
8.6460888E+001
 40
5.0E-001
100
AcDbArc
 50
1.8E+002
 51
2.7E+002
  0
LINE
  5
63c
100
AcDbEntity
  8
1
100
AcDbLine
  6
CONTINUOUS
 62
7
 10
2.108956E+002
 20
8.5960888E+001
 11
2.191456E+002
 21
8.5960888E+001
  0
ARC
  5
63d
100
AcDbEntity
  8
1
100
AcDbCircle
  6
CONTINUOUS
 62
7
 10
2.191456E+002
 20
8.6460888E+001
 40
5.0E-001
100
AcDbArc
 50
2.7E+002
 51
3.6E+002
  0
ARC
  5
63e
100
AcDbEntity
  8
1
100
AcDbCircle
  6
CONTINUOUS
 62
7
 10
2.108956E+002
 20
8.6460888E+001
 40
5.0E-001
100
AcDbArc
 50
1.8E+002
 51
2.7E+002
  0
ARC
  5
63f
100
AcDbEntity
  8
1
100
AcDbCircle
  6
CONTINUOUS
 62
7
 10
2.299456E+002
 20
8.6460888E+001
 40
5.0E-001
100
AcDbArc
 50
1.8E+002
 51
2.7E+002
  0
LINE
  5
640
100
AcDbEntity
  8
1
100
AcDbLine
  6
CONTINUOUS
 62
7
 10
2.299456E+002
 20
8.5960888E+001
 11
2.381956E+002
 21
8.5960888E+001
  0
ARC
  5
641
100
AcDbEntity
  8
1
100
AcDbCircle
  6
CONTINUOUS
 62
7
 10
2.381956E+002
 20
8.6460888E+001
 40
5.0E-001
100
AcDbArc
 50
2.7E+002
 51
3.6E+002
  0
LINE
  5
642
100
AcDbEntity
  8
1
100
AcDbLine
  6
CONTINUOUS
 62
7
 10
1.673956E+002
 20
1.3121089E+002
 11
1.673956E+002
 21
1.1266089E+002
  0
LINE
  5
643
100
AcDbEntity
  8
1
100
AcDbLine
  6
CONTINUOUS
 62
7
 10
5.053956E+002
 20
1.1116089E+002
 11
5.053956E+002
 21
1.0666214E+002
  0
LINE
  5
644
100
AcDbEntity
  8
1
100
AcDbLine
  6
CONTINUOUS
 62
7
 10
4.961456E+002
 20
1.1116089E+002
 11
4.961456E+002
 21
1.0666214E+002
  0
LINE
  5
645
100
AcDbEntity
  8
1
100
AcDbLine
  6
CONTINUOUS
 62
7
 10
4.726956E+002
 20
1.1216089E+002
 11
4.760956E+002
 21
1.1216089E+002
  0
LINE
  5
646
100
AcDbEntity
  8
1
100
AcDbLine
  6
CONTINUOUS
 62
7
 10
4.968706E+002
 20
1.2540089E+002
 11
5.046706E+002
 21
1.2540089E+002
  0
LINE
  5
647
100
AcDbEntity
  8
1
100
AcDbLine
  6
CONTINUOUS
 62
7
 10
4.873456E+002
 20
1.1216089E+002
 11
4.951456E+002
 21
1.1216089E+002
  0
ARC
  5
648
100
AcDbEntity
  8
1
100
AcDbCircle
  6
CONTINUOUS
 62
7
 10
4.873456E+002
 20
1.1116089E+002
 40
1.0
100
AcDbArc
 50
9.0E+001
 51
1.8E+002
  0
ARC
  5
649
100
AcDbEntity
  8
1
100
AcDbCircle
  6
CONTINUOUS
 62
7
 10
4.951456E+002
 20
1.1116089E+002
 40
1.0
100
AcDbArc
 50
0.0
 51
9.0E+001
  0
ARC
  5
64a
100
AcDbEntity
  8
1
100
AcDbCircle
  6
CONTINUOUS
 62
7
 10
4.968706E+002
 20
1.2640089E+002
 40
1.0
100
AcDbArc
 50
1.8E+002
 51
2.7E+002
  0
ARC
  5
64b
100
AcDbEntity
  8
1
100
AcDbCircle
  6
CONTINUOUS
 62
7
 10
5.046706E+002
 20
1.2640089E+002
 40
1.0
100
AcDbArc
 50
2.7E+002
 51
3.6E+002
  0
ARC
  5
64c
100
AcDbEntity
  8
1
100
AcDbCircle
  6
CONTINUOUS
 62
7
 10
4.726956E+002
 20
1.1266089E+002
 40
5.0E-001
100
AcDbArc
 50
1.8E+002
 51
2.7E+002
  0
ARC
  5
64d
100
AcDbEntity
  8
1
100
AcDbCircle
  6
CONTINUOUS
 62
7
 10
4.760956E+002
 20
1.1116089E+002
 40
1.0
100
AcDbArc
 50
0.0
 51
9.0E+001
  0
LINE
  5
64e
100
AcDbEntity
  8
1
100
AcDbLine
  6
CONTINUOUS
 62
7
 10
4.768206E+002
 20
1.3089964E+002
 11
4.768206E+002
 21
1.2640089E+002
  0
LINE
  5
64f
100
AcDbEntity
  8
1
100
AcDbLine
  6
CONTINUOUS
 62
7
 10
4.866206E+002
 20
1.3089964E+002
 11
4.866206E+002
 21
1.2640089E+002
  0
LINE
  5
650
100
AcDbEntity
  8
1
100
AcDbLine
  6
CONTINUOUS
 62
7
 10
4.958706E+002
 20
1.3089964E+002
 11
4.958706E+002
 21
1.2640089E+002
  0
LINE
  5
651
100
AcDbEntity
  8
1
100
AcDbLine
  6
CONTINUOUS
 62
7
 10
5.056706E+002
 20
1.3089964E+002
 11
5.056706E+002
 21
1.2640089E+002
  0
LINE
  5
652
100
AcDbEntity
  8
1
100
AcDbLine
  6
CONTINUOUS
 62
7
 10
4.863456E+002
 20
1.1116089E+002
 11
4.863456E+002
 21
1.0666214E+002
  0
LINE
  5
653
100
AcDbEntity
  8
1
100
AcDbLine
  6
CONTINUOUS
 62
7
 10
4.770956E+002
 20
1.1116089E+002
 11
4.770956E+002
 21
1.0666214E+002
  0
ARC
  5
654
100
AcDbEntity
  8
1
100
AcDbCircle
  6
CONTINUOUS
 62
7
 10
5.063956E+002
 20
1.1116089E+002
 40
1.0
100
AcDbArc
 50
9.0E+001
 51
1.8E+002
  0
LINE
  5
655
100
AcDbEntity
  8
1
100
AcDbLine
  6
CONTINUOUS
 62
7
 10
4.856206E+002
 20
1.2540089E+002
 11
4.778206E+002
 21
1.2540089E+002
  0
ARC
  5
656
100
AcDbEntity
  8
1
100
AcDbCircle
  6
CONTINUOUS
 62
7
 10
4.856206E+002
 20
1.2640089E+002
 40
1.0
100
AcDbArc
 50
2.7E+002
 51
3.6E+002
  0
ARC
  5
657
100
AcDbEntity
  8
1
100
AcDbCircle
  6
CONTINUOUS
 62
7
 10
4.778206E+002
 20
1.2640089E+002
 40
1.0
100
AcDbArc
 50
1.8E+002
 51
2.7E+002
  0
LINE
  5
658
100
AcDbEntity
  8
1
100
AcDbLine
  6
CONTINUOUS
 62
7
 10
5.244456E+002
 20
1.1116089E+002
 11
5.244456E+002
 21
1.0666214E+002
  0
LINE
  5
659
100
AcDbEntity
  8
1
100
AcDbLine
  6
CONTINUOUS
 62
7
 10
5.151956E+002
 20
1.1116089E+002
 11
5.151956E+002
 21
1.0666214E+002
  0
LINE
  5
65a
100
AcDbEntity
  8
1
100
AcDbLine
  6
CONTINUOUS
 62
7
 10
5.159206E+002
 20
1.2540089E+002
 11
5.237206E+002
 21
1.2540089E+002
  0
ARC
  5
65b
100
AcDbEntity
  8
1
100
AcDbCircle
  6
CONTINUOUS
 62
7
 10
5.141956E+002
 20
1.1116089E+002
 40
1.0
100
AcDbArc
 50
0.0
 51
9.0E+001
  0
ARC
  5
65c
100
AcDbEntity
  8
1
100
AcDbCircle
  6
CONTINUOUS
 62
7
 10
5.159206E+002
 20
1.2640089E+002
 40
1.0
100
AcDbArc
 50
1.8E+002
 51
2.7E+002
  0
ARC
  5
65d
100
AcDbEntity
  8
1
100
AcDbCircle
  6
CONTINUOUS
 62
7
 10
5.237206E+002
 20
1.2640089E+002
 40
1.0
100
AcDbArc
 50
2.7E+002
 51
3.6E+002
  0
LINE
  5
65e
100
AcDbEntity
  8
1
100
AcDbLine
  6
CONTINUOUS
 62
7
 10
5.149206E+002
 20
1.3089964E+002
 11
5.149206E+002
 21
1.2640089E+002
  0
LINE
  5
65f
100
AcDbEntity
  8
1
100
AcDbLine
  6
CONTINUOUS
 62
7
 10
5.247206E+002
 20
1.3089964E+002
 11
5.247206E+002
 21
1.2640089E+002
  0
ARC
  5
660
100
AcDbEntity
  8
1
100
AcDbCircle
  6
CONTINUOUS
 62
7
 10
5.254456E+002
 20
1.1116089E+002
 40
1.0
100
AcDbArc
 50
9.0E+001
 51
1.8E+002
  0
LINE
  5
661
100
AcDbEntity
  8
1
100
AcDbLine
  6
CONTINUOUS
 62
7
 10
5.063956E+002
 20
1.1216089E+002
 11
5.141956E+002
 21
1.1216089E+002
  0
LINE
  5
662
100
AcDbEntity
  8
1
100
AcDbLine
  6
CONTINUOUS
 62
7
 10
5.342456E+002
 20
1.1116089E+002
 11
5.342456E+002
 21
1.0666214E+002
  0
ARC
  5
663
100
AcDbEntity
  8
1
100
AcDbCircle
  6
CONTINUOUS
 62
7
 10
5.332456E+002
 20
1.1116089E+002
 40
1.0
100
AcDbArc
 50
0.0
 51
9.0E+001
  0
ARC
  5
664
100
AcDbEntity
  8
1
100
AcDbCircle
  6
CONTINUOUS
 62
7
 10
5.349706E+002
 20
1.2640089E+002
 40
1.0
100
AcDbArc
 50
1.8E+002
 51
2.7E+002
  0
LINE
  5
665
100
AcDbEntity
  8
1
100
AcDbLine
  6
CONTINUOUS
 62
7
 10
5.339706E+002
 20
1.3089964E+002
 11
5.339706E+002
 21
1.2640089E+002
  0
LINE
  5
666
100
AcDbEntity
  8
1
100
AcDbLine
  6
CONTINUOUS
 62
7
 10
5.254456E+002
 20
1.1216089E+002
 11
5.332456E+002
 21
1.1216089E+002
  0
LINE
  5
667
100
AcDbEntity
  8
1
100
AcDbLine
  6
CONTINUOUS
 62
7
 10
5.434956E+002
 20
1.1116089E+002
 11
5.434956E+002
 21
1.0666214E+002
  0
LINE
  5
668
100
AcDbEntity
  8
1
100
AcDbLine
  6
CONTINUOUS
 62
7
 10
5.349706E+002
 20
1.2540089E+002
 11
5.427706E+002
 21
1.2540089E+002
  0
ARC
  5
669
100
AcDbEntity
  8
1
100
AcDbCircle
  6
CONTINUOUS
 62
7
 10
5.427706E+002
 20
1.2640089E+002
 40
1.0
100
AcDbArc
 50
2.7E+002
 51
3.6E+002
  0
LINE
  5
66a
100
AcDbEntity
  8
1
100
AcDbLine
  6
CONTINUOUS
 62
7
 10
5.437706E+002
 20
1.3089964E+002
 11
5.437706E+002
 21
1.2640089E+002
  0
ARC
  5
66b
100
AcDbEntity
  8
1
100
AcDbCircle
  6
CONTINUOUS
 62
7
 10
5.444956E+002
 20
1.1116089E+002
 40
1.0
100
AcDbArc
 50
9.0E+001
 51
1.8E+002
  0
LINE
  5
66c
100
AcDbEntity
  8
1
100
AcDbLine
  6
CONTINUOUS
 62
7
 10
5.478956E+002
 20
1.1216089E+002
 11
5.444956E+002
 21
1.1216089E+002
  0
ARC
  5
66d
100
AcDbEntity
  8
1
100
AcDbCircle
  6
CONTINUOUS
 62
7
 10
5.478956E+002
 20
1.1266089E+002
 40
5.0E-001
100
AcDbArc
 50
2.7E+002
 51
3.6E+002
  0
ARC
  5
66e
100
AcDbEntity
  8
1
100
AcDbCircle
  6
CONTINUOUS
 62
7
 10
3.7427074E+001
 20
1.4725089E+002
 40
2.4
100
AcDbArc
 50
2.0045676E+002
 51
2.5178984E+002
  0
ARC
  5
66f
100
AcDbEntity
  8
1
100
AcDbCircle
  6
CONTINUOUS
 62
7
 10
3.7427074E+001
 20
1.4725089E+002
 40
4.35
100
AcDbArc
 50
0.0
 51
1.8E+002
  0
LINE
  5
670
100
AcDbEntity
  8
1
100
AcDbLine
  6
CONTINUOUS
 62
7
 10
4.1277074E+001
 20
1.3121089E+002
 11
3.9570377E+001
 21
1.3264298E+002
  0
LINE
  5
671
100
AcDbEntity
  8
1
100
AcDbLine
  6
CONTINUOUS
 62
7
 10
3.8284802E+001
 20
1.3311089E+002
 11
3.3577074E+001
 21
1.3311089E+002
  0
ARC
  5
672
100
AcDbEntity
  8
1
100
AcDbCircle
  6
CONTINUOUS
 62
7
 10
3.8284802E+001
 20
1.3111089E+002
 40
2.0
100
AcDbArc
 50
5.0E+001
 51
9.0E+001
  0
ARC
  5
673
100
AcDbEntity
  8
1
100
AcDbCircle
  6
CONTINUOUS
 62
7
 10
4.1277074E+001
 20
1.3171089E+002
 40
5.0E-001
100
AcDbArc
 50
2.7E+002
 51
3.6E+002
  0
LINE
  5
674
100
AcDbEntity
  8
1
100
AcDbLine
  6
CONTINUOUS
 62
7
 10
4.0327074E+001
 20
1.4725089E+002
 11
4.0327074E+001
 21
1.4461006E+002
  0
ARC
  5
675
100
AcDbEntity
  8
1
100
AcDbCircle
  6
CONTINUOUS
 62
7
 10
3.7427074E+001
 20
1.4515089E+002
 40
2.95
100
AcDbArc
 50
2.7E+002
 51
3.4943604E+002
  0
LINE
  5
676
100
AcDbEntity
  8
1
100
AcDbLine
  6
CONTINUOUS
 62
7
 10
3.4977074E+001
 20
1.4525089E+002
 11
3.4477074E+001
 21
1.4525089E+002
  0
ARC
  5
677
100
AcDbEntity
  8
1
100
AcDbCircle
  6
CONTINUOUS
 62
7
 10
3.7427074E+001
 20
1.4465089E+002
 40
2.45
100
AcDbArc
 50
1.8E+002
 51
2.7E+002
  0
LINE
  5
678
100
AcDbEntity
  8
1
100
AcDbLine
  6
CONTINUOUS
 62
7
 10
3.4977074E+001
 20
1.4465089E+002
 11
3.4977074E+001
 21
1.4525089E+002
  0
LINE
  5
679
100
AcDbEntity
  8
1
100
AcDbLine
  6
CONTINUOUS
 62
7
 10
3.4477074E+001
 20
1.4725089E+002
 11
3.4477074E+001
 21
1.4525089E+002
  0
LINE
  5
67a
100
AcDbEntity
  8
1
100
AcDbLine
  6
CONTINUOUS
 62
7
 10
4.0327074E+001
 20
1.4725089E+002
 11
3.9827074E+001
 21
1.4725089E+002
  0
LINE
  5
67b
100
AcDbEntity
  8
1
100
AcDbLine
  6
CONTINUOUS
 62
7
 10
3.5027074E+001
 20
1.4725089E+002
 11
3.4477074E+001
 21
1.4725089E+002
  0
ARC
  5
67c
100
AcDbEntity
  8
1
100
AcDbCircle
  6
CONTINUOUS
 62
7
 10
3.3577074E+001
 20
1.3361089E+002
 40
5.0E-001
100
AcDbArc
 50
1.8E+002
 51
2.7E+002
  0
LINE
  5
67d
100
AcDbEntity
  8
1
100
AcDbLine
  6
CONTINUOUS
 62
7
 10
3.9177074E+001
 20
1.4875089E+002
 11
3.9177074E+001
 21
1.4737487E+002
  0
ARC
  5
67e
100
AcDbEntity
  8
1
100
AcDbCircle
  6
CONTINUOUS
 62
7
 10
3.6177074E+001
 20
1.4595089E+002
 40
1.1
100
AcDbArc
 50
3.6221547E+001
 51
3.2377845E+002
  0
LINE
  5
67f
100
AcDbEntity
  8
1
100
AcDbLine
  6
CONTINUOUS
 62
7
 10
3.7064486E+001
 20
1.4660089E+002
 11
3.8758797E+001
 21
1.4688159E+002
  0
LINE
  5
680
100
AcDbEntity
  8
1
100
AcDbLine
  6
CONTINUOUS
 62
7
 10
3.7064486E+001
 20
1.4530089E+002
 11
3.8758797E+001
 21
1.4502019E+002
  0
LINE
  5
681
100
AcDbEntity
  8
1
100
AcDbLine
  6
CONTINUOUS
 62
7
 10
3.9177074E+001
 20
1.4452691E+002
 11
3.9177074E+001
 21
1.4364599E+002
  0
LINE
  5
682
100
AcDbEntity
  8
1
100
AcDbLine
  6
CONTINUOUS
 62
7
 10
3.8848084E+001
 20
1.4317615E+002
 11
3.6889101E+001
 21
1.4246313E+002
  0
ARC
  5
683
100
AcDbEntity
  8
1
100
AcDbCircle
  6
CONTINUOUS
 62
7
 10
3.6615485E+001
 20
1.4321489E+002
 40
8.0E-001
100
AcDbArc
 50
2.3684574E+002
 51
2.9E+002
  0
LINE
  5
684
100
AcDbEntity
  8
1
100
AcDbLine
  6
CONTINUOUS
 62
7
 10
3.8777074E+001
 20
1.4915089E+002
 11
3.8273911E+001
 21
1.4915089E+002
  0
LINE
  5
685
100
AcDbEntity
  8
1
100
AcDbLine
  6
CONTINUOUS
 62
7
 10
3.7020751E+001
 20
1.4961624E+002
 11
3.8087239E+001
 21
1.4918704E+002
  0
ARC
  5
686
100
AcDbEntity
  8
1
100
AcDbCircle
  6
CONTINUOUS
 62
7
 10
3.8677074E+001
 20
1.4452691E+002
 40
5.0E-001
100
AcDbArc
 50
0.0
 51
8.0593049E+001
  0
ARC
  5
687
100
AcDbEntity
  8
1
100
AcDbCircle
  6
CONTINUOUS
 62
7
 10
3.8677074E+001
 20
1.4364599E+002
 40
5.0E-001
100
AcDbArc
 50
2.9E+002
 51
3.6E+002
  0
ARC
  5
688
100
AcDbEntity
  8
1
100
AcDbCircle
  6
CONTINUOUS
 62
7
 10
3.8677074E+001
 20
1.4737487E+002
 40
5.0E-001
100
AcDbArc
 50
2.7940695E+002
 51
3.6E+002
  0
ARC
  5
689
100
AcDbEntity
  8
1
100
AcDbCircle
  6
CONTINUOUS
 62
7
 10
3.8777074E+001
 20
1.4875089E+002
 40
4.0E-001
100
AcDbArc
 50
0.0
 51
2.9124492E+001
  0
ARC
  5
68a
100
AcDbEntity
  8
1
100
AcDbCircle
  6
CONTINUOUS
 62
7
 10
3.5743834E+001
 20
1.4920089E+002
 40
2.0E-001
100
AcDbArc
 50
2.8352056E+002
 51
3.3808095E+002
  0
ARC
  5
68b
100
AcDbEntity
  8
1
100
AcDbCircle
  6
CONTINUOUS
 62
7
 10
3.8273911E+001
 20
1.4965089E+002
 40
5.0E-001
100
AcDbArc
 50
2.48078E+002
 51
2.7E+002
  0
ARC
  5
68c
100
AcDbEntity
  8
1
100
AcDbCircle
  6
CONTINUOUS
 62
7
 10
3.7427074E+001
 20
1.4725089E+002
 40
2.4
100
AcDbArc
 50
2.9487591E+002
 51
5.4E+002
  0
ARC
  5
68d
100
AcDbEntity
  8
1
100
AcDbCircle
  6
CONTINUOUS
 62
7
 10
3.8777074E+001
 20
1.4875089E+002
 40
4.0E-001
100
AcDbArc
 50
6.6901083E+001
 51
9.0E+001
  0
ARC
  5
68e
100
AcDbEntity
  8
1
100
AcDbCircle
  6
CONTINUOUS
 62
7
 10
3.7427074E+001
 20
1.0915089E+002
 40
2.4
100
AcDbArc
 50
2.0045676E+002
 51
2.5178984E+002
  0
ARC
  5
68f
100
AcDbEntity
  8
1
100
AcDbCircle
  6
CONTINUOUS
 62
7
 10
3.7427074E+001
 20
1.0915089E+002
 40
4.35
100
AcDbArc
 50
0.0
 51
1.8E+002
  0
ARC
  5
690
100
AcDbEntity
  8
1
100
AcDbCircle
  6
CONTINUOUS
 62
7
 10
3.7427074E+001
 20
9.0310888E+001
 40
4.35
100
AcDbArc
 50
1.8E+002
 51
1.8138314E+002
  0
LINE
  5
691
100
AcDbEntity
  8
1
100
AcDbLine
  6
CONTINUOUS
 62
7
 10
4.1277074E+001
 20
9.3110888E+001
 11
3.9570377E+001
 21
9.4542977E+001
  0
LINE
  5
692
100
AcDbEntity
  8
1
100
AcDbLine
  6
CONTINUOUS
 62
7
 10
3.8284802E+001
 20
9.5010888E+001
 11
3.3577074E+001
 21
9.5010888E+001
  0
ARC
  5
693
100
AcDbEntity
  8
1
100
AcDbCircle
  6
CONTINUOUS
 62
7
 10
3.8284802E+001
 20
9.3010888E+001
 40
2.0
100
AcDbArc
 50
5.0E+001
 51
9.0E+001
  0
ARC
  5
694
100
AcDbEntity
  8
1
100
AcDbCircle
  6
CONTINUOUS
 62
7
 10
4.1277074E+001
 20
9.3610888E+001
 40
5.0E-001
100
AcDbArc
 50
2.7E+002
 51
3.6E+002
  0
LINE
  5
695
100
AcDbEntity
  8
1
100
AcDbLine
  6
CONTINUOUS
 62
7
 10
4.0327074E+001
 20
1.0915089E+002
 11
4.0327074E+001
 21
1.0651006E+002
  0
ARC
  5
696
100
AcDbEntity
  8
1
100
AcDbCircle
  6
CONTINUOUS
 62
7
 10
3.7427074E+001
 20
1.0705089E+002
 40
2.95
100
AcDbArc
 50
2.7E+002
 51
3.4943604E+002
  0
LINE
  5
697
100
AcDbEntity
  8
1
100
AcDbLine
  6
CONTINUOUS
 62
7
 10
3.4977074E+001
 20
1.0715089E+002
 11
3.4477074E+001
 21
1.0715089E+002
  0
ARC
  5
698
100
AcDbEntity
  8
1
100
AcDbCircle
  6
CONTINUOUS
 62
7
 10
3.7427074E+001
 20
1.0655089E+002
 40
2.45
100
AcDbArc
 50
1.8E+002
 51
2.7E+002
  0
LINE
  5
699
100
AcDbEntity
  8
1
100
AcDbLine
  6
CONTINUOUS
 62
7
 10
3.4977074E+001
 20
1.0655089E+002
 11
3.4977074E+001
 21
1.0715089E+002
  0
LINE
  5
69a
100
AcDbEntity
  8
1
100
AcDbLine
  6
CONTINUOUS
 62
7
 10
3.4477074E+001
 20
1.0915089E+002
 11
3.4477074E+001
 21
1.0715089E+002
  0
LINE
  5
69b
100
AcDbEntity
  8
1
100
AcDbLine
  6
CONTINUOUS
 62
7
 10
4.0327074E+001
 20
1.0915089E+002
 11
3.9827074E+001
 21
1.0915089E+002
  0
LINE
  5
69c
100
AcDbEntity
  8
1
100
AcDbLine
  6
CONTINUOUS
 62
7
 10
3.5027074E+001
 20
1.0915089E+002
 11
3.4477074E+001
 21
1.0915089E+002
  0
ARC
  5
69d
100
AcDbEntity
  8
1
100
AcDbCircle
  6
CONTINUOUS
 62
7
 10
3.3577074E+001
 20
9.5510888E+001
 40
5.0E-001
100
AcDbArc
 50
1.8E+002
 51
2.7E+002
  0
LINE
  5
69e
100
AcDbEntity
  8
1
100
AcDbLine
  6
CONTINUOUS
 62
7
 10
3.9177074E+001
 20
1.1065089E+002
 11
3.9177074E+001
 21
1.0927487E+002
  0
ARC
  5
69f
100
AcDbEntity
  8
1
100
AcDbCircle
  6
CONTINUOUS
 62
7
 10
3.6177074E+001
 20
1.0785089E+002
 40
1.1
100
AcDbArc
 50
3.6221547E+001
 51
3.2377845E+002
  0
LINE
  5
6a0
100
AcDbEntity
  8
1
100
AcDbLine
  6
CONTINUOUS
 62
7
 10
3.7064486E+001
 20
1.0850089E+002
 11
3.8758797E+001
 21
1.0878159E+002
  0
LINE
  5
6a1
100
AcDbEntity
  8
1
100
AcDbLine
  6
CONTINUOUS
 62
7
 10
3.7064486E+001
 20
1.0720089E+002
 11
3.8758797E+001
 21
1.0692019E+002
  0
LINE
  5
6a2
100
AcDbEntity
  8
1
100
AcDbLine
  6
CONTINUOUS
 62
7
 10
3.9177074E+001
 20
1.0642691E+002
 11
3.9177074E+001
 21
1.0554599E+002
  0
LINE
  5
6a3
100
AcDbEntity
  8
1
100
AcDbLine
  6
CONTINUOUS
 62
7
 10
3.8848084E+001
 20
1.0507615E+002
 11
3.6889101E+001
 21
1.0436313E+002
  0
ARC
  5
6a4
100
AcDbEntity
  8
1
100
AcDbCircle
  6
CONTINUOUS
 62
7
 10
3.6615485E+001
 20
1.0511489E+002
 40
8.0E-001
100
AcDbArc
 50
2.3684574E+002
 51
2.9E+002
  0
LINE
  5
6a5
100
AcDbEntity
  8
1
100
AcDbLine
  6
CONTINUOUS
 62
7
 10
3.8777074E+001
 20
1.1105089E+002
 11
3.8273911E+001
 21
1.1105089E+002
  0
LINE
  5
6a6
100
AcDbEntity
  8
1
100
AcDbLine
  6
CONTINUOUS
 62
7
 10
3.7020751E+001
 20
1.1151624E+002
 11
3.8087239E+001
 21
1.1108704E+002
  0
ARC
  5
6a7
100
AcDbEntity
  8
1
100
AcDbCircle
  6
CONTINUOUS
 62
7
 10
3.8677074E+001
 20
1.0642691E+002
 40
5.0E-001
100
AcDbArc
 50
0.0
 51
8.0593049E+001
  0
ARC
  5
6a8
100
AcDbEntity
  8
1
100
AcDbCircle
  6
CONTINUOUS
 62
7
 10
3.8677074E+001
 20
1.0554599E+002
 40
5.0E-001
100
AcDbArc
 50
2.9E+002
 51
3.6E+002
  0
ARC
  5
6a9
100
AcDbEntity
  8
1
100
AcDbCircle
  6
CONTINUOUS
 62
7
 10
3.8677074E+001
 20
1.0927487E+002
 40
5.0E-001
100
AcDbArc
 50
2.7940695E+002
 51
3.6E+002
  0
ARC
  5
6aa
100
AcDbEntity
  8
1
100
AcDbCircle
  6
CONTINUOUS
 62
7
 10
3.8777074E+001
 20
1.1065089E+002
 40
4.0E-001
100
AcDbArc
 50
0.0
 51
2.9124492E+001
  0
ARC
  5
6ab
100
AcDbEntity
  8
1
100
AcDbCircle
  6
CONTINUOUS
 62
7
 10
3.5743834E+001
 20
1.1110089E+002
 40
2.0E-001
100
AcDbArc
 50
2.8352056E+002
 51
3.3808095E+002
  0
ARC
  5
6ac
100
AcDbEntity
  8
1
100
AcDbCircle
  6
CONTINUOUS
 62
7
 10
3.8273911E+001
 20
1.1155089E+002
 40
5.0E-001
100
AcDbArc
 50
2.48078E+002
 51
2.7E+002
  0
ARC
  5
6ad
100
AcDbEntity
  8
1
100
AcDbCircle
  6
CONTINUOUS
 62
7
 10
3.7427074E+001
 20
1.0915089E+002
 40
2.4
100
AcDbArc
 50
2.9487591E+002
 51
5.4E+002
  0
ARC
  5
6ae
100
AcDbEntity
  8
1
100
AcDbCircle
  6
CONTINUOUS
 62
7
 10
3.8777074E+001
 20
1.1065089E+002
 40
4.0E-001
100
AcDbArc
 50
6.6901083E+001
 51
9.0E+001
  0
ARC
  5
6af
100
AcDbEntity
  8
1
100
AcDbCircle
  6
CONTINUOUS
 62
7
 10
3.7427074E+001
 20
1.2820089E+002
 40
2.4
100
AcDbArc
 50
2.0045676E+002
 51
2.5178984E+002
  0
LINE
  5
6b0
100
AcDbEntity
  8
1
100
AcDbLine
  6
CONTINUOUS
 62
7
 10
3.3077074E+001
 20
9.0310888E+001
 11
3.3077074E+001
 21
1.4725089E+002
  0
LINE
  5
6b1
100
AcDbEntity
  8
1
100
AcDbLine
  6
CONTINUOUS
 62
7
 10
4.1777074E+001
 20
9.0310888E+001
 11
4.1777074E+001
 21
1.4725089E+002
  0
ARC
  5
6b2
100
AcDbEntity
  8
1
100
AcDbCircle
  6
CONTINUOUS
 62
7
 10
3.7427074E+001
 20
1.2820089E+002
 40
4.35
100
AcDbArc
 50
0.0
 51
1.8E+002
  0
LINE
  5
6b3
100
AcDbEntity
  8
1
100
AcDbLine
  6
CONTINUOUS
 62
7
 10
4.1277074E+001
 20
1.1216089E+002
 11
3.9570377E+001
 21
1.1359298E+002
  0
LINE
  5
6b4
100
AcDbEntity
  8
1
100
AcDbLine
  6
CONTINUOUS
 62
7
 10
3.8284802E+001
 20
1.1406089E+002
 11
3.3577074E+001
 21
1.1406089E+002
  0
ARC
  5
6b5
100
AcDbEntity
  8
1
100
AcDbCircle
  6
CONTINUOUS
 62
7
 10
3.8284802E+001
 20
1.1206089E+002
 40
2.0
100
AcDbArc
 50
5.0E+001
 51
9.0E+001
  0
ARC
  5
6b6
100
AcDbEntity
  8
1
100
AcDbCircle
  6
CONTINUOUS
 62
7
 10
4.1277074E+001
 20
1.1266089E+002
 40
5.0E-001
100
AcDbArc
 50
2.7E+002
 51
3.6E+002
  0
LINE
  5
6b7
100
AcDbEntity
  8
1
100
AcDbLine
  6
CONTINUOUS
 62
7
 10
4.0327074E+001
 20
1.2820089E+002
 11
4.0327074E+001
 21
1.2556006E+002
  0
ARC
  5
6b8
100
AcDbEntity
  8
1
100
AcDbCircle
  6
CONTINUOUS
 62
7
 10
3.7427074E+001
 20
1.2610089E+002
 40
2.95
100
AcDbArc
 50
2.7E+002
 51
3.4943604E+002
  0
LINE
  5
6b9
100
AcDbEntity
  8
1
100
AcDbLine
  6
CONTINUOUS
 62
7
 10
3.4977074E+001
 20
1.2620089E+002
 11
3.4477074E+001
 21
1.2620089E+002
  0
ARC
  5
6ba
100
AcDbEntity
  8
1
100
AcDbCircle
  6
CONTINUOUS
 62
7
 10
3.7427074E+001
 20
1.2560089E+002
 40
2.45
100
AcDbArc
 50
1.8E+002
 51
2.7E+002
  0
LINE
  5
6bb
100
AcDbEntity
  8
1
100
AcDbLine
  6
CONTINUOUS
 62
7
 10
3.4977074E+001
 20
1.2560089E+002
 11
3.4977074E+001
 21
1.2620089E+002
  0
LINE
  5
6bc
100
AcDbEntity
  8
1
100
AcDbLine
  6
CONTINUOUS
 62
7
 10
3.4477074E+001
 20
1.2820089E+002
 11
3.4477074E+001
 21
1.2620089E+002
  0
LINE
  5
6bd
100
AcDbEntity
  8
1
100
AcDbLine
  6
CONTINUOUS
 62
7
 10
4.0327074E+001
 20
1.2820089E+002
 11
3.9827074E+001
 21
1.2820089E+002
  0
LINE
  5
6be
100
AcDbEntity
  8
1
100
AcDbLine
  6
CONTINUOUS
 62
7
 10
3.5027074E+001
 20
1.2820089E+002
 11
3.4477074E+001
 21
1.2820089E+002
  0
ARC
  5
6bf
100
AcDbEntity
  8
1
100
AcDbCircle
  6
CONTINUOUS
 62
7
 10
3.3577074E+001
 20
1.1456089E+002
 40
5.0E-001
100
AcDbArc
 50
1.8E+002
 51
2.7E+002
  0
LINE
  5
6c0
100
AcDbEntity
  8
1
100
AcDbLine
  6
CONTINUOUS
 62
7
 10
3.9177074E+001
 20
1.2970089E+002
 11
3.9177074E+001
 21
1.2832487E+002
  0
ARC
  5
6c1
100
AcDbEntity
  8
1
100
AcDbCircle
  6
CONTINUOUS
 62
7
 10
3.6177074E+001
 20
1.2690089E+002
 40
1.1
100
AcDbArc
 50
3.6221547E+001
 51
3.2377845E+002
  0
LINE
  5
6c2
100
AcDbEntity
  8
1
100
AcDbLine
  6
CONTINUOUS
 62
7
 10
3.7064486E+001
 20
1.2755089E+002
 11
3.8758797E+001
 21
1.2783159E+002
  0
LINE
  5
6c3
100
AcDbEntity
  8
1
100
AcDbLine
  6
CONTINUOUS
 62
7
 10
3.7064486E+001
 20
1.2625089E+002
 11
3.8758797E+001
 21
1.2597019E+002
  0
LINE
  5
6c4
100
AcDbEntity
  8
1
100
AcDbLine
  6
CONTINUOUS
 62
7
 10
3.9177074E+001
 20
1.2547691E+002
 11
3.9177074E+001
 21
1.2459599E+002
  0
LINE
  5
6c5
100
AcDbEntity
  8
1
100
AcDbLine
  6
CONTINUOUS
 62
7
 10
3.8848084E+001
 20
1.2412615E+002
 11
3.6889101E+001
 21
1.2341313E+002
  0
ARC
  5
6c6
100
AcDbEntity
  8
1
100
AcDbCircle
  6
CONTINUOUS
 62
7
 10
3.6615485E+001
 20
1.2416489E+002
 40
8.0E-001
100
AcDbArc
 50
2.3684574E+002
 51
2.9E+002
  0
LINE
  5
6c7
100
AcDbEntity
  8
1
100
AcDbLine
  6
CONTINUOUS
 62
7
 10
3.8777074E+001
 20
1.3010089E+002
 11
3.8273911E+001
 21
1.3010089E+002
  0
LINE
  5
6c8
100
AcDbEntity
  8
1
100
AcDbLine
  6
CONTINUOUS
 62
7
 10
3.7020751E+001
 20
1.3056624E+002
 11
3.8087239E+001
 21
1.3013704E+002
  0
ARC
  5
6c9
100
AcDbEntity
  8
1
100
AcDbCircle
  6
CONTINUOUS
 62
7
 10
3.8677074E+001
 20
1.2547691E+002
 40
5.0E-001
100
AcDbArc
 50
0.0
 51
8.0593049E+001
  0
ARC
  5
6ca
100
AcDbEntity
  8
1
100
AcDbCircle
  6
CONTINUOUS
 62
7
 10
3.8677074E+001
 20
1.2459599E+002
 40
5.0E-001
100
AcDbArc
 50
2.9E+002
 51
3.6E+002
  0
ARC
  5
6cb
100
AcDbEntity
  8
1
100
AcDbCircle
  6
CONTINUOUS
 62
7
 10
3.8677074E+001
 20
1.2832487E+002
 40
5.0E-001
100
AcDbArc
 50
2.7940695E+002
 51
3.6E+002
  0
ARC
  5
6cc
100
AcDbEntity
  8
1
100
AcDbCircle
  6
CONTINUOUS
 62
7
 10
3.8777074E+001
 20
1.2970089E+002
 40
4.0E-001
100
AcDbArc
 50
0.0
 51
2.9124492E+001
  0
ARC
  5
6cd
100
AcDbEntity
  8
1
100
AcDbCircle
  6
CONTINUOUS
 62
7
 10
3.5743834E+001
 20
1.3015089E+002
 40
2.0E-001
100
AcDbArc
 50
2.8352056E+002
 51
3.3808095E+002
  0
ARC
  5
6ce
100
AcDbEntity
  8
1
100
AcDbCircle
  6
CONTINUOUS
 62
7
 10
3.8273911E+001
 20
1.3060089E+002
 40
5.0E-001
100
AcDbArc
 50
2.48078E+002
 51
2.7E+002
  0
ARC
  5
6cf
100
AcDbEntity
  8
1
100
AcDbCircle
  6
CONTINUOUS
 62
7
 10
3.7427074E+001
 20
1.2820089E+002
 40
2.4
100
AcDbArc
 50
2.9487591E+002
 51
5.4E+002
  0
ARC
  5
6d0
100
AcDbEntity
  8
1
100
AcDbCircle
  6
CONTINUOUS
 62
7
 10
3.8777074E+001
 20
1.2970089E+002
 40
4.0E-001
100
AcDbArc
 50
6.6901083E+001
 51
9.0E+001
  0
CIRCLE
  5
6d1
100
AcDbEntity
  8
1
100
AcDbCircle
  6
CONTINUOUS
 62
7
 10
3.7448436E+001
 20
9.0100888E+001
 40
2.4
  0
ARC
  5
6d2
100
AcDbEntity
  8
1
100
AcDbCircle
  6
CONTINUOUS
 62
7
 10
3.7427074E+001
 20
9.0310888E+001
 40
4.35
100
AcDbArc
 50
1.8E+002
 51
3.6E+002
  0
LINE
  5
6d3
100
AcDbEntity
  8
1
100
AcDbLine
  6
CONTINUOUS
 62
7
 10
1.7218544E+002
 20
1.4490089E+002
 11
1.8165577E+002
 21
1.4490089E+002
  0
LINE
  5
6d4
100
AcDbEntity
  8
1
100
AcDbLine
  6
CONTINUOUS
 62
7
 10
1.720206E+002
 20
1.4960089E+002
 11
1.818206E+002
 21
1.4960089E+002
  0
LINE
  5
6d5
100
AcDbEntity
  8
1
100
AcDbLine
  6
CONTINUOUS
 62
7
 10
9.1195604E+001
 20
5.73794E+001
 11
9.1195604E+001
 21
4.96794E+001
  0
LINE
  5
6d6
100
AcDbEntity
  8
1
100
AcDbLine
  6
CONTINUOUS
 62
7
 10
1.053456E+002
 20
5.73794E+001
 11
1.053456E+002
 21
4.96794E+001
  0
LINE
  5
6d7
100
AcDbEntity
  8
1
100
AcDbLine
  6
CONTINUOUS
 62
7
 10
1.243956E+002
 20
5.73794E+001
 11
1.243956E+002
 21
4.96794E+001
  0
LINE
  5
6d8
100
AcDbEntity
  8
1
100
AcDbLine
  6
CONTINUOUS
 62
7
 10
1.151456E+002
 20
5.73794E+001
 11
1.151456E+002
 21
4.96794E+001
  0
LINE
  5
6d9
100
AcDbEntity
  8
1
100
AcDbLine
  6
CONTINUOUS
 62
7
 10
1.341956E+002
 20
5.73794E+001
 11
1.341956E+002
 21
4.96794E+001
  0
LINE
  5
6da
100
AcDbEntity
  8
1
100
AcDbLine
  6
CONTINUOUS
 62
7
 10
1.434456E+002
 20
5.73794E+001
 11
1.434456E+002
 21
4.96794E+001
  0
LINE
  5
6db
100
AcDbEntity
  8
1
100
AcDbLine
  6
CONTINUOUS
 62
7
 10
1.532456E+002
 20
5.73794E+001
 11
1.532456E+002
 21
4.96794E+001
  0
LINE
  5
6dc
100
AcDbEntity
  8
1
100
AcDbLine
  6
CONTINUOUS
 62
7
 10
1.624956E+002
 20
5.73794E+001
 11
1.624956E+002
 21
4.96794E+001
  0
LINE
  5
6dd
100
AcDbEntity
  8
1
100
AcDbLine
  6
CONTINUOUS
 62
7
 10
1.146456E+002
 20
5.59794E+001
 11
1.058456E+002
 21
5.59794E+001
  0
LINE
  5
6de
100
AcDbEntity
  8
1
100
AcDbLine
  6
CONTINUOUS
 62
7
 10
1.072456E+002
 20
5.59794E+001
 11
1.072456E+002
 21
4.96794E+001
  0
LINE
  5
6df
100
AcDbEntity
  8
1
100
AcDbLine
  6
CONTINUOUS
 62
7
 10
1.132456E+002
 20
5.59794E+001
 11
1.132456E+002
 21
4.96794E+001
  0
ARC
  5
6e0
100
AcDbEntity
  8
1
100
AcDbCircle
  6
CONTINUOUS
 62
7
 10
1.146456E+002
 20
5.54794E+001
 40
5.0E-001
100
AcDbArc
 50
0.0
 51
9.0E+001
  0
ARC
  5
6e1
100
AcDbEntity
  8
1
100
AcDbCircle
  6
CONTINUOUS
 62
7
 10
1.058456E+002
 20
5.54794E+001
 40
5.0E-001
100
AcDbArc
 50
9.0E+001
 51
1.8E+002
  0
ARC
  5
6e2
100
AcDbEntity
  8
1
100
AcDbCircle
  6
CONTINUOUS
 62
7
 10
1.048456E+002
 20
5.73794E+001
 40
5.0E-001
100
AcDbArc
 50
0.0
 51
9.0E+001
  0
ARC
  5
6e3
100
AcDbEntity
  8
1
100
AcDbCircle
  6
CONTINUOUS
 62
7
 10
1.156456E+002
 20
5.73794E+001
 40
5.0E-001
100
AcDbArc
 50
9.0E+001
 51
1.8E+002
  0
ARC
  5
6e4
100
AcDbEntity
  8
1
100
AcDbCircle
  6
CONTINUOUS
 62
7
 10
1.156456E+002
 20
4.96794E+001
 40
5.0E-001
100
AcDbArc
 50
1.8E+002
 51
2.7E+002
  0
ARC
  5
6e5
100
AcDbEntity
  8
1
100
AcDbCircle
  6
CONTINUOUS
 62
7
 10
1.137456E+002
 20
4.96794E+001
 40
5.0E-001
100
AcDbArc
 50
1.8E+002
 51
2.7E+002
  0
ARC
  5
6e6
100
AcDbEntity
  8
1
100
AcDbCircle
  6
CONTINUOUS
 62
7
 10
1.067456E+002
 20
4.96794E+001
 40
5.0E-001
100
AcDbArc
 50
2.7E+002
 51
3.6E+002
  0
ARC
  5
6e7
100
AcDbEntity
  8
1
100
AcDbCircle
  6
CONTINUOUS
 62
7
 10
1.048456E+002
 20
4.96794E+001
 40
5.0E-001
100
AcDbArc
 50
2.7E+002
 51
3.6E+002
  0
ARC
  5
6e8
100
AcDbEntity
  8
1
100
AcDbCircle
  6
CONTINUOUS
 62
7
 10
9.1695604E+001
 20
5.73794E+001
 40
5.0E-001
100
AcDbArc
 50
9.0E+001
 51
1.8E+002
  0
ARC
  5
6e9
100
AcDbEntity
  8
1
100
AcDbCircle
  6
CONTINUOUS
 62
7
 10
9.1695604E+001
 20
4.96794E+001
 40
5.0E-001
100
AcDbArc
 50
1.8E+002
 51
2.7E+002
  0
LINE
  5
6ea
100
AcDbEntity
  8
1
100
AcDbLine
  6
CONTINUOUS
 62
7
 10
1.336956E+002
 20
5.59794E+001
 11
1.248956E+002
 21
5.59794E+001
  0
ARC
  5
6eb
100
AcDbEntity
  8
1
100
AcDbCircle
  6
CONTINUOUS
 62
7
 10
1.336956E+002
 20
5.54794E+001
 40
5.0E-001
100
AcDbArc
 50
0.0
 51
9.0E+001
  0
ARC
  5
6ec
100
AcDbEntity
  8
1
100
AcDbCircle
  6
CONTINUOUS
 62
7
 10
1.248956E+002
 20
5.54794E+001
 40
5.0E-001
100
AcDbArc
 50
9.0E+001
 51
1.8E+002
  0
LINE
  5
6ed
100
AcDbEntity
  8
1
100
AcDbLine
  6
CONTINUOUS
 62
7
 10
1.262956E+002
 20
5.59794E+001
 11
1.262956E+002
 21
4.96794E+001
  0
LINE
  5
6ee
100
AcDbEntity
  8
1
100
AcDbLine
  6
CONTINUOUS
 62
7
 10
1.322956E+002
 20
5.59794E+001
 11
1.322956E+002
 21
4.96794E+001
  0
ARC
  5
6ef
100
AcDbEntity
  8
1
100
AcDbCircle
  6
CONTINUOUS
 62
7
 10
1.327956E+002
 20
4.96794E+001
 40
5.0E-001
100
AcDbArc
 50
1.8E+002
 51
2.7E+002
  0
ARC
  5
6f0
100
AcDbEntity
  8
1
100
AcDbCircle
  6
CONTINUOUS
 62
7
 10
1.257956E+002
 20
4.96794E+001
 40
5.0E-001
100
AcDbArc
 50
2.7E+002
 51
3.6E+002
  0
ARC
  5
6f1
100
AcDbEntity
  8
1
100
AcDbCircle
  6
CONTINUOUS
 62
7
 10
1.527456E+002
 20
5.54794E+001
 40
5.0E-001
100
AcDbArc
 50
0.0
 51
9.0E+001
  0
ARC
  5
6f2
100
AcDbEntity
  8
1
100
AcDbCircle
  6
CONTINUOUS
 62
7
 10
1.439456E+002
 20
5.54794E+001
 40
5.0E-001
100
AcDbArc
 50
9.0E+001
 51
1.8E+002
  0
LINE
  5
6f3
100
AcDbEntity
  8
1
100
AcDbLine
  6
CONTINUOUS
 62
7
 10
1.513456E+002
 20
5.59794E+001
 11
1.513456E+002
 21
4.96794E+001
  0
LINE
  5
6f4
100
AcDbEntity
  8
1
100
AcDbLine
  6
CONTINUOUS
 62
7
 10
1.453456E+002
 20
5.59794E+001
 11
1.453456E+002
 21
4.96794E+001
  0
ARC
  5
6f5
100
AcDbEntity
  8
1
100
AcDbCircle
  6
CONTINUOUS
 62
7
 10
1.518456E+002
 20
4.96794E+001
 40
5.0E-001
100
AcDbArc
 50
1.8E+002
 51
2.7E+002
  0
ARC
  5
6f6
100
AcDbEntity
  8
1
100
AcDbCircle
  6
CONTINUOUS
 62
7
 10
1.448456E+002
 20
4.96794E+001
 40
5.0E-001
100
AcDbArc
 50
2.7E+002
 51
3.6E+002
  0
ARC
  5
6f7
100
AcDbEntity
  8
1
100
AcDbCircle
  6
CONTINUOUS
 62
7
 10
1.629956E+002
 20
5.54794E+001
 40
5.0E-001
100
AcDbArc
 50
9.0E+001
 51
1.8E+002
  0
LINE
  5
6f8
100
AcDbEntity
  8
1
100
AcDbLine
  6
CONTINUOUS
 62
7
 10
1.643956E+002
 20
5.59794E+001
 11
1.643956E+002
 21
4.96794E+001
  0
ARC
  5
6f9
100
AcDbEntity
  8
1
100
AcDbCircle
  6
CONTINUOUS
 62
7
 10
1.638956E+002
 20
4.96794E+001
 40
5.0E-001
100
AcDbArc
 50
2.7E+002
 51
3.6E+002
  0
ARC
  5
6fa
100
AcDbEntity
  8
1
100
AcDbCircle
  6
CONTINUOUS
 62
7
 10
1.238956E+002
 20
5.73794E+001
 40
5.0E-001
100
AcDbArc
 50
0.0
 51
9.0E+001
  0
ARC
  5
6fb
100
AcDbEntity
  8
1
100
AcDbCircle
  6
CONTINUOUS
 62
7
 10
1.238956E+002
 20
4.96794E+001
 40
5.0E-001
100
AcDbArc
 50
2.7E+002
 51
3.6E+002
  0
ARC
  5
6fc
100
AcDbEntity
  8
1
100
AcDbCircle
  6
CONTINUOUS
 62
7
 10
1.346956E+002
 20
5.73794E+001
 40
5.0E-001
100
AcDbArc
 50
9.0E+001
 51
1.8E+002
  0
ARC
  5
6fd
100
AcDbEntity
  8
1
100
AcDbCircle
  6
CONTINUOUS
 62
7
 10
1.346956E+002
 20
4.96794E+001
 40
5.0E-001
100
AcDbArc
 50
1.8E+002
 51
2.7E+002
  0
ARC
  5
6fe
100
AcDbEntity
  8
1
100
AcDbCircle
  6
CONTINUOUS
 62
7
 10
1.429456E+002
 20
5.73794E+001
 40
5.0E-001
100
AcDbArc
 50
0.0
 51
9.0E+001
  0
ARC
  5
6ff
100
AcDbEntity
  8
1
100
AcDbCircle
  6
CONTINUOUS
 62
7
 10
1.429456E+002
 20
4.96794E+001
 40
5.0E-001
100
AcDbArc
 50
2.7E+002
 51
3.6E+002
  0
ARC
  5
700
100
AcDbEntity
  8
1
100
AcDbCircle
  6
CONTINUOUS
 62
7
 10
1.537456E+002
 20
5.73794E+001
 40
5.0E-001
100
AcDbArc
 50
9.0E+001
 51
1.8E+002
  0
ARC
  5
701
100
AcDbEntity
  8
1
100
AcDbCircle
  6
CONTINUOUS
 62
7
 10
1.537456E+002
 20
4.96794E+001
 40
5.0E-001
100
AcDbArc
 50
1.8E+002
 51
2.7E+002
  0
ARC
  5
702
100
AcDbEntity
  8
1
100
AcDbCircle
  6
CONTINUOUS
 62
7
 10
1.619956E+002
 20
4.96794E+001
 40
5.0E-001
100
AcDbArc
 50
2.7E+002
 51
3.6E+002
  0
ARC
  5
703
100
AcDbEntity
  8
1
100
AcDbCircle
  6
CONTINUOUS
 62
7
 10
1.619956E+002
 20
5.73794E+001
 40
5.0E-001
100
AcDbArc
 50
0.0
 51
9.0E+001
  0
LINE
  5
704
100
AcDbEntity
  8
1
100
AcDbLine
  6
CONTINUOUS
 62
7
 10
2.430956E+002
 20
4.91794E+001
 11
9.1695604E+001
 21
4.91794E+001
  0
LINE
  5
705
100
AcDbEntity
  8
1
100
AcDbLine
  6
CONTINUOUS
 62
7
 10
2.435956E+002
 20
5.73794E+001
 11
2.435956E+002
 21
4.96794E+001
  0
LINE
  5
706
100
AcDbEntity
  8
1
100
AcDbLine
  6
CONTINUOUS
 62
7
 10
2.196456E+002
 20
5.73794E+001
 11
2.196456E+002
 21
4.96794E+001
  0
LINE
  5
707
100
AcDbEntity
  8
1
100
AcDbLine
  6
CONTINUOUS
 62
7
 10
2.294456E+002
 20
5.73794E+001
 11
2.294456E+002
 21
4.96794E+001
  0
LINE
  5
708
100
AcDbEntity
  8
1
100
AcDbLine
  6
CONTINUOUS
 62
7
 10
2.386956E+002
 20
5.73794E+001
 11
2.386956E+002
 21
4.96794E+001
  0
LINE
  5
709
100
AcDbEntity
  8
1
100
AcDbLine
  6
CONTINUOUS
 62
7
 10
2.289456E+002
 20
5.59794E+001
 11
2.201456E+002
 21
5.59794E+001
  0
ARC
  5
70a
100
AcDbEntity
  8
1
100
AcDbCircle
  6
CONTINUOUS
 62
7
 10
2.289456E+002
 20
5.54794E+001
 40
5.0E-001
100
AcDbArc
 50
0.0
 51
9.0E+001
  0
ARC
  5
70b
100
AcDbEntity
  8
1
100
AcDbCircle
  6
CONTINUOUS
 62
7
 10
2.201456E+002
 20
5.54794E+001
 40
5.0E-001
100
AcDbArc
 50
9.0E+001
 51
1.8E+002
  0
LINE
  5
70c
100
AcDbEntity
  8
1
100
AcDbLine
  6
CONTINUOUS
 62
7
 10
2.275456E+002
 20
5.59794E+001
 11
2.275456E+002
 21
4.96794E+001
  0
LINE
  5
70d
100
AcDbEntity
  8
1
100
AcDbLine
  6
CONTINUOUS
 62
7
 10
2.215456E+002
 20
5.59794E+001
 11
2.215456E+002
 21
4.96794E+001
  0
ARC
  5
70e
100
AcDbEntity
  8
1
100
AcDbCircle
  6
CONTINUOUS
 62
7
 10
2.280456E+002
 20
4.96794E+001
 40
5.0E-001
100
AcDbArc
 50
1.8E+002
 51
2.7E+002
  0
ARC
  5
70f
100
AcDbEntity
  8
1
100
AcDbCircle
  6
CONTINUOUS
 62
7
 10
2.210456E+002
 20
4.96794E+001
 40
5.0E-001
100
AcDbArc
 50
2.7E+002
 51
3.6E+002
  0
ARC
  5
710
100
AcDbEntity
  8
1
100
AcDbCircle
  6
CONTINUOUS
 62
7
 10
2.191456E+002
 20
5.73794E+001
 40
5.0E-001
100
AcDbArc
 50
0.0
 51
9.0E+001
  0
ARC
  5
711
100
AcDbEntity
  8
1
100
AcDbCircle
  6
CONTINUOUS
 62
7
 10
2.191456E+002
 20
4.96794E+001
 40
5.0E-001
100
AcDbArc
 50
2.7E+002
 51
3.6E+002
  0
ARC
  5
712
100
AcDbEntity
  8
1
100
AcDbCircle
  6
CONTINUOUS
 62
7
 10
2.299456E+002
 20
5.73794E+001
 40
5.0E-001
100
AcDbArc
 50
9.0E+001
 51
1.8E+002
  0
ARC
  5
713
100
AcDbEntity
  8
1
100
AcDbCircle
  6
CONTINUOUS
 62
7
 10
2.299456E+002
 20
4.96794E+001
 40
5.0E-001
100
AcDbArc
 50
1.8E+002
 51
2.7E+002
  0
ARC
  5
714
100
AcDbEntity
  8
1
100
AcDbCircle
  6
CONTINUOUS
 62
7
 10
2.381956E+002
 20
4.96794E+001
 40
5.0E-001
100
AcDbArc
 50
2.7E+002
 51
3.6E+002
  0
ARC
  5
715
100
AcDbEntity
  8
1
100
AcDbCircle
  6
CONTINUOUS
 62
7
 10
2.381956E+002
 20
5.73794E+001
 40
5.0E-001
100
AcDbArc
 50
0.0
 51
9.0E+001
  0
ARC
  5
716
100
AcDbEntity
  8
1
100
AcDbCircle
  6
CONTINUOUS
 62
7
 10
2.430956E+002
 20
5.73794E+001
 40
5.0E-001
100
AcDbArc
 50
0.0
 51
9.0E+001
  0
ARC
  5
717
100
AcDbEntity
  8
1
100
AcDbCircle
  6
CONTINUOUS
 62
7
 10
2.430956E+002
 20
4.96794E+001
 40
5.0E-001
100
AcDbArc
 50
2.7E+002
 51
3.6E+002
  0
LINE
  5
718
100
AcDbEntity
  8
1
100
AcDbLine
  6
CONTINUOUS
 62
7
 10
1.439456E+002
 20
5.59794E+001
 11
1.527456E+002
 21
5.59794E+001
  0
LINE
  5
719
100
AcDbEntity
  8
1
100
AcDbLine
  6
CONTINUOUS
 62
7
 10
1.722956E+002
 20
5.73794E+001
 11
1.722956E+002
 21
4.96794E+001
  0
LINE
  5
71a
100
AcDbEntity
  8
1
100
AcDbLine
  6
CONTINUOUS
 62
7
 10
1.815456E+002
 20
5.73794E+001
 11
1.815456E+002
 21
4.96794E+001
  0
ARC
  5
71b
100
AcDbEntity
  8
1
100
AcDbCircle
  6
CONTINUOUS
 62
7
 10
1.717956E+002
 20
5.54794E+001
 40
5.0E-001
100
AcDbArc
 50
0.0
 51
9.0E+001
  0
LINE
  5
71c
100
AcDbEntity
  8
1
100
AcDbLine
  6
CONTINUOUS
 62
7
 10
1.703956E+002
 20
5.59794E+001
 11
1.703956E+002
 21
4.96794E+001
  0
ARC
  5
71d
100
AcDbEntity
  8
1
100
AcDbCircle
  6
CONTINUOUS
 62
7
 10
1.708956E+002
 20
4.96794E+001
 40
5.0E-001
100
AcDbArc
 50
1.8E+002
 51
2.7E+002
  0
ARC
  5
71e
100
AcDbEntity
  8
1
100
AcDbCircle
  6
CONTINUOUS
 62
7
 10
1.820456E+002
 20
5.54794E+001
 40
5.0E-001
100
AcDbArc
 50
9.0E+001
 51
1.8E+002
  0
LINE
  5
71f
100
AcDbEntity
  8
1
100
AcDbLine
  6
CONTINUOUS
 62
7
 10
1.834456E+002
 20
5.59794E+001
 11
1.834456E+002
 21
4.96794E+001
  0
ARC
  5
720
100
AcDbEntity
  8
1
100
AcDbCircle
  6
CONTINUOUS
 62
7
 10
1.829456E+002
 20
4.96794E+001
 40
5.0E-001
100
AcDbArc
 50
2.7E+002
 51
3.6E+002
  0
ARC
  5
721
100
AcDbEntity
  8
1
100
AcDbCircle
  6
CONTINUOUS
 62
7
 10
1.727956E+002
 20
5.73794E+001
 40
5.0E-001
100
AcDbArc
 50
9.0E+001
 51
1.8E+002
  0
ARC
  5
722
100
AcDbEntity
  8
1
100
AcDbCircle
  6
CONTINUOUS
 62
7
 10
1.727956E+002
 20
4.96794E+001
 40
5.0E-001
100
AcDbArc
 50
1.8E+002
 51
2.7E+002
  0
ARC
  5
723
100
AcDbEntity
  8
1
100
AcDbCircle
  6
CONTINUOUS
 62
7
 10
1.810456E+002
 20
4.96794E+001
 40
5.0E-001
100
AcDbArc
 50
2.7E+002
 51
3.6E+002
  0
ARC
  5
724
100
AcDbEntity
  8
1
100
AcDbCircle
  6
CONTINUOUS
 62
7
 10
1.810456E+002
 20
5.73794E+001
 40
5.0E-001
100
AcDbArc
 50
0.0
 51
9.0E+001
  0
LINE
  5
725
100
AcDbEntity
  8
1
100
AcDbLine
  6
CONTINUOUS
 62
7
 10
1.913456E+002
 20
5.73794E+001
 11
1.913456E+002
 21
4.96794E+001
  0
LINE
  5
726
100
AcDbEntity
  8
1
100
AcDbLine
  6
CONTINUOUS
 62
7
 10
2.005956E+002
 20
5.73794E+001
 11
2.005956E+002
 21
4.96794E+001
  0
LINE
  5
727
100
AcDbEntity
  8
1
100
AcDbLine
  6
CONTINUOUS
 62
7
 10
1.820456E+002
 20
5.59794E+001
 11
1.908456E+002
 21
5.59794E+001
  0
ARC
  5
728
100
AcDbEntity
  8
1
100
AcDbCircle
  6
CONTINUOUS
 62
7
 10
1.908456E+002
 20
5.54794E+001
 40
5.0E-001
100
AcDbArc
 50
0.0
 51
9.0E+001
  0
LINE
  5
729
100
AcDbEntity
  8
1
100
AcDbLine
  6
CONTINUOUS
 62
7
 10
1.894456E+002
 20
5.59794E+001
 11
1.894456E+002
 21
4.96794E+001
  0
ARC
  5
72a
100
AcDbEntity
  8
1
100
AcDbCircle
  6
CONTINUOUS
 62
7
 10
1.899456E+002
 20
4.96794E+001
 40
5.0E-001
100
AcDbArc
 50
1.8E+002
 51
2.7E+002
  0
ARC
  5
72b
100
AcDbEntity
  8
1
100
AcDbCircle
  6
CONTINUOUS
 62
7
 10
2.010956E+002
 20
5.54794E+001
 40
5.0E-001
100
AcDbArc
 50
9.0E+001
 51
1.8E+002
  0
LINE
  5
72c
100
AcDbEntity
  8
1
100
AcDbLine
  6
CONTINUOUS
 62
7
 10
2.024956E+002
 20
5.59794E+001
 11
2.024956E+002
 21
4.96794E+001
  0
ARC
  5
72d
100
AcDbEntity
  8
1
100
AcDbCircle
  6
CONTINUOUS
 62
7
 10
2.019956E+002
 20
4.96794E+001
 40
5.0E-001
100
AcDbArc
 50
2.7E+002
 51
3.6E+002
  0
ARC
  5
72e
100
AcDbEntity
  8
1
100
AcDbCircle
  6
CONTINUOUS
 62
7
 10
1.918456E+002
 20
5.73794E+001
 40
5.0E-001
100
AcDbArc
 50
9.0E+001
 51
1.8E+002
  0
ARC
  5
72f
100
AcDbEntity
  8
1
100
AcDbCircle
  6
CONTINUOUS
 62
7
 10
1.918456E+002
 20
4.96794E+001
 40
5.0E-001
100
AcDbArc
 50
1.8E+002
 51
2.7E+002
  0
ARC
  5
730
100
AcDbEntity
  8
1
100
AcDbCircle
  6
CONTINUOUS
 62
7
 10
2.000956E+002
 20
4.96794E+001
 40
5.0E-001
100
AcDbArc
 50
2.7E+002
 51
3.6E+002
  0
ARC
  5
731
100
AcDbEntity
  8
1
100
AcDbCircle
  6
CONTINUOUS
 62
7
 10
2.000956E+002
 20
5.73794E+001
 40
5.0E-001
100
AcDbArc
 50
0.0
 51
9.0E+001
  0
LINE
  5
732
100
AcDbEntity
  8
1
100
AcDbLine
  6
CONTINUOUS
 62
7
 10
2.430956E+002
 20
5.78794E+001
 11
9.1695604E+001
 21
5.78794E+001
  0
LINE
  5
733
100
AcDbEntity
  8
1
100
AcDbLine
  6
CONTINUOUS
 62
7
 10
2.103956E+002
 20
5.73794E+001
 11
2.103956E+002
 21
4.96794E+001
  0
LINE
  5
734
100
AcDbEntity
  8
1
100
AcDbLine
  6
CONTINUOUS
 62
7
 10
2.010956E+002
 20
5.59794E+001
 11
2.098956E+002
 21
5.59794E+001
  0
ARC
  5
735
100
AcDbEntity
  8
1
100
AcDbCircle
  6
CONTINUOUS
 62
7
 10
2.098956E+002
 20
5.54794E+001
 40
5.0E-001
100
AcDbArc
 50
0.0
 51
9.0E+001
  0
LINE
  5
736
100
AcDbEntity
  8
1
100
AcDbLine
  6
CONTINUOUS
 62
7
 10
2.084956E+002
 20
5.59794E+001
 11
2.084956E+002
 21
4.96794E+001
  0
ARC
  5
737
100
AcDbEntity
  8
1
100
AcDbCircle
  6
CONTINUOUS
 62
7
 10
2.089956E+002
 20
4.96794E+001
 40
5.0E-001
100
AcDbArc
 50
1.8E+002
 51
2.7E+002
  0
ARC
  5
738
100
AcDbEntity
  8
1
100
AcDbCircle
  6
CONTINUOUS
 62
7
 10
2.108956E+002
 20
5.73794E+001
 40
5.0E-001
100
AcDbArc
 50
9.0E+001
 51
1.8E+002
  0
ARC
  5
739
100
AcDbEntity
  8
1
100
AcDbCircle
  6
CONTINUOUS
 62
7
 10
2.108956E+002
 20
4.96794E+001
 40
5.0E-001
100
AcDbArc
 50
1.8E+002
 51
2.7E+002
  0
LINE
  5
73a
100
AcDbEntity
  8
1
100
AcDbLine
  6
CENTERLINE
 62
6
 10
5.513956E+002
 20
5.35294E+001
 11
8.7481654E+001
 21
5.35294E+001
  0
LINE
  5
73b
100
AcDbEntity
  8
1
100
AcDbLine
  6
CONTINUOUS
 62
7
 10
9.6095604E+001
 20
5.73794E+001
 11
9.6095604E+001
 21
4.96794E+001
  0
ARC
  5
73c
100
AcDbEntity
  8
1
100
AcDbCircle
  6
CONTINUOUS
 62
7
 10
9.6595604E+001
 20
5.73794E+001
 40
5.0E-001
100
AcDbArc
 50
9.0E+001
 51
1.8E+002
  0
ARC
  5
73d
100
AcDbEntity
  8
1
100
AcDbCircle
  6
CONTINUOUS
 62
7
 10
9.6595604E+001
 20
4.96794E+001
 40
5.0E-001
100
AcDbArc
 50
1.8E+002
 51
2.7E+002
  0
LINE
  5
73e
100
AcDbEntity
  8
1
100
AcDbLine
  6
CONTINUOUS
 62
7
 10
1.730206E+002
 20
1.4445089E+002
 11
1.808206E+002
 21
1.4445089E+002
  0
LINE
  5
73f
100
AcDbEntity
  8
1
100
AcDbLine
  6
CONTINUOUS
 62
7
 10
1.629956E+002
 20
5.59794E+001
 11
1.717956E+002
 21
5.59794E+001
  0
LINE
  5
740
100
AcDbEntity
  8
1
100
AcDbLine
  6
CONTINUOUS
 62
7
 10
2.0
 20
2.0
 11
5.98E+002
 21
2.0
  0
LINE
  5
741
100
AcDbEntity
  8
1
100
AcDbLine
  6
CONTINUOUS
 62
7
 10
5.98E+002
 20
2.0
 11
5.98E+002
 21
2.08E+002
  0
LINE
  5
742
100
AcDbEntity
  8
1
100
AcDbLine
  6
CONTINUOUS
 62
7
 10
5.98E+002
 20
2.08E+002
 11
2.0
 21
2.08E+002
  0
LINE
  5
743
100
AcDbEntity
  8
1
100
AcDbLine
  6
CONTINUOUS
 62
7
 10
2.0
 20
2.08E+002
 11
2.0
 21
2.0
  0
TEXT
  5
744
100
AcDbEntity
  8
1
100
AcDbText
  6
CONTINUOUS
 62
7
 10
5.648E+002
 20
4.0
 40
3.0
  1
DATE2020.5.1
 41
8.0E-001
 72
2
 11
5.96E+002
 21
4.0
100
AcDbText
  0
INSERT
  5
745
100
AcDbEntity
100
AcDbBlockReference
  2
BTO6_1524_ANA
  8
1
 10
9.1195604E+001
 20
1.4725089E+002
  0
INSERT
  5
746
100
AcDbEntity
100
AcDbBlockReference
  2
BTO6_1524_ANA
  8
1
 10
2.435956E+002
 20
1.4725089E+002
  0
INSERT
  5
747
100
AcDbEntity
100
AcDbBlockReference
  2
BTO6_1524_ANA
  8
1
 10
3.959956E+002
 20
1.4725089E+002
  0
INSERT
  5
748
100
AcDbEntity
100
AcDbBlockReference
  2
BTO6_1524_ANA
  8
1
 10
3.197956E+002
 20
1.2820089E+002
  0
INSERT
  5
749
100
AcDbEntity
100
AcDbBlockReference
  2
BTO6_1524_ANA
  8
1
 10
1.673956E+002
 20
1.2820089E+002
  0
INSERT
  5
74a
100
AcDbEntity
100
AcDbBlockReference
  2
BTO6_1524_ANA
  8
1
 10
9.1195604E+001
 20
1.0915089E+002
  0
INSERT
  5
74b
100
AcDbEntity
100
AcDbBlockReference
  2
BTO6_1524_ANA
  8
1
 10
2.435956E+002
 20
1.0915089E+002
  0
INSERT
  5
74c
100
AcDbEntity
100
AcDbBlockReference
  2
BTO6_1524_ANA
  8
1
 10
3.959956E+002
 20
1.0915089E+002
  0
INSERT
  5
74d
100
AcDbEntity
100
AcDbBlockReference
  2
BTO6_762_ANA
  8
1
 10
4.721956E+002
 20
1.2820089E+002
  0
INSERT
  5
74e
100
AcDbEntity
100
AcDbBlockReference
  2
BTO6_762_ANA
  8
1
 10
9.1195604E+001
 20
1.2820089E+002
  0
VIEWPORT
  5
74f
100
AcDbEntity
 67
1
  8
0
  6
CONTINUOUS
 62
3
100
AcDbViewport
 10
3.0E+002
 20
1.05E+002
 30
0.0
 40
2.1E+002
 41
2.1E+002
 68
1
 69
1
1001
ACAD
1000
MVIEW
1002
{
1070
16
1010
0.0
1020
0.0
1030
0.0
1010
0.0
1020
0.0
1030
1.0
1040
0.0
1040
2.1E+002
1040
1.65E+002
1040
1.05E+002
1040
5.0E+001
1040
0.0
1040
0.0
1070
0
1070
1000
1070
1
1070
0
1070
0
1070
0
1070
0
1070
0
1040
0.0
1040
0.0
1040
0.0
1040
5.0E-001
1040
5.0E-001
1040
5.0E-001
1040
5.0E-001
1070
0
1002
{
1002
}
1002
}
  0
VIEWPORT
  5
750
100
AcDbEntity
 67
1
  8
0
100
AcDbViewport
 62
3
 10
3.0E+002
 20
1.05E+002
 30
0.0
 40
6.0E+002
 41
2.1E+002
 68
2
 69
2
1001
ACAD
1000
MVIEW
1002
{
1070
16
1010
0.0
1020
0.0
1030
0.0
1010
0.0
1020
0.0
1030
1.0
1040
0.0
1040
2.1E+002
1040
3.0E+002
1040
1.05E+002
1040
5.0E+001
1040
0.0
1040
0.0
1070
0
1070
1000
1070
1
1070
0
1070
0
1070
0
1070
0
1070
0
1040
0.0
1040
0.0
1040
0.0
1040
5.0E-001
1040
5.0E-001
1040
5.0E-001
1040
5.0E-001
1070
0
1002
{
1002
}
1002
}
  0
ENDSEC
  0
SECTION
  2
OBJECTS
  0
DICTIONARY
  5
751
100
AcDbDictionary
  3
ACAD_GROUP
350
752
  3
ACAD_MLINESTYLE
350
753
  0
DICTIONARY
  5
752
102
{ACAD_REACTORS
330
751
102
}
100
AcDbDictionary
  0
DICTIONARY
  5
753
102
{ACAD_REACTORS
330
751
102
}
100
AcDbDictionary
  3
STANDARD
350
754
  0
MLINESTYLE
  5
754
102
{ACAD_REACTORS
330
753
102
}
100
AcDbMlineStyle
  2
STANDARD
 70
0
  3

 62
256
 51
9.0E+001
 52
9.0E+001
 71
2
 49
5.0E-001
 62
256
  6
BYLAYER
 49
-5.0E-001
 62
256
  6
BYLAYER
  0
ENDSEC
  0
EOF
