  0
SECTION
  2
HEADER
  9
$ACADVER
  1
AC1014
999
I-DEAS 13 NX Not Encoded
  9
$EXTMIN
 10
0.0
 20
0.0
  9
$EXTMAX
 10
2.97E+002
 20
2.1E+002
  9
$TEXTSIZE
 40
1.25E-001
  9
$LTSCALE
 40
1.0
  9
$CLAYER
  8
1
  9
$CECOLOR
 62
1
  9
$DIMASZ
 40
1.25E-001
  9
$DIMEXO
 40
6.25E-002
  9
$DIMDLI
 40
2.5E-001
  9
$DIMEXE
 40
1.25E-001
  9
$DIMTP
 40
5.0E-003
  9
$DIMTM
 40
-5.0E-003
  9
$DIMTXT
 40
3.0
  9
$DIMLIM
 70
0
  9
$DIMTIH
 70
1
  9
$DIMTOH
 70
1
  9
$DIMSE1
 70
0
  9
$DIMSE2
 70
0
  9
$DIMTAD
 70
0
  9
$DIMASO
 70
1
  9
$DIMALT
 70
0
  9
$DIMALTD
 70
0
  9
$DIMTOFL
 70
1
  9
$DIMTIX
 70
0
  9
$DIMSAH
 70
0
  9
$DIMSTYLE
  2
DSTYLE1
  9
$DIMTFAC
 40
1.0
  9
$DIMGAP
 40
6.25E-002
  9
$LUNITS
 70
2
  9
$LUPREC
 70
3
  9
$FILLETRAD
 40
7.0E-001
  9
$AUNITS
 70
0
  9
$AUPREC
 70
1
  9
$CHAMFERA
 40
1.0
  9
$CHAMFERB
 40
1.0
  9
$ANGBASE
 50
0.0
  9
$ANGDIR
 70
0
  9
$PEXTMIN
 10
0.0
 20
0.0
 30
0.0
  9
$PEXTMAX
 10
2.97E+002
 20
2.1E+002
 30
0.0
  9
$PLIMMIN
 10
0.0
 20
0.0
  9
$PLIMMAX
 10
2.97E+002
 20
2.1E+002
  9
$PDMODE
 70
2
  9
$PDSIZE
 40
-1.0E-002
  9
$SPLINETYPE
 70
6
  9
$TILEMODE
 70
0
  9
$HANDLING
 70
1
  9
$HANDSEED
  5
f4240
  0
ENDSEC
  0
SECTION
  2
TABLES
  0
TABLE
  2
VPORT
  5
64
100
AcDbSymbolTable
 70
2
  0
VPORT
  5
65
100
AcDbSymbolTableRecord
100
AcDbViewportTableRecord
  2
*Active
 70
0
 10
0.0
 20
0.0
 11
2.97E+002
 21
2.1E+002
 12
1.485E+002
 22
1.05E+002
 13
0.0
 23
0.0
 14
1.0
 24
1.0
 15
0.0
 25
0.0
 16
0.0
 26
0.0
 36
1.0
 17
0.0
 27
0.0
 37
0.0
 40
2.1E+002
 41
1.4142857
 42
5.0E+001
 43
0.0
 44
0.0
 50
0.0
 51
0.0
 71
0
 72
1000
 73
1
 74
3
 75
0
 76
0
 77
0
 78
0
  0
ENDTAB
  0
TABLE
  2
LTYPE
  5
66
100
AcDbSymbolTable
 70
9
  0
LTYPE
  5
67
100
AcDbSymbolTableRecord
100
AcDbLinetypeTableRecord
  2
BYBLOCK
 70
0
  3

 72
65
 73
0
 40
0.0
  0
LTYPE
  5
68
100
AcDbSymbolTableRecord
100
AcDbLinetypeTableRecord
  2
BYLAYER
 70
0
  3

 72
65
 73
0
 40
0.0
  0
LTYPE
  5
69
100
AcDbSymbolTableRecord
100
AcDbLinetypeTableRecord
  2
CONTINUOUS
 70
0
  3

 72
65
 73
0
 40
0.0
  0
LTYPE
  5
6a
100
AcDbSymbolTableRecord
100
AcDbLinetypeTableRecord
  2
HIDDENNEW0
  3
_ 
 70
64
 72
65
 73
3
 40
4.5
 49
1.5
 74
0
 49
-1.5
 74
0
 49
1.5
 74
0
  0
LTYPE
  5
6b
100
AcDbSymbolTableRecord
100
AcDbLinetypeTableRecord
  2
HIDDENNEW1
  3
_ 
 70
64
 72
65
 73
3
 40
4.5
 49
1.5
 74
0
 49
-1.5
 74
0
 49
1.5
 74
0
  0
LTYPE
  5
6c
100
AcDbSymbolTableRecord
100
AcDbLinetypeTableRecord
  2
HIDDEN
  3
_ 
 70
64
 72
65
 73
3
 40
4.5
 49
1.5
 74
0
 49
-1.5
 74
0
 49
1.5
 74
0
  0
LTYPE
  5
6d
100
AcDbSymbolTableRecord
100
AcDbLinetypeTableRecord
  2
CENTERLINE
  3
_ 
 70
64
 72
65
 73
5
 40
3.0E+001
 49
1.2E+001
 74
0
 49
-1.5
 74
0
 49
3.0
 74
0
 49
-1.5
 74
0
 49
1.2E+001
 74
0
  0
LTYPE
  5
6e
100
AcDbSymbolTableRecord
100
AcDbLinetypeTableRecord
  2
PHANTOM
  3
_ 
 70
64
 72
65
 73
7
 40
2.95E+001
 49
9.5
 74
0
 49
-1.5
 74
0
 49
3.0
 74
0
 49
-1.5
 74
0
 49
3.0
 74
0
 49
-1.5
 74
0
 49
9.5
 74
0
  0
LTYPE
  5
6f
100
AcDbSymbolTableRecord
100
AcDbLinetypeTableRecord
  2
SHORT_DASH
  3
_ 
 70
64
 72
65
 73
3
 40
3.0
 49
7.5E-001
 74
0
 49
-1.5
 74
0
 49
7.5E-001
 74
0
  0
LTYPE
  5
70
100
AcDbSymbolTableRecord
100
AcDbLinetypeTableRecord
  2
LONG_DASH
  3
_ 
 70
64
 72
65
 73
3
 40
9.0
 49
2.25
 74
0
 49
-4.5
 74
0
 49
2.25
 74
0
  0
LTYPE
  5
71
100
AcDbSymbolTableRecord
100
AcDbLinetypeTableRecord
  2
CENTER_C
  3
_ 
 70
64
 72
65
 73
5
 40
3.5
 49
1.0
 74
0
 49
-5.0E-001
 74
0
 49
5.0E-001
 74
0
 49
-5.0E-001
 74
0
 49
1.0
 74
0
  0
LTYPE
  5
72
100
AcDbSymbolTableRecord
100
AcDbLinetypeTableRecord
  2
CETER_SS
  3
_ 
 70
64
 72
65
 73
5
 40
1.4
 49
4.0E-001
 74
0
 49
-2.0E-001
 74
0
 49
2.0E-001
 74
0
 49
-2.0E-001
 74
0
 49
4.0E-001
 74
0
  0
ENDTAB
  0
TABLE
  2
LAYER
  5
73
100
AcDbSymbolTable
 70
258
  0
LAYER
  5
74
100
AcDbSymbolTableRecord
100
AcDbLayerTableRecord
  2
0
 70
0
 62
7
  6
CONTINUOUS
  0
LAYER
  5
75
100
AcDbSymbolTableRecord
100
AcDbLayerTableRecord
  2
1
 70
0
 62
7
  6
CONTINUOUS
  0
LAYER
  5
76
100
AcDbSymbolTableRecord
100
AcDbLayerTableRecord
  2
AM_VIEWS
 70
0
 62
3
  6
CONTINUOUS
  0
LAYER
  5
77
100
AcDbSymbolTableRecord
100
AcDbLayerTableRecord
  2
Drafting_Hidden_Entities
 70
1
 62
7
  6
CONTINUOUS
  0
ENDTAB
  0
TABLE
  2
STYLE
  5
78
100
AcDbSymbolTable
 70
1
  0
STYLE
  5
79
100
AcDbSymbolTableRecord
100
AcDbTextStyleTableRecord
  2
STANDARD
 70
64
 40
0.0
 41
1.0
 50
0.0
 71
0
 42
1.0
  3
monotxt.shx
  4
bigfont.shx
  0
ENDTAB
  0
TABLE
  2
VIEW
  5
7a
100
AcDbSymbolTable
 70
0
  0
ENDTAB
  0
TABLE
  2
UCS
  5
7b
100
AcDbSymbolTable
 70
0
  0
ENDTAB
  0
TABLE
  2
APPID
  5
7c
100
AcDbSymbolTable
 70
1
  0
APPID
  5
7d
100
AcDbSymbolTableRecord
100
AcDbRegAppTableRecord
  2
ACAD
 70
1
  0
ENDTAB
  0
TABLE
  2
DIMSTYLE
  5
7e
100
AcDbSymbolTable
 70
6
  0
DIMSTYLE
105
7f
100
AcDbSymbolTableRecord
100
AcDbDimStyleTableRecord
  2
DSTYLE1
 70
0
  3

  4

  5

  6

  7

 40
1.0
 41
1.5
 42
5.0E-001
 43
3.8E-001
 44
5.0E-001
 45
1.0E-002
 46
0.0
 47
1.0
 48
1.0
 71
0
 72
0
 73
0
 74
0
 75
0
 76
1
 77
1
 78
11
140
3.0
141
9.0E-002
142
0.0
143
3.9370079E-002
144
1.0
145
0.0
146
1.0
147
5.0E-001
170
0
171
2
172
0
173
0
174
0
175
0
176
0
177
0
178
0
270
2
271
2
272
4
273
2
274
2
275
0
280
0
281
0
282
0
283
1
284
0
285
0
286
0
287
3
288
0
  0
DIMSTYLE
105
80
100
AcDbSymbolTableRecord
100
AcDbDimStyleTableRecord
  2
DSTYLE2
 70
0
  3

  4

  5

  6

  7

 40
1.0
 41
1.5
 42
5.0E-001
 43
3.8E-001
 44
5.0E-001
 45
1.0E-002
 46
0.0
 47
1.0
 48
1.0
 71
0
 72
0
 73
0
 74
0
 75
1
 76
1
 77
1
 78
11
140
3.0
141
9.0E-002
142
0.0
143
3.9370079E-002
144
1.0
145
0.0
146
1.0
147
5.0E-001
170
0
171
2
172
0
173
0
174
0
175
0
176
0
177
0
178
0
270
2
271
2
272
4
273
2
274
2
275
0
280
0
281
0
282
0
283
1
284
0
285
0
286
0
287
3
288
0
  0
DIMSTYLE
105
81
100
AcDbSymbolTableRecord
100
AcDbDimStyleTableRecord
  2
DSTYLE3
 70
0
  3

  4

  5

  6

  7

 40
1.0
 41
1.5
 42
5.0E-001
 43
3.8E-001
 44
5.0E-001
 45
1.0E-002
 46
0.0
 47
1.0
 48
1.0
 71
0
 72
0
 73
0
 74
0
 75
0
 76
0
 77
1
 78
11
140
3.0
141
9.0E-002
142
0.0
143
3.9370079E-002
144
1.0
145
0.0
146
1.0
147
5.0E-001
170
0
171
2
172
0
173
0
174
0
175
0
176
0
177
0
178
0
270
2
271
2
272
4
273
2
274
2
275
0
280
0
281
0
282
0
283
1
284
0
285
0
286
0
287
3
288
0
  0
DIMSTYLE
105
82
100
AcDbSymbolTableRecord
100
AcDbDimStyleTableRecord
  2
DSTYLE4
 70
0
  3

  4

  5

  6

  7

 40
1.0
 41
1.8
 42
6.0E-001
 43
3.8E-001
 44
1.2
 45
1.0E-002
 46
0.0
 47
1.0
 48
1.0
 71
0
 72
0
 73
0
 74
0
 75
0
 76
0
 77
1
 78
11
140
3.0
141
9.0E-002
142
0.0
143
3.9370079E-002
144
1.0
145
0.0
146
1.0
147
6.0E-001
170
0
171
2
172
0
173
0
174
0
175
0
176
0
177
0
178
0
270
2
271
2
272
4
273
2
274
2
275
0
280
0
281
0
282
0
283
1
284
0
285
0
286
0
287
3
288
0
  0
DIMSTYLE
105
83
100
AcDbSymbolTableRecord
100
AcDbDimStyleTableRecord
  2
DSTYLE5
 70
0
  3

  4

  5

  6

  7

 40
1.0
 41
1.5
 42
5.0E-001
 43
3.8E-001
 44
5.0E-001
 45
1.0E-001
 46
0.0
 47
1.0
 48
1.0
 71
0
 72
0
 73
0
 74
0
 75
0
 76
0
 77
1
 78
3
140
3.0
141
9.0E-002
142
0.0
143
3.9370079E-002
144
1.0
145
0.0
146
1.0
147
1.0
170
0
171
2
172
0
173
0
174
0
175
0
176
0
177
0
178
0
270
2
271
1
272
4
273
2
274
2
275
0
280
0
281
0
282
0
283
1
284
0
285
0
286
0
287
3
288
0
  0
DIMSTYLE
105
84
100
AcDbSymbolTableRecord
100
AcDbDimStyleTableRecord
  2
DSTYLE6
 70
0
  3

  4

  5

  6

  7

 40
1.0
 41
2.0
 42
5.0E-001
 43
3.8E-001
 44
5.0E-001
 45
1.0E-002
 46
0.0
 47
1.0
 48
1.0
 71
0
 72
0
 73
0
 74
0
 75
0
 76
1
 77
1
 78
3
140
3.0
141
9.0E-002
142
0.0
143
3.9370079E-002
144
1.0
145
0.0
146
1.0
147
5.0E-001
170
0
171
2
172
0
173
0
174
0
175
0
176
0
177
0
178
0
270
2
271
2
272
4
273
2
274
2
275
0
280
0
281
0
282
0
283
1
284
0
285
0
286
0
287
3
288
0
  0
ENDTAB
  0
TABLE
  2
BLOCK_RECORD
  5
85
100
AcDbSymbolTable
 70
0
  0
BLOCK_RECORD
  5
86
100
AcDbSymbolTableRecord
100
AcDbBlockTableRecord
  2
*MODEL_SPACE
  0
BLOCK_RECORD
  5
87
100
AcDbSymbolTableRecord
100
AcDbBlockTableRecord
  2
*PAPER_SPACE
  0
BLOCK_RECORD
  5
88
100
AcDbSymbolTableRecord
100
AcDbBlockTableRecord
  2
*D188
  0
BLOCK_RECORD
  5
89
100
AcDbSymbolTableRecord
100
AcDbBlockTableRecord
  2
*D189
  0
BLOCK_RECORD
  5
8a
100
AcDbSymbolTableRecord
100
AcDbBlockTableRecord
  2
*D190
  0
BLOCK_RECORD
  5
8b
100
AcDbSymbolTableRecord
100
AcDbBlockTableRecord
  2
*D8551
  0
BLOCK_RECORD
  5
8c
100
AcDbSymbolTableRecord
100
AcDbBlockTableRecord
  2
*D10655
  0
BLOCK_RECORD
  5
8d
100
AcDbSymbolTableRecord
100
AcDbBlockTableRecord
  2
*D23750
  0
BLOCK_RECORD
  5
8e
100
AcDbSymbolTableRecord
100
AcDbBlockTableRecord
  2
_AH1
  0
BLOCK_RECORD
  5
8f
100
AcDbSymbolTableRecord
100
AcDbBlockTableRecord
  2
_AH2
  0
BLOCK_RECORD
  5
90
100
AcDbSymbolTableRecord
100
AcDbBlockTableRecord
  2
_AH12
  3
_AH
  0
BLOCK_RECORD
  5
91
100
AcDbSymbolTableRecord
100
AcDbBlockTableRecord
  2
_AH13
  3
_AH
  0
BLOCK_RECORD
  5
92
100
AcDbSymbolTableRecord
100
AcDbBlockTableRecord
  2
_AH14
  3
_AH
  0
BLOCK_RECORD
  5
93
100
AcDbSymbolTableRecord
100
AcDbBlockTableRecord
  2
_AH15
  3
_AH
  0
BLOCK_RECORD
  5
94
100
AcDbSymbolTableRecord
100
AcDbBlockTableRecord
  2
_AH16
  3
_AH
  0
BLOCK_RECORD
  5
95
100
AcDbSymbolTableRecord
100
AcDbBlockTableRecord
  2
_AH17
  3
_AH
  0
BLOCK_RECORD
  5
96
100
AcDbSymbolTableRecord
100
AcDbBlockTableRecord
  2
_AH18
  3
_AH
  0
BLOCK_RECORD
  5
97
100
AcDbSymbolTableRecord
100
AcDbBlockTableRecord
  2
_AH19
  3
_AH
  0
BLOCK_RECORD
  5
98
100
AcDbSymbolTableRecord
100
AcDbBlockTableRecord
  2
_AH20
  3
_AH
  0
BLOCK_RECORD
  5
99
100
AcDbSymbolTableRecord
100
AcDbBlockTableRecord
  2
_AH21
  3
_AH
  0
BLOCK_RECORD
  5
9a
100
AcDbSymbolTableRecord
100
AcDbBlockTableRecord
  2
BTN6_762_IN
  0
BLOCK_RECORD
  5
9b
100
AcDbSymbolTableRecord
100
AcDbBlockTableRecord
  2
*TX37
  3
*TX
  0
ENDTAB
  0
ENDSEC
  0
SECTION
  2
BLOCKS
  0
BLOCK
  5
9c
100
AcDbEntity
100
AcDbBlockBegin
  2
*MODEL_SPACE
 70
0
 10
0.0
 20
0.0
 30
0.0
  3
*MODEL_SPACE
  1

  0
ENDBLK
  5
9d
100
AcDbEntity
100
AcDbBlockEnd
  0
BLOCK
  5
9e
100
AcDbEntity
100
AcDbBlockBegin
  2
*PAPER_SPACE
 70
0
 10
0.0
 20
0.0
 30
0.0
  3
*PAPER_SPACE
  1

  0
ENDBLK
  5
9f
100
AcDbEntity
100
AcDbBlockEnd
  0
BLOCK
  5
a0
100
AcDbEntity
100
AcDbBlockBegin
  2
_AH12
  3
_AH
 10
0.0
 20
0.0
 70
64
  0
LINE
  5
a1
100
AcDbEntity
  8
0
100
AcDbLine
  6
CONTINUOUS
 62
0
 10
0.0
 20
0.0
 11
1.0
 21
0.0
  0
LINE
  5
a2
100
AcDbEntity
  8
0
100
AcDbLine
  6
CONTINUOUS
 62
0
 10
0.0
 20
0.0
 11
-1.0
 21
0.0
  0
ENDBLK
  5
a3
100
AcDbEntity
100
AcDbBlockEnd
  0
BLOCK
  5
a4
100
AcDbEntity
100
AcDbBlockBegin
  2
_AH13
  3
_AH
 10
0.0
 20
0.0
 70
64
  0
SOLID
  5
a5
100
AcDbEntity
  8
0
100
AcDbTrace
  6
CONTINUOUS
 62
0
 10
0.0
 20
0.0
 11
1.0
 21
-1.66667E-001
 12
1.0
 22
1.66667E-001
 13
0.0
 23
0.0
  0
ENDBLK
  5
a6
100
AcDbEntity
100
AcDbBlockEnd
  0
BLOCK
  5
a7
100
AcDbEntity
100
AcDbBlockBegin
  2
_AH14
  3
_AH
 10
0.0
 20
0.0
 70
64
  0
ENDBLK
  5
a8
100
AcDbEntity
100
AcDbBlockEnd
  0
BLOCK
  5
a9
100
AcDbEntity
100
AcDbBlockBegin
  2
_AH15
  3
_AH
 10
0.0
 20
0.0
 70
64
  0
CIRCLE
  5
aa
100
AcDbEntity
  8
0
100
AcDbCircle
  6
CONTINUOUS
 62
0
 10
0.0
 20
0.0
 40
1.66667E-001
  0
LINE
  5
ab
100
AcDbEntity
  8
0
100
AcDbLine
  6
CONTINUOUS
 62
0
 10
0.0
 20
0.0
 11
-1.0
 21
0.0
  0
ENDBLK
  5
ac
100
AcDbEntity
100
AcDbBlockEnd
  0
BLOCK
  5
ad
100
AcDbEntity
100
AcDbBlockBegin
  2
_AH16
  3
_AH
 10
0.0
 20
0.0
 70
64
  0
POLYLINE
  5
ae
100
AcDbEntity
  8
0
100
AcDb2dPolyline
  6
CONTINUOUS
 62
0
 66
1
 40
1.66667E-001
 41
1.66667E-001
 70
0
  0
VERTEX
  5
af
100
AcDbEntity
  8
0
100
AcDbVertex
100
AcDb2dVertex
 42
1.0
 10
8.3335E-002
 20
0.0
 70
0
  0
VERTEX
  5
b0
100
AcDbEntity
  8
0
100
AcDbVertex
100
AcDb2dVertex
 42
1.0
 10
-8.3335E-002
 20
0.0
 70
0
  0
VERTEX
  5
b1
100
AcDbEntity
  8
0
100
AcDbVertex
100
AcDb2dVertex
 42
0.0
 10
8.3335E-002
 20
0.0
 70
0
  0
SEQEND
  5
b2
100
AcDbEntity
  0
LINE
  5
b3
100
AcDbEntity
  8
0
100
AcDbLine
  6
CONTINUOUS
 62
0
 10
0.0
 20
0.0
 11
-1.0
 21
0.0
  0
ENDBLK
  5
b4
100
AcDbEntity
100
AcDbBlockEnd
  0
BLOCK
  5
b5
100
AcDbEntity
100
AcDbBlockBegin
  2
_AH17
  3
_AH
 10
0.0
 20
0.0
 70
64
  0
LINE
  5
b6
100
AcDbEntity
  8
0
100
AcDbLine
  6
CONTINUOUS
 62
0
 10
-1.66667E-001
 20
-1.66667E-001
 11
1.66667E-001
 21
-1.66667E-001
  0
LINE
  5
b7
100
AcDbEntity
  8
0
100
AcDbLine
  6
CONTINUOUS
 62
0
 10
1.66667E-001
 20
-1.66667E-001
 11
1.66667E-001
 21
1.66667E-001
  0
LINE
  5
b8
100
AcDbEntity
  8
0
100
AcDbLine
  6
CONTINUOUS
 62
0
 10
1.66667E-001
 20
1.66667E-001
 11
-1.66667E-001
 21
1.66667E-001
  0
LINE
  5
b9
100
AcDbEntity
  8
0
100
AcDbLine
  6
CONTINUOUS
 62
0
 10
-1.66667E-001
 20
1.66667E-001
 11
-1.66667E-001
 21
-1.66667E-001
  0
LINE
  5
ba
100
AcDbEntity
  8
0
100
AcDbLine
  6
CONTINUOUS
 62
0
 10
0.0
 20
0.0
 11
-1.0
 21
0.0
  0
ENDBLK
  5
bb
100
AcDbEntity
100
AcDbBlockEnd
  0
BLOCK
  5
bc
100
AcDbEntity
100
AcDbBlockBegin
  2
_AH18
  3
_AH
 10
0.0
 20
0.0
 70
64
  0
SOLID
  5
bd
100
AcDbEntity
  8
0
100
AcDbTrace
  6
CONTINUOUS
 62
0
 10
-1.66667E-001
 20
-1.66667E-001
 11
1.66667E-001
 21
-1.66667E-001
 12
-1.66667E-001
 22
1.66667E-001
 13
1.66667E-001
 23
1.66667E-001
  0
LINE
  5
be
100
AcDbEntity
  8
0
100
AcDbLine
  6
CONTINUOUS
 62
0
 10
0.0
 20
0.0
 11
-1.0
 21
0.0
  0
ENDBLK
  5
bf
100
AcDbEntity
100
AcDbBlockEnd
  0
BLOCK
  5
c0
100
AcDbEntity
100
AcDbBlockBegin
  2
_AH19
  3
_AH
 10
0.0
 20
0.0
 70
64
  0
LINE
  5
c1
100
AcDbEntity
  8
0
100
AcDbLine
  6
CONTINUOUS
 62
0
 10
-5.0E-001
 20
-5.0E-001
 11
5.0E-001
 21
5.0E-001
  0
LINE
  5
c2
100
AcDbEntity
  8
0
100
AcDbLine
  6
CONTINUOUS
 62
0
 10
0.0
 20
0.0
 11
-1.0
 21
0.0
  0
ENDBLK
  5
c3
100
AcDbEntity
100
AcDbBlockEnd
  0
BLOCK
  5
c4
100
AcDbEntity
100
AcDbBlockBegin
  2
_AH20
  3
_AH
 10
0.0
 20
0.0
 70
64
  0
POLYLINE
  5
c5
100
AcDbEntity
  8
0
100
AcDb2dPolyline
  6
CONTINUOUS
 62
0
 66
1
 40
5.0E-001
 41
5.0E-001
 70
0
  0
VERTEX
  5
c6
100
AcDbEntity
  8
0
100
AcDbVertex
100
AcDb2dVertex
 42
4.1421356E-001
 10
-1.66667E-001
 20
-1.66667E-001
 70
0
  0
VERTEX
  5
c7
100
AcDbEntity
  8
0
100
AcDbVertex
100
AcDb2dVertex
 42
0.0
 10
0.0
 20
0.0
 70
0
  0
SEQEND
  5
c8
100
AcDbEntity
  0
POLYLINE
  5
c9
100
AcDbEntity
  8
0
100
AcDb2dPolyline
  6
CONTINUOUS
 62
0
 66
1
 40
5.0E-001
 41
5.0E-001
 70
0
  0
VERTEX
  5
ca
100
AcDbEntity
  8
0
100
AcDbVertex
100
AcDb2dVertex
 42
4.1421356E-001
 10
1.66667E-001
 20
1.66667E-001
 70
0
  0
VERTEX
  5
cb
100
AcDbEntity
  8
0
100
AcDbVertex
100
AcDb2dVertex
 42
0.0
 10
0.0
 20
0.0
 70
0
  0
SEQEND
  5
cc
100
AcDbEntity
  0
LINE
  5
cd
100
AcDbEntity
  8
0
100
AcDbLine
  6
CONTINUOUS
 62
0
 10
0.0
 20
0.0
 11
-1.0
 21
0.0
  0
ENDBLK
  5
ce
100
AcDbEntity
100
AcDbBlockEnd
  0
BLOCK
  5
cf
100
AcDbEntity
100
AcDbBlockBegin
  2
_AH21
  3
_AH
 10
0.0
 20
0.0
 70
64
  0
LINE
  5
d0
100
AcDbEntity
  8
0
100
AcDbLine
  6
CONTINUOUS
 62
0
 10
0.0
 20
0.0
 11
-1.0
 21
-1.66667E-001
  0
LINE
  5
d1
100
AcDbEntity
  8
0
100
AcDbLine
  6
CONTINUOUS
 62
0
 10
-1.0
 20
-1.66667E-001
 11
-1.0
 21
1.66667E-001
  0
LINE
  5
d2
100
AcDbEntity
  8
0
100
AcDbLine
  6
CONTINUOUS
 62
0
 10
-1.0
 20
1.66667E-001
 11
0.0
 21
0.0
  0
ENDBLK
  5
d3
100
AcDbEntity
100
AcDbBlockEnd
  0
BLOCK
  5
d4
100
AcDbEntity
100
AcDbBlockBegin
  2
BTN6_762_IN
 10
0.0
 20
0.0
 70
0
  0
LINE
  5
d5
100
AcDbEntity
  8
1
100
AcDbLine
  6
CONTINUOUS
 62
7
 10
4.4545051E+001
 20
-1.449E+001
 11
5.0704949E+001
 21
-1.449E+001
  0
LINE
  5
d6
100
AcDbEntity
  8
1
100
AcDbLine
  6
CONTINUOUS
 62
7
 10
6.3595051E+001
 20
-1.449E+001
 11
6.9754949E+001
 21
-1.449E+001
  0
LINE
  5
d7
100
AcDbEntity
  8
1
100
AcDbLine
  6
CONTINUOUS
 62
7
 10
2.5495051E+001
 20
-1.449E+001
 11
3.1654949E+001
 21
-1.449E+001
  0
LINE
  5
d8
100
AcDbEntity
  8
1
100
AcDbLine
  6
CONTINUOUS
 62
7
 10
6.4450505
 20
-1.449E+001
 11
1.2604949E+001
 21
-1.449E+001
  0
LINE
  5
d9
100
AcDbEntity
  8
1
100
AcDbLine
  6
CONTINUOUS
 62
7
 10
1.5970902E+001
 20
-4.35
 11
2.2129098E+001
 21
-4.35
  0
LINE
  5
da
100
AcDbEntity
  8
1
100
AcDbLine
  6
CONTINUOUS
 62
7
 10
3.5020051E+001
 20
-4.35
 11
4.1179098E+001
 21
-4.35
  0
LINE
  5
db
100
AcDbEntity
  8
1
100
AcDbLine
  6
CONTINUOUS
 62
7
 10
5.4070902E+001
 20
-4.35
 11
6.0229098E+001
 21
-4.35
  0
LINE
  5
dc
100
AcDbEntity
  8
1
100
AcDbLine
  6
CONTINUOUS
 62
7
 10
2.011066E+001
 20
-6.3692893
 11
2.2164214E+001
 21
-4.3157359
  0
LINE
  5
dd
100
AcDbEntity
  8
1
100
AcDbLine
  6
CONTINUOUS
 62
7
 10
1.798934E+001
 20
-6.3692893
 11
1.5935786E+001
 21
-4.3157359
  0
ARC
  5
de
100
AcDbEntity
  8
1
100
AcDbCircle
  6
CONTINUOUS
 62
7
 10
1.905E+001
 20
-5.3086292
 40
1.5
100
AcDbArc
 50
2.25E+002
 51
3.15E+002
  0
LINE
  5
df
100
AcDbEntity
  8
1
100
AcDbLine
  6
CONTINUOUS
 62
7
 10
2.245E+001
 20
-2.0E-001
 11
1.565E+001
 21
-2.0E-001
  0
LINE
  5
e0
100
AcDbEntity
  8
1
100
AcDbLine
  6
CONTINUOUS
 62
7
 10
1.535E+001
 20
-5.0E-001
 11
1.535E+001
 21
-2.9015224
  0
LINE
  5
e1
100
AcDbEntity
  8
1
100
AcDbLine
  6
CONTINUOUS
 62
7
 10
2.275E+001
 20
-5.0E-001
 11
2.275E+001
 21
-2.9015224
  0
ARC
  5
e2
100
AcDbEntity
  8
1
100
AcDbCircle
  6
CONTINUOUS
 62
7
 10
2.075E+001
 20
-2.9015224
 40
2.0
100
AcDbArc
 50
3.15E+002
 51
3.6E+002
  0
ARC
  5
e3
100
AcDbEntity
  8
1
100
AcDbCircle
  6
CONTINUOUS
 62
7
 10
1.735E+001
 20
-2.9015224
 40
2.0
100
AcDbArc
 50
1.8E+002
 51
2.25E+002
  0
ARC
  5
e4
100
AcDbEntity
  8
1
100
AcDbCircle
  6
CONTINUOUS
 62
7
 10
1.565E+001
 20
-5.0E-001
 40
3.0E-001
100
AcDbArc
 50
9.0E+001
 51
1.8E+002
  0
ARC
  5
e5
100
AcDbEntity
  8
1
100
AcDbCircle
  6
CONTINUOUS
 62
7
 10
2.245E+001
 20
-5.0E-001
 40
3.0E-001
100
AcDbArc
 50
0.0
 51
9.0E+001
  0
LINE
  5
e6
100
AcDbEntity
  8
1
100
AcDbLine
  6
CONTINUOUS
 62
7
 10
2.0142893E+001
 20
-7.6098485
 11
2.1575552E+001
 21
-6.1771901
  0
LINE
  5
e7
100
AcDbEntity
  8
1
100
AcDbLine
  6
CONTINUOUS
 62
7
 10
1.7957107E+001
 20
-7.6098485
 11
1.6524448E+001
 21
-6.1771901
  0
ARC
  5
e8
100
AcDbEntity
  8
1
100
AcDbCircle
  6
CONTINUOUS
 62
7
 10
2.085E+001
 20
-8.3169553
 40
1.0
100
AcDbArc
 50
1.35E+002
 51
1.8E+002
  0
ARC
  5
e9
100
AcDbEntity
  8
1
100
AcDbCircle
  6
CONTINUOUS
 62
7
 10
1.725E+001
 20
-8.3169553
 40
1.0
100
AcDbArc
 50
0.0
 51
4.5E+001
  0
ARC
  5
ea
100
AcDbEntity
  8
1
100
AcDbCircle
  6
CONTINUOUS
 62
7
 10
1.6170895E+001
 20
-6.5307435
 40
5.0E-001
100
AcDbArc
 50
4.5E+001
 51
1.6904491E+002
  0
LINE
  5
eb
100
AcDbEntity
  8
1
100
AcDbLine
  6
CONTINUOUS
 62
7
 10
2.2419993E+001
 20
-6.4357237
 11
2.345656E+001
 21
-1.1790803E+001
  0
ARC
  5
ec
100
AcDbEntity
  8
1
100
AcDbCircle
  6
CONTINUOUS
 62
7
 10
2.1929105E+001
 20
-6.5307435
 40
5.0E-001
100
AcDbArc
 50
1.0955088E+001
 51
1.35E+002
  0
ARC
  5
ed
100
AcDbEntity
  8
1
100
AcDbCircle
  6
CONTINUOUS
 62
7
 10
2.2965672E+001
 20
-1.1885823E+001
 40
5.0E-001
100
AcDbArc
 50
2.25E+002
 51
3.7095509E+002
  0
ARC
  5
ee
100
AcDbEntity
  8
1
100
AcDbCircle
  6
CONTINUOUS
 62
7
 10
1.5134328E+001
 20
-1.1885823E+001
 40
5.0E-001
100
AcDbArc
 50
1.6904491E+002
 51
3.15E+002
  0
LINE
  5
ef
100
AcDbEntity
  8
1
100
AcDbLine
  6
CONTINUOUS
 62
7
 10
3.44E+001
 20
-5.0E-001
 11
3.44E+001
 21
-2.9015224
  0
LINE
  5
f0
100
AcDbEntity
  8
1
100
AcDbLine
  6
CONTINUOUS
 62
7
 10
3.703934E+001
 20
-6.3692893
 11
3.4985786E+001
 21
-4.3157359
  0
ARC
  5
f1
100
AcDbEntity
  8
1
100
AcDbCircle
  6
CONTINUOUS
 62
7
 10
3.64E+001
 20
-2.9015224
 40
2.0
100
AcDbArc
 50
1.8E+002
 51
2.25E+002
  0
LINE
  5
f2
100
AcDbEntity
  8
1
100
AcDbLine
  6
CONTINUOUS
 62
7
 10
3.47E+001
 20
-2.0E-001
 11
4.15E+001
 21
-2.0E-001
  0
ARC
  5
f3
100
AcDbEntity
  8
1
100
AcDbCircle
  6
CONTINUOUS
 62
7
 10
3.47E+001
 20
-5.0E-001
 40
3.0E-001
100
AcDbArc
 50
9.0E+001
 51
1.8E+002
  0
ARC
  5
f4
100
AcDbEntity
  8
1
100
AcDbCircle
  6
CONTINUOUS
 62
7
 10
3.81E+001
 20
-5.3086292
 40
1.5
100
AcDbArc
 50
2.25E+002
 51
3.15E+002
  0
LINE
  5
f5
100
AcDbEntity
  8
1
100
AcDbLine
  6
CONTINUOUS
 62
7
 10
5.825
 20
-1.5938478E+001
 11
5.825
 21
-1.834E+001
  0
LINE
  5
f6
100
AcDbEntity
  8
1
100
AcDbLine
  6
CONTINUOUS
 62
7
 10
1.3225E+001
 20
-1.5938478E+001
 11
1.3225E+001
 21
-1.834E+001
  0
LINE
  5
f7
100
AcDbEntity
  8
1
100
AcDbLine
  6
CONTINUOUS
 62
7
 10
1.2925E+001
 20
-1.864E+001
 11
6.125
 21
-1.864E+001
  0
LINE
  5
f8
100
AcDbEntity
  8
1
100
AcDbLine
  6
CONTINUOUS
 62
7
 10
1.058566E+001
 20
-1.2470711E+001
 11
1.2639214E+001
 21
-1.4524264E+001
  0
LINE
  5
f9
100
AcDbEntity
  8
1
100
AcDbLine
  6
CONTINUOUS
 62
7
 10
8.4643398
 20
-1.2470711E+001
 11
6.4107864
 21
-1.4524264E+001
  0
LINE
  5
fa
100
AcDbEntity
  8
1
100
AcDbLine
  6
CONTINUOUS
 62
7
 10
1.0617893E+001
 20
-1.1230152E+001
 11
1.2050552E+001
 21
-1.266281E+001
  0
LINE
  5
fb
100
AcDbEntity
  8
1
100
AcDbLine
  6
CONTINUOUS
 62
7
 10
8.4321068
 20
-1.1230152E+001
 11
6.9994484
 21
-1.266281E+001
  0
ARC
  5
fc
100
AcDbEntity
  8
1
100
AcDbCircle
  6
CONTINUOUS
 62
7
 10
9.525
 20
-1.3531371E+001
 40
1.5
100
AcDbArc
 50
4.5E+001
 51
1.35E+002
  0
ARC
  5
fd
100
AcDbEntity
  8
1
100
AcDbCircle
  6
CONTINUOUS
 62
7
 10
1.1325E+001
 20
-9.7769553
 40
1.0
100
AcDbArc
 50
1.35E+002
 51
1.8E+002
  0
LINE
  5
fe
100
AcDbEntity
  8
1
100
AcDbLine
  6
CONTINUOUS
 62
7
 10
1.0325E+001
 20
-9.7769553
 11
1.0325E+001
 21
-1.0523045E+001
  0
ARC
  5
ff
100
AcDbEntity
  8
1
100
AcDbCircle
  6
CONTINUOUS
 62
7
 10
1.1325E+001
 20
-1.0523045E+001
 40
1.0
100
AcDbArc
 50
1.8E+002
 51
2.25E+002
  0
LINE
  5
100
100
AcDbEntity
  8
1
100
AcDbLine
  6
CONTINUOUS
 62
7
 10
8.725
 20
-9.7769553
 11
8.725
 21
-1.0523045E+001
  0
ARC
  5
101
100
AcDbEntity
  8
1
100
AcDbCircle
  6
CONTINUOUS
 62
7
 10
7.725
 20
-9.7769553
 40
1.0
100
AcDbArc
 50
0.0
 51
4.5E+001
  0
ARC
  5
102
100
AcDbEntity
  8
1
100
AcDbCircle
  6
CONTINUOUS
 62
7
 10
7.725
 20
-1.0523045E+001
 40
1.0
100
AcDbArc
 50
3.15E+002
 51
3.6E+002
  0
LINE
  5
103
100
AcDbEntity
  8
1
100
AcDbLine
  6
CONTINUOUS
 62
7
 10
1.0617893E+001
 20
-9.0698485
 11
1.3087118E+001
 21
-6.6006236
  0
LINE
  5
104
100
AcDbEntity
  8
1
100
AcDbLine
  6
CONTINUOUS
 62
7
 10
8.4321068
 20
-9.0698485
 11
5.9628819
 21
-6.6006236
  0
LINE
  5
105
100
AcDbEntity
  8
1
100
AcDbLine
  6
CONTINUOUS
 62
7
 10
1.464344E+001
 20
-1.1790803E+001
 11
1.5680007E+001
 21
-6.4357237
  0
LINE
  5
106
100
AcDbEntity
  8
1
100
AcDbLine
  6
CONTINUOUS
 62
7
 10
5.1184403
 20
-7.0491967
 11
6.1550067
 21
-1.2404276E+001
  0
ARC
  5
107
100
AcDbEntity
  8
1
100
AcDbCircle
  6
CONTINUOUS
 62
7
 10
5.6093285
 20
-6.954177
 40
5.0E-001
100
AcDbArc
 50
4.5E+001
 51
1.9095509E+002
  0
ARC
  5
108
100
AcDbEntity
  8
1
100
AcDbCircle
  6
CONTINUOUS
 62
7
 10
6.645895
 20
-1.2309257E+001
 40
5.0E-001
100
AcDbArc
 50
1.9095509E+002
 51
3.15E+002
  0
ARC
  5
109
100
AcDbEntity
  8
1
100
AcDbCircle
  6
CONTINUOUS
 62
7
 10
1.3440672E+001
 20
-6.954177
 40
5.0E-001
100
AcDbArc
 50
3.4904491E+002
 51
4.95E+002
  0
LINE
  5
10a
100
AcDbEntity
  8
1
100
AcDbLine
  6
CONTINUOUS
 62
7
 10
1.393156E+001
 20
-7.0491967
 11
1.2894993E+001
 21
-1.2404276E+001
  0
ARC
  5
10b
100
AcDbEntity
  8
1
100
AcDbCircle
  6
CONTINUOUS
 62
7
 10
1.2404105E+001
 20
-1.2309257E+001
 40
5.0E-001
100
AcDbArc
 50
2.25E+002
 51
3.4904491E+002
  0
ARC
  5
10c
100
AcDbEntity
  8
1
100
AcDbCircle
  6
CONTINUOUS
 62
7
 10
7.825
 20
-1.5938478E+001
 40
2.0
100
AcDbArc
 50
1.35E+002
 51
1.8E+002
  0
ARC
  5
10d
100
AcDbEntity
  8
1
100
AcDbCircle
  6
CONTINUOUS
 62
7
 10
1.1225E+001
 20
-1.5938478E+001
 40
2.0
100
AcDbArc
 50
0.0
 51
4.5E+001
  0
ARC
  5
10e
100
AcDbEntity
  8
1
100
AcDbCircle
  6
CONTINUOUS
 62
7
 10
6.125
 20
-1.834E+001
 40
3.0E-001
100
AcDbArc
 50
1.8E+002
 51
2.7E+002
  0
ARC
  5
10f
100
AcDbEntity
  8
1
100
AcDbCircle
  6
CONTINUOUS
 62
7
 10
1.2925E+001
 20
-1.834E+001
 40
3.0E-001
100
AcDbArc
 50
2.7E+002
 51
3.6E+002
  0
LINE
  5
110
100
AcDbEntity
  8
1
100
AcDbLine
  6
CONTINUOUS
 62
7
 10
2.751434E+001
 20
-1.2470711E+001
 11
2.5460786E+001
 21
-1.4524264E+001
  0
ARC
  5
111
100
AcDbEntity
  8
1
100
AcDbCircle
  6
CONTINUOUS
 62
7
 10
2.8575E+001
 20
-1.3531371E+001
 40
1.5
100
AcDbArc
 50
4.5E+001
 51
1.35E+002
  0
LINE
  5
112
100
AcDbEntity
  8
1
100
AcDbLine
  6
CONTINUOUS
 62
7
 10
2.963566E+001
 20
-1.2470711E+001
 11
3.1689214E+001
 21
-1.4524264E+001
  0
ARC
  5
113
100
AcDbEntity
  8
1
100
AcDbCircle
  6
CONTINUOUS
 62
7
 10
3.0275E+001
 20
-1.5938478E+001
 40
2.0
100
AcDbArc
 50
0.0
 51
4.5E+001
  0
ARC
  5
114
100
AcDbEntity
  8
1
100
AcDbCircle
  6
CONTINUOUS
 62
7
 10
2.6875E+001
 20
-1.5938478E+001
 40
2.0
100
AcDbArc
 50
1.35E+002
 51
1.8E+002
  0
LINE
  5
115
100
AcDbEntity
  8
1
100
AcDbLine
  6
CONTINUOUS
 62
7
 10
2.4875E+001
 20
-1.5938478E+001
 11
2.4875E+001
 21
-1.834E+001
  0
LINE
  5
116
100
AcDbEntity
  8
1
100
AcDbLine
  6
CONTINUOUS
 62
7
 10
3.2275E+001
 20
-1.5938478E+001
 11
3.2275E+001
 21
-1.834E+001
  0
LINE
  5
117
100
AcDbEntity
  8
1
100
AcDbLine
  6
CONTINUOUS
 62
7
 10
2.5175E+001
 20
-1.864E+001
 11
3.1975E+001
 21
-1.864E+001
  0
ARC
  5
118
100
AcDbEntity
  8
1
100
AcDbCircle
  6
CONTINUOUS
 62
7
 10
3.1975E+001
 20
-1.834E+001
 40
3.0E-001
100
AcDbArc
 50
2.7E+002
 51
3.6E+002
  0
ARC
  5
119
100
AcDbEntity
  8
1
100
AcDbCircle
  6
CONTINUOUS
 62
7
 10
2.5175E+001
 20
-1.834E+001
 40
3.0E-001
100
AcDbArc
 50
1.8E+002
 51
2.7E+002
  0
LINE
  5
11a
100
AcDbEntity
  8
1
100
AcDbLine
  6
CONTINUOUS
 62
7
 10
3.298156E+001
 20
-7.0491967
 11
3.1944993E+001
 21
-1.2404276E+001
  0
LINE
  5
11b
100
AcDbEntity
  8
1
100
AcDbLine
  6
CONTINUOUS
 62
7
 10
3.369344E+001
 20
-1.1790803E+001
 11
3.4730007E+001
 21
-6.4357237
  0
LINE
  5
11c
100
AcDbEntity
  8
1
100
AcDbLine
  6
CONTINUOUS
 62
7
 10
2.416844E+001
 20
-7.0491967
 11
2.5205007E+001
 21
-1.2404276E+001
  0
LINE
  5
11d
100
AcDbEntity
  8
1
100
AcDbLine
  6
CONTINUOUS
 62
7
 10
1.7957107E+001
 20
-9.7701515
 11
1.5487882E+001
 21
-1.2239376E+001
  0
LINE
  5
11e
100
AcDbEntity
  8
1
100
AcDbLine
  6
CONTINUOUS
 62
7
 10
2.0142893E+001
 20
-9.7701515
 11
2.2612118E+001
 21
-1.2239376E+001
  0
LINE
  5
11f
100
AcDbEntity
  8
1
100
AcDbLine
  6
CONTINUOUS
 62
7
 10
1.985E+001
 20
-8.3169553
 11
1.985E+001
 21
-9.0630447
  0
LINE
  5
120
100
AcDbEntity
  8
1
100
AcDbLine
  6
CONTINUOUS
 62
7
 10
1.825E+001
 20
-8.3169553
 11
1.825E+001
 21
-9.0630447
  0
ARC
  5
121
100
AcDbEntity
  8
1
100
AcDbCircle
  6
CONTINUOUS
 62
7
 10
1.725E+001
 20
-9.0630447
 40
1.0
100
AcDbArc
 50
3.15E+002
 51
3.6E+002
  0
ARC
  5
122
100
AcDbEntity
  8
1
100
AcDbCircle
  6
CONTINUOUS
 62
7
 10
2.085E+001
 20
-9.0630447
 40
1.0
100
AcDbArc
 50
1.8E+002
 51
2.25E+002
  0
LINE
  5
123
100
AcDbEntity
  8
1
100
AcDbLine
  6
CONTINUOUS
 62
7
 10
2.9667893E+001
 20
-9.0698485
 11
3.2137118E+001
 21
-6.6006236
  0
ARC
  5
124
100
AcDbEntity
  8
1
100
AcDbCircle
  6
CONTINUOUS
 62
7
 10
3.2490672E+001
 20
-6.954177
 40
5.0E-001
100
AcDbArc
 50
3.4904491E+002
 51
4.95E+002
  0
ARC
  5
125
100
AcDbEntity
  8
1
100
AcDbCircle
  6
CONTINUOUS
 62
7
 10
3.0375E+001
 20
-9.7769553
 40
1.0
100
AcDbArc
 50
1.35E+002
 51
1.8E+002
  0
LINE
  5
126
100
AcDbEntity
  8
1
100
AcDbLine
  6
CONTINUOUS
 62
7
 10
2.9375E+001
 20
-9.7769553
 11
2.9375E+001
 21
-1.0523045E+001
  0
LINE
  5
127
100
AcDbEntity
  8
1
100
AcDbLine
  6
CONTINUOUS
 62
7
 10
2.9667893E+001
 20
-1.1230152E+001
 11
3.1100552E+001
 21
-1.266281E+001
  0
ARC
  5
128
100
AcDbEntity
  8
1
100
AcDbCircle
  6
CONTINUOUS
 62
7
 10
3.0375E+001
 20
-1.0523045E+001
 40
1.0
100
AcDbArc
 50
1.8E+002
 51
2.25E+002
  0
ARC
  5
129
100
AcDbEntity
  8
1
100
AcDbCircle
  6
CONTINUOUS
 62
7
 10
3.1454105E+001
 20
-1.2309257E+001
 40
5.0E-001
100
AcDbArc
 50
2.25E+002
 51
3.4904491E+002
  0
LINE
  5
12a
100
AcDbEntity
  8
1
100
AcDbLine
  6
CONTINUOUS
 62
7
 10
2.7775E+001
 20
-9.7769553
 11
2.7775E+001
 21
-1.0523045E+001
  0
ARC
  5
12b
100
AcDbEntity
  8
1
100
AcDbCircle
  6
CONTINUOUS
 62
7
 10
2.6775E+001
 20
-9.7769553
 40
1.0
100
AcDbArc
 50
0.0
 51
4.5E+001
  0
LINE
  5
12c
100
AcDbEntity
  8
1
100
AcDbLine
  6
CONTINUOUS
 62
7
 10
2.7482107E+001
 20
-1.1230152E+001
 11
2.6049448E+001
 21
-1.266281E+001
  0
ARC
  5
12d
100
AcDbEntity
  8
1
100
AcDbCircle
  6
CONTINUOUS
 62
7
 10
2.6775E+001
 20
-1.0523045E+001
 40
1.0
100
AcDbArc
 50
3.15E+002
 51
3.6E+002
  0
ARC
  5
12e
100
AcDbEntity
  8
1
100
AcDbCircle
  6
CONTINUOUS
 62
7
 10
2.5695895E+001
 20
-1.2309257E+001
 40
5.0E-001
100
AcDbArc
 50
1.9095509E+002
 51
3.15E+002
  0
ARC
  5
12f
100
AcDbEntity
  8
1
100
AcDbCircle
  6
CONTINUOUS
 62
7
 10
2.4659328E+001
 20
-6.954177
 40
5.0E-001
100
AcDbArc
 50
4.5E+001
 51
1.9095509E+002
  0
LINE
  5
130
100
AcDbEntity
  8
1
100
AcDbLine
  6
CONTINUOUS
 62
7
 10
2.7482107E+001
 20
-9.0698485
 11
2.5012882E+001
 21
-6.6006236
  0
LINE
  5
131
100
AcDbEntity
  8
1
100
AcDbLine
  6
CONTINUOUS
 62
7
 10
3.7007107E+001
 20
-7.6098485
 11
3.5574448E+001
 21
-6.1771901
  0
ARC
  5
132
100
AcDbEntity
  8
1
100
AcDbCircle
  6
CONTINUOUS
 62
7
 10
3.5220895E+001
 20
-6.5307435
 40
5.0E-001
100
AcDbArc
 50
4.5E+001
 51
1.6904491E+002
  0
ARC
  5
133
100
AcDbEntity
  8
1
100
AcDbCircle
  6
CONTINUOUS
 62
7
 10
3.4184328E+001
 20
-1.1885823E+001
 40
5.0E-001
100
AcDbArc
 50
1.6904491E+002
 51
3.15E+002
  0
LINE
  5
134
100
AcDbEntity
  8
1
100
AcDbLine
  6
CONTINUOUS
 62
7
 10
3.7007107E+001
 20
-9.7701515
 11
3.4537882E+001
 21
-1.2239376E+001
  0
ARC
  5
135
100
AcDbEntity
  8
1
100
AcDbCircle
  6
CONTINUOUS
 62
7
 10
3.63E+001
 20
-9.0630447
 40
1.0
100
AcDbArc
 50
3.15E+002
 51
3.6E+002
  0
LINE
  5
136
100
AcDbEntity
  8
1
100
AcDbLine
  6
CONTINUOUS
 62
7
 10
3.73E+001
 20
-9.0630447
 11
3.73E+001
 21
-8.3169553
  0
ARC
  5
137
100
AcDbEntity
  8
1
100
AcDbCircle
  6
CONTINUOUS
 62
7
 10
3.63E+001
 20
-8.3169553
 40
1.0
100
AcDbArc
 50
0.0
 51
4.5E+001
  0
LINE
  5
138
100
AcDbEntity
  8
1
100
AcDbLine
  6
CONTINUOUS
 62
7
 10
3.916066E+001
 20
-6.3692893
 11
4.1214214E+001
 21
-4.3157359
  0
LINE
  5
139
100
AcDbEntity
  8
1
100
AcDbLine
  6
CONTINUOUS
 62
7
 10
4.18E+001
 20
-5.0E-001
 11
4.18E+001
 21
-2.9015224
  0
ARC
  5
13a
100
AcDbEntity
  8
1
100
AcDbCircle
  6
CONTINUOUS
 62
7
 10
3.98E+001
 20
-2.9015224
 40
2.0
100
AcDbArc
 50
3.15E+002
 51
3.6E+002
  0
ARC
  5
13b
100
AcDbEntity
  8
1
100
AcDbCircle
  6
CONTINUOUS
 62
7
 10
4.15E+001
 20
-5.0E-001
 40
3.0E-001
100
AcDbArc
 50
0.0
 51
9.0E+001
  0
LINE
  5
13c
100
AcDbEntity
  8
1
100
AcDbLine
  6
CONTINUOUS
 62
7
 10
3.9192893E+001
 20
-7.6098485
 11
4.0625552E+001
 21
-6.1771901
  0
ARC
  5
13d
100
AcDbEntity
  8
1
100
AcDbCircle
  6
CONTINUOUS
 62
7
 10
3.99E+001
 20
-8.3169553
 40
1.0
100
AcDbArc
 50
1.35E+002
 51
1.8E+002
  0
LINE
  5
13e
100
AcDbEntity
  8
1
100
AcDbLine
  6
CONTINUOUS
 62
7
 10
4.1469993E+001
 20
-6.4357237
 11
4.250656E+001
 21
-1.1790803E+001
  0
ARC
  5
13f
100
AcDbEntity
  8
1
100
AcDbCircle
  6
CONTINUOUS
 62
7
 10
4.0979105E+001
 20
-6.5307435
 40
5.0E-001
100
AcDbArc
 50
1.0955088E+001
 51
1.35E+002
  0
ARC
  5
140
100
AcDbEntity
  8
1
100
AcDbCircle
  6
CONTINUOUS
 62
7
 10
4.2015672E+001
 20
-1.1885823E+001
 40
5.0E-001
100
AcDbArc
 50
2.25E+002
 51
3.7095509E+002
  0
LINE
  5
141
100
AcDbEntity
  8
1
100
AcDbLine
  6
CONTINUOUS
 62
7
 10
5.345E+001
 20
-5.0E-001
 11
5.345E+001
 21
-2.9015224
  0
LINE
  5
142
100
AcDbEntity
  8
1
100
AcDbLine
  6
CONTINUOUS
 62
7
 10
5.608934E+001
 20
-6.3692893
 11
5.4035786E+001
 21
-4.3157359
  0
ARC
  5
143
100
AcDbEntity
  8
1
100
AcDbCircle
  6
CONTINUOUS
 62
7
 10
5.545E+001
 20
-2.9015224
 40
2.0
100
AcDbArc
 50
1.8E+002
 51
2.25E+002
  0
LINE
  5
144
100
AcDbEntity
  8
1
100
AcDbLine
  6
CONTINUOUS
 62
7
 10
5.375E+001
 20
-2.0E-001
 11
6.055E+001
 21
-2.0E-001
  0
ARC
  5
145
100
AcDbEntity
  8
1
100
AcDbCircle
  6
CONTINUOUS
 62
7
 10
5.375E+001
 20
-5.0E-001
 40
3.0E-001
100
AcDbArc
 50
9.0E+001
 51
1.8E+002
  0
ARC
  5
146
100
AcDbEntity
  8
1
100
AcDbCircle
  6
CONTINUOUS
 62
7
 10
5.715E+001
 20
-5.3086292
 40
1.5
100
AcDbArc
 50
2.25E+002
 51
3.15E+002
  0
LINE
  5
147
100
AcDbEntity
  8
1
100
AcDbLine
  6
CONTINUOUS
 62
7
 10
4.656434E+001
 20
-1.2470711E+001
 11
4.4510786E+001
 21
-1.4524264E+001
  0
ARC
  5
148
100
AcDbEntity
  8
1
100
AcDbCircle
  6
CONTINUOUS
 62
7
 10
4.7625E+001
 20
-1.3531371E+001
 40
1.5
100
AcDbArc
 50
4.5E+001
 51
1.35E+002
  0
LINE
  5
149
100
AcDbEntity
  8
1
100
AcDbLine
  6
CONTINUOUS
 62
7
 10
4.868566E+001
 20
-1.2470711E+001
 11
5.0739214E+001
 21
-1.4524264E+001
  0
ARC
  5
14a
100
AcDbEntity
  8
1
100
AcDbCircle
  6
CONTINUOUS
 62
7
 10
4.9325E+001
 20
-1.5938478E+001
 40
2.0
100
AcDbArc
 50
0.0
 51
4.5E+001
  0
ARC
  5
14b
100
AcDbEntity
  8
1
100
AcDbCircle
  6
CONTINUOUS
 62
7
 10
4.5925E+001
 20
-1.5938478E+001
 40
2.0
100
AcDbArc
 50
1.35E+002
 51
1.8E+002
  0
LINE
  5
14c
100
AcDbEntity
  8
1
100
AcDbLine
  6
CONTINUOUS
 62
7
 10
4.3925E+001
 20
-1.5938478E+001
 11
4.3925E+001
 21
-1.834E+001
  0
LINE
  5
14d
100
AcDbEntity
  8
1
100
AcDbLine
  6
CONTINUOUS
 62
7
 10
5.1325E+001
 20
-1.5938478E+001
 11
5.1325E+001
 21
-1.834E+001
  0
LINE
  5
14e
100
AcDbEntity
  8
1
100
AcDbLine
  6
CONTINUOUS
 62
7
 10
4.4225E+001
 20
-1.864E+001
 11
5.1025E+001
 21
-1.864E+001
  0
ARC
  5
14f
100
AcDbEntity
  8
1
100
AcDbCircle
  6
CONTINUOUS
 62
7
 10
5.1025E+001
 20
-1.834E+001
 40
3.0E-001
100
AcDbArc
 50
2.7E+002
 51
3.6E+002
  0
ARC
  5
150
100
AcDbEntity
  8
1
100
AcDbCircle
  6
CONTINUOUS
 62
7
 10
4.4225E+001
 20
-1.834E+001
 40
3.0E-001
100
AcDbArc
 50
1.8E+002
 51
2.7E+002
  0
LINE
  5
151
100
AcDbEntity
  8
1
100
AcDbLine
  6
CONTINUOUS
 62
7
 10
5.203156E+001
 20
-7.0491967
 11
5.0994993E+001
 21
-1.2404276E+001
  0
LINE
  5
152
100
AcDbEntity
  8
1
100
AcDbLine
  6
CONTINUOUS
 62
7
 10
5.274344E+001
 20
-1.1790803E+001
 11
5.3780007E+001
 21
-6.4357237
  0
LINE
  5
153
100
AcDbEntity
  8
1
100
AcDbLine
  6
CONTINUOUS
 62
7
 10
4.321844E+001
 20
-7.0491967
 11
4.4255007E+001
 21
-1.2404276E+001
  0
LINE
  5
154
100
AcDbEntity
  8
1
100
AcDbLine
  6
CONTINUOUS
 62
7
 10
3.9192893E+001
 20
-9.7701515
 11
4.1662118E+001
 21
-1.2239376E+001
  0
LINE
  5
155
100
AcDbEntity
  8
1
100
AcDbLine
  6
CONTINUOUS
 62
7
 10
3.89E+001
 20
-8.3169553
 11
3.89E+001
 21
-9.0630447
  0
ARC
  5
156
100
AcDbEntity
  8
1
100
AcDbCircle
  6
CONTINUOUS
 62
7
 10
3.99E+001
 20
-9.0630447
 40
1.0
100
AcDbArc
 50
1.8E+002
 51
2.25E+002
  0
LINE
  5
157
100
AcDbEntity
  8
1
100
AcDbLine
  6
CONTINUOUS
 62
7
 10
4.8717893E+001
 20
-9.0698485
 11
5.1187118E+001
 21
-6.6006236
  0
ARC
  5
158
100
AcDbEntity
  8
1
100
AcDbCircle
  6
CONTINUOUS
 62
7
 10
5.1540672E+001
 20
-6.954177
 40
5.0E-001
100
AcDbArc
 50
3.4904491E+002
 51
4.95E+002
  0
ARC
  5
159
100
AcDbEntity
  8
1
100
AcDbCircle
  6
CONTINUOUS
 62
7
 10
4.9425E+001
 20
-9.7769553
 40
1.0
100
AcDbArc
 50
1.35E+002
 51
1.8E+002
  0
LINE
  5
15a
100
AcDbEntity
  8
1
100
AcDbLine
  6
CONTINUOUS
 62
7
 10
4.8425E+001
 20
-9.7769553
 11
4.8425E+001
 21
-1.0523045E+001
  0
LINE
  5
15b
100
AcDbEntity
  8
1
100
AcDbLine
  6
CONTINUOUS
 62
7
 10
4.8717893E+001
 20
-1.1230152E+001
 11
5.0150552E+001
 21
-1.266281E+001
  0
ARC
  5
15c
100
AcDbEntity
  8
1
100
AcDbCircle
  6
CONTINUOUS
 62
7
 10
4.9425E+001
 20
-1.0523045E+001
 40
1.0
100
AcDbArc
 50
1.8E+002
 51
2.25E+002
  0
ARC
  5
15d
100
AcDbEntity
  8
1
100
AcDbCircle
  6
CONTINUOUS
 62
7
 10
5.0504105E+001
 20
-1.2309257E+001
 40
5.0E-001
100
AcDbArc
 50
2.25E+002
 51
3.4904491E+002
  0
LINE
  5
15e
100
AcDbEntity
  8
1
100
AcDbLine
  6
CONTINUOUS
 62
7
 10
4.6825E+001
 20
-9.7769553
 11
4.6825E+001
 21
-1.0523045E+001
  0
ARC
  5
15f
100
AcDbEntity
  8
1
100
AcDbCircle
  6
CONTINUOUS
 62
7
 10
4.5825E+001
 20
-9.7769553
 40
1.0
100
AcDbArc
 50
0.0
 51
4.5E+001
  0
LINE
  5
160
100
AcDbEntity
  8
1
100
AcDbLine
  6
CONTINUOUS
 62
7
 10
4.6532107E+001
 20
-1.1230152E+001
 11
4.5099448E+001
 21
-1.266281E+001
  0
ARC
  5
161
100
AcDbEntity
  8
1
100
AcDbCircle
  6
CONTINUOUS
 62
7
 10
4.5825E+001
 20
-1.0523045E+001
 40
1.0
100
AcDbArc
 50
3.15E+002
 51
3.6E+002
  0
ARC
  5
162
100
AcDbEntity
  8
1
100
AcDbCircle
  6
CONTINUOUS
 62
7
 10
4.4745895E+001
 20
-1.2309257E+001
 40
5.0E-001
100
AcDbArc
 50
1.9095509E+002
 51
3.15E+002
  0
ARC
  5
163
100
AcDbEntity
  8
1
100
AcDbCircle
  6
CONTINUOUS
 62
7
 10
4.3709328E+001
 20
-6.954177
 40
5.0E-001
100
AcDbArc
 50
4.5E+001
 51
1.9095509E+002
  0
LINE
  5
164
100
AcDbEntity
  8
1
100
AcDbLine
  6
CONTINUOUS
 62
7
 10
4.6532107E+001
 20
-9.0698485
 11
4.4062882E+001
 21
-6.6006236
  0
LINE
  5
165
100
AcDbEntity
  8
1
100
AcDbLine
  6
CONTINUOUS
 62
7
 10
5.6057107E+001
 20
-7.6098485
 11
5.4624448E+001
 21
-6.1771901
  0
ARC
  5
166
100
AcDbEntity
  8
1
100
AcDbCircle
  6
CONTINUOUS
 62
7
 10
5.4270895E+001
 20
-6.5307435
 40
5.0E-001
100
AcDbArc
 50
4.5E+001
 51
1.6904491E+002
  0
ARC
  5
167
100
AcDbEntity
  8
1
100
AcDbCircle
  6
CONTINUOUS
 62
7
 10
5.3234328E+001
 20
-1.1885823E+001
 40
5.0E-001
100
AcDbArc
 50
1.6904491E+002
 51
3.15E+002
  0
LINE
  5
168
100
AcDbEntity
  8
1
100
AcDbLine
  6
CONTINUOUS
 62
7
 10
5.6057107E+001
 20
-9.7701515
 11
5.3587882E+001
 21
-1.2239376E+001
  0
ARC
  5
169
100
AcDbEntity
  8
1
100
AcDbCircle
  6
CONTINUOUS
 62
7
 10
5.535E+001
 20
-9.0630447
 40
1.0
100
AcDbArc
 50
3.15E+002
 51
3.6E+002
  0
LINE
  5
16a
100
AcDbEntity
  8
1
100
AcDbLine
  6
CONTINUOUS
 62
7
 10
5.635E+001
 20
-9.0630447
 11
5.635E+001
 21
-8.3169553
  0
ARC
  5
16b
100
AcDbEntity
  8
1
100
AcDbCircle
  6
CONTINUOUS
 62
7
 10
5.535E+001
 20
-8.3169553
 40
1.0
100
AcDbArc
 50
0.0
 51
4.5E+001
  0
LINE
  5
16c
100
AcDbEntity
  8
1
100
AcDbLine
  6
CONTINUOUS
 62
7
 10
5.821066E+001
 20
-6.3692893
 11
6.0264214E+001
 21
-4.3157359
  0
LINE
  5
16d
100
AcDbEntity
  8
1
100
AcDbLine
  6
CONTINUOUS
 62
7
 10
6.085E+001
 20
-5.0E-001
 11
6.085E+001
 21
-2.9015224
  0
ARC
  5
16e
100
AcDbEntity
  8
1
100
AcDbCircle
  6
CONTINUOUS
 62
7
 10
5.885E+001
 20
-2.9015224
 40
2.0
100
AcDbArc
 50
3.15E+002
 51
3.6E+002
  0
ARC
  5
16f
100
AcDbEntity
  8
1
100
AcDbCircle
  6
CONTINUOUS
 62
7
 10
6.055E+001
 20
-5.0E-001
 40
3.0E-001
100
AcDbArc
 50
0.0
 51
9.0E+001
  0
LINE
  5
170
100
AcDbEntity
  8
1
100
AcDbLine
  6
CONTINUOUS
 62
7
 10
5.8242893E+001
 20
-7.6098485
 11
5.9675552E+001
 21
-6.1771901
  0
ARC
  5
171
100
AcDbEntity
  8
1
100
AcDbCircle
  6
CONTINUOUS
 62
7
 10
5.895E+001
 20
-8.3169553
 40
1.0
100
AcDbArc
 50
1.35E+002
 51
1.8E+002
  0
LINE
  5
172
100
AcDbEntity
  8
1
100
AcDbLine
  6
CONTINUOUS
 62
7
 10
6.0519993E+001
 20
-6.4357237
 11
6.155656E+001
 21
-1.1790803E+001
  0
ARC
  5
173
100
AcDbEntity
  8
1
100
AcDbCircle
  6
CONTINUOUS
 62
7
 10
6.0029105E+001
 20
-6.5307435
 40
5.0E-001
100
AcDbArc
 50
1.0955088E+001
 51
1.35E+002
  0
ARC
  5
174
100
AcDbEntity
  8
1
100
AcDbCircle
  6
CONTINUOUS
 62
7
 10
6.1065672E+001
 20
-1.1885823E+001
 40
5.0E-001
100
AcDbArc
 50
2.25E+002
 51
3.7095509E+002
  0
LINE
  5
175
100
AcDbEntity
  8
1
100
AcDbLine
  6
CONTINUOUS
 62
7
 10
6.561434E+001
 20
-1.2470711E+001
 11
6.3560786E+001
 21
-1.4524264E+001
  0
ARC
  5
176
100
AcDbEntity
  8
1
100
AcDbCircle
  6
CONTINUOUS
 62
7
 10
6.6675E+001
 20
-1.3531371E+001
 40
1.5
100
AcDbArc
 50
4.5E+001
 51
1.35E+002
  0
LINE
  5
177
100
AcDbEntity
  8
1
100
AcDbLine
  6
CONTINUOUS
 62
7
 10
6.773566E+001
 20
-1.2470711E+001
 11
6.9789214E+001
 21
-1.4524264E+001
  0
ARC
  5
178
100
AcDbEntity
  8
1
100
AcDbCircle
  6
CONTINUOUS
 62
7
 10
6.8375E+001
 20
-1.5938478E+001
 40
2.0
100
AcDbArc
 50
0.0
 51
4.5E+001
  0
ARC
  5
179
100
AcDbEntity
  8
1
100
AcDbCircle
  6
CONTINUOUS
 62
7
 10
6.4975E+001
 20
-1.5938478E+001
 40
2.0
100
AcDbArc
 50
1.35E+002
 51
1.8E+002
  0
LINE
  5
17a
100
AcDbEntity
  8
1
100
AcDbLine
  6
CONTINUOUS
 62
7
 10
6.2975E+001
 20
-1.5938478E+001
 11
6.2975E+001
 21
-1.834E+001
  0
LINE
  5
17b
100
AcDbEntity
  8
1
100
AcDbLine
  6
CONTINUOUS
 62
7
 10
7.0375E+001
 20
-1.5938478E+001
 11
7.0375E+001
 21
-1.834E+001
  0
LINE
  5
17c
100
AcDbEntity
  8
1
100
AcDbLine
  6
CONTINUOUS
 62
7
 10
6.3275E+001
 20
-1.864E+001
 11
7.0075E+001
 21
-1.864E+001
  0
ARC
  5
17d
100
AcDbEntity
  8
1
100
AcDbCircle
  6
CONTINUOUS
 62
7
 10
7.0075E+001
 20
-1.834E+001
 40
3.0E-001
100
AcDbArc
 50
2.7E+002
 51
3.6E+002
  0
ARC
  5
17e
100
AcDbEntity
  8
1
100
AcDbCircle
  6
CONTINUOUS
 62
7
 10
6.3275E+001
 20
-1.834E+001
 40
3.0E-001
100
AcDbArc
 50
1.8E+002
 51
2.7E+002
  0
LINE
  5
17f
100
AcDbEntity
  8
1
100
AcDbLine
  6
CONTINUOUS
 62
7
 10
7.108156E+001
 20
-7.0491967
 11
7.0044993E+001
 21
-1.2404276E+001
  0
LINE
  5
180
100
AcDbEntity
  8
1
100
AcDbLine
  6
CONTINUOUS
 62
7
 10
6.226844E+001
 20
-7.0491967
 11
6.3305007E+001
 21
-1.2404276E+001
  0
LINE
  5
181
100
AcDbEntity
  8
1
100
AcDbLine
  6
CONTINUOUS
 62
7
 10
5.8242893E+001
 20
-9.7701515
 11
6.0712118E+001
 21
-1.2239376E+001
  0
LINE
  5
182
100
AcDbEntity
  8
1
100
AcDbLine
  6
CONTINUOUS
 62
7
 10
5.795E+001
 20
-8.3169553
 11
5.795E+001
 21
-9.0630447
  0
ARC
  5
183
100
AcDbEntity
  8
1
100
AcDbCircle
  6
CONTINUOUS
 62
7
 10
5.895E+001
 20
-9.0630447
 40
1.0
100
AcDbArc
 50
1.8E+002
 51
2.25E+002
  0
LINE
  5
184
100
AcDbEntity
  8
1
100
AcDbLine
  6
CONTINUOUS
 62
7
 10
6.7767893E+001
 20
-9.0698485
 11
7.0237118E+001
 21
-6.6006236
  0
ARC
  5
185
100
AcDbEntity
  8
1
100
AcDbCircle
  6
CONTINUOUS
 62
7
 10
7.0590672E+001
 20
-6.954177
 40
5.0E-001
100
AcDbArc
 50
3.4904491E+002
 51
4.95E+002
  0
ARC
  5
186
100
AcDbEntity
  8
1
100
AcDbCircle
  6
CONTINUOUS
 62
7
 10
6.8475E+001
 20
-9.7769553
 40
1.0
100
AcDbArc
 50
1.35E+002
 51
1.8E+002
  0
LINE
  5
187
100
AcDbEntity
  8
1
100
AcDbLine
  6
CONTINUOUS
 62
7
 10
6.7475E+001
 20
-9.7769553
 11
6.7475E+001
 21
-1.0523045E+001
  0
LINE
  5
188
100
AcDbEntity
  8
1
100
AcDbLine
  6
CONTINUOUS
 62
7
 10
6.7767893E+001
 20
-1.1230152E+001
 11
6.9200552E+001
 21
-1.266281E+001
  0
ARC
  5
189
100
AcDbEntity
  8
1
100
AcDbCircle
  6
CONTINUOUS
 62
7
 10
6.8475E+001
 20
-1.0523045E+001
 40
1.0
100
AcDbArc
 50
1.8E+002
 51
2.25E+002
  0
ARC
  5
18a
100
AcDbEntity
  8
1
100
AcDbCircle
  6
CONTINUOUS
 62
7
 10
6.9554105E+001
 20
-1.2309257E+001
 40
5.0E-001
100
AcDbArc
 50
2.25E+002
 51
3.4904491E+002
  0
LINE
  5
18b
100
AcDbEntity
  8
1
100
AcDbLine
  6
CONTINUOUS
 62
7
 10
6.5875E+001
 20
-9.7769553
 11
6.5875E+001
 21
-1.0523045E+001
  0
ARC
  5
18c
100
AcDbEntity
  8
1
100
AcDbCircle
  6
CONTINUOUS
 62
7
 10
6.4875E+001
 20
-9.7769553
 40
1.0
100
AcDbArc
 50
0.0
 51
4.5E+001
  0
LINE
  5
18d
100
AcDbEntity
  8
1
100
AcDbLine
  6
CONTINUOUS
 62
7
 10
6.5582107E+001
 20
-1.1230152E+001
 11
6.4149448E+001
 21
-1.266281E+001
  0
ARC
  5
18e
100
AcDbEntity
  8
1
100
AcDbCircle
  6
CONTINUOUS
 62
7
 10
6.4875E+001
 20
-1.0523045E+001
 40
1.0
100
AcDbArc
 50
3.15E+002
 51
3.6E+002
  0
ARC
  5
18f
100
AcDbEntity
  8
1
100
AcDbCircle
  6
CONTINUOUS
 62
7
 10
6.3795895E+001
 20
-1.2309257E+001
 40
5.0E-001
100
AcDbArc
 50
1.9095509E+002
 51
3.15E+002
  0
ARC
  5
190
100
AcDbEntity
  8
1
100
AcDbCircle
  6
CONTINUOUS
 62
7
 10
6.2759328E+001
 20
-6.954177
 40
5.0E-001
100
AcDbArc
 50
4.5E+001
 51
1.9095509E+002
  0
LINE
  5
191
100
AcDbEntity
  8
1
100
AcDbLine
  6
CONTINUOUS
 62
7
 10
6.5582107E+001
 20
-9.0698485
 11
6.3112882E+001
 21
-6.6006236
  0
POINT
  5
192
100
AcDbEntity
  8
Drafting_Hidden_Entities
100
AcDbPoint
  6
CONTINUOUS
 62
1
 10
0.0
 20
0.0
  0
ENDBLK
  5
193
100
AcDbEntity
100
AcDbBlockEnd
  0
BLOCK
  5
194
100
AcDbEntity
100
AcDbBlockBegin
  2
*TX37
  3
*TX
 10
0.0
 20
0.0
 70
65
  0
TEXT
  5
195
100
AcDbEntity
  8
1
100
AcDbText
  6
CONTINUOUS
 62
7
 10
-2.0
 20
-1.25
 40
2.5
  1
Éi
 41
1.3333333
 72
1
 11
0.0
 21
0.0
100
AcDbText
 73
2
  0
TEXT
  5
196
100
AcDbEntity
  8
1
100
AcDbText
  6
CONTINUOUS
 62
7
 10
-2.0
 20
-5.0
 40
2.5
  1
ìs
 41
1.3333333
 72
1
 11
0.0
 21
-3.75
100
AcDbText
 73
2
  0
TEXT
  5
197
100
AcDbEntity
  8
1
100
AcDbText
  6
CONTINUOUS
 62
7
 10
-2.0
 20
-8.75
 40
2.5
  1
ò¹
 41
1.3333333
 72
1
 11
0.0
 21
-7.5
100
AcDbText
 73
2
  0
TEXT
  5
198
100
AcDbEntity
  8
1
100
AcDbText
  6
CONTINUOUS
 62
7
 10
-2.0
 20
-1.25E+001
 40
2.5
  1
î³
 41
1.3333333
 72
1
 11
0.0
 21
-1.125E+001
100
AcDbText
 73
2
  0
ENDBLK
  5
199
100
AcDbEntity
100
AcDbBlockEnd
  0
BLOCK
  5
19a
100
AcDbEntity
100
AcDbBlockBegin
  2
_AH1
 70
0
 10
0.0
 20
0.0
  3
_AH1
  0
LINE
  5
19b
100
AcDbEntity
  8
0
100
AcDbLine
  6
CONTINUOUS
 62
0
 10
-1.0
 20
1.66667E-001
 11
0.0
 21
0.0
  0
LINE
  5
19c
100
AcDbEntity
  8
0
100
AcDbLine
  6
CONTINUOUS
 62
0
 10
0.0
 20
0.0
 11
-1.0
 21
-1.66667E-001
  0
LINE
  5
19d
100
AcDbEntity
  8
0
100
AcDbLine
  6
CONTINUOUS
 62
0
 10
-1.0
 20
1.66667E-001
 11
-1.0
 21
-1.66667E-001
  0
LINE
  5
19e
100
AcDbEntity
  8
0
100
AcDbLine
  6
CONTINUOUS
 62
0
 10
0.0
 20
0.0
 11
-1.0
 21
0.0
  0
ENDBLK
  5
19f
100
AcDbEntity
100
AcDbBlockEnd
  0
BLOCK
  5
1a0
100
AcDbEntity
100
AcDbBlockBegin
  2
_AH2
 70
0
 10
0.0
 20
0.0
  3
_AH2
  0
LINE
  5
1a1
100
AcDbEntity
  8
0
100
AcDbLine
  6
CONTINUOUS
 62
0
 10
-1.0
 20
1.66667E-001
 11
0.0
 21
0.0
  0
LINE
  5
1a2
100
AcDbEntity
  8
0
100
AcDbLine
  6
CONTINUOUS
 62
0
 10
0.0
 20
0.0
 11
-1.0
 21
-1.66667E-001
  0
LINE
  5
1a3
100
AcDbEntity
  8
0
100
AcDbLine
  6
CONTINUOUS
 62
0
 10
0.0
 20
0.0
 11
-1.0
 21
0.0
  0
ENDBLK
  5
1a4
100
AcDbEntity
100
AcDbBlockEnd
  0
BLOCK
  5
1a5
100
AcDbEntity
100
AcDbBlockBegin
  2
*D188
  3
*D
 10
0.0
 20
0.0
 70
65
  0
LINE
  5
1a6
100
AcDbEntity
  8
1
100
AcDbLine
  6
CONTINUOUS
 62
1
 10
7.3254651E+001
 20
9.1035852E+001
 11
7.3254651E+001
 21
8.701142E+001
  0
LINE
  5
1a7
100
AcDbEntity
  8
1
100
AcDbLine
  6
CONTINUOUS
 62
1
 10
7.7604651E+001
 20
8.751142E+001
 11
7.3254651E+001
 21
8.751142E+001
  0
LINE
  5
1a8
100
AcDbEntity
  8
1
100
AcDbLine
  6
CONTINUOUS
 62
1
 10
7.7604651E+001
 20
8.751142E+001
 11
9.06687E+001
 21
8.751142E+001
  0
TEXT
  5
1a9
100
AcDbEntity
  8
1
100
AcDbText
  6
CONTINUOUS
 62
1
 10
7.95687E+001
 20
8.801242E+001
 40
3.0
  1
4.35
 41
8.0E-001
100
AcDbText
  0
INSERT
  5
1aa
100
AcDbEntity
100
AcDbBlockReference
  2
_AH15
  8
1
 62
1
 10
7.3254651E+001
 20
8.751142E+001
 41
1.5
 42
1.5
 43
1.5
 50
1.8E+002
  0
INSERT
  5
1ab
100
AcDbEntity
100
AcDbBlockReference
  2
_AH2
  8
1
 62
1
 10
7.7604651E+001
 20
8.751142E+001
 41
1.5
 42
1.5
 43
1.5
 50
0.0
  0
ENDBLK
  5
1ac
100
AcDbEntity
100
AcDbBlockEnd
  0
BLOCK
  5
1ad
100
AcDbEntity
100
AcDbBlockBegin
  2
*D189
  3
*D
 10
0.0
 20
0.0
 70
65
  0
LINE
  5
1ae
100
AcDbEntity
  8
1
100
AcDbLine
  6
CONTINUOUS
 62
1
 10
6.8904651E+001
 20
8.751142E+001
 11
7.0404651E+001
 21
8.726142E+001
  0
LINE
  5
1af
100
AcDbEntity
  8
1
100
AcDbLine
  6
CONTINUOUS
 62
1
 10
6.8904651E+001
 20
8.751142E+001
 11
7.0404651E+001
 21
8.776142E+001
  0
LINE
  5
1b0
100
AcDbEntity
  8
1
100
AcDbLine
  6
CONTINUOUS
 62
1
 10
7.3254651E+001
 20
8.751142E+001
 11
6.8904651E+001
 21
8.751142E+001
  0
LINE
  5
1b1
100
AcDbEntity
  8
1
100
AcDbLine
  6
CONTINUOUS
 62
1
 10
6.8904651E+001
 20
8.751142E+001
 11
5.7043388E+001
 21
8.751142E+001
  0
TEXT
  5
1b2
100
AcDbEntity
  8
1
100
AcDbText
  6
CONTINUOUS
 62
1
 10
5.8543388E+001
 20
8.801242E+001
 40
3.0
  1
4.35
 41
8.0E-001
100
AcDbText
  0
ENDBLK
  5
1b3
100
AcDbEntity
100
AcDbBlockEnd
  0
BLOCK
  5
1b4
100
AcDbEntity
100
AcDbBlockBegin
  2
*D190
  3
*D
 10
0.0
 20
0.0
 70
65
  0
LINE
  5
1b5
100
AcDbEntity
  8
1
100
AcDbLine
  6
CONTINUOUS
 62
1
 10
6.8904651E+001
 20
9.8300545E+001
 11
6.8904651E+001
 21
8.011759E+001
  0
LINE
  5
1b6
100
AcDbEntity
  8
1
100
AcDbLine
  6
CONTINUOUS
 62
1
 10
7.7604651E+001
 20
9.8300545E+001
 11
7.7604651E+001
 21
8.011759E+001
  0
LINE
  5
1b7
100
AcDbEntity
  8
1
100
AcDbLine
  6
CONTINUOUS
 62
1
 10
6.8904651E+001
 20
8.061759E+001
 11
7.3254651E+001
 21
8.061759E+001
  0
LINE
  5
1b8
100
AcDbEntity
  8
1
100
AcDbLine
  6
CONTINUOUS
 62
1
 10
7.7604651E+001
 20
8.061759E+001
 11
7.3254651E+001
 21
8.061759E+001
  0
TEXT
  5
1b9
100
AcDbEntity
  8
1
100
AcDbText
  6
CONTINUOUS
 62
1
 10
6.9654651E+001
 20
8.111859E+001
 40
3.0
  1
8.7
 41
8.0E-001
100
AcDbText
  0
INSERT
  5
1ba
100
AcDbEntity
100
AcDbBlockReference
  2
_AH2
  8
1
 62
1
 10
6.8904651E+001
 20
8.061759E+001
 41
1.5
 42
1.5
 43
1.5
 50
1.8E+002
  0
INSERT
  5
1bb
100
AcDbEntity
100
AcDbBlockReference
  2
_AH2
  8
1
 62
1
 10
7.7604651E+001
 20
8.061759E+001
 41
1.5
 42
1.5
 43
1.5
 50
0.0
  0
ENDBLK
  5
1bc
100
AcDbEntity
100
AcDbBlockEnd
  0
BLOCK
  5
1bd
100
AcDbEntity
100
AcDbBlockBegin
  2
*D8551
  3
*D
 10
0.0
 20
0.0
 70
65
  0
LINE
  5
1be
100
AcDbEntity
  8
1
100
AcDbLine
  6
CONTINUOUS
 62
1
 10
6.7496015E+001
 20
1.5582589E+002
 11
6.0262322E+001
 21
1.5582589E+002
  0
LINE
  5
1bf
100
AcDbEntity
  8
1
100
AcDbLine
  6
CONTINUOUS
 62
1
 10
6.7496015E+001
 20
1.3677589E+002
 11
6.0262322E+001
 21
1.3677589E+002
  0
LINE
  5
1c0
100
AcDbEntity
  8
1
100
AcDbLine
  6
CONTINUOUS
 62
1
 10
6.1462322E+001
 20
1.5582589E+002
 11
6.1462322E+001
 21
1.4630089E+002
  0
LINE
  5
1c1
100
AcDbEntity
  8
1
100
AcDbLine
  6
CONTINUOUS
 62
1
 10
6.1462322E+001
 20
1.3677589E+002
 11
6.1462322E+001
 21
1.4630089E+002
  0
TEXT
  5
1c2
100
AcDbEntity
  8
1
100
AcDbText
  6
CONTINUOUS
 62
1
 10
6.0861322E+001
 20
1.4030089E+002
 40
3.0
  1
19.05
 41
8.0E-001
 50
9.0E+001
100
AcDbText
  0
INSERT
  5
1c3
100
AcDbEntity
100
AcDbBlockReference
  2
_AH2
  8
1
 62
1
 10
6.1462322E+001
 20
1.5582589E+002
 41
1.8
 42
1.8
 43
1.8
 50
9.0E+001
  0
INSERT
  5
1c4
100
AcDbEntity
100
AcDbBlockReference
  2
_AH2
  8
1
 62
1
 10
6.1462322E+001
 20
1.3677589E+002
 41
1.8
 42
1.8
 43
1.8
 50
2.7E+002
  0
ENDBLK
  5
1c5
100
AcDbEntity
100
AcDbBlockEnd
  0
BLOCK
  5
1c6
100
AcDbEntity
100
AcDbBlockBegin
  2
*D10655
  3
*D
 10
0.0
 20
0.0
 70
65
  0
LINE
  5
1c7
100
AcDbEntity
  8
1
100
AcDbLine
  6
CONTINUOUS
 62
1
 10
1.1432317E+002
 20
1.5882589E+002
 11
1.1432317E+002
 21
1.7523063E+002
  0
LINE
  5
1c8
100
AcDbEntity
  8
1
100
AcDbLine
  6
CONTINUOUS
 62
1
 10
1.9052317E+002
 20
1.5882589E+002
 11
1.9052317E+002
 21
1.7523063E+002
  0
LINE
  5
1c9
100
AcDbEntity
  8
1
100
AcDbLine
  6
CONTINUOUS
 62
1
 10
1.1432317E+002
 20
1.7473063E+002
 11
1.5242317E+002
 21
1.7473063E+002
  0
LINE
  5
1ca
100
AcDbEntity
  8
1
100
AcDbLine
  6
CONTINUOUS
 62
1
 10
1.9052317E+002
 20
1.7473063E+002
 11
1.5242317E+002
 21
1.7473063E+002
  0
TEXT
  5
1cb
100
AcDbEntity
  8
1
100
AcDbText
  6
CONTINUOUS
 62
1
 10
1.4762317E+002
 20
1.7573163E+002
 40
3.0
  1
76.2
 41
8.0E-001
100
AcDbText
  0
INSERT
  5
1cc
100
AcDbEntity
100
AcDbBlockReference
  2
_AH2
  8
1
 62
1
 10
1.1432317E+002
 20
1.7473063E+002
 41
1.5
 42
1.5
 43
1.5
 50
1.8E+002
  0
INSERT
  5
1cd
100
AcDbEntity
100
AcDbBlockReference
  2
_AH2
  8
1
 62
1
 10
1.9052317E+002
 20
1.7473063E+002
 41
1.5
 42
1.5
 43
1.5
 50
0.0
  0
ENDBLK
  5
1ce
100
AcDbEntity
100
AcDbBlockEnd
  0
BLOCK
  5
1cf
100
AcDbEntity
100
AcDbBlockBegin
  2
*D23750
  3
*D
 10
0.0
 20
0.0
 70
65
  0
LINE
  5
1d0
100
AcDbEntity
  8
1
100
AcDbLine
  6
CONTINUOUS
 62
1
 10
6.7596015E+001
 20
1.1772589E+002
 11
6.0962322E+001
 21
1.1772589E+002
  0
LINE
  5
1d1
100
AcDbEntity
  8
1
100
AcDbLine
  6
CONTINUOUS
 62
1
 10
6.1462322E+001
 20
1.1772589E+002
 11
6.1462322E+001
 21
1.2725089E+002
  0
LINE
  5
1d2
100
AcDbEntity
  8
1
100
AcDbLine
  6
CONTINUOUS
 62
1
 10
6.1462322E+001
 20
1.3677589E+002
 11
6.1462322E+001
 21
1.2725089E+002
  0
TEXT
  5
1d3
100
AcDbEntity
  8
1
100
AcDbText
  6
CONTINUOUS
 62
1
 10
6.0961322E+001
 20
1.2125089E+002
 40
3.0
  1
19.05
 41
8.0E-001
 50
9.0E+001
100
AcDbText
  0
INSERT
  5
1d4
100
AcDbEntity
100
AcDbBlockReference
  2
_AH2
  8
1
 62
1
 10
6.1462322E+001
 20
1.1772589E+002
 41
2.0
 42
2.0
 43
2.0
 50
2.7E+002
  0
INSERT
  5
1d5
100
AcDbEntity
100
AcDbBlockReference
  2
_AH2
  8
1
 62
1
 10
6.1462322E+001
 20
1.3677589E+002
 41
2.0
 42
2.0
 43
2.0
 50
9.0E+001
  0
ENDBLK
  5
1d6
100
AcDbEntity
100
AcDbBlockEnd
  0
ENDSEC
  0
SECTION
  2
ENTITIES
  0
LINE
  5
1d7
100
AcDbEntity
  8
1
100
AcDbLine
  6
CONTINUOUS
 62
7
 10
1.9002317E+002
 20
4.7404401E+001
 11
1.1482317E+002
 21
4.7404401E+001
  0
ARC
  5
1d8
100
AcDbEntity
  8
1
100
AcDbCircle
  6
CONTINUOUS
 62
7
 10
1.2897317E+002
 20
4.5004401E+001
 40
5.0E-001
100
AcDbArc
 50
9.0E+001
 51
1.8E+002
  0
ARC
  5
1d9
100
AcDbEntity
  8
1
100
AcDbCircle
  6
CONTINUOUS
 62
7
 10
1.3777317E+002
 20
4.5004401E+001
 40
5.0E-001
100
AcDbArc
 50
0.0
 51
9.0E+001
  0
ARC
  5
1da
100
AcDbEntity
  8
1
100
AcDbCircle
  6
CONTINUOUS
 62
7
 10
1.4802317E+002
 20
4.5004401E+001
 40
5.0E-001
100
AcDbArc
 50
9.0E+001
 51
1.8E+002
  0
ARC
  5
1db
100
AcDbEntity
  8
1
100
AcDbCircle
  6
CONTINUOUS
 62
7
 10
1.5682317E+002
 20
4.5004401E+001
 40
5.0E-001
100
AcDbArc
 50
0.0
 51
9.0E+001
  0
ARC
  5
1dc
100
AcDbEntity
  8
1
100
AcDbCircle
  6
CONTINUOUS
 62
7
 10
1.6707317E+002
 20
4.5004401E+001
 40
5.0E-001
100
AcDbArc
 50
9.0E+001
 51
1.8E+002
  0
ARC
  5
1dd
100
AcDbEntity
  8
1
100
AcDbCircle
  6
CONTINUOUS
 62
7
 10
1.7587317E+002
 20
4.5004401E+001
 40
5.0E-001
100
AcDbArc
 50
0.0
 51
9.0E+001
  0
LINE
  5
1de
100
AcDbEntity
  8
1
100
AcDbLine
  6
CONTINUOUS
 62
7
 10
1.9002317E+002
 20
3.8704401E+001
 11
1.1482317E+002
 21
3.8704401E+001
  0
LINE
  5
1df
100
AcDbEntity
  8
1
100
AcDbLine
  6
CENTERLINE
 62
6
 10
7.3254651E+001
 20
1.6223573E+002
 11
7.3254651E+001
 21
9.1535852E+001
  0
DIMENSION
  5
1e0
100
AcDbEntity
  8
1
100
AcDbDimension
  6
CONTINUOUS
 62
1
  2
*D188
  3
DSTYLE1
 10
7.7604651E+001
 20
8.751142E+001
 11
8.43687E+001
 21
8.951242E+001
 70
128
100
AcDbAlignedDimension
 13
7.3254651E+001
 23
9.1535852E+001
 14
7.7604651E+001
 24
9.8885699E+001
 40
1.0
 50
0.0
100
AcDbRotatedDimension
1001
ACAD
1000
DSTYLE
1002
{
1070
173
1070
1
1070
7
1000
_AH2
1070
6
1000
_AH15
1002
}
  0
DIMENSION
  5
1e1
100
AcDbEntity
  8
1
100
AcDbDimension
  6
CONTINUOUS
 62
1
  2
*D189
  3
DSTYLE2
 10
7.3254651E+001
 20
8.751142E+001
 11
6.3343388E+001
 21
8.951242E+001
 70
128
100
AcDbAlignedDimension
 13
6.8904651E+001
 23
9.8885889E+001
 14
7.3254651E+001
 24
9.1535852E+001
 40
1.0
 50
0.0
100
AcDbRotatedDimension
1001
ACAD
1000
DSTYLE
1002
{
1070
173
1070
0
1070
5
1000
_AH2
1002
}
  0
DIMENSION
  5
1e2
100
AcDbEntity
  8
1
100
AcDbDimension
  6
CONTINUOUS
 62
1
  2
*D190
  3
DSTYLE3
 10
7.7604651E+001
 20
8.061759E+001
 11
7.3254651E+001
 21
8.261859E+001
 70
128
100
AcDbAlignedDimension
 13
6.8904651E+001
 23
9.8800545E+001
 14
7.7604651E+001
 24
9.8800545E+001
 40
1.0
 50
0.0
100
AcDbRotatedDimension
1001
ACAD
1000
DSTYLE
1002
{
1070
173
1070
0
1070
5
1000
_AH2
1002
}
  0
LINE
  5
1e3
100
AcDbEntity
  8
1
100
AcDbLine
  6
CENTER_C
 62
6
 10
6.8096015E+001
 20
1.5582589E+002
 11
7.8757196E+001
 21
1.5582589E+002
  0
ARC
  5
1e4
100
AcDbEntity
  8
1
100
AcDbCircle
  6
CONTINUOUS
 62
7
 10
7.3254651E+001
 20
1.5582589E+002
 40
2.4
100
AcDbArc
 50
2.0175521E+002
 51
2.5346195E+002
  0
LINE
  5
1e5
100
AcDbEntity
  8
1
100
AcDbLine
  6
CONTINUOUS
 62
7
 10
6.8904651E+001
 20
1.5582589E+002
 11
6.8904651E+001
 21
1.3698589E+002
  0
ARC
  5
1e6
100
AcDbEntity
  8
1
100
AcDbCircle
  6
CONTINUOUS
 62
7
 10
7.3254651E+001
 20
1.5582589E+002
 40
4.35
100
AcDbArc
 50
8.9997501E+001
 51
1.8E+002
  0
ARC
  5
1e7
100
AcDbEntity
  8
1
100
AcDbCircle
  6
CONTINUOUS
 62
7
 10
7.2205651E+001
 20
1.5477689E+002
 40
5.5
100
AcDbArc
 50
1.0997243E+001
 51
7.9002757E+001
  0
LINE
  5
1e8
100
AcDbEntity
  8
1
100
AcDbLine
  6
CONTINUOUS
 62
7
 10
7.7604651E+001
 20
1.5582608E+002
 11
7.7604651E+001
 21
1.369857E+002
  0
ARC
  5
1e9
100
AcDbEntity
  8
1
100
AcDbCircle
  6
CONTINUOUS
 62
7
 10
7.3254651E+001
 20
1.3698589E+002
 40
4.35
100
AcDbArc
 50
1.8E+002
 51
1.8138314E+002
  0
ARC
  5
1ea
100
AcDbEntity
  8
1
100
AcDbCircle
  6
CONTINUOUS
 62
7
 10
7.2205651E+001
 20
1.3803489E+002
 40
5.5
100
AcDbArc
 50
3.478883E+002
 51
3.4900276E+002
  0
ARC
  5
1eb
100
AcDbEntity
  8
1
100
AcDbCircle
  6
CONTINUOUS
 62
7
 10
1.8662317E+002
 20
1.4068589E+002
 40
1.0
100
AcDbArc
 50
9.0E+001
 51
1.8E+002
  0
ARC
  5
1ec
100
AcDbEntity
  8
1
100
AcDbCircle
  6
CONTINUOUS
 62
7
 10
1.8662317E+002
 20
1.2163589E+002
 40
1.0
100
AcDbArc
 50
9.0E+001
 51
1.8E+002
  0
ARC
  5
1ed
100
AcDbEntity
  8
1
100
AcDbCircle
  6
CONTINUOUS
 62
7
 10
1.8662317E+002
 20
1.0258589E+002
 40
1.0
100
AcDbArc
 50
9.0E+001
 51
1.8E+002
  0
ARC
  5
1ee
100
AcDbEntity
  8
1
100
AcDbCircle
  6
CONTINUOUS
 62
7
 10
1.1812189E+002
 20
1.4042589E+002
 40
7.0E-001
100
AcDbArc
 50
1.974934
 51
9.0E+001
  0
LINE
  5
1ef
100
AcDbEntity
  8
1
100
AcDbLine
  6
CONTINUOUS
 62
7
 10
9.8001461E+001
 20
1.08041E+002
 11
9.8001461E+001
 21
1.3847075E+002
  0
LINE
  5
1f0
100
AcDbEntity
  8
1
100
AcDbLine
  6
CONTINUOUS
 62
7
 10
9.8001461E+001
 20
1.3847075E+002
 11
9.8877874E+001
 21
1.3519994E+002
  0
LINE
  5
1f1
100
AcDbEntity
  8
1
100
AcDbLine
  6
CONTINUOUS
 62
7
 10
9.8001461E+001
 20
1.3847075E+002
 11
9.7125048E+001
 21
1.3519994E+002
  0
LINE
  5
1f2
100
AcDbEntity
  8
1
100
AcDbLine
  6
CONTINUOUS
 62
7
 10
9.8001461E+001
 20
1.08041E+002
 11
9.8877874E+001
 21
1.1131182E+002
  0
LINE
  5
1f3
100
AcDbEntity
  8
1
100
AcDbLine
  6
CONTINUOUS
 62
7
 10
9.8001461E+001
 20
1.08041E+002
 11
9.7125048E+001
 21
1.1131182E+002
  0
INSERT
  5
1f4
100
AcDbEntity
100
AcDbBlockReference
  2
*TX37
  8
1
 10
1.0055466E+002
 20
1.2949394E+002
  0
LINE
  5
1f5
100
AcDbEntity
  8
1
100
AcDbLine
  6
CONTINUOUS
 62
7
 10
1.9052317E+002
 20
1.5832589E+002
 11
1.9052317E+002
 21
1.4268589E+002
  0
LINE
  5
1f6
100
AcDbEntity
  8
1
100
AcDbLine
  6
CONTINUOUS
 62
7
 10
1.8948724E+002
 20
1.6017589E+002
 11
1.8672445E+002
 21
1.6017589E+002
  0
LINE
  5
1f7
100
AcDbEntity
  8
1
100
AcDbLine
  6
CONTINUOUS
 62
7
 10
1.8952317E+002
 20
1.4168589E+002
 11
1.8662317E+002
 21
1.4168589E+002
  0
LINE
  5
1f8
100
AcDbEntity
  8
1
100
AcDbLine
  6
CONTINUOUS
 62
7
 10
1.90163E+002
 20
1.5965852E+002
 11
1.9052317E+002
 21
1.5832589E+002
  0
ARC
  5
1f9
100
AcDbEntity
  8
1
100
AcDbCircle
  6
CONTINUOUS
 62
7
 10
7.3254651E+001
 20
1.5372589E+002
 40
2.95
100
AcDbArc
 50
2.7E+002
 51
3.6E+002
  0
ARC
  5
1fa
100
AcDbEntity
  8
1
100
AcDbCircle
  6
CONTINUOUS
 62
7
 10
1.8948724E+002
 20
1.5947589E+002
 40
7.0E-001
100
AcDbArc
 50
1.5124007E+001
 51
9.0E+001
  0
ARC
  5
1fb
100
AcDbEntity
  8
1
100
AcDbCircle
  6
CONTINUOUS
 62
7
 10
1.8952317E+002
 20
1.4268589E+002
 40
1.0
100
AcDbArc
 50
2.7E+002
 51
3.6E+002
  0
LINE
  5
1fc
100
AcDbEntity
  8
1
100
AcDbLine
  6
CONTINUOUS
 62
7
 10
1.9052317E+002
 20
1.2022589E+002
 11
1.9052317E+002
 21
1.0458589E+002
  0
LINE
  5
1fd
100
AcDbEntity
  8
1
100
AcDbLine
  6
CONTINUOUS
 62
7
 10
1.8948724E+002
 20
1.2207589E+002
 11
1.8676317E+002
 21
1.2207589E+002
  0
LINE
  5
1fe
100
AcDbEntity
  8
1
100
AcDbLine
  6
CONTINUOUS
 62
7
 10
1.8952317E+002
 20
1.0358589E+002
 11
1.8662317E+002
 21
1.0358589E+002
  0
LINE
  5
1ff
100
AcDbEntity
  8
1
100
AcDbLine
  6
CONTINUOUS
 62
7
 10
1.90163E+002
 20
1.2155852E+002
 11
1.9052317E+002
 21
1.2022589E+002
  0
ARC
  5
200
100
AcDbEntity
  8
1
100
AcDbCircle
  6
CONTINUOUS
 62
7
 10
1.8948724E+002
 20
1.2137589E+002
 40
7.0E-001
100
AcDbArc
 50
1.5124007E+001
 51
9.0E+001
  0
ARC
  5
201
100
AcDbEntity
  8
1
100
AcDbCircle
  6
CONTINUOUS
 62
7
 10
1.8952317E+002
 20
1.0458589E+002
 40
1.0
100
AcDbArc
 50
2.7E+002
 51
3.6E+002
  0
ARC
  5
202
100
AcDbEntity
  8
1
100
AcDbCircle
  6
CONTINUOUS
 62
7
 10
7.3254651E+001
 20
1.5322589E+002
 40
2.45
100
AcDbArc
 50
1.8E+002
 51
2.7E+002
  0
LINE
  5
203
100
AcDbEntity
  8
1
100
AcDbLine
  6
CONTINUOUS
 62
7
 10
7.6204651E+001
 20
1.5372589E+002
 11
7.6204651E+001
 21
1.5582589E+002
  0
LINE
  5
204
100
AcDbEntity
  8
1
100
AcDbLine
  6
CONTINUOUS
 62
7
 10
7.6204651E+001
 20
1.5582589E+002
 11
7.5654651E+001
 21
1.5582589E+002
  0
LINE
  5
205
100
AcDbEntity
  8
1
100
AcDbLine
  6
CONTINUOUS
 62
7
 10
1.1432317E+002
 20
1.3927589E+002
 11
1.1432317E+002
 21
1.2363589E+002
  0
ARC
  5
206
100
AcDbEntity
  8
1
100
AcDbCircle
  6
CONTINUOUS
 62
7
 10
1.1532317E+002
 20
1.2363589E+002
 40
1.0
100
AcDbArc
 50
1.8E+002
 51
2.7E+002
  0
LINE
  5
207
100
AcDbEntity
  8
1
100
AcDbLine
  6
CONTINUOUS
 62
7
 10
1.1532317E+002
 20
1.2263589E+002
 11
1.1822317E+002
 21
1.2263589E+002
  0
ARC
  5
208
100
AcDbEntity
  8
1
100
AcDbCircle
  6
CONTINUOUS
 62
7
 10
1.1822317E+002
 20
1.2163589E+002
 40
1.0
100
AcDbArc
 50
0.0
 51
9.0E+001
  0
LINE
  5
209
100
AcDbEntity
  8
1
100
AcDbLine
  6
CONTINUOUS
 62
7
 10
1.1922317E+002
 20
1.2163589E+002
 11
1.1922317E+002
 21
1.1793589E+002
  0
LINE
  5
20a
100
AcDbEntity
  8
1
100
AcDbLine
  6
CONTINUOUS
 62
7
 10
1.1922317E+002
 20
1.1793589E+002
 11
1.1934763E+002
 21
1.1432642E+002
  0
LINE
  5
20b
100
AcDbEntity
  8
1
100
AcDbLine
  6
CONTINUOUS
 62
7
 10
1.2008817E+002
 20
1.1358589E+002
 11
1.2184817E+002
 21
1.1358589E+002
  0
LINE
  5
20c
100
AcDbEntity
  8
1
100
AcDbLine
  6
CONTINUOUS
 62
7
 10
1.2184817E+002
 20
1.1378589E+002
 11
1.2184817E+002
 21
1.1358589E+002
  0
LINE
  5
20d
100
AcDbEntity
  8
1
100
AcDbLine
  6
CONTINUOUS
 62
7
 10
1.2184817E+002
 20
1.1378589E+002
 11
1.2584817E+002
 21
1.1378589E+002
  0
LINE
  5
20e
100
AcDbEntity
  8
1
100
AcDbLine
  6
CONTINUOUS
 62
7
 10
1.2584817E+002
 20
1.1378589E+002
 11
1.2584817E+002
 21
1.1358589E+002
  0
LINE
  5
20f
100
AcDbEntity
  8
1
100
AcDbLine
  6
CONTINUOUS
 62
7
 10
1.2584817E+002
 20
1.1358589E+002
 11
1.2760817E+002
 21
1.1358589E+002
  0
LINE
  5
210
100
AcDbEntity
  8
1
100
AcDbLine
  6
CONTINUOUS
 62
7
 10
1.2847317E+002
 20
1.1793589E+002
 11
1.283487E+002
 21
1.1432642E+002
  0
LINE
  5
211
100
AcDbEntity
  8
1
100
AcDbLine
  6
CONTINUOUS
 62
7
 10
1.2847317E+002
 20
1.2052168E+002
 11
1.2847317E+002
 21
1.1793589E+002
  0
ARC
  5
212
100
AcDbEntity
  8
1
100
AcDbCircle
  6
CONTINUOUS
 62
7
 10
1.2947317E+002
 20
1.2052168E+002
 40
1.0
100
AcDbArc
 50
1.35E+002
 51
1.8E+002
  0
LINE
  5
213
100
AcDbEntity
  8
1
100
AcDbLine
  6
CONTINUOUS
 62
7
 10
1.3266606E+002
 20
1.2512878E+002
 11
1.2876606E+002
 21
1.2122878E+002
  0
ARC
  5
214
100
AcDbEntity
  8
1
100
AcDbCircle
  6
CONTINUOUS
 62
7
 10
1.3337317E+002
 20
1.2442168E+002
 40
1.0
100
AcDbArc
 50
4.5E+001
 51
1.35E+002
  0
LINE
  5
215
100
AcDbEntity
  8
1
100
AcDbLine
  6
CONTINUOUS
 62
7
 10
1.3408027E+002
 20
1.2512878E+002
 11
1.3798027E+002
 21
1.2122878E+002
  0
ARC
  5
216
100
AcDbEntity
  8
1
100
AcDbCircle
  6
CONTINUOUS
 62
7
 10
1.3727317E+002
 20
1.2052168E+002
 40
1.0
100
AcDbArc
 50
0.0
 51
4.5E+001
  0
LINE
  5
217
100
AcDbEntity
  8
1
100
AcDbLine
  6
CONTINUOUS
 62
7
 10
1.3827317E+002
 20
1.2052168E+002
 11
1.3827317E+002
 21
1.1793589E+002
  0
LINE
  5
218
100
AcDbEntity
  8
1
100
AcDbLine
  6
CONTINUOUS
 62
7
 10
1.3827317E+002
 20
1.1793589E+002
 11
1.3839763E+002
 21
1.1432642E+002
  0
LINE
  5
219
100
AcDbEntity
  8
1
100
AcDbLine
  6
CONTINUOUS
 62
7
 10
1.3913817E+002
 20
1.1358589E+002
 11
1.4089817E+002
 21
1.1358589E+002
  0
LINE
  5
21a
100
AcDbEntity
  8
1
100
AcDbLine
  6
CONTINUOUS
 62
7
 10
1.4089817E+002
 20
1.1378589E+002
 11
1.4089817E+002
 21
1.1358589E+002
  0
LINE
  5
21b
100
AcDbEntity
  8
1
100
AcDbLine
  6
CONTINUOUS
 62
7
 10
1.4089817E+002
 20
1.1378589E+002
 11
1.4489817E+002
 21
1.1378589E+002
  0
LINE
  5
21c
100
AcDbEntity
  8
1
100
AcDbLine
  6
CONTINUOUS
 62
7
 10
1.4489817E+002
 20
1.1378589E+002
 11
1.4489817E+002
 21
1.1358589E+002
  0
LINE
  5
21d
100
AcDbEntity
  8
1
100
AcDbLine
  6
CONTINUOUS
 62
7
 10
1.4489817E+002
 20
1.1358589E+002
 11
1.4665817E+002
 21
1.1358589E+002
  0
LINE
  5
21e
100
AcDbEntity
  8
1
100
AcDbLine
  6
CONTINUOUS
 62
7
 10
1.4752317E+002
 20
1.1793589E+002
 11
1.473987E+002
 21
1.1432642E+002
  0
LINE
  5
21f
100
AcDbEntity
  8
1
100
AcDbLine
  6
CONTINUOUS
 62
7
 10
1.4752317E+002
 20
1.2052168E+002
 11
1.4752317E+002
 21
1.1793589E+002
  0
ARC
  5
220
100
AcDbEntity
  8
1
100
AcDbCircle
  6
CONTINUOUS
 62
7
 10
1.4852317E+002
 20
1.2052168E+002
 40
1.0
100
AcDbArc
 50
1.35E+002
 51
1.8E+002
  0
LINE
  5
221
100
AcDbEntity
  8
1
100
AcDbLine
  6
CONTINUOUS
 62
7
 10
1.5171606E+002
 20
1.2512878E+002
 11
1.4781606E+002
 21
1.2122878E+002
  0
ARC
  5
222
100
AcDbEntity
  8
1
100
AcDbCircle
  6
CONTINUOUS
 62
7
 10
1.5242317E+002
 20
1.2442168E+002
 40
1.0
100
AcDbArc
 50
4.5E+001
 51
1.35E+002
  0
LINE
  5
223
100
AcDbEntity
  8
1
100
AcDbLine
  6
CONTINUOUS
 62
7
 10
1.5313027E+002
 20
1.2512878E+002
 11
1.5703027E+002
 21
1.2122878E+002
  0
ARC
  5
224
100
AcDbEntity
  8
1
100
AcDbCircle
  6
CONTINUOUS
 62
7
 10
1.5632317E+002
 20
1.2052168E+002
 40
1.0
100
AcDbArc
 50
0.0
 51
4.5E+001
  0
LINE
  5
225
100
AcDbEntity
  8
1
100
AcDbLine
  6
CONTINUOUS
 62
7
 10
1.5732317E+002
 20
1.2052168E+002
 11
1.5732317E+002
 21
1.1793589E+002
  0
LINE
  5
226
100
AcDbEntity
  8
1
100
AcDbLine
  6
CONTINUOUS
 62
7
 10
1.5732317E+002
 20
1.1793589E+002
 11
1.5744763E+002
 21
1.1432642E+002
  0
LINE
  5
227
100
AcDbEntity
  8
1
100
AcDbLine
  6
CONTINUOUS
 62
7
 10
1.5818817E+002
 20
1.1358589E+002
 11
1.5994817E+002
 21
1.1358589E+002
  0
LINE
  5
228
100
AcDbEntity
  8
1
100
AcDbLine
  6
CONTINUOUS
 62
7
 10
1.5994817E+002
 20
1.1378589E+002
 11
1.5994817E+002
 21
1.1358589E+002
  0
LINE
  5
229
100
AcDbEntity
  8
1
100
AcDbLine
  6
CONTINUOUS
 62
7
 10
1.5994817E+002
 20
1.1378589E+002
 11
1.6394817E+002
 21
1.1378589E+002
  0
LINE
  5
22a
100
AcDbEntity
  8
1
100
AcDbLine
  6
CONTINUOUS
 62
7
 10
1.6394817E+002
 20
1.1378589E+002
 11
1.6394817E+002
 21
1.1358589E+002
  0
LINE
  5
22b
100
AcDbEntity
  8
1
100
AcDbLine
  6
CONTINUOUS
 62
7
 10
1.6394817E+002
 20
1.1358589E+002
 11
1.6570817E+002
 21
1.1358589E+002
  0
LINE
  5
22c
100
AcDbEntity
  8
1
100
AcDbLine
  6
CONTINUOUS
 62
7
 10
1.6657317E+002
 20
1.1793589E+002
 11
1.664487E+002
 21
1.1432642E+002
  0
LINE
  5
22d
100
AcDbEntity
  8
1
100
AcDbLine
  6
CONTINUOUS
 62
7
 10
1.6657317E+002
 20
1.2052168E+002
 11
1.6657317E+002
 21
1.1793589E+002
  0
ARC
  5
22e
100
AcDbEntity
  8
1
100
AcDbCircle
  6
CONTINUOUS
 62
7
 10
1.6757317E+002
 20
1.2052168E+002
 40
1.0
100
AcDbArc
 50
1.35E+002
 51
1.8E+002
  0
LINE
  5
22f
100
AcDbEntity
  8
1
100
AcDbLine
  6
CONTINUOUS
 62
7
 10
1.7076606E+002
 20
1.2512878E+002
 11
1.6686606E+002
 21
1.2122878E+002
  0
ARC
  5
230
100
AcDbEntity
  8
1
100
AcDbCircle
  6
CONTINUOUS
 62
7
 10
1.7147317E+002
 20
1.2442168E+002
 40
1.0
100
AcDbArc
 50
4.5E+001
 51
1.35E+002
  0
LINE
  5
231
100
AcDbEntity
  8
1
100
AcDbLine
  6
CONTINUOUS
 62
7
 10
1.7218027E+002
 20
1.2512878E+002
 11
1.7608027E+002
 21
1.2122878E+002
  0
ARC
  5
232
100
AcDbEntity
  8
1
100
AcDbCircle
  6
CONTINUOUS
 62
7
 10
1.7537317E+002
 20
1.2052168E+002
 40
1.0
100
AcDbArc
 50
0.0
 51
4.5E+001
  0
LINE
  5
233
100
AcDbEntity
  8
1
100
AcDbLine
  6
CONTINUOUS
 62
7
 10
1.7637317E+002
 20
1.2052168E+002
 11
1.7637317E+002
 21
1.1793589E+002
  0
LINE
  5
234
100
AcDbEntity
  8
1
100
AcDbLine
  6
CONTINUOUS
 62
7
 10
1.7637317E+002
 20
1.1793589E+002
 11
1.7649763E+002
 21
1.1432642E+002
  0
LINE
  5
235
100
AcDbEntity
  8
1
100
AcDbLine
  6
CONTINUOUS
 62
7
 10
1.7723817E+002
 20
1.1358589E+002
 11
1.7899817E+002
 21
1.1358589E+002
  0
LINE
  5
236
100
AcDbEntity
  8
1
100
AcDbLine
  6
CONTINUOUS
 62
7
 10
1.7899817E+002
 20
1.1378589E+002
 11
1.7899817E+002
 21
1.1358589E+002
  0
LINE
  5
237
100
AcDbEntity
  8
1
100
AcDbLine
  6
CONTINUOUS
 62
7
 10
1.7899817E+002
 20
1.1378589E+002
 11
1.8299817E+002
 21
1.1378589E+002
  0
LINE
  5
238
100
AcDbEntity
  8
1
100
AcDbLine
  6
CONTINUOUS
 62
7
 10
1.8299817E+002
 20
1.1378589E+002
 11
1.8299817E+002
 21
1.1358589E+002
  0
LINE
  5
239
100
AcDbEntity
  8
1
100
AcDbLine
  6
CONTINUOUS
 62
7
 10
1.8299817E+002
 20
1.1358589E+002
 11
1.8475817E+002
 21
1.1358589E+002
  0
LINE
  5
23a
100
AcDbEntity
  8
1
100
AcDbLine
  6
CONTINUOUS
 62
7
 10
1.8562317E+002
 20
1.1793589E+002
 11
1.854987E+002
 21
1.1432642E+002
  0
LINE
  5
23b
100
AcDbEntity
  8
1
100
AcDbLine
  6
CONTINUOUS
 62
7
 10
1.8562317E+002
 20
1.2163589E+002
 11
1.8562317E+002
 21
1.1793589E+002
  0
LINE
  5
23c
100
AcDbEntity
  8
1
100
AcDbLine
  6
CONTINUOUS
 62
7
 10
1.8952317E+002
 20
1.2263589E+002
 11
1.8662317E+002
 21
1.2263589E+002
  0
ARC
  5
23d
100
AcDbEntity
  8
1
100
AcDbCircle
  6
CONTINUOUS
 62
7
 10
1.8952317E+002
 20
1.2363589E+002
 40
1.0
100
AcDbArc
 50
2.7E+002
 51
3.6E+002
  0
LINE
  5
23e
100
AcDbEntity
  8
1
100
AcDbLine
  6
CONTINUOUS
 62
7
 10
1.9052317E+002
 20
1.3927589E+002
 11
1.9052317E+002
 21
1.2363589E+002
  0
LINE
  5
23f
100
AcDbEntity
  8
1
100
AcDbLine
  6
CONTINUOUS
 62
7
 10
7.0254651E+001
 20
1.5382589E+002
 11
7.0804651E+001
 21
1.5382589E+002
  0
LINE
  5
240
100
AcDbEntity
  8
1
100
AcDbLine
  6
CONTINUOUS
 62
7
 10
1.90163E+002
 20
1.4060852E+002
 11
1.9052317E+002
 21
1.3927589E+002
  0
ARC
  5
241
100
AcDbEntity
  8
1
100
AcDbCircle
  6
CONTINUOUS
 62
7
 10
1.8948724E+002
 20
1.4042589E+002
 40
7.0E-001
100
AcDbArc
 50
1.5124007E+001
 51
9.0E+001
  0
LINE
  5
242
100
AcDbEntity
  8
1
100
AcDbLine
  6
CONTINUOUS
 62
7
 10
1.8672445E+002
 20
1.4112589E+002
 11
1.8948724E+002
 21
1.4112589E+002
  0
ARC
  5
243
100
AcDbEntity
  8
1
100
AcDbCircle
  6
CONTINUOUS
 62
7
 10
1.8672445E+002
 20
1.4042589E+002
 40
7.0E-001
100
AcDbArc
 50
9.0E+001
 51
1.7802507E+002
  0
LINE
  5
244
100
AcDbEntity
  8
1
100
AcDbLine
  6
CONTINUOUS
 62
7
 10
1.8589817E+002
 20
1.3677589E+002
 11
1.8602486E+002
 21
1.4045001E+002
  0
LINE
  5
245
100
AcDbEntity
  8
1
100
AcDbLine
  6
CONTINUOUS
 62
7
 10
1.8589817E+002
 20
1.3677589E+002
 11
1.8589817E+002
 21
1.341901E+002
  0
ARC
  5
246
100
AcDbEntity
  8
1
100
AcDbCircle
  6
CONTINUOUS
 62
7
 10
1.8489817E+002
 20
1.341901E+002
 40
1.0
100
AcDbArc
 50
3.15E+002
 51
3.6E+002
  0
LINE
  5
247
100
AcDbEntity
  8
1
100
AcDbLine
  6
CONTINUOUS
 62
7
 10
1.8170527E+002
 20
1.29583E+002
 11
1.8560527E+002
 21
1.33483E+002
  0
ARC
  5
248
100
AcDbEntity
  8
1
100
AcDbCircle
  6
CONTINUOUS
 62
7
 10
1.8099817E+002
 20
1.302901E+002
 40
1.0
100
AcDbArc
 50
2.25E+002
 51
3.15E+002
  0
LINE
  5
249
100
AcDbEntity
  8
1
100
AcDbLine
  6
CONTINUOUS
 62
7
 10
1.8029106E+002
 20
1.29583E+002
 11
1.7639106E+002
 21
1.33483E+002
  0
ARC
  5
24a
100
AcDbEntity
  8
1
100
AcDbCircle
  6
CONTINUOUS
 62
7
 10
1.7709817E+002
 20
1.341901E+002
 40
1.0
100
AcDbArc
 50
1.8E+002
 51
2.25E+002
  0
LINE
  5
24b
100
AcDbEntity
  8
1
100
AcDbLine
  6
CONTINUOUS
 62
7
 10
1.7609817E+002
 20
1.3677589E+002
 11
1.7609817E+002
 21
1.341901E+002
  0
LINE
  5
24c
100
AcDbEntity
  8
1
100
AcDbLine
  6
CONTINUOUS
 62
7
 10
1.7609817E+002
 20
1.3677589E+002
 11
1.759737E+002
 21
1.4038535E+002
  0
LINE
  5
24d
100
AcDbEntity
  8
1
100
AcDbLine
  6
CONTINUOUS
 62
7
 10
1.6771317E+002
 20
1.4112589E+002
 11
1.7523317E+002
 21
1.4112589E+002
  0
LINE
  5
24e
100
AcDbEntity
  8
1
100
AcDbLine
  6
CONTINUOUS
 62
7
 10
1.6684817E+002
 20
1.3677589E+002
 11
1.6697263E+002
 21
1.4038535E+002
  0
LINE
  5
24f
100
AcDbEntity
  8
1
100
AcDbLine
  6
CONTINUOUS
 62
7
 10
1.6684817E+002
 20
1.3677589E+002
 11
1.6684817E+002
 21
1.341901E+002
  0
ARC
  5
250
100
AcDbEntity
  8
1
100
AcDbCircle
  6
CONTINUOUS
 62
7
 10
1.6584817E+002
 20
1.341901E+002
 40
1.0
100
AcDbArc
 50
3.15E+002
 51
3.6E+002
  0
LINE
  5
251
100
AcDbEntity
  8
1
100
AcDbLine
  6
CONTINUOUS
 62
7
 10
1.6265527E+002
 20
1.29583E+002
 11
1.6655527E+002
 21
1.33483E+002
  0
ARC
  5
252
100
AcDbEntity
  8
1
100
AcDbCircle
  6
CONTINUOUS
 62
7
 10
1.6194817E+002
 20
1.302901E+002
 40
1.0
100
AcDbArc
 50
2.25E+002
 51
3.15E+002
  0
LINE
  5
253
100
AcDbEntity
  8
1
100
AcDbLine
  6
CONTINUOUS
 62
7
 10
1.6124106E+002
 20
1.29583E+002
 11
1.5734106E+002
 21
1.33483E+002
  0
ARC
  5
254
100
AcDbEntity
  8
1
100
AcDbCircle
  6
CONTINUOUS
 62
7
 10
1.5804817E+002
 20
1.341901E+002
 40
1.0
100
AcDbArc
 50
1.8E+002
 51
2.25E+002
  0
LINE
  5
255
100
AcDbEntity
  8
1
100
AcDbLine
  6
CONTINUOUS
 62
7
 10
1.5704817E+002
 20
1.3677589E+002
 11
1.5704817E+002
 21
1.341901E+002
  0
LINE
  5
256
100
AcDbEntity
  8
1
100
AcDbLine
  6
CONTINUOUS
 62
7
 10
1.5704817E+002
 20
1.3677589E+002
 11
1.569237E+002
 21
1.4038535E+002
  0
LINE
  5
257
100
AcDbEntity
  8
1
100
AcDbLine
  6
CONTINUOUS
 62
7
 10
1.4866317E+002
 20
1.4112589E+002
 11
1.5618317E+002
 21
1.4112589E+002
  0
LINE
  5
258
100
AcDbEntity
  8
1
100
AcDbLine
  6
CONTINUOUS
 62
7
 10
1.4779817E+002
 20
1.3677589E+002
 11
1.4792263E+002
 21
1.4038535E+002
  0
LINE
  5
259
100
AcDbEntity
  8
1
100
AcDbLine
  6
CONTINUOUS
 62
7
 10
1.4779817E+002
 20
1.3677589E+002
 11
1.4779817E+002
 21
1.341901E+002
  0
ARC
  5
25a
100
AcDbEntity
  8
1
100
AcDbCircle
  6
CONTINUOUS
 62
7
 10
1.4679817E+002
 20
1.341901E+002
 40
1.0
100
AcDbArc
 50
3.15E+002
 51
3.6E+002
  0
LINE
  5
25b
100
AcDbEntity
  8
1
100
AcDbLine
  6
CONTINUOUS
 62
7
 10
1.4360527E+002
 20
1.29583E+002
 11
1.4750527E+002
 21
1.33483E+002
  0
ARC
  5
25c
100
AcDbEntity
  8
1
100
AcDbCircle
  6
CONTINUOUS
 62
7
 10
1.4289817E+002
 20
1.302901E+002
 40
1.0
100
AcDbArc
 50
2.25E+002
 51
3.15E+002
  0
LINE
  5
25d
100
AcDbEntity
  8
1
100
AcDbLine
  6
CONTINUOUS
 62
7
 10
1.4219106E+002
 20
1.29583E+002
 11
1.3829106E+002
 21
1.33483E+002
  0
ARC
  5
25e
100
AcDbEntity
  8
1
100
AcDbCircle
  6
CONTINUOUS
 62
7
 10
1.3899817E+002
 20
1.341901E+002
 40
1.0
100
AcDbArc
 50
1.8E+002
 51
2.25E+002
  0
LINE
  5
25f
100
AcDbEntity
  8
1
100
AcDbLine
  6
CONTINUOUS
 62
7
 10
1.3799817E+002
 20
1.3677589E+002
 11
1.3799817E+002
 21
1.341901E+002
  0
LINE
  5
260
100
AcDbEntity
  8
1
100
AcDbLine
  6
CONTINUOUS
 62
7
 10
1.3799817E+002
 20
1.3677589E+002
 11
1.378737E+002
 21
1.4038535E+002
  0
LINE
  5
261
100
AcDbEntity
  8
1
100
AcDbLine
  6
CONTINUOUS
 62
7
 10
1.2961317E+002
 20
1.4112589E+002
 11
1.3713317E+002
 21
1.4112589E+002
  0
LINE
  5
262
100
AcDbEntity
  8
1
100
AcDbLine
  6
CONTINUOUS
 62
7
 10
1.2874817E+002
 20
1.3677589E+002
 11
1.2887263E+002
 21
1.4038535E+002
  0
LINE
  5
263
100
AcDbEntity
  8
1
100
AcDbLine
  6
CONTINUOUS
 62
7
 10
1.2874817E+002
 20
1.3677589E+002
 11
1.2874817E+002
 21
1.341901E+002
  0
ARC
  5
264
100
AcDbEntity
  8
1
100
AcDbCircle
  6
CONTINUOUS
 62
7
 10
1.2774817E+002
 20
1.341901E+002
 40
1.0
100
AcDbArc
 50
3.15E+002
 51
3.6E+002
  0
LINE
  5
265
100
AcDbEntity
  8
1
100
AcDbLine
  6
CONTINUOUS
 62
7
 10
1.2455527E+002
 20
1.29583E+002
 11
1.2845527E+002
 21
1.33483E+002
  0
ARC
  5
266
100
AcDbEntity
  8
1
100
AcDbCircle
  6
CONTINUOUS
 62
7
 10
1.2384817E+002
 20
1.302901E+002
 40
1.0
100
AcDbArc
 50
2.25E+002
 51
3.15E+002
  0
LINE
  5
267
100
AcDbEntity
  8
1
100
AcDbLine
  6
CONTINUOUS
 62
7
 10
1.2314106E+002
 20
1.29583E+002
 11
1.1924106E+002
 21
1.33483E+002
  0
ARC
  5
268
100
AcDbEntity
  8
1
100
AcDbCircle
  6
CONTINUOUS
 62
7
 10
1.1994817E+002
 20
1.341901E+002
 40
1.0
100
AcDbArc
 50
1.8E+002
 51
2.25E+002
  0
LINE
  5
269
100
AcDbEntity
  8
1
100
AcDbLine
  6
CONTINUOUS
 62
7
 10
1.1894817E+002
 20
1.3677589E+002
 11
1.1894817E+002
 21
1.341901E+002
  0
LINE
  5
26a
100
AcDbEntity
  8
1
100
AcDbLine
  6
CONTINUOUS
 62
7
 10
1.1894817E+002
 20
1.3677589E+002
 11
1.188237E+002
 21
1.4038535E+002
  0
LINE
  5
26b
100
AcDbEntity
  8
1
100
AcDbLine
  6
CONTINUOUS
 62
7
 10
1.1535909E+002
 20
1.4112589E+002
 11
1.1808317E+002
 21
1.4112589E+002
  0
ARC
  5
26c
100
AcDbEntity
  8
1
100
AcDbCircle
  6
CONTINUOUS
 62
7
 10
1.1535909E+002
 20
1.4042589E+002
 40
7.0E-001
100
AcDbArc
 50
9.0E+001
 51
1.6487599E+002
  0
LINE
  5
26d
100
AcDbEntity
  8
1
100
AcDbLine
  6
CONTINUOUS
 62
7
 10
1.1468334E+002
 20
1.4060852E+002
 11
1.1432317E+002
 21
1.3927589E+002
  0
ARC
  5
26e
100
AcDbEntity
  8
1
100
AcDbCircle
  6
CONTINUOUS
 62
7
 10
1.7719945E+002
 20
9.5235889E+001
 40
7.0E-001
100
AcDbArc
 50
1.8197493E+002
 51
2.7E+002
  0
ARC
  5
26f
100
AcDbEntity
  8
1
100
AcDbCircle
  6
CONTINUOUS
 62
7
 10
1.8479689E+002
 20
9.5235889E+001
 40
7.0E-001
100
AcDbArc
 50
2.7E+002
 51
3.5802507E+002
  0
ARC
  5
270
100
AcDbEntity
  8
1
100
AcDbCircle
  6
CONTINUOUS
 62
7
 10
1.5814945E+002
 20
9.5235889E+001
 40
7.0E-001
100
AcDbArc
 50
1.8197493E+002
 51
2.7E+002
  0
ARC
  5
271
100
AcDbEntity
  8
1
100
AcDbCircle
  6
CONTINUOUS
 62
7
 10
1.6574689E+002
 20
9.5235889E+001
 40
7.0E-001
100
AcDbArc
 50
2.7E+002
 51
3.5802507E+002
  0
ARC
  5
272
100
AcDbEntity
  8
1
100
AcDbCircle
  6
CONTINUOUS
 62
7
 10
1.3909945E+002
 20
9.5235889E+001
 40
7.0E-001
100
AcDbArc
 50
1.8197493E+002
 51
2.7E+002
  0
ARC
  5
273
100
AcDbEntity
  8
1
100
AcDbCircle
  6
CONTINUOUS
 62
7
 10
1.4669689E+002
 20
9.5235889E+001
 40
7.0E-001
100
AcDbArc
 50
2.7E+002
 51
3.5802507E+002
  0
ARC
  5
274
100
AcDbEntity
  8
1
100
AcDbCircle
  6
CONTINUOUS
 62
7
 10
1.2004945E+002
 20
9.5235889E+001
 40
7.0E-001
100
AcDbArc
 50
1.8197493E+002
 51
2.7E+002
  0
ARC
  5
275
100
AcDbEntity
  8
1
100
AcDbCircle
  6
CONTINUOUS
 62
7
 10
1.2764689E+002
 20
9.5235889E+001
 40
7.0E-001
100
AcDbArc
 50
2.7E+002
 51
3.5802507E+002
  0
LINE
  5
276
100
AcDbEntity
  8
1
100
AcDbLine
  6
CONTINUOUS
 62
7
 10
7.0804651E+001
 20
1.5322589E+002
 11
7.0804651E+001
 21
1.5382589E+002
  0
LINE
  5
277
100
AcDbEntity
  8
1
100
AcDbLine
  6
CONTINUOUS
 62
7
 10
1.9052317E+002
 20
4.6904401E+001
 11
1.9052317E+002
 21
3.9204401E+001
  0
ARC
  5
278
100
AcDbEntity
  8
1
100
AcDbCircle
  6
CONTINUOUS
 62
7
 10
1.9002317E+002
 20
4.6904401E+001
 40
5.0E-001
100
AcDbArc
 50
0.0
 51
9.0E+001
  0
ARC
  5
279
100
AcDbEntity
  8
1
100
AcDbCircle
  6
CONTINUOUS
 62
7
 10
1.9002317E+002
 20
3.9204401E+001
 40
5.0E-001
100
AcDbArc
 50
2.7E+002
 51
3.6E+002
  0
TEXT
  5
27a
100
AcDbEntity
  8
1
100
AcDbText
  6
CONTINUOUS
 62
7
 10
1.3992692E+002
 20
1.8545412E+002
 40
4.0
  1

 41
8.0E-001
 72
1
 11
1.5272692E+002
 21
1.8545412E+002
100
AcDbText
  0
LINE
  5
27b
100
AcDbEntity
  8
1
100
AcDbLine
  6
CONTINUOUS
 62
7
 10
7.0254651E+001
 20
1.5382589E+002
 11
7.0254651E+001
 21
1.5582589E+002
  0
LINE
  5
27c
100
AcDbEntity
  8
1
100
AcDbLine
  6
CONTINUOUS
 62
7
 10
7.0254651E+001
 20
1.5582589E+002
 11
7.0854651E+001
 21
1.5582589E+002
  0
LINE
  5
27d
100
AcDbEntity
  8
1
100
AcDbLine
  6
CONTINUOUS
 62
7
 10
6.9204651E+001
 20
1.4168589E+002
 11
7.7304651E+001
 21
1.4168589E+002
  0
ARC
  5
27e
100
AcDbEntity
  8
1
100
AcDbCircle
  6
CONTINUOUS
 62
7
 10
6.9204651E+001
 20
1.4198589E+002
 40
3.0E-001
100
AcDbArc
 50
1.8E+002
 51
2.7E+002
  0
ARC
  5
27f
100
AcDbEntity
  8
1
100
AcDbCircle
  6
CONTINUOUS
 62
7
 10
7.7304651E+001
 20
1.4198589E+002
 40
3.0E-001
100
AcDbArc
 50
2.7E+002
 51
3.6E+002
  0
LINE
  5
280
100
AcDbEntity
  8
1
100
AcDbLine
  6
CONTINUOUS
 62
7
 10
7.5026866E+001
 20
1.5728089E+002
 11
7.5026866E+001
 21
1.5590487E+002
  0
ARC
  5
281
100
AcDbEntity
  8
1
100
AcDbCircle
  6
CONTINUOUS
 62
7
 10
7.2026866E+001
 20
1.5448089E+002
 40
1.1
100
AcDbArc
 50
3.6221547E+001
 51
3.2377845E+002
  0
LINE
  5
282
100
AcDbEntity
  8
1
100
AcDbLine
  6
CONTINUOUS
 62
7
 10
7.2914278E+001
 20
1.5513089E+002
 11
7.4608589E+001
 21
1.5541159E+002
  0
LINE
  5
283
100
AcDbEntity
  8
1
100
AcDbLine
  6
CONTINUOUS
 62
7
 10
7.2914278E+001
 20
1.5383089E+002
 11
7.4608589E+001
 21
1.5355019E+002
  0
LINE
  5
284
100
AcDbEntity
  8
1
100
AcDbLine
  6
CONTINUOUS
 62
7
 10
7.5026866E+001
 20
1.5305691E+002
 11
7.5026866E+001
 21
1.5217599E+002
  0
LINE
  5
285
100
AcDbEntity
  8
1
100
AcDbLine
  6
CONTINUOUS
 62
7
 10
7.4697877E+001
 20
1.5170615E+002
 11
7.2738893E+001
 21
1.5099313E+002
  0
ARC
  5
286
100
AcDbEntity
  8
1
100
AcDbCircle
  6
CONTINUOUS
 62
7
 10
7.2465277E+001
 20
1.5174489E+002
 40
8.0E-001
100
AcDbArc
 50
2.6046841E+002
 51
2.9E+002
  0
LINE
  5
287
100
AcDbEntity
  8
1
100
AcDbLine
  6
CONTINUOUS
 62
7
 10
7.4626866E+001
 20
1.5768089E+002
 11
7.4123703E+001
 21
1.5768089E+002
  0
LINE
  5
288
100
AcDbEntity
  8
1
100
AcDbLine
  6
CONTINUOUS
 62
7
 10
7.2784445E+001
 20
1.5818089E+002
 11
7.3937031E+001
 21
1.5771704E+002
  0
ARC
  5
289
100
AcDbEntity
  8
1
100
AcDbCircle
  6
CONTINUOUS
 62
7
 10
7.3276866E+001
 20
1.5578089E+002
 40
2.45
100
AcDbArc
 50
1.0159476E+002
 51
1.2725792E+002
  0
ARC
  5
28a
100
AcDbEntity
  8
1
100
AcDbCircle
  6
CONTINUOUS
 62
7
 10
7.4526866E+001
 20
1.5305691E+002
 40
5.0E-001
100
AcDbArc
 50
0.0
 51
8.0593049E+001
  0
ARC
  5
28b
100
AcDbEntity
  8
1
100
AcDbCircle
  6
CONTINUOUS
 62
7
 10
7.4526866E+001
 20
1.5217599E+002
 40
5.0E-001
100
AcDbArc
 50
2.9E+002
 51
3.6E+002
  0
ARC
  5
28c
100
AcDbEntity
  8
1
100
AcDbCircle
  6
CONTINUOUS
 62
7
 10
7.4526866E+001
 20
1.5590487E+002
 40
5.0E-001
100
AcDbArc
 50
2.7940695E+002
 51
3.6E+002
  0
ARC
  5
28d
100
AcDbEntity
  8
1
100
AcDbCircle
  6
CONTINUOUS
 62
7
 10
7.4626866E+001
 20
1.5728089E+002
 40
4.0E-001
100
AcDbArc
 50
0.0
 51
9.0E+001
  0
ARC
  5
28e
100
AcDbEntity
  8
1
100
AcDbCircle
  6
CONTINUOUS
 62
7
 10
7.1593627E+001
 20
1.5773089E+002
 40
2.0E-001
100
AcDbArc
 50
2.6244476E+002
 51
3.6E+002
  0
ARC
  5
28f
100
AcDbEntity
  8
1
100
AcDbCircle
  6
CONTINUOUS
 62
7
 10
7.4123703E+001
 20
1.5818089E+002
 40
5.0E-001
100
AcDbArc
 50
2.48078E+002
 51
2.7E+002
  0
ARC
  5
290
100
AcDbEntity
  8
1
100
AcDbCircle
  6
CONTINUOUS
 62
7
 10
7.3254651E+001
 20
1.5582589E+002
 40
2.4
100
AcDbArc
 50
2.9310794E+002
 51
5.4E+002
  0
LINE
  5
291
100
AcDbEntity
  8
1
100
AcDbLine
  6
CENTER_C
 62
6
 10
6.8096015E+001
 20
1.1772589E+002
 11
7.8757196E+001
 21
1.1772589E+002
  0
ARC
  5
292
100
AcDbEntity
  8
1
100
AcDbCircle
  6
CONTINUOUS
 62
7
 10
7.3254651E+001
 20
1.1772589E+002
 40
2.4
100
AcDbArc
 50
2.0175521E+002
 51
2.5346195E+002
  0
LINE
  5
293
100
AcDbEntity
  8
1
100
AcDbLine
  6
CONTINUOUS
 62
7
 10
6.8904651E+001
 20
1.1772589E+002
 11
6.8904651E+001
 21
9.8885889E+001
  0
ARC
  5
294
100
AcDbEntity
  8
1
100
AcDbCircle
  6
CONTINUOUS
 62
7
 10
7.3254651E+001
 20
1.1772589E+002
 40
4.35
100
AcDbArc
 50
8.9997501E+001
 51
1.8E+002
  0
ARC
  5
295
100
AcDbEntity
  8
1
100
AcDbCircle
  6
CONTINUOUS
 62
7
 10
7.2205651E+001
 20
1.1667689E+002
 40
5.5
100
AcDbArc
 50
1.0997243E+001
 51
7.9002757E+001
  0
LINE
  5
296
100
AcDbEntity
  8
1
100
AcDbLine
  6
CONTINUOUS
 62
7
 10
7.7604651E+001
 20
1.1772608E+002
 11
7.7604651E+001
 21
9.8885699E+001
  0
ARC
  5
297
100
AcDbEntity
  8
1
100
AcDbCircle
  6
CONTINUOUS
 62
7
 10
7.3254651E+001
 20
1.1562589E+002
 40
2.95
100
AcDbArc
 50
2.7E+002
 51
3.6E+002
  0
ARC
  5
298
100
AcDbEntity
  8
1
100
AcDbCircle
  6
CONTINUOUS
 62
7
 10
7.3254651E+001
 20
1.1512589E+002
 40
2.45
100
AcDbArc
 50
1.8E+002
 51
2.7E+002
  0
LINE
  5
299
100
AcDbEntity
  8
1
100
AcDbLine
  6
CONTINUOUS
 62
7
 10
7.6204651E+001
 20
1.1562589E+002
 11
7.6204651E+001
 21
1.1772589E+002
  0
LINE
  5
29a
100
AcDbEntity
  8
1
100
AcDbLine
  6
CONTINUOUS
 62
7
 10
7.6204651E+001
 20
1.1772589E+002
 11
7.5654651E+001
 21
1.1772589E+002
  0
LINE
  5
29b
100
AcDbEntity
  8
1
100
AcDbLine
  6
CONTINUOUS
 62
7
 10
7.0254651E+001
 20
1.1572589E+002
 11
7.0804651E+001
 21
1.1572589E+002
  0
LINE
  5
29c
100
AcDbEntity
  8
1
100
AcDbLine
  6
CONTINUOUS
 62
7
 10
7.0804651E+001
 20
1.1512589E+002
 11
7.0804651E+001
 21
1.1572589E+002
  0
LINE
  5
29d
100
AcDbEntity
  8
1
100
AcDbLine
  6
CONTINUOUS
 62
7
 10
7.0254651E+001
 20
1.1572589E+002
 11
7.0254651E+001
 21
1.1772589E+002
  0
LINE
  5
29e
100
AcDbEntity
  8
1
100
AcDbLine
  6
CONTINUOUS
 62
7
 10
7.0254651E+001
 20
1.1772589E+002
 11
7.0854651E+001
 21
1.1772589E+002
  0
LINE
  5
29f
100
AcDbEntity
  8
1
100
AcDbLine
  6
CONTINUOUS
 62
7
 10
6.9204651E+001
 20
1.0358589E+002
 11
7.7304651E+001
 21
1.0358589E+002
  0
ARC
  5
2a0
100
AcDbEntity
  8
1
100
AcDbCircle
  6
CONTINUOUS
 62
7
 10
6.9204651E+001
 20
1.0388589E+002
 40
3.0E-001
100
AcDbArc
 50
1.8E+002
 51
2.7E+002
  0
ARC
  5
2a1
100
AcDbEntity
  8
1
100
AcDbCircle
  6
CONTINUOUS
 62
7
 10
7.7304651E+001
 20
1.0388589E+002
 40
3.0E-001
100
AcDbArc
 50
2.7E+002
 51
3.6E+002
  0
LINE
  5
2a2
100
AcDbEntity
  8
1
100
AcDbLine
  6
CONTINUOUS
 62
7
 10
7.5026866E+001
 20
1.1918089E+002
 11
7.5026866E+001
 21
1.1780487E+002
  0
ARC
  5
2a3
100
AcDbEntity
  8
1
100
AcDbCircle
  6
CONTINUOUS
 62
7
 10
7.2026866E+001
 20
1.1638089E+002
 40
1.1
100
AcDbArc
 50
3.6221547E+001
 51
3.2377845E+002
  0
LINE
  5
2a4
100
AcDbEntity
  8
1
100
AcDbLine
  6
CONTINUOUS
 62
7
 10
7.2914278E+001
 20
1.1703089E+002
 11
7.4608589E+001
 21
1.1731159E+002
  0
LINE
  5
2a5
100
AcDbEntity
  8
1
100
AcDbLine
  6
CONTINUOUS
 62
7
 10
7.2914278E+001
 20
1.1573089E+002
 11
7.4608589E+001
 21
1.1545019E+002
  0
DIMENSION
  5
2a6
100
AcDbEntity
  8
1
100
AcDbDimension
  6
CONTINUOUS
 62
1
  2
*D8551
  3
DSTYLE4
 10
6.1462322E+001
 20
1.3677589E+002
 11
5.9361322E+001
 21
1.4630089E+002
 70
128
100
AcDbAlignedDimension
 13
6.8096015E+001
 23
1.5582589E+002
 14
6.8096015E+001
 24
1.3677589E+002
 40
3.6
 50
2.7E+002
100
AcDbRotatedDimension
1001
ACAD
1000
DSTYLE
1002
{
1070
173
1070
0
1070
5
1000
_AH2
1002
}
  0
LINE
  5
2a7
100
AcDbEntity
  8
1
100
AcDbLine
  6
CONTINUOUS
 62
7
 10
7.5026866E+001
 20
1.1495691E+002
 11
7.5026866E+001
 21
1.1407599E+002
  0
LINE
  5
2a8
100
AcDbEntity
  8
1
100
AcDbLine
  6
CONTINUOUS
 62
7
 10
7.4697877E+001
 20
1.1360615E+002
 11
7.2738893E+001
 21
1.1289313E+002
  0
ARC
  5
2a9
100
AcDbEntity
  8
1
100
AcDbCircle
  6
CONTINUOUS
 62
7
 10
7.2465277E+001
 20
1.1364489E+002
 40
8.0E-001
100
AcDbArc
 50
2.6046841E+002
 51
2.9E+002
  0
LINE
  5
2aa
100
AcDbEntity
  8
1
100
AcDbLine
  6
CONTINUOUS
 62
7
 10
7.4626866E+001
 20
1.1958089E+002
 11
7.4123703E+001
 21
1.1958089E+002
  0
LINE
  5
2ab
100
AcDbEntity
  8
1
100
AcDbLine
  6
CONTINUOUS
 62
7
 10
7.2784445E+001
 20
1.2008089E+002
 11
7.3937031E+001
 21
1.1961704E+002
  0
ARC
  5
2ac
100
AcDbEntity
  8
1
100
AcDbCircle
  6
CONTINUOUS
 62
7
 10
7.3276866E+001
 20
1.1768089E+002
 40
2.45
100
AcDbArc
 50
1.0159476E+002
 51
1.2725792E+002
  0
ARC
  5
2ad
100
AcDbEntity
  8
1
100
AcDbCircle
  6
CONTINUOUS
 62
7
 10
7.4526866E+001
 20
1.1495691E+002
 40
5.0E-001
100
AcDbArc
 50
0.0
 51
8.0593049E+001
  0
ARC
  5
2ae
100
AcDbEntity
  8
1
100
AcDbCircle
  6
CONTINUOUS
 62
7
 10
7.4526866E+001
 20
1.1407599E+002
 40
5.0E-001
100
AcDbArc
 50
2.9E+002
 51
3.6E+002
  0
ARC
  5
2af
100
AcDbEntity
  8
1
100
AcDbCircle
  6
CONTINUOUS
 62
7
 10
7.4526866E+001
 20
1.1780487E+002
 40
5.0E-001
100
AcDbArc
 50
2.7940695E+002
 51
3.6E+002
  0
ARC
  5
2b0
100
AcDbEntity
  8
1
100
AcDbCircle
  6
CONTINUOUS
 62
7
 10
7.4626866E+001
 20
1.1918089E+002
 40
4.0E-001
100
AcDbArc
 50
0.0
 51
9.0E+001
  0
ARC
  5
2b1
100
AcDbEntity
  8
1
100
AcDbCircle
  6
CONTINUOUS
 62
7
 10
7.1593627E+001
 20
1.1963089E+002
 40
2.0E-001
100
AcDbArc
 50
2.6244476E+002
 51
3.6E+002
  0
ARC
  5
2b2
100
AcDbEntity
  8
1
100
AcDbCircle
  6
CONTINUOUS
 62
7
 10
7.4123703E+001
 20
1.2008089E+002
 40
5.0E-001
100
AcDbArc
 50
2.48078E+002
 51
2.7E+002
  0
ARC
  5
2b3
100
AcDbEntity
  8
1
100
AcDbCircle
  6
CONTINUOUS
 62
7
 10
7.3254651E+001
 20
1.1772589E+002
 40
2.4
100
AcDbArc
 50
2.9310794E+002
 51
5.4E+002
  0
LINE
  5
2b4
100
AcDbEntity
  8
1
100
AcDbLine
  6
CENTER_C
 62
6
 10
6.8096015E+001
 20
1.3677589E+002
 11
7.8757196E+001
 21
1.3677589E+002
  0
ARC
  5
2b5
100
AcDbEntity
  8
1
100
AcDbCircle
  6
CONTINUOUS
 62
7
 10
7.3254651E+001
 20
1.3677589E+002
 40
2.4
100
AcDbArc
 50
2.0175521E+002
 51
2.5346195E+002
  0
LINE
  5
2b6
100
AcDbEntity
  8
1
100
AcDbLine
  6
CONTINUOUS
 62
7
 10
6.8904651E+001
 20
1.3677589E+002
 11
6.8904651E+001
 21
1.1793589E+002
  0
ARC
  5
2b7
100
AcDbEntity
  8
1
100
AcDbCircle
  6
CONTINUOUS
 62
7
 10
7.3254651E+001
 20
1.3677589E+002
 40
4.35
100
AcDbArc
 50
8.9997501E+001
 51
1.8E+002
  0
ARC
  5
2b8
100
AcDbEntity
  8
1
100
AcDbCircle
  6
CONTINUOUS
 62
7
 10
7.2205651E+001
 20
1.3572689E+002
 40
5.5
100
AcDbArc
 50
1.0997243E+001
 51
7.9002757E+001
  0
LINE
  5
2b9
100
AcDbEntity
  8
1
100
AcDbLine
  6
CONTINUOUS
 62
7
 10
7.7604651E+001
 20
1.3677608E+002
 11
7.7604651E+001
 21
1.179357E+002
  0
ARC
  5
2ba
100
AcDbEntity
  8
1
100
AcDbCircle
  6
CONTINUOUS
 62
7
 10
7.3254651E+001
 20
1.1793589E+002
 40
4.35
100
AcDbArc
 50
1.8E+002
 51
1.8138314E+002
  0
ARC
  5
2bb
100
AcDbEntity
  8
1
100
AcDbCircle
  6
CONTINUOUS
 62
7
 10
7.2205651E+001
 20
1.1898489E+002
 40
5.5
100
AcDbArc
 50
3.478883E+002
 51
3.4900276E+002
  0
ARC
  5
2bc
100
AcDbEntity
  8
1
100
AcDbCircle
  6
CONTINUOUS
 62
7
 10
7.3254651E+001
 20
1.3467589E+002
 40
2.95
100
AcDbArc
 50
2.7E+002
 51
3.6E+002
  0
ARC
  5
2bd
100
AcDbEntity
  8
1
100
AcDbCircle
  6
CONTINUOUS
 62
7
 10
7.3254651E+001
 20
1.3417589E+002
 40
2.45
100
AcDbArc
 50
1.8E+002
 51
2.7E+002
  0
LINE
  5
2be
100
AcDbEntity
  8
1
100
AcDbLine
  6
CONTINUOUS
 62
7
 10
7.6204651E+001
 20
1.3467589E+002
 11
7.6204651E+001
 21
1.3677589E+002
  0
LINE
  5
2bf
100
AcDbEntity
  8
1
100
AcDbLine
  6
CONTINUOUS
 62
7
 10
7.6204651E+001
 20
1.3677589E+002
 11
7.5654651E+001
 21
1.3677589E+002
  0
LINE
  5
2c0
100
AcDbEntity
  8
1
100
AcDbLine
  6
CONTINUOUS
 62
7
 10
7.0254651E+001
 20
1.3477589E+002
 11
7.0804651E+001
 21
1.3477589E+002
  0
LINE
  5
2c1
100
AcDbEntity
  8
1
100
AcDbLine
  6
CONTINUOUS
 62
7
 10
7.0804651E+001
 20
1.3417589E+002
 11
7.0804651E+001
 21
1.3477589E+002
  0
LINE
  5
2c2
100
AcDbEntity
  8
1
100
AcDbLine
  6
CONTINUOUS
 62
7
 10
7.0254651E+001
 20
1.3477589E+002
 11
7.0254651E+001
 21
1.3677589E+002
  0
LINE
  5
2c3
100
AcDbEntity
  8
1
100
AcDbLine
  6
CONTINUOUS
 62
7
 10
7.0254651E+001
 20
1.3677589E+002
 11
7.0854651E+001
 21
1.3677589E+002
  0
LINE
  5
2c4
100
AcDbEntity
  8
1
100
AcDbLine
  6
CONTINUOUS
 62
7
 10
6.9204651E+001
 20
1.2263589E+002
 11
7.7304651E+001
 21
1.2263589E+002
  0
ARC
  5
2c5
100
AcDbEntity
  8
1
100
AcDbCircle
  6
CONTINUOUS
 62
7
 10
6.9204651E+001
 20
1.2293589E+002
 40
3.0E-001
100
AcDbArc
 50
1.8E+002
 51
2.7E+002
  0
ARC
  5
2c6
100
AcDbEntity
  8
1
100
AcDbCircle
  6
CONTINUOUS
 62
7
 10
7.7304651E+001
 20
1.2293589E+002
 40
3.0E-001
100
AcDbArc
 50
2.7E+002
 51
3.6E+002
  0
LINE
  5
2c7
100
AcDbEntity
  8
1
100
AcDbLine
  6
CONTINUOUS
 62
7
 10
7.5026866E+001
 20
1.3823089E+002
 11
7.5026866E+001
 21
1.3685487E+002
  0
ARC
  5
2c8
100
AcDbEntity
  8
1
100
AcDbCircle
  6
CONTINUOUS
 62
7
 10
7.2026866E+001
 20
1.3543089E+002
 40
1.1
100
AcDbArc
 50
3.6221547E+001
 51
3.2377845E+002
  0
LINE
  5
2c9
100
AcDbEntity
  8
1
100
AcDbLine
  6
CONTINUOUS
 62
7
 10
7.2914278E+001
 20
1.3608089E+002
 11
7.4608589E+001
 21
1.3636159E+002
  0
LINE
  5
2ca
100
AcDbEntity
  8
1
100
AcDbLine
  6
CONTINUOUS
 62
7
 10
7.2914278E+001
 20
1.3478089E+002
 11
7.4608589E+001
 21
1.3450019E+002
  0
LINE
  5
2cb
100
AcDbEntity
  8
1
100
AcDbLine
  6
CONTINUOUS
 62
7
 10
7.5026866E+001
 20
1.3400691E+002
 11
7.5026866E+001
 21
1.3312599E+002
  0
LINE
  5
2cc
100
AcDbEntity
  8
1
100
AcDbLine
  6
CONTINUOUS
 62
7
 10
7.4697877E+001
 20
1.3265615E+002
 11
7.2738893E+001
 21
1.3194313E+002
  0
ARC
  5
2cd
100
AcDbEntity
  8
1
100
AcDbCircle
  6
CONTINUOUS
 62
7
 10
7.2465277E+001
 20
1.3269489E+002
 40
8.0E-001
100
AcDbArc
 50
2.6046841E+002
 51
2.9E+002
  0
LINE
  5
2ce
100
AcDbEntity
  8
1
100
AcDbLine
  6
CONTINUOUS
 62
7
 10
7.4626866E+001
 20
1.3863089E+002
 11
7.4123703E+001
 21
1.3863089E+002
  0
LINE
  5
2cf
100
AcDbEntity
  8
1
100
AcDbLine
  6
CONTINUOUS
 62
7
 10
7.2784445E+001
 20
1.3913089E+002
 11
7.3937031E+001
 21
1.3866704E+002
  0
ARC
  5
2d0
100
AcDbEntity
  8
1
100
AcDbCircle
  6
CONTINUOUS
 62
7
 10
7.3276866E+001
 20
1.3673089E+002
 40
2.45
100
AcDbArc
 50
1.0159476E+002
 51
1.2725792E+002
  0
ARC
  5
2d1
100
AcDbEntity
  8
1
100
AcDbCircle
  6
CONTINUOUS
 62
7
 10
7.4526866E+001
 20
1.3400691E+002
 40
5.0E-001
100
AcDbArc
 50
0.0
 51
8.0593049E+001
  0
ARC
  5
2d2
100
AcDbEntity
  8
1
100
AcDbCircle
  6
CONTINUOUS
 62
7
 10
7.4526866E+001
 20
1.3312599E+002
 40
5.0E-001
100
AcDbArc
 50
2.9E+002
 51
3.6E+002
  0
ARC
  5
2d3
100
AcDbEntity
  8
1
100
AcDbCircle
  6
CONTINUOUS
 62
7
 10
7.4526866E+001
 20
1.3685487E+002
 40
5.0E-001
100
AcDbArc
 50
2.7940695E+002
 51
3.6E+002
  0
ARC
  5
2d4
100
AcDbEntity
  8
1
100
AcDbCircle
  6
CONTINUOUS
 62
7
 10
7.4626866E+001
 20
1.3823089E+002
 40
4.0E-001
100
AcDbArc
 50
0.0
 51
9.0E+001
  0
ARC
  5
2d5
100
AcDbEntity
  8
1
100
AcDbCircle
  6
CONTINUOUS
 62
7
 10
7.1593627E+001
 20
1.3868089E+002
 40
2.0E-001
100
AcDbArc
 50
2.6244476E+002
 51
3.6E+002
  0
ARC
  5
2d6
100
AcDbEntity
  8
1
100
AcDbCircle
  6
CONTINUOUS
 62
7
 10
7.4123703E+001
 20
1.3913089E+002
 40
5.0E-001
100
AcDbArc
 50
2.48078E+002
 51
2.7E+002
  0
ARC
  5
2d7
100
AcDbEntity
  8
1
100
AcDbCircle
  6
CONTINUOUS
 62
7
 10
7.3254651E+001
 20
1.3677589E+002
 40
2.4
100
AcDbArc
 50
2.9310794E+002
 51
5.4E+002
  0
LINE
  5
2d8
100
AcDbEntity
  8
1
100
AcDbLine
  6
CENTER_C
 62
6
 10
6.8096015E+001
 20
9.8675889E+001
 11
7.8757196E+001
 21
9.8675889E+001
  0
ARC
  5
2d9
100
AcDbEntity
  8
1
100
AcDbCircle
  6
CONTINUOUS
 62
7
 10
7.3254651E+001
 20
9.8885889E+001
 40
4.35
100
AcDbArc
 50
1.8E+002
 51
2.700025E+002
  0
ARC
  5
2da
100
AcDbEntity
  8
1
100
AcDbCircle
  6
CONTINUOUS
 62
7
 10
7.2205651E+001
 20
9.9934889E+001
 40
5.5
100
AcDbArc
 50
2.8099724E+002
 51
3.4900276E+002
  0
CIRCLE
  5
2db
100
AcDbEntity
  8
1
100
AcDbCircle
  6
CONTINUOUS
 62
7
 10
7.3254651E+001
 20
9.8675889E+001
 40
2.4
  0
ARC
  5
2dc
100
AcDbEntity
  8
1
100
AcDbCircle
  6
CONTINUOUS
 62
7
 10
1.2957445E+002
 20
1.5947589E+002
 40
7.0E-001
100
AcDbArc
 50
9.0E+001
 51
1.7802507E+002
  0
ARC
  5
2dd
100
AcDbEntity
  8
1
100
AcDbCircle
  6
CONTINUOUS
 62
7
 10
1.3717189E+002
 20
1.5947589E+002
 40
7.0E-001
100
AcDbArc
 50
1.974934
 51
9.0E+001
  0
ARC
  5
2de
100
AcDbEntity
  8
1
100
AcDbCircle
  6
CONTINUOUS
 62
7
 10
1.4862445E+002
 20
1.5947589E+002
 40
7.0E-001
100
AcDbArc
 50
9.0E+001
 51
1.7802507E+002
  0
ARC
  5
2df
100
AcDbEntity
  8
1
100
AcDbCircle
  6
CONTINUOUS
 62
7
 10
1.5622189E+002
 20
1.5947589E+002
 40
7.0E-001
100
AcDbArc
 50
1.974934
 51
9.0E+001
  0
ARC
  5
2e0
100
AcDbEntity
  8
1
100
AcDbCircle
  6
CONTINUOUS
 62
7
 10
1.6767445E+002
 20
1.5947589E+002
 40
7.0E-001
100
AcDbArc
 50
9.0E+001
 51
1.7802507E+002
  0
ARC
  5
2e1
100
AcDbEntity
  8
1
100
AcDbCircle
  6
CONTINUOUS
 62
7
 10
1.7527189E+002
 20
1.5947589E+002
 40
7.0E-001
100
AcDbArc
 50
1.974934
 51
9.0E+001
  0
LINE
  5
2e2
100
AcDbEntity
  8
1
100
AcDbLine
  6
CENTERLINE
 62
6
 10
1.1622317E+002
 20
9.8675889E+001
 11
1.8862317E+002
 21
9.8675889E+001
  0
LINE
  5
2e3
100
AcDbEntity
  8
1
100
AcDbLine
  6
CENTERLINE
 62
6
 10
1.9352317E+002
 20
1.1772589E+002
 11
1.1132317E+002
 21
1.1772589E+002
  0
LINE
  5
2e4
100
AcDbEntity
  8
1
100
AcDbLine
  6
CENTERLINE
 62
6
 10
1.9352317E+002
 20
1.3677589E+002
 11
1.1132317E+002
 21
1.3677589E+002
  0
LINE
  5
2e5
100
AcDbEntity
  8
1
100
AcDbLine
  6
CONTINUOUS
 62
7
 10
1.1886713E+002
 20
1.5817589E+002
 11
1.288292E+002
 21
1.5817589E+002
  0
LINE
  5
2e6
100
AcDbEntity
  8
1
100
AcDbLine
  6
CONTINUOUS
 62
7
 10
1.1894817E+002
 20
1.5347589E+002
 11
1.2874817E+002
 21
1.5347589E+002
  0
LINE
  5
2e7
100
AcDbEntity
  8
1
100
AcDbLine
  6
CONTINUOUS
 62
7
 10
1.7601713E+002
 20
1.5817589E+002
 11
1.859792E+002
 21
1.5817589E+002
  0
LINE
  5
2e8
100
AcDbEntity
  8
1
100
AcDbLine
  6
CENTERLINE
 62
6
 10
1.9352317E+002
 20
1.5582589E+002
 11
1.1132317E+002
 21
1.5582589E+002
  0
LINE
  5
2e9
100
AcDbEntity
  8
1
100
AcDbLine
  6
CONTINUOUS
 62
7
 10
1.7609817E+002
 20
1.5347589E+002
 11
1.8589817E+002
 21
1.5347589E+002
  0
LINE
  5
2ea
100
AcDbEntity
  8
1
100
AcDbLine
  6
CONTINUOUS
 62
7
 10
1.5704817E+002
 20
1.5347589E+002
 11
1.6684817E+002
 21
1.5347589E+002
  0
LINE
  5
2eb
100
AcDbEntity
  8
1
100
AcDbLine
  6
CONTINUOUS
 62
7
 10
1.5696713E+002
 20
1.5817589E+002
 11
1.669292E+002
 21
1.5817589E+002
  0
LINE
  5
2ec
100
AcDbEntity
  8
1
100
AcDbLine
  6
CONTINUOUS
 62
7
 10
1.3791713E+002
 20
1.5817589E+002
 11
1.478792E+002
 21
1.5817589E+002
  0
LINE
  5
2ed
100
AcDbEntity
  8
1
100
AcDbLine
  6
CONTINUOUS
 62
7
 10
1.3799817E+002
 20
1.5347589E+002
 11
1.4779817E+002
 21
1.5347589E+002
  0
DIMENSION
  5
2ee
100
AcDbEntity
  8
1
100
AcDbDimension
  6
CONTINUOUS
 62
1
  2
*D10655
  3
DSTYLE5
 10
1.9052317E+002
 20
1.7473063E+002
 11
1.5242317E+002
 21
1.7723163E+002
 70
128
100
AcDbAlignedDimension
 13
1.1432317E+002
 23
1.5832589E+002
 14
1.9052317E+002
 24
1.5832589E+002
 40
1.0
 50
0.0
100
AcDbRotatedDimension
1001
ACAD
1000
DSTYLE
1002
{
1070
173
1070
0
1070
5
1000
_AH2
1002
}
  0
LINE
  5
2ef
100
AcDbEntity
  8
1
100
AcDbLine
  6
CONTINUOUS
 62
7
 10
1.1432317E+002
 20
1.5832589E+002
 11
1.1432317E+002
 21
1.4268589E+002
  0
LINE
  5
2f0
100
AcDbEntity
  8
1
100
AcDbLine
  6
CONTINUOUS
 62
7
 10
1.1894817E+002
 20
1.5582589E+002
 11
1.1894817E+002
 21
1.532401E+002
  0
LINE
  5
2f1
100
AcDbEntity
  8
1
100
AcDbLine
  6
CONTINUOUS
 62
7
 10
1.2874817E+002
 20
1.5582589E+002
 11
1.2874817E+002
 21
1.532401E+002
  0
LINE
  5
2f2
100
AcDbEntity
  8
1
100
AcDbLine
  6
CONTINUOUS
 62
7
 10
1.3799817E+002
 20
1.5582589E+002
 11
1.3799817E+002
 21
1.532401E+002
  0
LINE
  5
2f3
100
AcDbEntity
  8
1
100
AcDbLine
  6
CONTINUOUS
 62
7
 10
1.4779817E+002
 20
1.5582589E+002
 11
1.4779817E+002
 21
1.532401E+002
  0
LINE
  5
2f4
100
AcDbEntity
  8
1
100
AcDbLine
  6
CONTINUOUS
 62
7
 10
1.1922317E+002
 20
1.4068589E+002
 11
1.1922317E+002
 21
1.3698589E+002
  0
LINE
  5
2f5
100
AcDbEntity
  8
1
100
AcDbLine
  6
CONTINUOUS
 62
7
 10
1.2847317E+002
 20
1.3957168E+002
 11
1.2847317E+002
 21
1.3698589E+002
  0
LINE
  5
2f6
100
AcDbEntity
  8
1
100
AcDbLine
  6
CONTINUOUS
 62
7
 10
1.3827317E+002
 20
1.3957168E+002
 11
1.3827317E+002
 21
1.3698589E+002
  0
LINE
  5
2f7
100
AcDbEntity
  8
1
100
AcDbLine
  6
CONTINUOUS
 62
7
 10
1.4752317E+002
 20
1.3957168E+002
 11
1.4752317E+002
 21
1.3698589E+002
  0
LINE
  5
2f8
100
AcDbEntity
  8
1
100
AcDbLine
  6
CONTINUOUS
 62
7
 10
1.1535909E+002
 20
1.6017589E+002
 11
1.1812189E+002
 21
1.6017589E+002
  0
LINE
  5
2f9
100
AcDbEntity
  8
1
100
AcDbLine
  6
CONTINUOUS
 62
7
 10
1.1532317E+002
 20
1.4168589E+002
 11
1.1822317E+002
 21
1.4168589E+002
  0
LINE
  5
2fa
100
AcDbEntity
  8
1
100
AcDbLine
  6
CONTINUOUS
 62
7
 10
1.1468334E+002
 20
1.5965852E+002
 11
1.1432317E+002
 21
1.5832589E+002
  0
ARC
  5
2fb
100
AcDbEntity
  8
1
100
AcDbCircle
  6
CONTINUOUS
 62
7
 10
1.1535909E+002
 20
1.5947589E+002
 40
7.0E-001
100
AcDbArc
 50
9.0E+001
 51
1.6487599E+002
  0
LINE
  5
2fc
100
AcDbEntity
  8
1
100
AcDbLine
  6
CONTINUOUS
 62
7
 10
1.1894817E+002
 20
1.5582589E+002
 11
1.1882147E+002
 21
1.5950001E+002
  0
ARC
  5
2fd
100
AcDbEntity
  8
1
100
AcDbCircle
  6
CONTINUOUS
 62
7
 10
1.1812189E+002
 20
1.5947589E+002
 40
7.0E-001
100
AcDbArc
 50
1.974934
 51
9.0E+001
  0
LINE
  5
2fe
100
AcDbEntity
  8
1
100
AcDbLine
  6
CONTINUOUS
 62
7
 10
1.2874817E+002
 20
1.5582589E+002
 11
1.2887486E+002
 21
1.5950001E+002
  0
LINE
  5
2ff
100
AcDbEntity
  8
1
100
AcDbLine
  6
CONTINUOUS
 62
7
 10
1.3799817E+002
 20
1.5582589E+002
 11
1.3787147E+002
 21
1.5950001E+002
  0
LINE
  5
300
100
AcDbEntity
  8
1
100
AcDbLine
  6
CONTINUOUS
 62
7
 10
1.4779817E+002
 20
1.5582589E+002
 11
1.4792486E+002
 21
1.5950001E+002
  0
LINE
  5
301
100
AcDbEntity
  8
1
100
AcDbLine
  6
CONTINUOUS
 62
7
 10
1.2957445E+002
 20
1.6017589E+002
 11
1.3717189E+002
 21
1.6017589E+002
  0
ARC
  5
302
100
AcDbEntity
  8
1
100
AcDbCircle
  6
CONTINUOUS
 62
7
 10
1.1822317E+002
 20
1.4068589E+002
 40
1.0
100
AcDbArc
 50
0.0
 51
9.0E+001
  0
ARC
  5
303
100
AcDbEntity
  8
1
100
AcDbCircle
  6
CONTINUOUS
 62
7
 10
1.1532317E+002
 20
1.4268589E+002
 40
1.0
100
AcDbArc
 50
1.8E+002
 51
2.7E+002
  0
LINE
  5
304
100
AcDbEntity
  8
1
100
AcDbLine
  6
CONTINUOUS
 62
7
 10
1.2455527E+002
 20
1.48633E+002
 11
1.2845527E+002
 21
1.52533E+002
  0
LINE
  5
305
100
AcDbEntity
  8
1
100
AcDbLine
  6
CONTINUOUS
 62
7
 10
1.2314106E+002
 20
1.48633E+002
 11
1.1924106E+002
 21
1.52533E+002
  0
ARC
  5
306
100
AcDbEntity
  8
1
100
AcDbCircle
  6
CONTINUOUS
 62
7
 10
1.2774817E+002
 20
1.532401E+002
 40
1.0
100
AcDbArc
 50
3.15E+002
 51
3.6E+002
  0
ARC
  5
307
100
AcDbEntity
  8
1
100
AcDbCircle
  6
CONTINUOUS
 62
7
 10
1.1994817E+002
 20
1.532401E+002
 40
1.0
100
AcDbArc
 50
1.8E+002
 51
2.25E+002
  0
ARC
  5
308
100
AcDbEntity
  8
1
100
AcDbCircle
  6
CONTINUOUS
 62
7
 10
1.2384817E+002
 20
1.493401E+002
 40
1.0
100
AcDbArc
 50
2.25E+002
 51
3.15E+002
  0
LINE
  5
309
100
AcDbEntity
  8
1
100
AcDbLine
  6
CONTINUOUS
 62
7
 10
1.1922317E+002
 20
1.3698589E+002
 11
1.1934763E+002
 21
1.3337642E+002
  0
LINE
  5
30a
100
AcDbEntity
  8
1
100
AcDbLine
  6
CONTINUOUS
 62
7
 10
1.2847317E+002
 20
1.3698589E+002
 11
1.283487E+002
 21
1.3337642E+002
  0
LINE
  5
30b
100
AcDbEntity
  8
1
100
AcDbLine
  6
CONTINUOUS
 62
7
 10
1.2008817E+002
 20
1.3263589E+002
 11
1.2184817E+002
 21
1.3263589E+002
  0
LINE
  5
30c
100
AcDbEntity
  8
1
100
AcDbLine
  6
CONTINUOUS
 62
7
 10
1.2184817E+002
 20
1.3283589E+002
 11
1.2184817E+002
 21
1.3263589E+002
  0
LINE
  5
30d
100
AcDbEntity
  8
1
100
AcDbLine
  6
CONTINUOUS
 62
7
 10
1.2584817E+002
 20
1.3283589E+002
 11
1.2584817E+002
 21
1.3263589E+002
  0
LINE
  5
30e
100
AcDbEntity
  8
1
100
AcDbLine
  6
CONTINUOUS
 62
7
 10
1.2184817E+002
 20
1.3283589E+002
 11
1.2584817E+002
 21
1.3283589E+002
  0
LINE
  5
30f
100
AcDbEntity
  8
1
100
AcDbLine
  6
CONTINUOUS
 62
7
 10
1.2584817E+002
 20
1.3263589E+002
 11
1.2760817E+002
 21
1.3263589E+002
  0
ARC
  5
310
100
AcDbEntity
  8
1
100
AcDbCircle
  6
CONTINUOUS
 62
7
 10
1.3899817E+002
 20
1.532401E+002
 40
1.0
100
AcDbArc
 50
1.8E+002
 51
2.25E+002
  0
LINE
  5
311
100
AcDbEntity
  8
1
100
AcDbLine
  6
CONTINUOUS
 62
7
 10
1.4219106E+002
 20
1.48633E+002
 11
1.3829106E+002
 21
1.52533E+002
  0
ARC
  5
312
100
AcDbEntity
  8
1
100
AcDbCircle
  6
CONTINUOUS
 62
7
 10
1.4289817E+002
 20
1.493401E+002
 40
1.0
100
AcDbArc
 50
2.25E+002
 51
3.15E+002
  0
LINE
  5
313
100
AcDbEntity
  8
1
100
AcDbLine
  6
CONTINUOUS
 62
7
 10
1.4360527E+002
 20
1.48633E+002
 11
1.4750527E+002
 21
1.52533E+002
  0
ARC
  5
314
100
AcDbEntity
  8
1
100
AcDbCircle
  6
CONTINUOUS
 62
7
 10
1.4679817E+002
 20
1.532401E+002
 40
1.0
100
AcDbArc
 50
3.15E+002
 51
3.6E+002
  0
ARC
  5
315
100
AcDbEntity
  8
1
100
AcDbCircle
  6
CONTINUOUS
 62
7
 10
1.2947317E+002
 20
1.3957168E+002
 40
1.0
100
AcDbArc
 50
1.35E+002
 51
1.8E+002
  0
LINE
  5
316
100
AcDbEntity
  8
1
100
AcDbLine
  6
CONTINUOUS
 62
7
 10
1.3266606E+002
 20
1.4417878E+002
 11
1.2876606E+002
 21
1.4027878E+002
  0
ARC
  5
317
100
AcDbEntity
  8
1
100
AcDbCircle
  6
CONTINUOUS
 62
7
 10
1.3337317E+002
 20
1.4347168E+002
 40
1.0
100
AcDbArc
 50
4.5E+001
 51
1.35E+002
  0
LINE
  5
318
100
AcDbEntity
  8
1
100
AcDbLine
  6
CONTINUOUS
 62
7
 10
1.3408027E+002
 20
1.4417878E+002
 11
1.3798027E+002
 21
1.4027878E+002
  0
ARC
  5
319
100
AcDbEntity
  8
1
100
AcDbCircle
  6
CONTINUOUS
 62
7
 10
1.3727317E+002
 20
1.3957168E+002
 40
1.0
100
AcDbArc
 50
0.0
 51
4.5E+001
  0
LINE
  5
31a
100
AcDbEntity
  8
1
100
AcDbLine
  6
CONTINUOUS
 62
7
 10
1.4862445E+002
 20
1.6017589E+002
 11
1.5622189E+002
 21
1.6017589E+002
  0
LINE
  5
31b
100
AcDbEntity
  8
1
100
AcDbLine
  6
CONTINUOUS
 62
7
 10
1.5171606E+002
 20
1.4417878E+002
 11
1.4781606E+002
 21
1.4027878E+002
  0
ARC
  5
31c
100
AcDbEntity
  8
1
100
AcDbCircle
  6
CONTINUOUS
 62
7
 10
1.4852317E+002
 20
1.3957168E+002
 40
1.0
100
AcDbArc
 50
1.35E+002
 51
1.8E+002
  0
ARC
  5
31d
100
AcDbEntity
  8
1
100
AcDbCircle
  6
CONTINUOUS
 62
7
 10
1.5242317E+002
 20
1.4347168E+002
 40
1.0
100
AcDbArc
 50
4.5E+001
 51
1.35E+002
  0
LINE
  5
31e
100
AcDbEntity
  8
1
100
AcDbLine
  6
CONTINUOUS
 62
7
 10
1.3913817E+002
 20
1.3263589E+002
 11
1.4089817E+002
 21
1.3263589E+002
  0
LINE
  5
31f
100
AcDbEntity
  8
1
100
AcDbLine
  6
CONTINUOUS
 62
7
 10
1.4089817E+002
 20
1.3283589E+002
 11
1.4089817E+002
 21
1.3263589E+002
  0
LINE
  5
320
100
AcDbEntity
  8
1
100
AcDbLine
  6
CONTINUOUS
 62
7
 10
1.4489817E+002
 20
1.3283589E+002
 11
1.4489817E+002
 21
1.3263589E+002
  0
LINE
  5
321
100
AcDbEntity
  8
1
100
AcDbLine
  6
CONTINUOUS
 62
7
 10
1.4089817E+002
 20
1.3283589E+002
 11
1.4489817E+002
 21
1.3283589E+002
  0
LINE
  5
322
100
AcDbEntity
  8
1
100
AcDbLine
  6
CONTINUOUS
 62
7
 10
1.4489817E+002
 20
1.3263589E+002
 11
1.4665817E+002
 21
1.3263589E+002
  0
LINE
  5
323
100
AcDbEntity
  8
1
100
AcDbLine
  6
CONTINUOUS
 62
7
 10
1.3827317E+002
 20
1.3698589E+002
 11
1.3839763E+002
 21
1.3337642E+002
  0
LINE
  5
324
100
AcDbEntity
  8
1
100
AcDbLine
  6
CONTINUOUS
 62
7
 10
1.4752317E+002
 20
1.3698589E+002
 11
1.473987E+002
 21
1.3337642E+002
  0
LINE
  5
325
100
AcDbEntity
  8
1
100
AcDbLine
  6
CONTINUOUS
 62
7
 10
1.5704817E+002
 20
1.5582589E+002
 11
1.5704817E+002
 21
1.532401E+002
  0
LINE
  5
326
100
AcDbEntity
  8
1
100
AcDbLine
  6
CONTINUOUS
 62
7
 10
1.6684817E+002
 20
1.5582589E+002
 11
1.6684817E+002
 21
1.532401E+002
  0
LINE
  5
327
100
AcDbEntity
  8
1
100
AcDbLine
  6
CONTINUOUS
 62
7
 10
1.5704817E+002
 20
1.5582589E+002
 11
1.5692147E+002
 21
1.5950001E+002
  0
LINE
  5
328
100
AcDbEntity
  8
1
100
AcDbLine
  6
CONTINUOUS
 62
7
 10
1.6684817E+002
 20
1.5582589E+002
 11
1.6697486E+002
 21
1.5950001E+002
  0
ARC
  5
329
100
AcDbEntity
  8
1
100
AcDbCircle
  6
CONTINUOUS
 62
7
 10
1.5804817E+002
 20
1.532401E+002
 40
1.0
100
AcDbArc
 50
1.8E+002
 51
2.25E+002
  0
LINE
  5
32a
100
AcDbEntity
  8
1
100
AcDbLine
  6
CONTINUOUS
 62
7
 10
1.6124106E+002
 20
1.48633E+002
 11
1.5734106E+002
 21
1.52533E+002
  0
ARC
  5
32b
100
AcDbEntity
  8
1
100
AcDbCircle
  6
CONTINUOUS
 62
7
 10
1.6194817E+002
 20
1.493401E+002
 40
1.0
100
AcDbArc
 50
2.25E+002
 51
3.15E+002
  0
LINE
  5
32c
100
AcDbEntity
  8
1
100
AcDbLine
  6
CONTINUOUS
 62
7
 10
1.6265527E+002
 20
1.48633E+002
 11
1.6655527E+002
 21
1.52533E+002
  0
ARC
  5
32d
100
AcDbEntity
  8
1
100
AcDbCircle
  6
CONTINUOUS
 62
7
 10
1.6584817E+002
 20
1.532401E+002
 40
1.0
100
AcDbArc
 50
3.15E+002
 51
3.6E+002
  0
LINE
  5
32e
100
AcDbEntity
  8
1
100
AcDbLine
  6
CONTINUOUS
 62
7
 10
1.6767445E+002
 20
1.6017589E+002
 11
1.7527189E+002
 21
1.6017589E+002
  0
LINE
  5
32f
100
AcDbEntity
  8
1
100
AcDbLine
  6
CONTINUOUS
 62
7
 10
1.5313027E+002
 20
1.4417878E+002
 11
1.5703027E+002
 21
1.4027878E+002
  0
ARC
  5
330
100
AcDbEntity
  8
1
100
AcDbCircle
  6
CONTINUOUS
 62
7
 10
1.5632317E+002
 20
1.3957168E+002
 40
1.0
100
AcDbArc
 50
0.0
 51
4.5E+001
  0
LINE
  5
331
100
AcDbEntity
  8
1
100
AcDbLine
  6
CONTINUOUS
 62
7
 10
1.5732317E+002
 20
1.3957168E+002
 11
1.5732317E+002
 21
1.3698589E+002
  0
LINE
  5
332
100
AcDbEntity
  8
1
100
AcDbLine
  6
CONTINUOUS
 62
7
 10
1.5732317E+002
 20
1.3698589E+002
 11
1.5744763E+002
 21
1.3337642E+002
  0
LINE
  5
333
100
AcDbEntity
  8
1
100
AcDbLine
  6
CONTINUOUS
 62
7
 10
1.5818817E+002
 20
1.3263589E+002
 11
1.5994817E+002
 21
1.3263589E+002
  0
LINE
  5
334
100
AcDbEntity
  8
1
100
AcDbLine
  6
CONTINUOUS
 62
7
 10
1.5994817E+002
 20
1.3283589E+002
 11
1.5994817E+002
 21
1.3263589E+002
  0
LINE
  5
335
100
AcDbEntity
  8
1
100
AcDbLine
  6
CONTINUOUS
 62
7
 10
1.5994817E+002
 20
1.3283589E+002
 11
1.6394817E+002
 21
1.3283589E+002
  0
LINE
  5
336
100
AcDbEntity
  8
1
100
AcDbLine
  6
CONTINUOUS
 62
7
 10
1.6394817E+002
 20
1.3283589E+002
 11
1.6394817E+002
 21
1.3263589E+002
  0
LINE
  5
337
100
AcDbEntity
  8
1
100
AcDbLine
  6
CONTINUOUS
 62
7
 10
1.6394817E+002
 20
1.3263589E+002
 11
1.6570817E+002
 21
1.3263589E+002
  0
LINE
  5
338
100
AcDbEntity
  8
1
100
AcDbLine
  6
CONTINUOUS
 62
7
 10
1.6657317E+002
 20
1.3698589E+002
 11
1.664487E+002
 21
1.3337642E+002
  0
LINE
  5
339
100
AcDbEntity
  8
1
100
AcDbLine
  6
CONTINUOUS
 62
7
 10
1.6657317E+002
 20
1.3957168E+002
 11
1.6657317E+002
 21
1.3698589E+002
  0
ARC
  5
33a
100
AcDbEntity
  8
1
100
AcDbCircle
  6
CONTINUOUS
 62
7
 10
1.6757317E+002
 20
1.3957168E+002
 40
1.0
100
AcDbArc
 50
1.35E+002
 51
1.8E+002
  0
LINE
  5
33b
100
AcDbEntity
  8
1
100
AcDbLine
  6
CONTINUOUS
 62
7
 10
1.7076606E+002
 20
1.4417878E+002
 11
1.6686606E+002
 21
1.4027878E+002
  0
ARC
  5
33c
100
AcDbEntity
  8
1
100
AcDbCircle
  6
CONTINUOUS
 62
7
 10
1.7147317E+002
 20
1.4347168E+002
 40
1.0
100
AcDbArc
 50
4.5E+001
 51
1.35E+002
  0
LINE
  5
33d
100
AcDbEntity
  8
1
100
AcDbLine
  6
CONTINUOUS
 62
7
 10
1.7609817E+002
 20
1.5582589E+002
 11
1.7609817E+002
 21
1.532401E+002
  0
LINE
  5
33e
100
AcDbEntity
  8
1
100
AcDbLine
  6
CONTINUOUS
 62
7
 10
1.8589817E+002
 20
1.5582589E+002
 11
1.8589817E+002
 21
1.532401E+002
  0
LINE
  5
33f
100
AcDbEntity
  8
1
100
AcDbLine
  6
CONTINUOUS
 62
7
 10
1.7609817E+002
 20
1.5582589E+002
 11
1.7597147E+002
 21
1.5950001E+002
  0
LINE
  5
340
100
AcDbEntity
  8
1
100
AcDbLine
  6
CONTINUOUS
 62
7
 10
1.8589817E+002
 20
1.5582589E+002
 11
1.8602486E+002
 21
1.5950001E+002
  0
ARC
  5
341
100
AcDbEntity
  8
1
100
AcDbCircle
  6
CONTINUOUS
 62
7
 10
1.8672445E+002
 20
1.5947589E+002
 40
7.0E-001
100
AcDbArc
 50
9.0E+001
 51
1.7802507E+002
  0
ARC
  5
342
100
AcDbEntity
  8
1
100
AcDbCircle
  6
CONTINUOUS
 62
7
 10
1.7709817E+002
 20
1.532401E+002
 40
1.0
100
AcDbArc
 50
1.8E+002
 51
2.25E+002
  0
LINE
  5
343
100
AcDbEntity
  8
1
100
AcDbLine
  6
CONTINUOUS
 62
7
 10
1.8029106E+002
 20
1.48633E+002
 11
1.7639106E+002
 21
1.52533E+002
  0
ARC
  5
344
100
AcDbEntity
  8
1
100
AcDbCircle
  6
CONTINUOUS
 62
7
 10
1.8099817E+002
 20
1.493401E+002
 40
1.0
100
AcDbArc
 50
2.25E+002
 51
3.15E+002
  0
LINE
  5
345
100
AcDbEntity
  8
1
100
AcDbLine
  6
CONTINUOUS
 62
7
 10
1.8170527E+002
 20
1.48633E+002
 11
1.8560527E+002
 21
1.52533E+002
  0
ARC
  5
346
100
AcDbEntity
  8
1
100
AcDbCircle
  6
CONTINUOUS
 62
7
 10
1.8489817E+002
 20
1.532401E+002
 40
1.0
100
AcDbArc
 50
3.15E+002
 51
3.6E+002
  0
LINE
  5
347
100
AcDbEntity
  8
1
100
AcDbLine
  6
CONTINUOUS
 62
7
 10
1.7218027E+002
 20
1.4417878E+002
 11
1.7608027E+002
 21
1.4027878E+002
  0
ARC
  5
348
100
AcDbEntity
  8
1
100
AcDbCircle
  6
CONTINUOUS
 62
7
 10
1.7537317E+002
 20
1.3957168E+002
 40
1.0
100
AcDbArc
 50
0.0
 51
4.5E+001
  0
LINE
  5
349
100
AcDbEntity
  8
1
100
AcDbLine
  6
CONTINUOUS
 62
7
 10
1.7637317E+002
 20
1.3957168E+002
 11
1.7637317E+002
 21
1.3698589E+002
  0
LINE
  5
34a
100
AcDbEntity
  8
1
100
AcDbLine
  6
CONTINUOUS
 62
7
 10
1.7637317E+002
 20
1.3698589E+002
 11
1.7649763E+002
 21
1.3337642E+002
  0
LINE
  5
34b
100
AcDbEntity
  8
1
100
AcDbLine
  6
CONTINUOUS
 62
7
 10
1.7723817E+002
 20
1.3263589E+002
 11
1.7899817E+002
 21
1.3263589E+002
  0
LINE
  5
34c
100
AcDbEntity
  8
1
100
AcDbLine
  6
CONTINUOUS
 62
7
 10
1.7899817E+002
 20
1.3283589E+002
 11
1.7899817E+002
 21
1.3263589E+002
  0
LINE
  5
34d
100
AcDbEntity
  8
1
100
AcDbLine
  6
CONTINUOUS
 62
7
 10
1.7899817E+002
 20
1.3283589E+002
 11
1.8299817E+002
 21
1.3283589E+002
  0
LINE
  5
34e
100
AcDbEntity
  8
1
100
AcDbLine
  6
CONTINUOUS
 62
7
 10
1.8299817E+002
 20
1.3283589E+002
 11
1.8299817E+002
 21
1.3263589E+002
  0
LINE
  5
34f
100
AcDbEntity
  8
1
100
AcDbLine
  6
CONTINUOUS
 62
7
 10
1.8299817E+002
 20
1.3263589E+002
 11
1.8475817E+002
 21
1.3263589E+002
  0
LINE
  5
350
100
AcDbEntity
  8
1
100
AcDbLine
  6
CONTINUOUS
 62
7
 10
1.8562317E+002
 20
1.3698589E+002
 11
1.854987E+002
 21
1.3337642E+002
  0
LINE
  5
351
100
AcDbEntity
  8
1
100
AcDbLine
  6
CONTINUOUS
 62
7
 10
1.8562317E+002
 20
1.4068589E+002
 11
1.8562317E+002
 21
1.3698589E+002
  0
LINE
  5
352
100
AcDbEntity
  8
1
100
AcDbLine
  6
CONTINUOUS
 62
7
 10
1.1432317E+002
 20
1.2022589E+002
 11
1.1432317E+002
 21
1.0458589E+002
  0
LINE
  5
353
100
AcDbEntity
  8
1
100
AcDbLine
  6
CONTINUOUS
 62
7
 10
1.1894817E+002
 20
1.1772589E+002
 11
1.1894817E+002
 21
1.151401E+002
  0
LINE
  5
354
100
AcDbEntity
  8
1
100
AcDbLine
  6
CONTINUOUS
 62
7
 10
1.2874817E+002
 20
1.1772589E+002
 11
1.2874817E+002
 21
1.151401E+002
  0
LINE
  5
355
100
AcDbEntity
  8
1
100
AcDbLine
  6
CONTINUOUS
 62
7
 10
1.3799817E+002
 20
1.1772589E+002
 11
1.3799817E+002
 21
1.151401E+002
  0
LINE
  5
356
100
AcDbEntity
  8
1
100
AcDbLine
  6
CONTINUOUS
 62
7
 10
1.4779817E+002
 20
1.1772589E+002
 11
1.4779817E+002
 21
1.151401E+002
  0
LINE
  5
357
100
AcDbEntity
  8
1
100
AcDbLine
  6
CONTINUOUS
 62
7
 10
1.1922317E+002
 20
1.0258589E+002
 11
1.1922317E+002
 21
9.8885889E+001
  0
LINE
  5
358
100
AcDbEntity
  8
1
100
AcDbLine
  6
CONTINUOUS
 62
7
 10
1.2847317E+002
 20
1.0147168E+002
 11
1.2847317E+002
 21
9.8885889E+001
  0
LINE
  5
359
100
AcDbEntity
  8
1
100
AcDbLine
  6
CONTINUOUS
 62
7
 10
1.3827317E+002
 20
1.0147168E+002
 11
1.3827317E+002
 21
9.8885889E+001
  0
LINE
  5
35a
100
AcDbEntity
  8
1
100
AcDbLine
  6
CONTINUOUS
 62
7
 10
1.4752317E+002
 20
1.0147168E+002
 11
1.4752317E+002
 21
9.8885889E+001
  0
LINE
  5
35b
100
AcDbEntity
  8
1
100
AcDbLine
  6
CONTINUOUS
 62
7
 10
1.1535909E+002
 20
1.2207589E+002
 11
1.1812189E+002
 21
1.2207589E+002
  0
LINE
  5
35c
100
AcDbEntity
  8
1
100
AcDbLine
  6
CONTINUOUS
 62
7
 10
1.1532317E+002
 20
1.0358589E+002
 11
1.1822317E+002
 21
1.0358589E+002
  0
LINE
  5
35d
100
AcDbEntity
  8
1
100
AcDbLine
  6
CONTINUOUS
 62
7
 10
1.1468334E+002
 20
1.2155852E+002
 11
1.1432317E+002
 21
1.2022589E+002
  0
ARC
  5
35e
100
AcDbEntity
  8
1
100
AcDbCircle
  6
CONTINUOUS
 62
7
 10
1.1535909E+002
 20
1.2137589E+002
 40
7.0E-001
100
AcDbArc
 50
9.0E+001
 51
1.6487599E+002
  0
LINE
  5
35f
100
AcDbEntity
  8
1
100
AcDbLine
  6
CONTINUOUS
 62
7
 10
1.1894817E+002
 20
1.1772589E+002
 11
1.1882147E+002
 21
1.2140001E+002
  0
ARC
  5
360
100
AcDbEntity
  8
1
100
AcDbCircle
  6
CONTINUOUS
 62
7
 10
1.1812189E+002
 20
1.2137589E+002
 40
7.0E-001
100
AcDbArc
 50
1.974934
 51
9.0E+001
  0
LINE
  5
361
100
AcDbEntity
  8
1
100
AcDbLine
  6
CONTINUOUS
 62
7
 10
1.2874817E+002
 20
1.1772589E+002
 11
1.2887263E+002
 21
1.2133535E+002
  0
LINE
  5
362
100
AcDbEntity
  8
1
100
AcDbLine
  6
CONTINUOUS
 62
7
 10
1.3799817E+002
 20
1.1772589E+002
 11
1.378737E+002
 21
1.2133535E+002
  0
LINE
  5
363
100
AcDbEntity
  8
1
100
AcDbLine
  6
CONTINUOUS
 62
7
 10
1.4779817E+002
 20
1.1772589E+002
 11
1.4792263E+002
 21
1.2133535E+002
  0
LINE
  5
364
100
AcDbEntity
  8
1
100
AcDbLine
  6
CONTINUOUS
 62
7
 10
1.2961317E+002
 20
1.2207589E+002
 11
1.3713317E+002
 21
1.2207589E+002
  0
ARC
  5
365
100
AcDbEntity
  8
1
100
AcDbCircle
  6
CONTINUOUS
 62
7
 10
1.1822317E+002
 20
1.0258589E+002
 40
1.0
100
AcDbArc
 50
0.0
 51
9.0E+001
  0
ARC
  5
366
100
AcDbEntity
  8
1
100
AcDbCircle
  6
CONTINUOUS
 62
7
 10
1.1532317E+002
 20
1.0458589E+002
 40
1.0
100
AcDbArc
 50
1.8E+002
 51
2.7E+002
  0
LINE
  5
367
100
AcDbEntity
  8
1
100
AcDbLine
  6
CONTINUOUS
 62
7
 10
1.2455527E+002
 20
1.10533E+002
 11
1.2845527E+002
 21
1.14433E+002
  0
LINE
  5
368
100
AcDbEntity
  8
1
100
AcDbLine
  6
CONTINUOUS
 62
7
 10
1.2314106E+002
 20
1.10533E+002
 11
1.1924106E+002
 21
1.14433E+002
  0
ARC
  5
369
100
AcDbEntity
  8
1
100
AcDbCircle
  6
CONTINUOUS
 62
7
 10
1.2774817E+002
 20
1.151401E+002
 40
1.0
100
AcDbArc
 50
3.15E+002
 51
3.6E+002
  0
ARC
  5
36a
100
AcDbEntity
  8
1
100
AcDbCircle
  6
CONTINUOUS
 62
7
 10
1.1994817E+002
 20
1.151401E+002
 40
1.0
100
AcDbArc
 50
1.8E+002
 51
2.25E+002
  0
ARC
  5
36b
100
AcDbEntity
  8
1
100
AcDbCircle
  6
CONTINUOUS
 62
7
 10
1.2384817E+002
 20
1.112401E+002
 40
1.0
100
AcDbArc
 50
2.25E+002
 51
3.15E+002
  0
LINE
  5
36c
100
AcDbEntity
  8
1
100
AcDbLine
  6
CONTINUOUS
 62
7
 10
1.1922317E+002
 20
9.8885889E+001
 11
1.1934986E+002
 21
9.5211765E+001
  0
LINE
  5
36d
100
AcDbEntity
  8
1
100
AcDbLine
  6
CONTINUOUS
 62
7
 10
1.2847317E+002
 20
9.8885889E+001
 11
1.2834647E+002
 21
9.5211765E+001
  0
LINE
  5
36e
100
AcDbEntity
  8
1
100
AcDbLine
  6
CONTINUOUS
 62
7
 10
1.2004945E+002
 20
9.4535889E+001
 11
1.2184817E+002
 21
9.4535889E+001
  0
LINE
  5
36f
100
AcDbEntity
  8
1
100
AcDbLine
  6
CONTINUOUS
 62
7
 10
1.2184817E+002
 20
9.4735889E+001
 11
1.2184817E+002
 21
9.4535889E+001
  0
LINE
  5
370
100
AcDbEntity
  8
1
100
AcDbLine
  6
CONTINUOUS
 62
7
 10
1.2584817E+002
 20
9.4735889E+001
 11
1.2584817E+002
 21
9.4535889E+001
  0
LINE
  5
371
100
AcDbEntity
  8
1
100
AcDbLine
  6
CONTINUOUS
 62
7
 10
1.2184817E+002
 20
9.4735889E+001
 11
1.2584817E+002
 21
9.4735889E+001
  0
LINE
  5
372
100
AcDbEntity
  8
1
100
AcDbLine
  6
CONTINUOUS
 62
7
 10
1.2584817E+002
 20
9.4535889E+001
 11
1.2764689E+002
 21
9.4535889E+001
  0
ARC
  5
373
100
AcDbEntity
  8
1
100
AcDbCircle
  6
CONTINUOUS
 62
7
 10
1.3899817E+002
 20
1.151401E+002
 40
1.0
100
AcDbArc
 50
1.8E+002
 51
2.25E+002
  0
LINE
  5
374
100
AcDbEntity
  8
1
100
AcDbLine
  6
CONTINUOUS
 62
7
 10
1.4219106E+002
 20
1.10533E+002
 11
1.3829106E+002
 21
1.14433E+002
  0
ARC
  5
375
100
AcDbEntity
  8
1
100
AcDbCircle
  6
CONTINUOUS
 62
7
 10
1.4289817E+002
 20
1.112401E+002
 40
1.0
100
AcDbArc
 50
2.25E+002
 51
3.15E+002
  0
LINE
  5
376
100
AcDbEntity
  8
1
100
AcDbLine
  6
CONTINUOUS
 62
7
 10
1.4360527E+002
 20
1.10533E+002
 11
1.4750527E+002
 21
1.14433E+002
  0
ARC
  5
377
100
AcDbEntity
  8
1
100
AcDbCircle
  6
CONTINUOUS
 62
7
 10
1.4679817E+002
 20
1.151401E+002
 40
1.0
100
AcDbArc
 50
3.15E+002
 51
3.6E+002
  0
ARC
  5
378
100
AcDbEntity
  8
1
100
AcDbCircle
  6
CONTINUOUS
 62
7
 10
1.2947317E+002
 20
1.0147168E+002
 40
1.0
100
AcDbArc
 50
1.35E+002
 51
1.8E+002
  0
LINE
  5
379
100
AcDbEntity
  8
1
100
AcDbLine
  6
CONTINUOUS
 62
7
 10
1.3266606E+002
 20
1.0607878E+002
 11
1.2876606E+002
 21
1.0217878E+002
  0
ARC
  5
37a
100
AcDbEntity
  8
1
100
AcDbCircle
  6
CONTINUOUS
 62
7
 10
1.3337317E+002
 20
1.0537168E+002
 40
1.0
100
AcDbArc
 50
4.5E+001
 51
1.35E+002
  0
LINE
  5
37b
100
AcDbEntity
  8
1
100
AcDbLine
  6
CONTINUOUS
 62
7
 10
1.3408027E+002
 20
1.0607878E+002
 11
1.3798027E+002
 21
1.0217878E+002
  0
ARC
  5
37c
100
AcDbEntity
  8
1
100
AcDbCircle
  6
CONTINUOUS
 62
7
 10
1.3727317E+002
 20
1.0147168E+002
 40
1.0
100
AcDbArc
 50
0.0
 51
4.5E+001
  0
LINE
  5
37d
100
AcDbEntity
  8
1
100
AcDbLine
  6
CONTINUOUS
 62
7
 10
1.4866317E+002
 20
1.2207589E+002
 11
1.5618317E+002
 21
1.2207589E+002
  0
LINE
  5
37e
100
AcDbEntity
  8
1
100
AcDbLine
  6
CONTINUOUS
 62
7
 10
1.5171606E+002
 20
1.0607878E+002
 11
1.4781606E+002
 21
1.0217878E+002
  0
ARC
  5
37f
100
AcDbEntity
  8
1
100
AcDbCircle
  6
CONTINUOUS
 62
7
 10
1.4852317E+002
 20
1.0147168E+002
 40
1.0
100
AcDbArc
 50
1.35E+002
 51
1.8E+002
  0
ARC
  5
380
100
AcDbEntity
  8
1
100
AcDbCircle
  6
CONTINUOUS
 62
7
 10
1.5242317E+002
 20
1.0537168E+002
 40
1.0
100
AcDbArc
 50
4.5E+001
 51
1.35E+002
  0
LINE
  5
381
100
AcDbEntity
  8
1
100
AcDbLine
  6
CONTINUOUS
 62
7
 10
1.3909945E+002
 20
9.4535889E+001
 11
1.4089817E+002
 21
9.4535889E+001
  0
LINE
  5
382
100
AcDbEntity
  8
1
100
AcDbLine
  6
CONTINUOUS
 62
7
 10
1.4089817E+002
 20
9.4735889E+001
 11
1.4089817E+002
 21
9.4535889E+001
  0
LINE
  5
383
100
AcDbEntity
  8
1
100
AcDbLine
  6
CONTINUOUS
 62
7
 10
1.4489817E+002
 20
9.4735889E+001
 11
1.4489817E+002
 21
9.4535889E+001
  0
LINE
  5
384
100
AcDbEntity
  8
1
100
AcDbLine
  6
CONTINUOUS
 62
7
 10
1.4089817E+002
 20
9.4735889E+001
 11
1.4489817E+002
 21
9.4735889E+001
  0
LINE
  5
385
100
AcDbEntity
  8
1
100
AcDbLine
  6
CONTINUOUS
 62
7
 10
1.4489817E+002
 20
9.4535889E+001
 11
1.4669689E+002
 21
9.4535889E+001
  0
LINE
  5
386
100
AcDbEntity
  8
1
100
AcDbLine
  6
CONTINUOUS
 62
7
 10
1.3827317E+002
 20
9.8885889E+001
 11
1.3839986E+002
 21
9.5211765E+001
  0
LINE
  5
387
100
AcDbEntity
  8
1
100
AcDbLine
  6
CONTINUOUS
 62
7
 10
1.4752317E+002
 20
9.8885889E+001
 11
1.4739647E+002
 21
9.5211765E+001
  0
LINE
  5
388
100
AcDbEntity
  8
1
100
AcDbLine
  6
CONTINUOUS
 62
7
 10
1.5704817E+002
 20
1.1772589E+002
 11
1.5704817E+002
 21
1.151401E+002
  0
LINE
  5
389
100
AcDbEntity
  8
1
100
AcDbLine
  6
CONTINUOUS
 62
7
 10
1.6684817E+002
 20
1.1772589E+002
 11
1.6684817E+002
 21
1.151401E+002
  0
LINE
  5
38a
100
AcDbEntity
  8
1
100
AcDbLine
  6
CONTINUOUS
 62
7
 10
1.5704817E+002
 20
1.1772589E+002
 11
1.569237E+002
 21
1.2133535E+002
  0
LINE
  5
38b
100
AcDbEntity
  8
1
100
AcDbLine
  6
CONTINUOUS
 62
7
 10
1.6684817E+002
 20
1.1772589E+002
 11
1.6697263E+002
 21
1.2133535E+002
  0
ARC
  5
38c
100
AcDbEntity
  8
1
100
AcDbCircle
  6
CONTINUOUS
 62
7
 10
1.5804817E+002
 20
1.151401E+002
 40
1.0
100
AcDbArc
 50
1.8E+002
 51
2.25E+002
  0
LINE
  5
38d
100
AcDbEntity
  8
1
100
AcDbLine
  6
CONTINUOUS
 62
7
 10
1.6124106E+002
 20
1.10533E+002
 11
1.5734106E+002
 21
1.14433E+002
  0
ARC
  5
38e
100
AcDbEntity
  8
1
100
AcDbCircle
  6
CONTINUOUS
 62
7
 10
1.6194817E+002
 20
1.112401E+002
 40
1.0
100
AcDbArc
 50
2.25E+002
 51
3.15E+002
  0
LINE
  5
38f
100
AcDbEntity
  8
1
100
AcDbLine
  6
CONTINUOUS
 62
7
 10
1.6265527E+002
 20
1.10533E+002
 11
1.6655527E+002
 21
1.14433E+002
  0
ARC
  5
390
100
AcDbEntity
  8
1
100
AcDbCircle
  6
CONTINUOUS
 62
7
 10
1.6584817E+002
 20
1.151401E+002
 40
1.0
100
AcDbArc
 50
3.15E+002
 51
3.6E+002
  0
LINE
  5
391
100
AcDbEntity
  8
1
100
AcDbLine
  6
CONTINUOUS
 62
7
 10
1.6771317E+002
 20
1.2207589E+002
 11
1.7523317E+002
 21
1.2207589E+002
  0
LINE
  5
392
100
AcDbEntity
  8
1
100
AcDbLine
  6
CONTINUOUS
 62
7
 10
1.5313027E+002
 20
1.0607878E+002
 11
1.5703027E+002
 21
1.0217878E+002
  0
ARC
  5
393
100
AcDbEntity
  8
1
100
AcDbCircle
  6
CONTINUOUS
 62
7
 10
1.5632317E+002
 20
1.0147168E+002
 40
1.0
100
AcDbArc
 50
0.0
 51
4.5E+001
  0
LINE
  5
394
100
AcDbEntity
  8
1
100
AcDbLine
  6
CONTINUOUS
 62
7
 10
1.5732317E+002
 20
1.0147168E+002
 11
1.5732317E+002
 21
9.8885889E+001
  0
LINE
  5
395
100
AcDbEntity
  8
1
100
AcDbLine
  6
CONTINUOUS
 62
7
 10
1.5732317E+002
 20
9.8885889E+001
 11
1.5744986E+002
 21
9.5211765E+001
  0
LINE
  5
396
100
AcDbEntity
  8
1
100
AcDbLine
  6
CONTINUOUS
 62
7
 10
1.5814945E+002
 20
9.4535889E+001
 11
1.5994817E+002
 21
9.4535889E+001
  0
LINE
  5
397
100
AcDbEntity
  8
1
100
AcDbLine
  6
CONTINUOUS
 62
7
 10
1.5994817E+002
 20
9.4735889E+001
 11
1.5994817E+002
 21
9.4535889E+001
  0
LINE
  5
398
100
AcDbEntity
  8
1
100
AcDbLine
  6
CONTINUOUS
 62
7
 10
1.5994817E+002
 20
9.4735889E+001
 11
1.6394817E+002
 21
9.4735889E+001
  0
LINE
  5
399
100
AcDbEntity
  8
1
100
AcDbLine
  6
CONTINUOUS
 62
7
 10
1.6394817E+002
 20
9.4735889E+001
 11
1.6394817E+002
 21
9.4535889E+001
  0
LINE
  5
39a
100
AcDbEntity
  8
1
100
AcDbLine
  6
CONTINUOUS
 62
7
 10
1.6394817E+002
 20
9.4535889E+001
 11
1.6574689E+002
 21
9.4535889E+001
  0
LINE
  5
39b
100
AcDbEntity
  8
1
100
AcDbLine
  6
CONTINUOUS
 62
7
 10
1.6657317E+002
 20
9.8885889E+001
 11
1.6644647E+002
 21
9.5211765E+001
  0
LINE
  5
39c
100
AcDbEntity
  8
1
100
AcDbLine
  6
CONTINUOUS
 62
7
 10
1.6657317E+002
 20
1.0147168E+002
 11
1.6657317E+002
 21
9.8885889E+001
  0
ARC
  5
39d
100
AcDbEntity
  8
1
100
AcDbCircle
  6
CONTINUOUS
 62
7
 10
1.6757317E+002
 20
1.0147168E+002
 40
1.0
100
AcDbArc
 50
1.35E+002
 51
1.8E+002
  0
LINE
  5
39e
100
AcDbEntity
  8
1
100
AcDbLine
  6
CONTINUOUS
 62
7
 10
1.7076606E+002
 20
1.0607878E+002
 11
1.6686606E+002
 21
1.0217878E+002
  0
ARC
  5
39f
100
AcDbEntity
  8
1
100
AcDbCircle
  6
CONTINUOUS
 62
7
 10
1.7147317E+002
 20
1.0537168E+002
 40
1.0
100
AcDbArc
 50
4.5E+001
 51
1.35E+002
  0
LINE
  5
3a0
100
AcDbEntity
  8
1
100
AcDbLine
  6
CONTINUOUS
 62
7
 10
1.7609817E+002
 20
1.1772589E+002
 11
1.7609817E+002
 21
1.151401E+002
  0
LINE
  5
3a1
100
AcDbEntity
  8
1
100
AcDbLine
  6
CONTINUOUS
 62
7
 10
1.8589817E+002
 20
1.1772589E+002
 11
1.8589817E+002
 21
1.151401E+002
  0
LINE
  5
3a2
100
AcDbEntity
  8
1
100
AcDbLine
  6
CONTINUOUS
 62
7
 10
1.7609817E+002
 20
1.1772589E+002
 11
1.759737E+002
 21
1.2133535E+002
  0
LINE
  5
3a3
100
AcDbEntity
  8
1
100
AcDbLine
  6
CONTINUOUS
 62
7
 10
1.8589817E+002
 20
1.1772589E+002
 11
1.8602486E+002
 21
1.2140001E+002
  0
ARC
  5
3a4
100
AcDbEntity
  8
1
100
AcDbCircle
  6
CONTINUOUS
 62
7
 10
1.8672445E+002
 20
1.2137589E+002
 40
7.0E-001
100
AcDbArc
 50
9.0E+001
 51
1.7802507E+002
  0
ARC
  5
3a5
100
AcDbEntity
  8
1
100
AcDbCircle
  6
CONTINUOUS
 62
7
 10
1.7709817E+002
 20
1.151401E+002
 40
1.0
100
AcDbArc
 50
1.8E+002
 51
2.25E+002
  0
LINE
  5
3a6
100
AcDbEntity
  8
1
100
AcDbLine
  6
CONTINUOUS
 62
7
 10
1.8029106E+002
 20
1.10533E+002
 11
1.7639106E+002
 21
1.14433E+002
  0
ARC
  5
3a7
100
AcDbEntity
  8
1
100
AcDbCircle
  6
CONTINUOUS
 62
7
 10
1.8099817E+002
 20
1.112401E+002
 40
1.0
100
AcDbArc
 50
2.25E+002
 51
3.15E+002
  0
LINE
  5
3a8
100
AcDbEntity
  8
1
100
AcDbLine
  6
CONTINUOUS
 62
7
 10
1.8170527E+002
 20
1.10533E+002
 11
1.8560527E+002
 21
1.14433E+002
  0
ARC
  5
3a9
100
AcDbEntity
  8
1
100
AcDbCircle
  6
CONTINUOUS
 62
7
 10
1.8489817E+002
 20
1.151401E+002
 40
1.0
100
AcDbArc
 50
3.15E+002
 51
3.6E+002
  0
LINE
  5
3aa
100
AcDbEntity
  8
1
100
AcDbLine
  6
CONTINUOUS
 62
7
 10
1.7218027E+002
 20
1.0607878E+002
 11
1.7608027E+002
 21
1.0217878E+002
  0
ARC
  5
3ab
100
AcDbEntity
  8
1
100
AcDbCircle
  6
CONTINUOUS
 62
7
 10
1.7537317E+002
 20
1.0147168E+002
 40
1.0
100
AcDbArc
 50
0.0
 51
4.5E+001
  0
LINE
  5
3ac
100
AcDbEntity
  8
1
100
AcDbLine
  6
CONTINUOUS
 62
7
 10
1.7637317E+002
 20
1.0147168E+002
 11
1.7637317E+002
 21
9.8885889E+001
  0
LINE
  5
3ad
100
AcDbEntity
  8
1
100
AcDbLine
  6
CONTINUOUS
 62
7
 10
1.7637317E+002
 20
9.8885889E+001
 11
1.7649986E+002
 21
9.5211765E+001
  0
LINE
  5
3ae
100
AcDbEntity
  8
1
100
AcDbLine
  6
CONTINUOUS
 62
7
 10
1.7719945E+002
 20
9.4535889E+001
 11
1.7899817E+002
 21
9.4535889E+001
  0
LINE
  5
3af
100
AcDbEntity
  8
1
100
AcDbLine
  6
CONTINUOUS
 62
7
 10
1.7899817E+002
 20
9.4735889E+001
 11
1.7899817E+002
 21
9.4535889E+001
  0
LINE
  5
3b0
100
AcDbEntity
  8
1
100
AcDbLine
  6
CONTINUOUS
 62
7
 10
1.7899817E+002
 20
9.4735889E+001
 11
1.8299817E+002
 21
9.4735889E+001
  0
LINE
  5
3b1
100
AcDbEntity
  8
1
100
AcDbLine
  6
CONTINUOUS
 62
7
 10
1.8299817E+002
 20
9.4735889E+001
 11
1.8299817E+002
 21
9.4535889E+001
  0
LINE
  5
3b2
100
AcDbEntity
  8
1
100
AcDbLine
  6
CONTINUOUS
 62
7
 10
1.8299817E+002
 20
9.4535889E+001
 11
1.8479689E+002
 21
9.4535889E+001
  0
LINE
  5
3b3
100
AcDbEntity
  8
1
100
AcDbLine
  6
CONTINUOUS
 62
7
 10
1.8562317E+002
 20
9.8885889E+001
 11
1.8549647E+002
 21
9.5211765E+001
  0
LINE
  5
3b4
100
AcDbEntity
  8
1
100
AcDbLine
  6
CONTINUOUS
 62
7
 10
1.8562317E+002
 20
1.0258589E+002
 11
1.8562317E+002
 21
9.8885889E+001
  0
DIMENSION
  5
3b5
100
AcDbEntity
  8
1
100
AcDbDimension
  6
CONTINUOUS
 62
1
  2
*D23750
  3
DSTYLE6
 10
6.1462322E+001
 20
1.3677589E+002
 11
5.9461322E+001
 21
1.2725089E+002
 70
128
100
AcDbAlignedDimension
 13
6.8096015E+001
 23
1.1772589E+002
 14
6.8096015E+001
 24
1.3677589E+002
 40
0.0
 50
9.0E+001
100
AcDbRotatedDimension
1001
ACAD
1000
DSTYLE
1002
{
1070
173
1070
0
1070
5
1000
_AH2
1002
}
  0
LINE
  5
3b6
100
AcDbEntity
  8
1
100
AcDbLine
  6
CONTINUOUS
 62
7
 10
1.1432317E+002
 20
4.6904401E+001
 11
1.1432317E+002
 21
3.9204401E+001
  0
LINE
  5
3b7
100
AcDbEntity
  8
1
100
AcDbLine
  6
CONTINUOUS
 62
7
 10
1.2847317E+002
 20
4.6904401E+001
 11
1.2847317E+002
 21
3.9204401E+001
  0
LINE
  5
3b8
100
AcDbEntity
  8
1
100
AcDbLine
  6
CONTINUOUS
 62
7
 10
1.4752317E+002
 20
4.6904401E+001
 11
1.4752317E+002
 21
3.9204401E+001
  0
LINE
  5
3b9
100
AcDbEntity
  8
1
100
AcDbLine
  6
CONTINUOUS
 62
7
 10
1.3827317E+002
 20
4.6904401E+001
 11
1.3827317E+002
 21
3.9204401E+001
  0
LINE
  5
3ba
100
AcDbEntity
  8
1
100
AcDbLine
  6
CONTINUOUS
 62
7
 10
1.5732317E+002
 20
4.6904401E+001
 11
1.5732317E+002
 21
3.9204401E+001
  0
LINE
  5
3bb
100
AcDbEntity
  8
1
100
AcDbLine
  6
CONTINUOUS
 62
7
 10
1.6657317E+002
 20
4.6904401E+001
 11
1.6657317E+002
 21
3.9204401E+001
  0
LINE
  5
3bc
100
AcDbEntity
  8
1
100
AcDbLine
  6
CONTINUOUS
 62
7
 10
1.7637317E+002
 20
4.6904401E+001
 11
1.7637317E+002
 21
3.9204401E+001
  0
LINE
  5
3bd
100
AcDbEntity
  8
1
100
AcDbLine
  6
CONTINUOUS
 62
7
 10
1.8562317E+002
 20
4.6904401E+001
 11
1.8562317E+002
 21
3.9204401E+001
  0
LINE
  5
3be
100
AcDbEntity
  8
1
100
AcDbLine
  6
CONTINUOUS
 62
7
 10
1.3777317E+002
 20
4.5504401E+001
 11
1.2897317E+002
 21
4.5504401E+001
  0
LINE
  5
3bf
100
AcDbEntity
  8
1
100
AcDbLine
  6
CONTINUOUS
 62
7
 10
1.3037317E+002
 20
4.5504401E+001
 11
1.3037317E+002
 21
3.9204401E+001
  0
LINE
  5
3c0
100
AcDbEntity
  8
1
100
AcDbLine
  6
CONTINUOUS
 62
7
 10
1.3637317E+002
 20
4.5504401E+001
 11
1.3637317E+002
 21
3.9204401E+001
  0
ARC
  5
3c1
100
AcDbEntity
  8
1
100
AcDbCircle
  6
CONTINUOUS
 62
7
 10
1.2797317E+002
 20
4.6904401E+001
 40
5.0E-001
100
AcDbArc
 50
0.0
 51
9.0E+001
  0
ARC
  5
3c2
100
AcDbEntity
  8
1
100
AcDbCircle
  6
CONTINUOUS
 62
7
 10
1.3877317E+002
 20
4.6904401E+001
 40
5.0E-001
100
AcDbArc
 50
9.0E+001
 51
1.8E+002
  0
ARC
  5
3c3
100
AcDbEntity
  8
1
100
AcDbCircle
  6
CONTINUOUS
 62
7
 10
1.3877317E+002
 20
3.9204401E+001
 40
5.0E-001
100
AcDbArc
 50
1.8E+002
 51
2.7E+002
  0
ARC
  5
3c4
100
AcDbEntity
  8
1
100
AcDbCircle
  6
CONTINUOUS
 62
7
 10
1.3687317E+002
 20
3.9204401E+001
 40
5.0E-001
100
AcDbArc
 50
1.8E+002
 51
2.7E+002
  0
ARC
  5
3c5
100
AcDbEntity
  8
1
100
AcDbCircle
  6
CONTINUOUS
 62
7
 10
1.2987317E+002
 20
3.9204401E+001
 40
5.0E-001
100
AcDbArc
 50
2.7E+002
 51
3.6E+002
  0
ARC
  5
3c6
100
AcDbEntity
  8
1
100
AcDbCircle
  6
CONTINUOUS
 62
7
 10
1.2797317E+002
 20
3.9204401E+001
 40
5.0E-001
100
AcDbArc
 50
2.7E+002
 51
3.6E+002
  0
ARC
  5
3c7
100
AcDbEntity
  8
1
100
AcDbCircle
  6
CONTINUOUS
 62
7
 10
1.1482317E+002
 20
4.6904401E+001
 40
5.0E-001
100
AcDbArc
 50
9.0E+001
 51
1.8E+002
  0
ARC
  5
3c8
100
AcDbEntity
  8
1
100
AcDbCircle
  6
CONTINUOUS
 62
7
 10
1.1482317E+002
 20
3.9204401E+001
 40
5.0E-001
100
AcDbArc
 50
1.8E+002
 51
2.7E+002
  0
LINE
  5
3c9
100
AcDbEntity
  8
1
100
AcDbLine
  6
CONTINUOUS
 62
7
 10
1.5682317E+002
 20
4.5504401E+001
 11
1.4802317E+002
 21
4.5504401E+001
  0
LINE
  5
3ca
100
AcDbEntity
  8
1
100
AcDbLine
  6
CONTINUOUS
 62
7
 10
1.4942317E+002
 20
4.5504401E+001
 11
1.4942317E+002
 21
3.9204401E+001
  0
LINE
  5
3cb
100
AcDbEntity
  8
1
100
AcDbLine
  6
CONTINUOUS
 62
7
 10
1.5542317E+002
 20
4.5504401E+001
 11
1.5542317E+002
 21
3.9204401E+001
  0
ARC
  5
3cc
100
AcDbEntity
  8
1
100
AcDbCircle
  6
CONTINUOUS
 62
7
 10
1.5592317E+002
 20
3.9204401E+001
 40
5.0E-001
100
AcDbArc
 50
1.8E+002
 51
2.7E+002
  0
ARC
  5
3cd
100
AcDbEntity
  8
1
100
AcDbCircle
  6
CONTINUOUS
 62
7
 10
1.4892317E+002
 20
3.9204401E+001
 40
5.0E-001
100
AcDbArc
 50
2.7E+002
 51
3.6E+002
  0
LINE
  5
3ce
100
AcDbEntity
  8
1
100
AcDbLine
  6
CONTINUOUS
 62
7
 10
1.7447317E+002
 20
4.5504401E+001
 11
1.7447317E+002
 21
3.9204401E+001
  0
LINE
  5
3cf
100
AcDbEntity
  8
1
100
AcDbLine
  6
CONTINUOUS
 62
7
 10
1.6847317E+002
 20
4.5504401E+001
 11
1.6847317E+002
 21
3.9204401E+001
  0
ARC
  5
3d0
100
AcDbEntity
  8
1
100
AcDbCircle
  6
CONTINUOUS
 62
7
 10
1.7497317E+002
 20
3.9204401E+001
 40
5.0E-001
100
AcDbArc
 50
1.8E+002
 51
2.7E+002
  0
ARC
  5
3d1
100
AcDbEntity
  8
1
100
AcDbCircle
  6
CONTINUOUS
 62
7
 10
1.6797317E+002
 20
3.9204401E+001
 40
5.0E-001
100
AcDbArc
 50
2.7E+002
 51
3.6E+002
  0
ARC
  5
3d2
100
AcDbEntity
  8
1
100
AcDbCircle
  6
CONTINUOUS
 62
7
 10
1.4702317E+002
 20
4.6904401E+001
 40
5.0E-001
100
AcDbArc
 50
0.0
 51
9.0E+001
  0
ARC
  5
3d3
100
AcDbEntity
  8
1
100
AcDbCircle
  6
CONTINUOUS
 62
7
 10
1.4702317E+002
 20
3.9204401E+001
 40
5.0E-001
100
AcDbArc
 50
2.7E+002
 51
3.6E+002
  0
ARC
  5
3d4
100
AcDbEntity
  8
1
100
AcDbCircle
  6
CONTINUOUS
 62
7
 10
1.5782317E+002
 20
4.6904401E+001
 40
5.0E-001
100
AcDbArc
 50
9.0E+001
 51
1.8E+002
  0
ARC
  5
3d5
100
AcDbEntity
  8
1
100
AcDbCircle
  6
CONTINUOUS
 62
7
 10
1.5782317E+002
 20
3.9204401E+001
 40
5.0E-001
100
AcDbArc
 50
1.8E+002
 51
2.7E+002
  0
ARC
  5
3d6
100
AcDbEntity
  8
1
100
AcDbCircle
  6
CONTINUOUS
 62
7
 10
1.6607317E+002
 20
4.6904401E+001
 40
5.0E-001
100
AcDbArc
 50
0.0
 51
9.0E+001
  0
ARC
  5
3d7
100
AcDbEntity
  8
1
100
AcDbCircle
  6
CONTINUOUS
 62
7
 10
1.6607317E+002
 20
3.9204401E+001
 40
5.0E-001
100
AcDbArc
 50
2.7E+002
 51
3.6E+002
  0
ARC
  5
3d8
100
AcDbEntity
  8
1
100
AcDbCircle
  6
CONTINUOUS
 62
7
 10
1.7687317E+002
 20
4.6904401E+001
 40
5.0E-001
100
AcDbArc
 50
9.0E+001
 51
1.8E+002
  0
ARC
  5
3d9
100
AcDbEntity
  8
1
100
AcDbCircle
  6
CONTINUOUS
 62
7
 10
1.7687317E+002
 20
3.9204401E+001
 40
5.0E-001
100
AcDbArc
 50
1.8E+002
 51
2.7E+002
  0
ARC
  5
3da
100
AcDbEntity
  8
1
100
AcDbCircle
  6
CONTINUOUS
 62
7
 10
1.8512317E+002
 20
3.9204401E+001
 40
5.0E-001
100
AcDbArc
 50
2.7E+002
 51
3.6E+002
  0
ARC
  5
3db
100
AcDbEntity
  8
1
100
AcDbCircle
  6
CONTINUOUS
 62
7
 10
1.8512317E+002
 20
4.6904401E+001
 40
5.0E-001
100
AcDbArc
 50
0.0
 51
9.0E+001
  0
LINE
  5
3dc
100
AcDbEntity
  8
1
100
AcDbLine
  6
CONTINUOUS
 62
7
 10
1.6707317E+002
 20
4.5504401E+001
 11
1.7587317E+002
 21
4.5504401E+001
  0
LINE
  5
3dd
100
AcDbEntity
  8
1
100
AcDbLine
  6
CENTERLINE
 62
6
 10
1.9352317E+002
 20
4.3054401E+001
 11
1.1132317E+002
 21
4.3054401E+001
  0
LINE
  5
3de
100
AcDbEntity
  8
1
100
AcDbLine
  6
CONTINUOUS
 62
7
 10
1.1922317E+002
 20
4.6904401E+001
 11
1.1922317E+002
 21
3.9204401E+001
  0
ARC
  5
3df
100
AcDbEntity
  8
1
100
AcDbCircle
  6
CONTINUOUS
 62
7
 10
1.1972317E+002
 20
4.6904401E+001
 40
5.0E-001
100
AcDbArc
 50
9.0E+001
 51
1.8E+002
  0
ARC
  5
3e0
100
AcDbEntity
  8
1
100
AcDbCircle
  6
CONTINUOUS
 62
7
 10
1.1972317E+002
 20
3.9204401E+001
 40
5.0E-001
100
AcDbArc
 50
1.8E+002
 51
2.7E+002
  0
LINE
  5
3e1
100
AcDbEntity
  8
1
100
AcDbLine
  6
CONTINUOUS
 62
7
 10
2.0
 20
2.0
 11
2.95E+002
 21
2.0
  0
LINE
  5
3e2
100
AcDbEntity
  8
1
100
AcDbLine
  6
CONTINUOUS
 62
7
 10
2.95E+002
 20
2.0
 11
2.95E+002
 21
2.08E+002
  0
LINE
  5
3e3
100
AcDbEntity
  8
1
100
AcDbLine
  6
CONTINUOUS
 62
7
 10
2.95E+002
 20
2.08E+002
 11
2.0
 21
2.08E+002
  0
LINE
  5
3e4
100
AcDbEntity
  8
1
100
AcDbLine
  6
CONTINUOUS
 62
7
 10
2.0
 20
2.08E+002
 11
2.0
 21
2.0
  0
TEXT
  5
3e5
100
AcDbEntity
  8
1
100
AcDbText
  6
CONTINUOUS
 62
7
 10
2.618E+002
 20
4.0
 40
3.0
  1
DATE2020.5.1
 41
8.0E-001
 72
2
 11
2.93E+002
 21
4.0
100
AcDbText
  0
INSERT
  5
3e6
100
AcDbEntity
100
AcDbBlockReference
  2
BTN6_762_IN
  8
1
 10
1.1432317E+002
 20
1.5582589E+002
  0
INSERT
  5
3e7
100
AcDbEntity
100
AcDbBlockReference
  2
BTN6_762_IN
  8
1
 10
1.1432317E+002
 20
1.3677589E+002
  0
INSERT
  5
3e8
100
AcDbEntity
100
AcDbBlockReference
  2
BTN6_762_IN
  8
1
 10
1.1432317E+002
 20
1.1772589E+002
  0
VIEWPORT
  5
3e9
100
AcDbEntity
 67
1
  8
0
  6
CONTINUOUS
 62
3
100
AcDbViewport
 10
1.485E+002
 20
1.05E+002
 30
0.0
 40
2.1E+002
 41
2.1E+002
 68
1
 69
1
1001
ACAD
1000
MVIEW
1002
{
1070
16
1010
0.0
1020
0.0
1030
0.0
1010
0.0
1020
0.0
1030
1.0
1040
0.0
1040
2.1E+002
1040
8.1675E+001
1040
1.05E+002
1040
5.0E+001
1040
0.0
1040
0.0
1070
0
1070
1000
1070
1
1070
0
1070
0
1070
0
1070
0
1070
0
1040
0.0
1040
0.0
1040
0.0
1040
5.0E-001
1040
5.0E-001
1040
5.0E-001
1040
5.0E-001
1070
0
1002
{
1002
}
1002
}
  0
VIEWPORT
  5
3ea
100
AcDbEntity
 67
1
  8
0
100
AcDbViewport
 62
3
 10
1.485E+002
 20
1.05E+002
 30
0.0
 40
2.97E+002
 41
2.1E+002
 68
2
 69
2
1001
ACAD
1000
MVIEW
1002
{
1070
16
1010
0.0
1020
0.0
1030
0.0
1010
0.0
1020
0.0
1030
1.0
1040
0.0
1040
2.1E+002
1040
1.485E+002
1040
1.05E+002
1040
5.0E+001
1040
0.0
1040
0.0
1070
0
1070
1000
1070
1
1070
0
1070
0
1070
0
1070
0
1070
0
1040
0.0
1040
0.0
1040
0.0
1040
5.0E-001
1040
5.0E-001
1040
5.0E-001
1040
5.0E-001
1070
0
1002
{
1002
}
1002
}
  0
ENDSEC
  0
SECTION
  2
OBJECTS
  0
DICTIONARY
  5
3eb
100
AcDbDictionary
  3
ACAD_GROUP
350
3ec
  3
ACAD_MLINESTYLE
350
3ed
  0
DICTIONARY
  5
3ec
102
{ACAD_REACTORS
330
3eb
102
}
100
AcDbDictionary
  0
DICTIONARY
  5
3ed
102
{ACAD_REACTORS
330
3eb
102
}
100
AcDbDictionary
  3
STANDARD
350
3ee
  0
MLINESTYLE
  5
3ee
102
{ACAD_REACTORS
330
3ed
102
}
100
AcDbMlineStyle
  2
STANDARD
 70
0
  3

 62
256
 51
9.0E+001
 52
9.0E+001
 71
2
 49
5.0E-001
 62
256
  6
BYLAYER
 49
-5.0E-001
 62
256
  6
BYLAYER
  0
ENDSEC
  0
EOF
