  0
SECTION
  2
HEADER
  9
$ACADVER
  1
AC1014
999
I-DEAS 13 NX Not Encoded
  9
$EXTMIN
 10
0.0
 20
0.0
  9
$EXTMAX
 10
2.97E+002
 20
2.1E+002
  9
$TEXTSIZE
 40
1.25E-001
  9
$LTSCALE
 40
1.0
  9
$CLAYER
  8
1
  9
$CECOLOR
 62
1
  9
$DIMASZ
 40
1.25E-001
  9
$DIMEXO
 40
6.25E-002
  9
$DIMDLI
 40
2.5E-001
  9
$DIMEXE
 40
1.25E-001
  9
$DIMTP
 40
5.0E-003
  9
$DIMTM
 40
-5.0E-003
  9
$DIMTXT
 40
3.0
  9
$DIMLIM
 70
0
  9
$DIMTIH
 70
1
  9
$DIMTOH
 70
1
  9
$DIMSE1
 70
0
  9
$DIMSE2
 70
0
  9
$DIMTAD
 70
0
  9
$DIMASO
 70
1
  9
$DIMALT
 70
0
  9
$DIMALTD
 70
0
  9
$DIMTOFL
 70
1
  9
$DIMTIX
 70
0
  9
$DIMSAH
 70
0
  9
$DIMSTYLE
  2
DSTYLE1
  9
$DIMTFAC
 40
1.0
  9
$DIMGAP
 40
6.25E-002
  9
$LUNITS
 70
2
  9
$LUPREC
 70
3
  9
$FILLETRAD
 40
7.0E-001
  9
$AUNITS
 70
0
  9
$AUPREC
 70
1
  9
$CHAMFERA
 40
1.0
  9
$CHAMFERB
 40
1.0
  9
$ANGBASE
 50
0.0
  9
$ANGDIR
 70
0
  9
$PEXTMIN
 10
0.0
 20
0.0
 30
0.0
  9
$PEXTMAX
 10
2.97E+002
 20
2.1E+002
 30
0.0
  9
$PLIMMIN
 10
0.0
 20
0.0
  9
$PLIMMAX
 10
2.97E+002
 20
2.1E+002
  9
$PDMODE
 70
2
  9
$PDSIZE
 40
-1.0E-002
  9
$SPLINETYPE
 70
6
  9
$TILEMODE
 70
0
  9
$HANDLING
 70
1
  9
$HANDSEED
  5
f4240
  0
ENDSEC
  0
SECTION
  2
TABLES
  0
TABLE
  2
VPORT
  5
64
100
AcDbSymbolTable
 70
2
  0
VPORT
  5
65
100
AcDbSymbolTableRecord
100
AcDbViewportTableRecord
  2
*Active
 70
0
 10
0.0
 20
0.0
 11
2.97E+002
 21
2.1E+002
 12
1.485E+002
 22
1.05E+002
 13
0.0
 23
0.0
 14
1.0
 24
1.0
 15
0.0
 25
0.0
 16
0.0
 26
0.0
 36
1.0
 17
0.0
 27
0.0
 37
0.0
 40
2.1E+002
 41
1.4142857
 42
5.0E+001
 43
0.0
 44
0.0
 50
0.0
 51
0.0
 71
0
 72
1000
 73
1
 74
3
 75
0
 76
0
 77
0
 78
0
  0
ENDTAB
  0
TABLE
  2
LTYPE
  5
66
100
AcDbSymbolTable
 70
9
  0
LTYPE
  5
67
100
AcDbSymbolTableRecord
100
AcDbLinetypeTableRecord
  2
BYBLOCK
 70
0
  3

 72
65
 73
0
 40
0.0
  0
LTYPE
  5
68
100
AcDbSymbolTableRecord
100
AcDbLinetypeTableRecord
  2
BYLAYER
 70
0
  3

 72
65
 73
0
 40
0.0
  0
LTYPE
  5
69
100
AcDbSymbolTableRecord
100
AcDbLinetypeTableRecord
  2
CONTINUOUS
 70
0
  3

 72
65
 73
0
 40
0.0
  0
LTYPE
  5
6a
100
AcDbSymbolTableRecord
100
AcDbLinetypeTableRecord
  2
HIDDENNEW0
  3
_ 
 70
64
 72
65
 73
3
 40
4.5
 49
1.5
 74
0
 49
-1.5
 74
0
 49
1.5
 74
0
  0
LTYPE
  5
6b
100
AcDbSymbolTableRecord
100
AcDbLinetypeTableRecord
  2
HIDDENNEW1
  3
_ 
 70
64
 72
65
 73
3
 40
4.5
 49
1.5
 74
0
 49
-1.5
 74
0
 49
1.5
 74
0
  0
LTYPE
  5
6c
100
AcDbSymbolTableRecord
100
AcDbLinetypeTableRecord
  2
HIDDEN
  3
_ 
 70
64
 72
65
 73
3
 40
4.5
 49
1.5
 74
0
 49
-1.5
 74
0
 49
1.5
 74
0
  0
LTYPE
  5
6d
100
AcDbSymbolTableRecord
100
AcDbLinetypeTableRecord
  2
CENTERLINE
  3
_ 
 70
64
 72
65
 73
5
 40
3.0E+001
 49
1.2E+001
 74
0
 49
-1.5
 74
0
 49
3.0
 74
0
 49
-1.5
 74
0
 49
1.2E+001
 74
0
  0
LTYPE
  5
6e
100
AcDbSymbolTableRecord
100
AcDbLinetypeTableRecord
  2
PHANTOM
  3
_ 
 70
64
 72
65
 73
7
 40
2.95E+001
 49
9.5
 74
0
 49
-1.5
 74
0
 49
3.0
 74
0
 49
-1.5
 74
0
 49
3.0
 74
0
 49
-1.5
 74
0
 49
9.5
 74
0
  0
LTYPE
  5
6f
100
AcDbSymbolTableRecord
100
AcDbLinetypeTableRecord
  2
SHORT_DASH
  3
_ 
 70
64
 72
65
 73
3
 40
3.0
 49
7.5E-001
 74
0
 49
-1.5
 74
0
 49
7.5E-001
 74
0
  0
LTYPE
  5
70
100
AcDbSymbolTableRecord
100
AcDbLinetypeTableRecord
  2
LONG_DASH
  3
_ 
 70
64
 72
65
 73
3
 40
9.0
 49
2.25
 74
0
 49
-4.5
 74
0
 49
2.25
 74
0
  0
LTYPE
  5
71
100
AcDbSymbolTableRecord
100
AcDbLinetypeTableRecord
  2
CENTER_C
  3
_ 
 70
64
 72
65
 73
5
 40
3.5
 49
1.0
 74
0
 49
-5.0E-001
 74
0
 49
5.0E-001
 74
0
 49
-5.0E-001
 74
0
 49
1.0
 74
0
  0
LTYPE
  5
72
100
AcDbSymbolTableRecord
100
AcDbLinetypeTableRecord
  2
CETER_SS
  3
_ 
 70
64
 72
65
 73
5
 40
1.4
 49
4.0E-001
 74
0
 49
-2.0E-001
 74
0
 49
2.0E-001
 74
0
 49
-2.0E-001
 74
0
 49
4.0E-001
 74
0
  0
ENDTAB
  0
TABLE
  2
LAYER
  5
73
100
AcDbSymbolTable
 70
258
  0
LAYER
  5
74
100
AcDbSymbolTableRecord
100
AcDbLayerTableRecord
  2
0
 70
0
 62
7
  6
CONTINUOUS
  0
LAYER
  5
75
100
AcDbSymbolTableRecord
100
AcDbLayerTableRecord
  2
1
 70
0
 62
7
  6
CONTINUOUS
  0
LAYER
  5
76
100
AcDbSymbolTableRecord
100
AcDbLayerTableRecord
  2
AM_VIEWS
 70
0
 62
3
  6
CONTINUOUS
  0
LAYER
  5
77
100
AcDbSymbolTableRecord
100
AcDbLayerTableRecord
  2
Drafting_Hidden_Entities
 70
1
 62
7
  6
CONTINUOUS
  0
ENDTAB
  0
TABLE
  2
STYLE
  5
78
100
AcDbSymbolTable
 70
1
  0
STYLE
  5
79
100
AcDbSymbolTableRecord
100
AcDbTextStyleTableRecord
  2
STANDARD
 70
64
 40
0.0
 41
1.0
 50
0.0
 71
0
 42
1.0
  3
monotxt.shx
  4
bigfont.shx
  0
ENDTAB
  0
TABLE
  2
VIEW
  5
7a
100
AcDbSymbolTable
 70
0
  0
ENDTAB
  0
TABLE
  2
UCS
  5
7b
100
AcDbSymbolTable
 70
0
  0
ENDTAB
  0
TABLE
  2
APPID
  5
7c
100
AcDbSymbolTable
 70
1
  0
APPID
  5
7d
100
AcDbSymbolTableRecord
100
AcDbRegAppTableRecord
  2
ACAD
 70
1
  0
ENDTAB
  0
TABLE
  2
DIMSTYLE
  5
7e
100
AcDbSymbolTable
 70
6
  0
DIMSTYLE
105
7f
100
AcDbSymbolTableRecord
100
AcDbDimStyleTableRecord
  2
DSTYLE1
 70
0
  3

  4

  5

  6

  7

 40
1.0
 41
1.5
 42
5.0E-001
 43
3.8E-001
 44
5.0E-001
 45
1.0E-002
 46
0.0
 47
1.0
 48
1.0
 71
0
 72
0
 73
0
 74
0
 75
0
 76
1
 77
1
 78
11
140
3.0
141
9.0E-002
142
0.0
143
3.9370079E-002
144
1.0
145
0.0
146
1.0
147
5.0E-001
170
0
171
2
172
0
173
0
174
0
175
0
176
0
177
0
178
0
270
2
271
2
272
4
273
2
274
2
275
0
280
0
281
0
282
0
283
1
284
0
285
0
286
0
287
3
288
0
  0
DIMSTYLE
105
80
100
AcDbSymbolTableRecord
100
AcDbDimStyleTableRecord
  2
DSTYLE2
 70
0
  3

  4

  5

  6

  7

 40
1.0
 41
1.5
 42
5.0E-001
 43
3.8E-001
 44
5.0E-001
 45
1.0E-002
 46
0.0
 47
1.0
 48
1.0
 71
0
 72
0
 73
0
 74
0
 75
1
 76
1
 77
1
 78
11
140
3.0
141
9.0E-002
142
0.0
143
3.9370079E-002
144
1.0
145
0.0
146
1.0
147
5.0E-001
170
0
171
2
172
0
173
0
174
0
175
0
176
0
177
0
178
0
270
2
271
2
272
4
273
2
274
2
275
0
280
0
281
0
282
0
283
1
284
0
285
0
286
0
287
3
288
0
  0
DIMSTYLE
105
81
100
AcDbSymbolTableRecord
100
AcDbDimStyleTableRecord
  2
DSTYLE3
 70
0
  3

  4

  5

  6

  7

 40
1.0
 41
1.5
 42
5.0E-001
 43
3.8E-001
 44
5.0E-001
 45
1.0E-002
 46
0.0
 47
1.0
 48
1.0
 71
0
 72
0
 73
0
 74
0
 75
0
 76
0
 77
1
 78
11
140
3.0
141
9.0E-002
142
0.0
143
3.9370079E-002
144
1.0
145
0.0
146
1.0
147
5.0E-001
170
0
171
2
172
0
173
0
174
0
175
0
176
0
177
0
178
0
270
2
271
2
272
4
273
2
274
2
275
0
280
0
281
0
282
0
283
1
284
0
285
0
286
0
287
3
288
0
  0
DIMSTYLE
105
82
100
AcDbSymbolTableRecord
100
AcDbDimStyleTableRecord
  2
DSTYLE4
 70
0
  3

  4

  5

  6

  7

 40
1.0
 41
1.8
 42
6.0E-001
 43
3.8E-001
 44
1.2
 45
1.0E-002
 46
0.0
 47
1.0
 48
1.0
 71
0
 72
0
 73
0
 74
0
 75
0
 76
0
 77
1
 78
11
140
3.0
141
9.0E-002
142
0.0
143
3.9370079E-002
144
1.0
145
0.0
146
1.0
147
6.0E-001
170
0
171
2
172
0
173
0
174
0
175
0
176
0
177
0
178
0
270
2
271
2
272
4
273
2
274
2
275
0
280
0
281
0
282
0
283
1
284
0
285
0
286
0
287
3
288
0
  0
DIMSTYLE
105
83
100
AcDbSymbolTableRecord
100
AcDbDimStyleTableRecord
  2
DSTYLE5
 70
0
  3

  4

  5

  6

  7

 40
1.0
 41
1.5
 42
5.0E-001
 43
3.8E-001
 44
5.0E-001
 45
1.0E-001
 46
0.0
 47
1.0
 48
1.0
 71
0
 72
0
 73
0
 74
0
 75
0
 76
0
 77
1
 78
3
140
3.0
141
9.0E-002
142
0.0
143
3.9370079E-002
144
1.0
145
0.0
146
1.0
147
1.0
170
0
171
2
172
0
173
0
174
0
175
0
176
0
177
0
178
0
270
2
271
1
272
4
273
2
274
2
275
0
280
0
281
0
282
0
283
1
284
0
285
0
286
0
287
3
288
0
  0
DIMSTYLE
105
84
100
AcDbSymbolTableRecord
100
AcDbDimStyleTableRecord
  2
DSTYLE6
 70
0
  3

  4

  5

  6

  7

 40
1.0
 41
2.0
 42
5.0E-001
 43
3.8E-001
 44
5.0E-001
 45
1.0E-002
 46
0.0
 47
1.0
 48
1.0
 71
0
 72
0
 73
0
 74
0
 75
0
 76
1
 77
1
 78
3
140
3.0
141
9.0E-002
142
0.0
143
3.9370079E-002
144
1.0
145
0.0
146
1.0
147
5.0E-001
170
0
171
2
172
0
173
0
174
0
175
0
176
0
177
0
178
0
270
2
271
2
272
4
273
2
274
2
275
0
280
0
281
0
282
0
283
1
284
0
285
0
286
0
287
3
288
0
  0
ENDTAB
  0
TABLE
  2
BLOCK_RECORD
  5
85
100
AcDbSymbolTable
 70
0
  0
BLOCK_RECORD
  5
86
100
AcDbSymbolTableRecord
100
AcDbBlockTableRecord
  2
*MODEL_SPACE
  0
BLOCK_RECORD
  5
87
100
AcDbSymbolTableRecord
100
AcDbBlockTableRecord
  2
*PAPER_SPACE
  0
BLOCK_RECORD
  5
88
100
AcDbSymbolTableRecord
100
AcDbBlockTableRecord
  2
*D188
  0
BLOCK_RECORD
  5
89
100
AcDbSymbolTableRecord
100
AcDbBlockTableRecord
  2
*D189
  0
BLOCK_RECORD
  5
8a
100
AcDbSymbolTableRecord
100
AcDbBlockTableRecord
  2
*D190
  0
BLOCK_RECORD
  5
8b
100
AcDbSymbolTableRecord
100
AcDbBlockTableRecord
  2
*D8551
  0
BLOCK_RECORD
  5
8c
100
AcDbSymbolTableRecord
100
AcDbBlockTableRecord
  2
*D10655
  0
BLOCK_RECORD
  5
8d
100
AcDbSymbolTableRecord
100
AcDbBlockTableRecord
  2
*D23750
  0
BLOCK_RECORD
  5
8e
100
AcDbSymbolTableRecord
100
AcDbBlockTableRecord
  2
_AH1
  0
BLOCK_RECORD
  5
8f
100
AcDbSymbolTableRecord
100
AcDbBlockTableRecord
  2
_AH2
  0
BLOCK_RECORD
  5
90
100
AcDbSymbolTableRecord
100
AcDbBlockTableRecord
  2
_AH12
  3
_AH
  0
BLOCK_RECORD
  5
91
100
AcDbSymbolTableRecord
100
AcDbBlockTableRecord
  2
_AH13
  3
_AH
  0
BLOCK_RECORD
  5
92
100
AcDbSymbolTableRecord
100
AcDbBlockTableRecord
  2
_AH14
  3
_AH
  0
BLOCK_RECORD
  5
93
100
AcDbSymbolTableRecord
100
AcDbBlockTableRecord
  2
_AH15
  3
_AH
  0
BLOCK_RECORD
  5
94
100
AcDbSymbolTableRecord
100
AcDbBlockTableRecord
  2
_AH16
  3
_AH
  0
BLOCK_RECORD
  5
95
100
AcDbSymbolTableRecord
100
AcDbBlockTableRecord
  2
_AH17
  3
_AH
  0
BLOCK_RECORD
  5
96
100
AcDbSymbolTableRecord
100
AcDbBlockTableRecord
  2
_AH18
  3
_AH
  0
BLOCK_RECORD
  5
97
100
AcDbSymbolTableRecord
100
AcDbBlockTableRecord
  2
_AH19
  3
_AH
  0
BLOCK_RECORD
  5
98
100
AcDbSymbolTableRecord
100
AcDbBlockTableRecord
  2
_AH20
  3
_AH
  0
BLOCK_RECORD
  5
99
100
AcDbSymbolTableRecord
100
AcDbBlockTableRecord
  2
_AH21
  3
_AH
  0
BLOCK_RECORD
  5
9a
100
AcDbSymbolTableRecord
100
AcDbBlockTableRecord
  2
*TX28
  3
*TX
  0
BLOCK_RECORD
  5
9b
100
AcDbSymbolTableRecord
100
AcDbBlockTableRecord
  2
BTN6_1524_IN
  0
ENDTAB
  0
ENDSEC
  0
SECTION
  2
BLOCKS
  0
BLOCK
  5
9c
100
AcDbEntity
100
AcDbBlockBegin
  2
*MODEL_SPACE
 70
0
 10
0.0
 20
0.0
 30
0.0
  3
*MODEL_SPACE
  1

  0
ENDBLK
  5
9d
100
AcDbEntity
100
AcDbBlockEnd
  0
BLOCK
  5
9e
100
AcDbEntity
100
AcDbBlockBegin
  2
*PAPER_SPACE
 70
0
 10
0.0
 20
0.0
 30
0.0
  3
*PAPER_SPACE
  1

  0
ENDBLK
  5
9f
100
AcDbEntity
100
AcDbBlockEnd
  0
BLOCK
  5
a0
100
AcDbEntity
100
AcDbBlockBegin
  2
_AH12
  3
_AH
 10
0.0
 20
0.0
 70
64
  0
LINE
  5
a1
100
AcDbEntity
  8
0
100
AcDbLine
  6
CONTINUOUS
 62
0
 10
0.0
 20
0.0
 11
1.0
 21
0.0
  0
LINE
  5
a2
100
AcDbEntity
  8
0
100
AcDbLine
  6
CONTINUOUS
 62
0
 10
0.0
 20
0.0
 11
-1.0
 21
0.0
  0
ENDBLK
  5
a3
100
AcDbEntity
100
AcDbBlockEnd
  0
BLOCK
  5
a4
100
AcDbEntity
100
AcDbBlockBegin
  2
_AH13
  3
_AH
 10
0.0
 20
0.0
 70
64
  0
SOLID
  5
a5
100
AcDbEntity
  8
0
100
AcDbTrace
  6
CONTINUOUS
 62
0
 10
0.0
 20
0.0
 11
1.0
 21
-1.66667E-001
 12
1.0
 22
1.66667E-001
 13
0.0
 23
0.0
  0
ENDBLK
  5
a6
100
AcDbEntity
100
AcDbBlockEnd
  0
BLOCK
  5
a7
100
AcDbEntity
100
AcDbBlockBegin
  2
_AH14
  3
_AH
 10
0.0
 20
0.0
 70
64
  0
ENDBLK
  5
a8
100
AcDbEntity
100
AcDbBlockEnd
  0
BLOCK
  5
a9
100
AcDbEntity
100
AcDbBlockBegin
  2
_AH15
  3
_AH
 10
0.0
 20
0.0
 70
64
  0
CIRCLE
  5
aa
100
AcDbEntity
  8
0
100
AcDbCircle
  6
CONTINUOUS
 62
0
 10
0.0
 20
0.0
 40
1.66667E-001
  0
LINE
  5
ab
100
AcDbEntity
  8
0
100
AcDbLine
  6
CONTINUOUS
 62
0
 10
0.0
 20
0.0
 11
-1.0
 21
0.0
  0
ENDBLK
  5
ac
100
AcDbEntity
100
AcDbBlockEnd
  0
BLOCK
  5
ad
100
AcDbEntity
100
AcDbBlockBegin
  2
_AH16
  3
_AH
 10
0.0
 20
0.0
 70
64
  0
POLYLINE
  5
ae
100
AcDbEntity
  8
0
100
AcDb2dPolyline
  6
CONTINUOUS
 62
0
 66
1
 40
1.66667E-001
 41
1.66667E-001
 70
0
  0
VERTEX
  5
af
100
AcDbEntity
  8
0
100
AcDbVertex
100
AcDb2dVertex
 42
1.0
 10
8.3335E-002
 20
0.0
 70
0
  0
VERTEX
  5
b0
100
AcDbEntity
  8
0
100
AcDbVertex
100
AcDb2dVertex
 42
1.0
 10
-8.3335E-002
 20
0.0
 70
0
  0
VERTEX
  5
b1
100
AcDbEntity
  8
0
100
AcDbVertex
100
AcDb2dVertex
 42
0.0
 10
8.3335E-002
 20
0.0
 70
0
  0
SEQEND
  5
b2
100
AcDbEntity
  0
LINE
  5
b3
100
AcDbEntity
  8
0
100
AcDbLine
  6
CONTINUOUS
 62
0
 10
0.0
 20
0.0
 11
-1.0
 21
0.0
  0
ENDBLK
  5
b4
100
AcDbEntity
100
AcDbBlockEnd
  0
BLOCK
  5
b5
100
AcDbEntity
100
AcDbBlockBegin
  2
_AH17
  3
_AH
 10
0.0
 20
0.0
 70
64
  0
LINE
  5
b6
100
AcDbEntity
  8
0
100
AcDbLine
  6
CONTINUOUS
 62
0
 10
-1.66667E-001
 20
-1.66667E-001
 11
1.66667E-001
 21
-1.66667E-001
  0
LINE
  5
b7
100
AcDbEntity
  8
0
100
AcDbLine
  6
CONTINUOUS
 62
0
 10
1.66667E-001
 20
-1.66667E-001
 11
1.66667E-001
 21
1.66667E-001
  0
LINE
  5
b8
100
AcDbEntity
  8
0
100
AcDbLine
  6
CONTINUOUS
 62
0
 10
1.66667E-001
 20
1.66667E-001
 11
-1.66667E-001
 21
1.66667E-001
  0
LINE
  5
b9
100
AcDbEntity
  8
0
100
AcDbLine
  6
CONTINUOUS
 62
0
 10
-1.66667E-001
 20
1.66667E-001
 11
-1.66667E-001
 21
-1.66667E-001
  0
LINE
  5
ba
100
AcDbEntity
  8
0
100
AcDbLine
  6
CONTINUOUS
 62
0
 10
0.0
 20
0.0
 11
-1.0
 21
0.0
  0
ENDBLK
  5
bb
100
AcDbEntity
100
AcDbBlockEnd
  0
BLOCK
  5
bc
100
AcDbEntity
100
AcDbBlockBegin
  2
_AH18
  3
_AH
 10
0.0
 20
0.0
 70
64
  0
SOLID
  5
bd
100
AcDbEntity
  8
0
100
AcDbTrace
  6
CONTINUOUS
 62
0
 10
-1.66667E-001
 20
-1.66667E-001
 11
1.66667E-001
 21
-1.66667E-001
 12
-1.66667E-001
 22
1.66667E-001
 13
1.66667E-001
 23
1.66667E-001
  0
LINE
  5
be
100
AcDbEntity
  8
0
100
AcDbLine
  6
CONTINUOUS
 62
0
 10
0.0
 20
0.0
 11
-1.0
 21
0.0
  0
ENDBLK
  5
bf
100
AcDbEntity
100
AcDbBlockEnd
  0
BLOCK
  5
c0
100
AcDbEntity
100
AcDbBlockBegin
  2
_AH19
  3
_AH
 10
0.0
 20
0.0
 70
64
  0
LINE
  5
c1
100
AcDbEntity
  8
0
100
AcDbLine
  6
CONTINUOUS
 62
0
 10
-5.0E-001
 20
-5.0E-001
 11
5.0E-001
 21
5.0E-001
  0
LINE
  5
c2
100
AcDbEntity
  8
0
100
AcDbLine
  6
CONTINUOUS
 62
0
 10
0.0
 20
0.0
 11
-1.0
 21
0.0
  0
ENDBLK
  5
c3
100
AcDbEntity
100
AcDbBlockEnd
  0
BLOCK
  5
c4
100
AcDbEntity
100
AcDbBlockBegin
  2
_AH20
  3
_AH
 10
0.0
 20
0.0
 70
64
  0
POLYLINE
  5
c5
100
AcDbEntity
  8
0
100
AcDb2dPolyline
  6
CONTINUOUS
 62
0
 66
1
 40
5.0E-001
 41
5.0E-001
 70
0
  0
VERTEX
  5
c6
100
AcDbEntity
  8
0
100
AcDbVertex
100
AcDb2dVertex
 42
4.1421356E-001
 10
-1.66667E-001
 20
-1.66667E-001
 70
0
  0
VERTEX
  5
c7
100
AcDbEntity
  8
0
100
AcDbVertex
100
AcDb2dVertex
 42
0.0
 10
0.0
 20
0.0
 70
0
  0
SEQEND
  5
c8
100
AcDbEntity
  0
POLYLINE
  5
c9
100
AcDbEntity
  8
0
100
AcDb2dPolyline
  6
CONTINUOUS
 62
0
 66
1
 40
5.0E-001
 41
5.0E-001
 70
0
  0
VERTEX
  5
ca
100
AcDbEntity
  8
0
100
AcDbVertex
100
AcDb2dVertex
 42
4.1421356E-001
 10
1.66667E-001
 20
1.66667E-001
 70
0
  0
VERTEX
  5
cb
100
AcDbEntity
  8
0
100
AcDbVertex
100
AcDb2dVertex
 42
0.0
 10
0.0
 20
0.0
 70
0
  0
SEQEND
  5
cc
100
AcDbEntity
  0
LINE
  5
cd
100
AcDbEntity
  8
0
100
AcDbLine
  6
CONTINUOUS
 62
0
 10
0.0
 20
0.0
 11
-1.0
 21
0.0
  0
ENDBLK
  5
ce
100
AcDbEntity
100
AcDbBlockEnd
  0
BLOCK
  5
cf
100
AcDbEntity
100
AcDbBlockBegin
  2
_AH21
  3
_AH
 10
0.0
 20
0.0
 70
64
  0
LINE
  5
d0
100
AcDbEntity
  8
0
100
AcDbLine
  6
CONTINUOUS
 62
0
 10
0.0
 20
0.0
 11
-1.0
 21
-1.66667E-001
  0
LINE
  5
d1
100
AcDbEntity
  8
0
100
AcDbLine
  6
CONTINUOUS
 62
0
 10
-1.0
 20
-1.66667E-001
 11
-1.0
 21
1.66667E-001
  0
LINE
  5
d2
100
AcDbEntity
  8
0
100
AcDbLine
  6
CONTINUOUS
 62
0
 10
-1.0
 20
1.66667E-001
 11
0.0
 21
0.0
  0
ENDBLK
  5
d3
100
AcDbEntity
100
AcDbBlockEnd
  0
BLOCK
  5
d4
100
AcDbEntity
100
AcDbBlockBegin
  2
*TX28
  3
*TX
 10
0.0
 20
0.0
 70
65
  0
TEXT
  5
d5
100
AcDbEntity
  8
1
100
AcDbText
  6
CONTINUOUS
 62
7
 10
-2.0
 20
-1.25
 40
2.5
  1
Éi
 41
1.3333333
 72
1
 11
0.0
 21
0.0
100
AcDbText
 73
2
  0
TEXT
  5
d6
100
AcDbEntity
  8
1
100
AcDbText
  6
CONTINUOUS
 62
7
 10
-2.0
 20
-5.0
 40
2.5
  1
ìs
 41
1.3333333
 72
1
 11
0.0
 21
-3.75
100
AcDbText
 73
2
  0
TEXT
  5
d7
100
AcDbEntity
  8
1
100
AcDbText
  6
CONTINUOUS
 62
7
 10
-2.0
 20
-8.75
 40
2.5
  1
ò¹
 41
1.3333333
 72
1
 11
0.0
 21
-7.5
100
AcDbText
 73
2
  0
TEXT
  5
d8
100
AcDbEntity
  8
1
100
AcDbText
  6
CONTINUOUS
 62
7
 10
-2.0
 20
-1.25E+001
 40
2.5
  1
î³
 41
1.3333333
 72
1
 11
0.0
 21
-1.125E+001
100
AcDbText
 73
2
  0
ENDBLK
  5
d9
100
AcDbEntity
100
AcDbBlockEnd
  0
BLOCK
  5
da
100
AcDbEntity
100
AcDbBlockBegin
  2
BTN6_1524_IN
 10
0.0
 20
0.0
 70
0
  0
LINE
  5
db
100
AcDbEntity
  8
1
100
AcDbLine
  6
CONTINUOUS
 62
7
 10
1.2604949E+001
 20
-1.449E+001
 11
6.4450505
 21
-1.449E+001
  0
LINE
  5
dc
100
AcDbEntity
  8
1
100
AcDbLine
  6
CONTINUOUS
 62
7
 10
1.5970051E+001
 20
-4.35
 11
2.2129098E+001
 21
-4.35
  0
LINE
  5
dd
100
AcDbEntity
  8
1
100
AcDbLine
  6
CONTINUOUS
 62
7
 10
3.1654949E+001
 20
-1.449E+001
 11
2.5495051E+001
 21
-1.449E+001
  0
LINE
  5
de
100
AcDbEntity
  8
1
100
AcDbLine
  6
CONTINUOUS
 62
7
 10
3.5020902E+001
 20
-4.35
 11
4.1179098E+001
 21
-4.35
  0
LINE
  5
df
100
AcDbEntity
  8
1
100
AcDbLine
  6
CONTINUOUS
 62
7
 10
5.0704949E+001
 20
-1.449E+001
 11
4.4545051E+001
 21
-1.449E+001
  0
LINE
  5
e0
100
AcDbEntity
  8
1
100
AcDbLine
  6
CONTINUOUS
 62
7
 10
5.4070051E+001
 20
-4.35
 11
6.0229098E+001
 21
-4.35
  0
LINE
  5
e1
100
AcDbEntity
  8
1
100
AcDbLine
  6
CONTINUOUS
 62
7
 10
6.9754949E+001
 20
-1.449E+001
 11
6.3595051E+001
 21
-1.449E+001
  0
LINE
  5
e2
100
AcDbEntity
  8
1
100
AcDbLine
  6
CONTINUOUS
 62
7
 10
7.3120051E+001
 20
-4.35
 11
7.9279098E+001
 21
-4.35
  0
LINE
  5
e3
100
AcDbEntity
  8
1
100
AcDbLine
  6
CONTINUOUS
 62
7
 10
8.8804949E+001
 20
-1.449E+001
 11
8.2645051E+001
 21
-1.449E+001
  0
LINE
  5
e4
100
AcDbEntity
  8
1
100
AcDbLine
  6
CONTINUOUS
 62
7
 10
9.2170902E+001
 20
-4.35
 11
9.8329098E+001
 21
-4.35
  0
LINE
  5
e5
100
AcDbEntity
  8
1
100
AcDbLine
  6
CONTINUOUS
 62
7
 10
1.0785495E+002
 20
-1.449E+001
 11
1.0169505E+002
 21
-1.449E+001
  0
LINE
  5
e6
100
AcDbEntity
  8
1
100
AcDbLine
  6
CONTINUOUS
 62
7
 10
1.1122005E+002
 20
-4.35
 11
1.173791E+002
 21
-4.35
  0
LINE
  5
e7
100
AcDbEntity
  8
1
100
AcDbLine
  6
CONTINUOUS
 62
7
 10
1.2690495E+002
 20
-1.449E+001
 11
1.2074505E+002
 21
-1.449E+001
  0
LINE
  5
e8
100
AcDbEntity
  8
1
100
AcDbLine
  6
CONTINUOUS
 62
7
 10
1.3027005E+002
 20
-4.35
 11
1.364291E+002
 21
-4.35
  0
LINE
  5
e9
100
AcDbEntity
  8
1
100
AcDbLine
  6
CONTINUOUS
 62
7
 10
1.4595495E+002
 20
-1.449E+001
 11
1.3979505E+002
 21
-1.449E+001
  0
LINE
  5
ea
100
AcDbEntity
  8
1
100
AcDbLine
  6
CONTINUOUS
 62
7
 10
2.011066E+001
 20
-6.3692893
 11
2.2164214E+001
 21
-4.3157359
  0
LINE
  5
eb
100
AcDbEntity
  8
1
100
AcDbLine
  6
CONTINUOUS
 62
7
 10
1.798934E+001
 20
-6.3692893
 11
1.5935786E+001
 21
-4.3157359
  0
ARC
  5
ec
100
AcDbEntity
  8
1
100
AcDbCircle
  6
CONTINUOUS
 62
7
 10
1.905E+001
 20
-5.3086292
 40
1.5
100
AcDbArc
 50
2.25E+002
 51
3.15E+002
  0
LINE
  5
ed
100
AcDbEntity
  8
1
100
AcDbLine
  6
CONTINUOUS
 62
7
 10
2.245E+001
 20
-2.0E-001
 11
1.565E+001
 21
-2.0E-001
  0
LINE
  5
ee
100
AcDbEntity
  8
1
100
AcDbLine
  6
CONTINUOUS
 62
7
 10
1.535E+001
 20
-5.0E-001
 11
1.535E+001
 21
-2.9015224
  0
LINE
  5
ef
100
AcDbEntity
  8
1
100
AcDbLine
  6
CONTINUOUS
 62
7
 10
2.275E+001
 20
-5.0E-001
 11
2.275E+001
 21
-2.9015224
  0
ARC
  5
f0
100
AcDbEntity
  8
1
100
AcDbCircle
  6
CONTINUOUS
 62
7
 10
2.075E+001
 20
-2.9015224
 40
2.0
100
AcDbArc
 50
3.15E+002
 51
3.6E+002
  0
ARC
  5
f1
100
AcDbEntity
  8
1
100
AcDbCircle
  6
CONTINUOUS
 62
7
 10
1.735E+001
 20
-2.9015224
 40
2.0
100
AcDbArc
 50
1.8E+002
 51
2.25E+002
  0
ARC
  5
f2
100
AcDbEntity
  8
1
100
AcDbCircle
  6
CONTINUOUS
 62
7
 10
1.565E+001
 20
-5.0E-001
 40
3.0E-001
100
AcDbArc
 50
9.0E+001
 51
1.8E+002
  0
ARC
  5
f3
100
AcDbEntity
  8
1
100
AcDbCircle
  6
CONTINUOUS
 62
7
 10
2.245E+001
 20
-5.0E-001
 40
3.0E-001
100
AcDbArc
 50
0.0
 51
9.0E+001
  0
LINE
  5
f4
100
AcDbEntity
  8
1
100
AcDbLine
  6
CONTINUOUS
 62
7
 10
2.0142893E+001
 20
-7.6098485
 11
2.1575552E+001
 21
-6.1771901
  0
LINE
  5
f5
100
AcDbEntity
  8
1
100
AcDbLine
  6
CONTINUOUS
 62
7
 10
1.7957107E+001
 20
-7.6098485
 11
1.6524448E+001
 21
-6.1771901
  0
ARC
  5
f6
100
AcDbEntity
  8
1
100
AcDbCircle
  6
CONTINUOUS
 62
7
 10
2.085E+001
 20
-8.3169553
 40
1.0
100
AcDbArc
 50
1.35E+002
 51
1.8E+002
  0
ARC
  5
f7
100
AcDbEntity
  8
1
100
AcDbCircle
  6
CONTINUOUS
 62
7
 10
1.725E+001
 20
-8.3169553
 40
1.0
100
AcDbArc
 50
0.0
 51
4.5E+001
  0
ARC
  5
f8
100
AcDbEntity
  8
1
100
AcDbCircle
  6
CONTINUOUS
 62
7
 10
1.6170895E+001
 20
-6.5307435
 40
5.0E-001
100
AcDbArc
 50
4.5E+001
 51
1.6904491E+002
  0
LINE
  5
f9
100
AcDbEntity
  8
1
100
AcDbLine
  6
CONTINUOUS
 62
7
 10
2.2419993E+001
 20
-6.4357237
 11
2.345656E+001
 21
-1.1790803E+001
  0
ARC
  5
fa
100
AcDbEntity
  8
1
100
AcDbCircle
  6
CONTINUOUS
 62
7
 10
2.1929105E+001
 20
-6.5307435
 40
5.0E-001
100
AcDbArc
 50
1.0955088E+001
 51
1.35E+002
  0
ARC
  5
fb
100
AcDbEntity
  8
1
100
AcDbCircle
  6
CONTINUOUS
 62
7
 10
2.2965672E+001
 20
-1.1885823E+001
 40
5.0E-001
100
AcDbArc
 50
2.25E+002
 51
3.7095509E+002
  0
ARC
  5
fc
100
AcDbEntity
  8
1
100
AcDbCircle
  6
CONTINUOUS
 62
7
 10
1.5134328E+001
 20
-1.1885823E+001
 40
5.0E-001
100
AcDbArc
 50
1.6904491E+002
 51
3.15E+002
  0
LINE
  5
fd
100
AcDbEntity
  8
1
100
AcDbLine
  6
CONTINUOUS
 62
7
 10
3.44E+001
 20
-5.0E-001
 11
3.44E+001
 21
-2.9015224
  0
LINE
  5
fe
100
AcDbEntity
  8
1
100
AcDbLine
  6
CONTINUOUS
 62
7
 10
3.703934E+001
 20
-6.3692893
 11
3.4985786E+001
 21
-4.3157359
  0
ARC
  5
ff
100
AcDbEntity
  8
1
100
AcDbCircle
  6
CONTINUOUS
 62
7
 10
3.64E+001
 20
-2.9015224
 40
2.0
100
AcDbArc
 50
1.8E+002
 51
2.25E+002
  0
LINE
  5
100
100
AcDbEntity
  8
1
100
AcDbLine
  6
CONTINUOUS
 62
7
 10
3.47E+001
 20
-2.0E-001
 11
4.15E+001
 21
-2.0E-001
  0
ARC
  5
101
100
AcDbEntity
  8
1
100
AcDbCircle
  6
CONTINUOUS
 62
7
 10
3.47E+001
 20
-5.0E-001
 40
3.0E-001
100
AcDbArc
 50
9.0E+001
 51
1.8E+002
  0
ARC
  5
102
100
AcDbEntity
  8
1
100
AcDbCircle
  6
CONTINUOUS
 62
7
 10
3.81E+001
 20
-5.3086292
 40
1.5
100
AcDbArc
 50
2.25E+002
 51
3.15E+002
  0
LINE
  5
103
100
AcDbEntity
  8
1
100
AcDbLine
  6
CONTINUOUS
 62
7
 10
5.825
 20
-1.5938478E+001
 11
5.825
 21
-1.834E+001
  0
LINE
  5
104
100
AcDbEntity
  8
1
100
AcDbLine
  6
CONTINUOUS
 62
7
 10
1.3225E+001
 20
-1.5938478E+001
 11
1.3225E+001
 21
-1.834E+001
  0
LINE
  5
105
100
AcDbEntity
  8
1
100
AcDbLine
  6
CONTINUOUS
 62
7
 10
1.2925E+001
 20
-1.864E+001
 11
6.125
 21
-1.864E+001
  0
LINE
  5
106
100
AcDbEntity
  8
1
100
AcDbLine
  6
CONTINUOUS
 62
7
 10
1.058566E+001
 20
-1.2470711E+001
 11
1.2639214E+001
 21
-1.4524264E+001
  0
LINE
  5
107
100
AcDbEntity
  8
1
100
AcDbLine
  6
CONTINUOUS
 62
7
 10
8.4643398
 20
-1.2470711E+001
 11
6.4107864
 21
-1.4524264E+001
  0
LINE
  5
108
100
AcDbEntity
  8
1
100
AcDbLine
  6
CONTINUOUS
 62
7
 10
1.0617893E+001
 20
-1.1230152E+001
 11
1.2050552E+001
 21
-1.266281E+001
  0
LINE
  5
109
100
AcDbEntity
  8
1
100
AcDbLine
  6
CONTINUOUS
 62
7
 10
8.4321068
 20
-1.1230152E+001
 11
6.9994484
 21
-1.266281E+001
  0
ARC
  5
10a
100
AcDbEntity
  8
1
100
AcDbCircle
  6
CONTINUOUS
 62
7
 10
9.525
 20
-1.3531371E+001
 40
1.5
100
AcDbArc
 50
4.5E+001
 51
1.35E+002
  0
ARC
  5
10b
100
AcDbEntity
  8
1
100
AcDbCircle
  6
CONTINUOUS
 62
7
 10
1.1325E+001
 20
-9.7769553
 40
1.0
100
AcDbArc
 50
1.35E+002
 51
1.8E+002
  0
LINE
  5
10c
100
AcDbEntity
  8
1
100
AcDbLine
  6
CONTINUOUS
 62
7
 10
1.0325E+001
 20
-9.7769553
 11
1.0325E+001
 21
-1.0523045E+001
  0
ARC
  5
10d
100
AcDbEntity
  8
1
100
AcDbCircle
  6
CONTINUOUS
 62
7
 10
1.1325E+001
 20
-1.0523045E+001
 40
1.0
100
AcDbArc
 50
1.8E+002
 51
2.25E+002
  0
LINE
  5
10e
100
AcDbEntity
  8
1
100
AcDbLine
  6
CONTINUOUS
 62
7
 10
8.725
 20
-9.7769553
 11
8.725
 21
-1.0523045E+001
  0
ARC
  5
10f
100
AcDbEntity
  8
1
100
AcDbCircle
  6
CONTINUOUS
 62
7
 10
7.725
 20
-9.7769553
 40
1.0
100
AcDbArc
 50
0.0
 51
4.5E+001
  0
ARC
  5
110
100
AcDbEntity
  8
1
100
AcDbCircle
  6
CONTINUOUS
 62
7
 10
7.725
 20
-1.0523045E+001
 40
1.0
100
AcDbArc
 50
3.15E+002
 51
3.6E+002
  0
LINE
  5
111
100
AcDbEntity
  8
1
100
AcDbLine
  6
CONTINUOUS
 62
7
 10
1.0617893E+001
 20
-9.0698485
 11
1.3087118E+001
 21
-6.6006236
  0
LINE
  5
112
100
AcDbEntity
  8
1
100
AcDbLine
  6
CONTINUOUS
 62
7
 10
8.4321068
 20
-9.0698485
 11
5.9628819
 21
-6.6006236
  0
LINE
  5
113
100
AcDbEntity
  8
1
100
AcDbLine
  6
CONTINUOUS
 62
7
 10
1.464344E+001
 20
-1.1790803E+001
 11
1.5680007E+001
 21
-6.4357237
  0
LINE
  5
114
100
AcDbEntity
  8
1
100
AcDbLine
  6
CONTINUOUS
 62
7
 10
5.1184403
 20
-7.0491967
 11
6.1550067
 21
-1.2404276E+001
  0
ARC
  5
115
100
AcDbEntity
  8
1
100
AcDbCircle
  6
CONTINUOUS
 62
7
 10
5.6093285
 20
-6.954177
 40
5.0E-001
100
AcDbArc
 50
4.5E+001
 51
1.9095509E+002
  0
ARC
  5
116
100
AcDbEntity
  8
1
100
AcDbCircle
  6
CONTINUOUS
 62
7
 10
6.645895
 20
-1.2309257E+001
 40
5.0E-001
100
AcDbArc
 50
1.9095509E+002
 51
3.15E+002
  0
ARC
  5
117
100
AcDbEntity
  8
1
100
AcDbCircle
  6
CONTINUOUS
 62
7
 10
1.3440672E+001
 20
-6.954177
 40
5.0E-001
100
AcDbArc
 50
3.4904491E+002
 51
4.95E+002
  0
LINE
  5
118
100
AcDbEntity
  8
1
100
AcDbLine
  6
CONTINUOUS
 62
7
 10
1.393156E+001
 20
-7.0491967
 11
1.2894993E+001
 21
-1.2404276E+001
  0
ARC
  5
119
100
AcDbEntity
  8
1
100
AcDbCircle
  6
CONTINUOUS
 62
7
 10
1.2404105E+001
 20
-1.2309257E+001
 40
5.0E-001
100
AcDbArc
 50
2.25E+002
 51
3.4904491E+002
  0
ARC
  5
11a
100
AcDbEntity
  8
1
100
AcDbCircle
  6
CONTINUOUS
 62
7
 10
7.825
 20
-1.5938478E+001
 40
2.0
100
AcDbArc
 50
1.35E+002
 51
1.8E+002
  0
ARC
  5
11b
100
AcDbEntity
  8
1
100
AcDbCircle
  6
CONTINUOUS
 62
7
 10
1.1225E+001
 20
-1.5938478E+001
 40
2.0
100
AcDbArc
 50
0.0
 51
4.5E+001
  0
ARC
  5
11c
100
AcDbEntity
  8
1
100
AcDbCircle
  6
CONTINUOUS
 62
7
 10
6.125
 20
-1.834E+001
 40
3.0E-001
100
AcDbArc
 50
1.8E+002
 51
2.7E+002
  0
ARC
  5
11d
100
AcDbEntity
  8
1
100
AcDbCircle
  6
CONTINUOUS
 62
7
 10
1.2925E+001
 20
-1.834E+001
 40
3.0E-001
100
AcDbArc
 50
2.7E+002
 51
3.6E+002
  0
LINE
  5
11e
100
AcDbEntity
  8
1
100
AcDbLine
  6
CONTINUOUS
 62
7
 10
2.751434E+001
 20
-1.2470711E+001
 11
2.5460786E+001
 21
-1.4524264E+001
  0
ARC
  5
11f
100
AcDbEntity
  8
1
100
AcDbCircle
  6
CONTINUOUS
 62
7
 10
2.8575E+001
 20
-1.3531371E+001
 40
1.5
100
AcDbArc
 50
4.5E+001
 51
1.35E+002
  0
LINE
  5
120
100
AcDbEntity
  8
1
100
AcDbLine
  6
CONTINUOUS
 62
7
 10
2.963566E+001
 20
-1.2470711E+001
 11
3.1689214E+001
 21
-1.4524264E+001
  0
ARC
  5
121
100
AcDbEntity
  8
1
100
AcDbCircle
  6
CONTINUOUS
 62
7
 10
3.0275E+001
 20
-1.5938478E+001
 40
2.0
100
AcDbArc
 50
0.0
 51
4.5E+001
  0
ARC
  5
122
100
AcDbEntity
  8
1
100
AcDbCircle
  6
CONTINUOUS
 62
7
 10
2.6875E+001
 20
-1.5938478E+001
 40
2.0
100
AcDbArc
 50
1.35E+002
 51
1.8E+002
  0
LINE
  5
123
100
AcDbEntity
  8
1
100
AcDbLine
  6
CONTINUOUS
 62
7
 10
2.4875E+001
 20
-1.5938478E+001
 11
2.4875E+001
 21
-1.834E+001
  0
LINE
  5
124
100
AcDbEntity
  8
1
100
AcDbLine
  6
CONTINUOUS
 62
7
 10
3.2275E+001
 20
-1.5938478E+001
 11
3.2275E+001
 21
-1.834E+001
  0
LINE
  5
125
100
AcDbEntity
  8
1
100
AcDbLine
  6
CONTINUOUS
 62
7
 10
2.5175E+001
 20
-1.864E+001
 11
3.1975E+001
 21
-1.864E+001
  0
ARC
  5
126
100
AcDbEntity
  8
1
100
AcDbCircle
  6
CONTINUOUS
 62
7
 10
3.1975E+001
 20
-1.834E+001
 40
3.0E-001
100
AcDbArc
 50
2.7E+002
 51
3.6E+002
  0
ARC
  5
127
100
AcDbEntity
  8
1
100
AcDbCircle
  6
CONTINUOUS
 62
7
 10
2.5175E+001
 20
-1.834E+001
 40
3.0E-001
100
AcDbArc
 50
1.8E+002
 51
2.7E+002
  0
LINE
  5
128
100
AcDbEntity
  8
1
100
AcDbLine
  6
CONTINUOUS
 62
7
 10
3.298156E+001
 20
-7.0491967
 11
3.1944993E+001
 21
-1.2404276E+001
  0
LINE
  5
129
100
AcDbEntity
  8
1
100
AcDbLine
  6
CONTINUOUS
 62
7
 10
3.369344E+001
 20
-1.1790803E+001
 11
3.4730007E+001
 21
-6.4357237
  0
LINE
  5
12a
100
AcDbEntity
  8
1
100
AcDbLine
  6
CONTINUOUS
 62
7
 10
2.416844E+001
 20
-7.0491967
 11
2.5205007E+001
 21
-1.2404276E+001
  0
LINE
  5
12b
100
AcDbEntity
  8
1
100
AcDbLine
  6
CONTINUOUS
 62
7
 10
1.7957107E+001
 20
-9.7701515
 11
1.5487882E+001
 21
-1.2239376E+001
  0
LINE
  5
12c
100
AcDbEntity
  8
1
100
AcDbLine
  6
CONTINUOUS
 62
7
 10
2.0142893E+001
 20
-9.7701515
 11
2.2612118E+001
 21
-1.2239376E+001
  0
LINE
  5
12d
100
AcDbEntity
  8
1
100
AcDbLine
  6
CONTINUOUS
 62
7
 10
1.985E+001
 20
-8.3169553
 11
1.985E+001
 21
-9.0630447
  0
LINE
  5
12e
100
AcDbEntity
  8
1
100
AcDbLine
  6
CONTINUOUS
 62
7
 10
1.825E+001
 20
-8.3169553
 11
1.825E+001
 21
-9.0630447
  0
ARC
  5
12f
100
AcDbEntity
  8
1
100
AcDbCircle
  6
CONTINUOUS
 62
7
 10
1.725E+001
 20
-9.0630447
 40
1.0
100
AcDbArc
 50
3.15E+002
 51
3.6E+002
  0
ARC
  5
130
100
AcDbEntity
  8
1
100
AcDbCircle
  6
CONTINUOUS
 62
7
 10
2.085E+001
 20
-9.0630447
 40
1.0
100
AcDbArc
 50
1.8E+002
 51
2.25E+002
  0
LINE
  5
131
100
AcDbEntity
  8
1
100
AcDbLine
  6
CONTINUOUS
 62
7
 10
2.9667893E+001
 20
-9.0698485
 11
3.2137118E+001
 21
-6.6006236
  0
ARC
  5
132
100
AcDbEntity
  8
1
100
AcDbCircle
  6
CONTINUOUS
 62
7
 10
3.2490672E+001
 20
-6.954177
 40
5.0E-001
100
AcDbArc
 50
3.4904491E+002
 51
4.95E+002
  0
ARC
  5
133
100
AcDbEntity
  8
1
100
AcDbCircle
  6
CONTINUOUS
 62
7
 10
3.0375E+001
 20
-9.7769553
 40
1.0
100
AcDbArc
 50
1.35E+002
 51
1.8E+002
  0
LINE
  5
134
100
AcDbEntity
  8
1
100
AcDbLine
  6
CONTINUOUS
 62
7
 10
2.9375E+001
 20
-9.7769553
 11
2.9375E+001
 21
-1.0523045E+001
  0
LINE
  5
135
100
AcDbEntity
  8
1
100
AcDbLine
  6
CONTINUOUS
 62
7
 10
2.9667893E+001
 20
-1.1230152E+001
 11
3.1100552E+001
 21
-1.266281E+001
  0
ARC
  5
136
100
AcDbEntity
  8
1
100
AcDbCircle
  6
CONTINUOUS
 62
7
 10
3.0375E+001
 20
-1.0523045E+001
 40
1.0
100
AcDbArc
 50
1.8E+002
 51
2.25E+002
  0
ARC
  5
137
100
AcDbEntity
  8
1
100
AcDbCircle
  6
CONTINUOUS
 62
7
 10
3.1454105E+001
 20
-1.2309257E+001
 40
5.0E-001
100
AcDbArc
 50
2.25E+002
 51
3.4904491E+002
  0
LINE
  5
138
100
AcDbEntity
  8
1
100
AcDbLine
  6
CONTINUOUS
 62
7
 10
2.7775E+001
 20
-9.7769553
 11
2.7775E+001
 21
-1.0523045E+001
  0
ARC
  5
139
100
AcDbEntity
  8
1
100
AcDbCircle
  6
CONTINUOUS
 62
7
 10
2.6775E+001
 20
-9.7769553
 40
1.0
100
AcDbArc
 50
0.0
 51
4.5E+001
  0
LINE
  5
13a
100
AcDbEntity
  8
1
100
AcDbLine
  6
CONTINUOUS
 62
7
 10
2.7482107E+001
 20
-1.1230152E+001
 11
2.6049448E+001
 21
-1.266281E+001
  0
ARC
  5
13b
100
AcDbEntity
  8
1
100
AcDbCircle
  6
CONTINUOUS
 62
7
 10
2.6775E+001
 20
-1.0523045E+001
 40
1.0
100
AcDbArc
 50
3.15E+002
 51
3.6E+002
  0
ARC
  5
13c
100
AcDbEntity
  8
1
100
AcDbCircle
  6
CONTINUOUS
 62
7
 10
2.5695895E+001
 20
-1.2309257E+001
 40
5.0E-001
100
AcDbArc
 50
1.9095509E+002
 51
3.15E+002
  0
ARC
  5
13d
100
AcDbEntity
  8
1
100
AcDbCircle
  6
CONTINUOUS
 62
7
 10
2.4659328E+001
 20
-6.954177
 40
5.0E-001
100
AcDbArc
 50
4.5E+001
 51
1.9095509E+002
  0
LINE
  5
13e
100
AcDbEntity
  8
1
100
AcDbLine
  6
CONTINUOUS
 62
7
 10
2.7482107E+001
 20
-9.0698485
 11
2.5012882E+001
 21
-6.6006236
  0
LINE
  5
13f
100
AcDbEntity
  8
1
100
AcDbLine
  6
CONTINUOUS
 62
7
 10
3.7007107E+001
 20
-7.6098485
 11
3.5574448E+001
 21
-6.1771901
  0
ARC
  5
140
100
AcDbEntity
  8
1
100
AcDbCircle
  6
CONTINUOUS
 62
7
 10
3.5220895E+001
 20
-6.5307435
 40
5.0E-001
100
AcDbArc
 50
4.5E+001
 51
1.6904491E+002
  0
ARC
  5
141
100
AcDbEntity
  8
1
100
AcDbCircle
  6
CONTINUOUS
 62
7
 10
3.4184328E+001
 20
-1.1885823E+001
 40
5.0E-001
100
AcDbArc
 50
1.6904491E+002
 51
3.15E+002
  0
LINE
  5
142
100
AcDbEntity
  8
1
100
AcDbLine
  6
CONTINUOUS
 62
7
 10
3.7007107E+001
 20
-9.7701515
 11
3.4537882E+001
 21
-1.2239376E+001
  0
ARC
  5
143
100
AcDbEntity
  8
1
100
AcDbCircle
  6
CONTINUOUS
 62
7
 10
3.63E+001
 20
-9.0630447
 40
1.0
100
AcDbArc
 50
3.15E+002
 51
3.6E+002
  0
LINE
  5
144
100
AcDbEntity
  8
1
100
AcDbLine
  6
CONTINUOUS
 62
7
 10
3.73E+001
 20
-9.0630447
 11
3.73E+001
 21
-8.3169553
  0
ARC
  5
145
100
AcDbEntity
  8
1
100
AcDbCircle
  6
CONTINUOUS
 62
7
 10
3.63E+001
 20
-8.3169553
 40
1.0
100
AcDbArc
 50
0.0
 51
4.5E+001
  0
LINE
  5
146
100
AcDbEntity
  8
1
100
AcDbLine
  6
CONTINUOUS
 62
7
 10
3.916066E+001
 20
-6.3692893
 11
4.1214214E+001
 21
-4.3157359
  0
LINE
  5
147
100
AcDbEntity
  8
1
100
AcDbLine
  6
CONTINUOUS
 62
7
 10
4.18E+001
 20
-5.0E-001
 11
4.18E+001
 21
-2.9015224
  0
ARC
  5
148
100
AcDbEntity
  8
1
100
AcDbCircle
  6
CONTINUOUS
 62
7
 10
3.98E+001
 20
-2.9015224
 40
2.0
100
AcDbArc
 50
3.15E+002
 51
3.6E+002
  0
ARC
  5
149
100
AcDbEntity
  8
1
100
AcDbCircle
  6
CONTINUOUS
 62
7
 10
4.15E+001
 20
-5.0E-001
 40
3.0E-001
100
AcDbArc
 50
0.0
 51
9.0E+001
  0
LINE
  5
14a
100
AcDbEntity
  8
1
100
AcDbLine
  6
CONTINUOUS
 62
7
 10
3.9192893E+001
 20
-7.6098485
 11
4.0625552E+001
 21
-6.1771901
  0
ARC
  5
14b
100
AcDbEntity
  8
1
100
AcDbCircle
  6
CONTINUOUS
 62
7
 10
3.99E+001
 20
-8.3169553
 40
1.0
100
AcDbArc
 50
1.35E+002
 51
1.8E+002
  0
LINE
  5
14c
100
AcDbEntity
  8
1
100
AcDbLine
  6
CONTINUOUS
 62
7
 10
4.1469993E+001
 20
-6.4357237
 11
4.250656E+001
 21
-1.1790803E+001
  0
ARC
  5
14d
100
AcDbEntity
  8
1
100
AcDbCircle
  6
CONTINUOUS
 62
7
 10
4.0979105E+001
 20
-6.5307435
 40
5.0E-001
100
AcDbArc
 50
1.0955088E+001
 51
1.35E+002
  0
ARC
  5
14e
100
AcDbEntity
  8
1
100
AcDbCircle
  6
CONTINUOUS
 62
7
 10
4.2015672E+001
 20
-1.1885823E+001
 40
5.0E-001
100
AcDbArc
 50
2.25E+002
 51
3.7095509E+002
  0
LINE
  5
14f
100
AcDbEntity
  8
1
100
AcDbLine
  6
CONTINUOUS
 62
7
 10
5.345E+001
 20
-5.0E-001
 11
5.345E+001
 21
-2.9015224
  0
LINE
  5
150
100
AcDbEntity
  8
1
100
AcDbLine
  6
CONTINUOUS
 62
7
 10
5.608934E+001
 20
-6.3692893
 11
5.4035786E+001
 21
-4.3157359
  0
ARC
  5
151
100
AcDbEntity
  8
1
100
AcDbCircle
  6
CONTINUOUS
 62
7
 10
5.545E+001
 20
-2.9015224
 40
2.0
100
AcDbArc
 50
1.8E+002
 51
2.25E+002
  0
LINE
  5
152
100
AcDbEntity
  8
1
100
AcDbLine
  6
CONTINUOUS
 62
7
 10
5.375E+001
 20
-2.0E-001
 11
6.055E+001
 21
-2.0E-001
  0
ARC
  5
153
100
AcDbEntity
  8
1
100
AcDbCircle
  6
CONTINUOUS
 62
7
 10
5.375E+001
 20
-5.0E-001
 40
3.0E-001
100
AcDbArc
 50
9.0E+001
 51
1.8E+002
  0
ARC
  5
154
100
AcDbEntity
  8
1
100
AcDbCircle
  6
CONTINUOUS
 62
7
 10
5.715E+001
 20
-5.3086292
 40
1.5
100
AcDbArc
 50
2.25E+002
 51
3.15E+002
  0
LINE
  5
155
100
AcDbEntity
  8
1
100
AcDbLine
  6
CONTINUOUS
 62
7
 10
4.656434E+001
 20
-1.2470711E+001
 11
4.4510786E+001
 21
-1.4524264E+001
  0
ARC
  5
156
100
AcDbEntity
  8
1
100
AcDbCircle
  6
CONTINUOUS
 62
7
 10
4.7625E+001
 20
-1.3531371E+001
 40
1.5
100
AcDbArc
 50
4.5E+001
 51
1.35E+002
  0
LINE
  5
157
100
AcDbEntity
  8
1
100
AcDbLine
  6
CONTINUOUS
 62
7
 10
4.868566E+001
 20
-1.2470711E+001
 11
5.0739214E+001
 21
-1.4524264E+001
  0
ARC
  5
158
100
AcDbEntity
  8
1
100
AcDbCircle
  6
CONTINUOUS
 62
7
 10
4.9325E+001
 20
-1.5938478E+001
 40
2.0
100
AcDbArc
 50
0.0
 51
4.5E+001
  0
ARC
  5
159
100
AcDbEntity
  8
1
100
AcDbCircle
  6
CONTINUOUS
 62
7
 10
4.5925E+001
 20
-1.5938478E+001
 40
2.0
100
AcDbArc
 50
1.35E+002
 51
1.8E+002
  0
LINE
  5
15a
100
AcDbEntity
  8
1
100
AcDbLine
  6
CONTINUOUS
 62
7
 10
4.3925E+001
 20
-1.5938478E+001
 11
4.3925E+001
 21
-1.834E+001
  0
LINE
  5
15b
100
AcDbEntity
  8
1
100
AcDbLine
  6
CONTINUOUS
 62
7
 10
5.1325E+001
 20
-1.5938478E+001
 11
5.1325E+001
 21
-1.834E+001
  0
LINE
  5
15c
100
AcDbEntity
  8
1
100
AcDbLine
  6
CONTINUOUS
 62
7
 10
4.4225E+001
 20
-1.864E+001
 11
5.1025E+001
 21
-1.864E+001
  0
ARC
  5
15d
100
AcDbEntity
  8
1
100
AcDbCircle
  6
CONTINUOUS
 62
7
 10
5.1025E+001
 20
-1.834E+001
 40
3.0E-001
100
AcDbArc
 50
2.7E+002
 51
3.6E+002
  0
ARC
  5
15e
100
AcDbEntity
  8
1
100
AcDbCircle
  6
CONTINUOUS
 62
7
 10
4.4225E+001
 20
-1.834E+001
 40
3.0E-001
100
AcDbArc
 50
1.8E+002
 51
2.7E+002
  0
LINE
  5
15f
100
AcDbEntity
  8
1
100
AcDbLine
  6
CONTINUOUS
 62
7
 10
5.203156E+001
 20
-7.0491967
 11
5.0994993E+001
 21
-1.2404276E+001
  0
LINE
  5
160
100
AcDbEntity
  8
1
100
AcDbLine
  6
CONTINUOUS
 62
7
 10
5.274344E+001
 20
-1.1790803E+001
 11
5.3780007E+001
 21
-6.4357237
  0
LINE
  5
161
100
AcDbEntity
  8
1
100
AcDbLine
  6
CONTINUOUS
 62
7
 10
4.321844E+001
 20
-7.0491967
 11
4.4255007E+001
 21
-1.2404276E+001
  0
LINE
  5
162
100
AcDbEntity
  8
1
100
AcDbLine
  6
CONTINUOUS
 62
7
 10
3.9192893E+001
 20
-9.7701515
 11
4.1662118E+001
 21
-1.2239376E+001
  0
LINE
  5
163
100
AcDbEntity
  8
1
100
AcDbLine
  6
CONTINUOUS
 62
7
 10
3.89E+001
 20
-8.3169553
 11
3.89E+001
 21
-9.0630447
  0
ARC
  5
164
100
AcDbEntity
  8
1
100
AcDbCircle
  6
CONTINUOUS
 62
7
 10
3.99E+001
 20
-9.0630447
 40
1.0
100
AcDbArc
 50
1.8E+002
 51
2.25E+002
  0
LINE
  5
165
100
AcDbEntity
  8
1
100
AcDbLine
  6
CONTINUOUS
 62
7
 10
4.8717893E+001
 20
-9.0698485
 11
5.1187118E+001
 21
-6.6006236
  0
ARC
  5
166
100
AcDbEntity
  8
1
100
AcDbCircle
  6
CONTINUOUS
 62
7
 10
5.1540672E+001
 20
-6.954177
 40
5.0E-001
100
AcDbArc
 50
3.4904491E+002
 51
4.95E+002
  0
ARC
  5
167
100
AcDbEntity
  8
1
100
AcDbCircle
  6
CONTINUOUS
 62
7
 10
4.9425E+001
 20
-9.7769553
 40
1.0
100
AcDbArc
 50
1.35E+002
 51
1.8E+002
  0
LINE
  5
168
100
AcDbEntity
  8
1
100
AcDbLine
  6
CONTINUOUS
 62
7
 10
4.8425E+001
 20
-9.7769553
 11
4.8425E+001
 21
-1.0523045E+001
  0
LINE
  5
169
100
AcDbEntity
  8
1
100
AcDbLine
  6
CONTINUOUS
 62
7
 10
4.8717893E+001
 20
-1.1230152E+001
 11
5.0150552E+001
 21
-1.266281E+001
  0
ARC
  5
16a
100
AcDbEntity
  8
1
100
AcDbCircle
  6
CONTINUOUS
 62
7
 10
4.9425E+001
 20
-1.0523045E+001
 40
1.0
100
AcDbArc
 50
1.8E+002
 51
2.25E+002
  0
ARC
  5
16b
100
AcDbEntity
  8
1
100
AcDbCircle
  6
CONTINUOUS
 62
7
 10
5.0504105E+001
 20
-1.2309257E+001
 40
5.0E-001
100
AcDbArc
 50
2.25E+002
 51
3.4904491E+002
  0
LINE
  5
16c
100
AcDbEntity
  8
1
100
AcDbLine
  6
CONTINUOUS
 62
7
 10
4.6825E+001
 20
-9.7769553
 11
4.6825E+001
 21
-1.0523045E+001
  0
ARC
  5
16d
100
AcDbEntity
  8
1
100
AcDbCircle
  6
CONTINUOUS
 62
7
 10
4.5825E+001
 20
-9.7769553
 40
1.0
100
AcDbArc
 50
0.0
 51
4.5E+001
  0
LINE
  5
16e
100
AcDbEntity
  8
1
100
AcDbLine
  6
CONTINUOUS
 62
7
 10
4.6532107E+001
 20
-1.1230152E+001
 11
4.5099448E+001
 21
-1.266281E+001
  0
ARC
  5
16f
100
AcDbEntity
  8
1
100
AcDbCircle
  6
CONTINUOUS
 62
7
 10
4.5825E+001
 20
-1.0523045E+001
 40
1.0
100
AcDbArc
 50
3.15E+002
 51
3.6E+002
  0
ARC
  5
170
100
AcDbEntity
  8
1
100
AcDbCircle
  6
CONTINUOUS
 62
7
 10
4.4745895E+001
 20
-1.2309257E+001
 40
5.0E-001
100
AcDbArc
 50
1.9095509E+002
 51
3.15E+002
  0
ARC
  5
171
100
AcDbEntity
  8
1
100
AcDbCircle
  6
CONTINUOUS
 62
7
 10
4.3709328E+001
 20
-6.954177
 40
5.0E-001
100
AcDbArc
 50
4.5E+001
 51
1.9095509E+002
  0
LINE
  5
172
100
AcDbEntity
  8
1
100
AcDbLine
  6
CONTINUOUS
 62
7
 10
4.6532107E+001
 20
-9.0698485
 11
4.4062882E+001
 21
-6.6006236
  0
LINE
  5
173
100
AcDbEntity
  8
1
100
AcDbLine
  6
CONTINUOUS
 62
7
 10
5.6057107E+001
 20
-7.6098485
 11
5.4624448E+001
 21
-6.1771901
  0
ARC
  5
174
100
AcDbEntity
  8
1
100
AcDbCircle
  6
CONTINUOUS
 62
7
 10
5.4270895E+001
 20
-6.5307435
 40
5.0E-001
100
AcDbArc
 50
4.5E+001
 51
1.6904491E+002
  0
ARC
  5
175
100
AcDbEntity
  8
1
100
AcDbCircle
  6
CONTINUOUS
 62
7
 10
5.3234328E+001
 20
-1.1885823E+001
 40
5.0E-001
100
AcDbArc
 50
1.6904491E+002
 51
3.15E+002
  0
LINE
  5
176
100
AcDbEntity
  8
1
100
AcDbLine
  6
CONTINUOUS
 62
7
 10
5.6057107E+001
 20
-9.7701515
 11
5.3587882E+001
 21
-1.2239376E+001
  0
ARC
  5
177
100
AcDbEntity
  8
1
100
AcDbCircle
  6
CONTINUOUS
 62
7
 10
5.535E+001
 20
-9.0630447
 40
1.0
100
AcDbArc
 50
3.15E+002
 51
3.6E+002
  0
LINE
  5
178
100
AcDbEntity
  8
1
100
AcDbLine
  6
CONTINUOUS
 62
7
 10
5.635E+001
 20
-9.0630447
 11
5.635E+001
 21
-8.3169553
  0
ARC
  5
179
100
AcDbEntity
  8
1
100
AcDbCircle
  6
CONTINUOUS
 62
7
 10
5.535E+001
 20
-8.3169553
 40
1.0
100
AcDbArc
 50
0.0
 51
4.5E+001
  0
LINE
  5
17a
100
AcDbEntity
  8
1
100
AcDbLine
  6
CONTINUOUS
 62
7
 10
5.821066E+001
 20
-6.3692893
 11
6.0264214E+001
 21
-4.3157359
  0
LINE
  5
17b
100
AcDbEntity
  8
1
100
AcDbLine
  6
CONTINUOUS
 62
7
 10
6.085E+001
 20
-5.0E-001
 11
6.085E+001
 21
-2.9015224
  0
ARC
  5
17c
100
AcDbEntity
  8
1
100
AcDbCircle
  6
CONTINUOUS
 62
7
 10
5.885E+001
 20
-2.9015224
 40
2.0
100
AcDbArc
 50
3.15E+002
 51
3.6E+002
  0
ARC
  5
17d
100
AcDbEntity
  8
1
100
AcDbCircle
  6
CONTINUOUS
 62
7
 10
6.055E+001
 20
-5.0E-001
 40
3.0E-001
100
AcDbArc
 50
0.0
 51
9.0E+001
  0
LINE
  5
17e
100
AcDbEntity
  8
1
100
AcDbLine
  6
CONTINUOUS
 62
7
 10
5.8242893E+001
 20
-7.6098485
 11
5.9675552E+001
 21
-6.1771901
  0
ARC
  5
17f
100
AcDbEntity
  8
1
100
AcDbCircle
  6
CONTINUOUS
 62
7
 10
5.895E+001
 20
-8.3169553
 40
1.0
100
AcDbArc
 50
1.35E+002
 51
1.8E+002
  0
LINE
  5
180
100
AcDbEntity
  8
1
100
AcDbLine
  6
CONTINUOUS
 62
7
 10
6.0519993E+001
 20
-6.4357237
 11
6.155656E+001
 21
-1.1790803E+001
  0
ARC
  5
181
100
AcDbEntity
  8
1
100
AcDbCircle
  6
CONTINUOUS
 62
7
 10
6.0029105E+001
 20
-6.5307435
 40
5.0E-001
100
AcDbArc
 50
1.0955088E+001
 51
1.35E+002
  0
ARC
  5
182
100
AcDbEntity
  8
1
100
AcDbCircle
  6
CONTINUOUS
 62
7
 10
6.1065672E+001
 20
-1.1885823E+001
 40
5.0E-001
100
AcDbArc
 50
2.25E+002
 51
3.7095509E+002
  0
LINE
  5
183
100
AcDbEntity
  8
1
100
AcDbLine
  6
CONTINUOUS
 62
7
 10
7.25E+001
 20
-5.0E-001
 11
7.25E+001
 21
-2.9015224
  0
LINE
  5
184
100
AcDbEntity
  8
1
100
AcDbLine
  6
CONTINUOUS
 62
7
 10
7.513934E+001
 20
-6.3692893
 11
7.3085786E+001
 21
-4.3157359
  0
ARC
  5
185
100
AcDbEntity
  8
1
100
AcDbCircle
  6
CONTINUOUS
 62
7
 10
7.45E+001
 20
-2.9015224
 40
2.0
100
AcDbArc
 50
1.8E+002
 51
2.25E+002
  0
LINE
  5
186
100
AcDbEntity
  8
1
100
AcDbLine
  6
CONTINUOUS
 62
7
 10
7.28E+001
 20
-2.0E-001
 11
7.96E+001
 21
-2.0E-001
  0
ARC
  5
187
100
AcDbEntity
  8
1
100
AcDbCircle
  6
CONTINUOUS
 62
7
 10
7.28E+001
 20
-5.0E-001
 40
3.0E-001
100
AcDbArc
 50
9.0E+001
 51
1.8E+002
  0
ARC
  5
188
100
AcDbEntity
  8
1
100
AcDbCircle
  6
CONTINUOUS
 62
7
 10
7.62E+001
 20
-5.3086292
 40
1.5
100
AcDbArc
 50
2.25E+002
 51
3.15E+002
  0
LINE
  5
189
100
AcDbEntity
  8
1
100
AcDbLine
  6
CONTINUOUS
 62
7
 10
6.561434E+001
 20
-1.2470711E+001
 11
6.3560786E+001
 21
-1.4524264E+001
  0
ARC
  5
18a
100
AcDbEntity
  8
1
100
AcDbCircle
  6
CONTINUOUS
 62
7
 10
6.6675E+001
 20
-1.3531371E+001
 40
1.5
100
AcDbArc
 50
4.5E+001
 51
1.35E+002
  0
LINE
  5
18b
100
AcDbEntity
  8
1
100
AcDbLine
  6
CONTINUOUS
 62
7
 10
6.773566E+001
 20
-1.2470711E+001
 11
6.9789214E+001
 21
-1.4524264E+001
  0
ARC
  5
18c
100
AcDbEntity
  8
1
100
AcDbCircle
  6
CONTINUOUS
 62
7
 10
6.8375E+001
 20
-1.5938478E+001
 40
2.0
100
AcDbArc
 50
0.0
 51
4.5E+001
  0
ARC
  5
18d
100
AcDbEntity
  8
1
100
AcDbCircle
  6
CONTINUOUS
 62
7
 10
6.4975E+001
 20
-1.5938478E+001
 40
2.0
100
AcDbArc
 50
1.35E+002
 51
1.8E+002
  0
LINE
  5
18e
100
AcDbEntity
  8
1
100
AcDbLine
  6
CONTINUOUS
 62
7
 10
6.2975E+001
 20
-1.5938478E+001
 11
6.2975E+001
 21
-1.834E+001
  0
LINE
  5
18f
100
AcDbEntity
  8
1
100
AcDbLine
  6
CONTINUOUS
 62
7
 10
7.0375E+001
 20
-1.5938478E+001
 11
7.0375E+001
 21
-1.834E+001
  0
LINE
  5
190
100
AcDbEntity
  8
1
100
AcDbLine
  6
CONTINUOUS
 62
7
 10
6.3275E+001
 20
-1.864E+001
 11
7.0075E+001
 21
-1.864E+001
  0
ARC
  5
191
100
AcDbEntity
  8
1
100
AcDbCircle
  6
CONTINUOUS
 62
7
 10
7.0075E+001
 20
-1.834E+001
 40
3.0E-001
100
AcDbArc
 50
2.7E+002
 51
3.6E+002
  0
ARC
  5
192
100
AcDbEntity
  8
1
100
AcDbCircle
  6
CONTINUOUS
 62
7
 10
6.3275E+001
 20
-1.834E+001
 40
3.0E-001
100
AcDbArc
 50
1.8E+002
 51
2.7E+002
  0
LINE
  5
193
100
AcDbEntity
  8
1
100
AcDbLine
  6
CONTINUOUS
 62
7
 10
7.108156E+001
 20
-7.0491967
 11
7.0044993E+001
 21
-1.2404276E+001
  0
LINE
  5
194
100
AcDbEntity
  8
1
100
AcDbLine
  6
CONTINUOUS
 62
7
 10
7.179344E+001
 20
-1.1790803E+001
 11
7.2830007E+001
 21
-6.4357237
  0
LINE
  5
195
100
AcDbEntity
  8
1
100
AcDbLine
  6
CONTINUOUS
 62
7
 10
6.226844E+001
 20
-7.0491967
 11
6.3305007E+001
 21
-1.2404276E+001
  0
LINE
  5
196
100
AcDbEntity
  8
1
100
AcDbLine
  6
CONTINUOUS
 62
7
 10
5.8242893E+001
 20
-9.7701515
 11
6.0712118E+001
 21
-1.2239376E+001
  0
LINE
  5
197
100
AcDbEntity
  8
1
100
AcDbLine
  6
CONTINUOUS
 62
7
 10
5.795E+001
 20
-8.3169553
 11
5.795E+001
 21
-9.0630447
  0
ARC
  5
198
100
AcDbEntity
  8
1
100
AcDbCircle
  6
CONTINUOUS
 62
7
 10
5.895E+001
 20
-9.0630447
 40
1.0
100
AcDbArc
 50
1.8E+002
 51
2.25E+002
  0
LINE
  5
199
100
AcDbEntity
  8
1
100
AcDbLine
  6
CONTINUOUS
 62
7
 10
6.7767893E+001
 20
-9.0698485
 11
7.0237118E+001
 21
-6.6006236
  0
ARC
  5
19a
100
AcDbEntity
  8
1
100
AcDbCircle
  6
CONTINUOUS
 62
7
 10
7.0590672E+001
 20
-6.954177
 40
5.0E-001
100
AcDbArc
 50
3.4904491E+002
 51
4.95E+002
  0
ARC
  5
19b
100
AcDbEntity
  8
1
100
AcDbCircle
  6
CONTINUOUS
 62
7
 10
6.8475E+001
 20
-9.7769553
 40
1.0
100
AcDbArc
 50
1.35E+002
 51
1.8E+002
  0
LINE
  5
19c
100
AcDbEntity
  8
1
100
AcDbLine
  6
CONTINUOUS
 62
7
 10
6.7475E+001
 20
-9.7769553
 11
6.7475E+001
 21
-1.0523045E+001
  0
LINE
  5
19d
100
AcDbEntity
  8
1
100
AcDbLine
  6
CONTINUOUS
 62
7
 10
6.7767893E+001
 20
-1.1230152E+001
 11
6.9200552E+001
 21
-1.266281E+001
  0
ARC
  5
19e
100
AcDbEntity
  8
1
100
AcDbCircle
  6
CONTINUOUS
 62
7
 10
6.8475E+001
 20
-1.0523045E+001
 40
1.0
100
AcDbArc
 50
1.8E+002
 51
2.25E+002
  0
ARC
  5
19f
100
AcDbEntity
  8
1
100
AcDbCircle
  6
CONTINUOUS
 62
7
 10
6.9554105E+001
 20
-1.2309257E+001
 40
5.0E-001
100
AcDbArc
 50
2.25E+002
 51
3.4904491E+002
  0
LINE
  5
1a0
100
AcDbEntity
  8
1
100
AcDbLine
  6
CONTINUOUS
 62
7
 10
6.5875E+001
 20
-9.7769553
 11
6.5875E+001
 21
-1.0523045E+001
  0
ARC
  5
1a1
100
AcDbEntity
  8
1
100
AcDbCircle
  6
CONTINUOUS
 62
7
 10
6.4875E+001
 20
-9.7769553
 40
1.0
100
AcDbArc
 50
0.0
 51
4.5E+001
  0
LINE
  5
1a2
100
AcDbEntity
  8
1
100
AcDbLine
  6
CONTINUOUS
 62
7
 10
6.5582107E+001
 20
-1.1230152E+001
 11
6.4149448E+001
 21
-1.266281E+001
  0
ARC
  5
1a3
100
AcDbEntity
  8
1
100
AcDbCircle
  6
CONTINUOUS
 62
7
 10
6.4875E+001
 20
-1.0523045E+001
 40
1.0
100
AcDbArc
 50
3.15E+002
 51
3.6E+002
  0
ARC
  5
1a4
100
AcDbEntity
  8
1
100
AcDbCircle
  6
CONTINUOUS
 62
7
 10
6.3795895E+001
 20
-1.2309257E+001
 40
5.0E-001
100
AcDbArc
 50
1.9095509E+002
 51
3.15E+002
  0
ARC
  5
1a5
100
AcDbEntity
  8
1
100
AcDbCircle
  6
CONTINUOUS
 62
7
 10
6.2759328E+001
 20
-6.954177
 40
5.0E-001
100
AcDbArc
 50
4.5E+001
 51
1.9095509E+002
  0
LINE
  5
1a6
100
AcDbEntity
  8
1
100
AcDbLine
  6
CONTINUOUS
 62
7
 10
6.5582107E+001
 20
-9.0698485
 11
6.3112882E+001
 21
-6.6006236
  0
LINE
  5
1a7
100
AcDbEntity
  8
1
100
AcDbLine
  6
CONTINUOUS
 62
7
 10
7.5107107E+001
 20
-7.6098485
 11
7.3674448E+001
 21
-6.1771901
  0
ARC
  5
1a8
100
AcDbEntity
  8
1
100
AcDbCircle
  6
CONTINUOUS
 62
7
 10
7.3320895E+001
 20
-6.5307435
 40
5.0E-001
100
AcDbArc
 50
4.5E+001
 51
1.6904491E+002
  0
ARC
  5
1a9
100
AcDbEntity
  8
1
100
AcDbCircle
  6
CONTINUOUS
 62
7
 10
7.2284328E+001
 20
-1.1885823E+001
 40
5.0E-001
100
AcDbArc
 50
1.6904491E+002
 51
3.15E+002
  0
LINE
  5
1aa
100
AcDbEntity
  8
1
100
AcDbLine
  6
CONTINUOUS
 62
7
 10
7.5107107E+001
 20
-9.7701515
 11
7.2637882E+001
 21
-1.2239376E+001
  0
ARC
  5
1ab
100
AcDbEntity
  8
1
100
AcDbCircle
  6
CONTINUOUS
 62
7
 10
7.44E+001
 20
-9.0630447
 40
1.0
100
AcDbArc
 50
3.15E+002
 51
3.6E+002
  0
LINE
  5
1ac
100
AcDbEntity
  8
1
100
AcDbLine
  6
CONTINUOUS
 62
7
 10
7.54E+001
 20
-9.0630447
 11
7.54E+001
 21
-8.3169553
  0
ARC
  5
1ad
100
AcDbEntity
  8
1
100
AcDbCircle
  6
CONTINUOUS
 62
7
 10
7.44E+001
 20
-8.3169553
 40
1.0
100
AcDbArc
 50
0.0
 51
4.5E+001
  0
LINE
  5
1ae
100
AcDbEntity
  8
1
100
AcDbLine
  6
CONTINUOUS
 62
7
 10
7.726066E+001
 20
-6.3692893
 11
7.9314214E+001
 21
-4.3157359
  0
LINE
  5
1af
100
AcDbEntity
  8
1
100
AcDbLine
  6
CONTINUOUS
 62
7
 10
7.99E+001
 20
-5.0E-001
 11
7.99E+001
 21
-2.9015224
  0
ARC
  5
1b0
100
AcDbEntity
  8
1
100
AcDbCircle
  6
CONTINUOUS
 62
7
 10
7.79E+001
 20
-2.9015224
 40
2.0
100
AcDbArc
 50
3.15E+002
 51
3.6E+002
  0
ARC
  5
1b1
100
AcDbEntity
  8
1
100
AcDbCircle
  6
CONTINUOUS
 62
7
 10
7.96E+001
 20
-5.0E-001
 40
3.0E-001
100
AcDbArc
 50
0.0
 51
9.0E+001
  0
LINE
  5
1b2
100
AcDbEntity
  8
1
100
AcDbLine
  6
CONTINUOUS
 62
7
 10
7.7292893E+001
 20
-7.6098485
 11
7.8725552E+001
 21
-6.1771901
  0
ARC
  5
1b3
100
AcDbEntity
  8
1
100
AcDbCircle
  6
CONTINUOUS
 62
7
 10
7.8E+001
 20
-8.3169553
 40
1.0
100
AcDbArc
 50
1.35E+002
 51
1.8E+002
  0
LINE
  5
1b4
100
AcDbEntity
  8
1
100
AcDbLine
  6
CONTINUOUS
 62
7
 10
7.9569993E+001
 20
-6.4357237
 11
8.060656E+001
 21
-1.1790803E+001
  0
ARC
  5
1b5
100
AcDbEntity
  8
1
100
AcDbCircle
  6
CONTINUOUS
 62
7
 10
7.9079105E+001
 20
-6.5307435
 40
5.0E-001
100
AcDbArc
 50
1.0955088E+001
 51
1.35E+002
  0
ARC
  5
1b6
100
AcDbEntity
  8
1
100
AcDbCircle
  6
CONTINUOUS
 62
7
 10
8.0115672E+001
 20
-1.1885823E+001
 40
5.0E-001
100
AcDbArc
 50
2.25E+002
 51
3.7095509E+002
  0
LINE
  5
1b7
100
AcDbEntity
  8
1
100
AcDbLine
  6
CONTINUOUS
 62
7
 10
9.155E+001
 20
-5.0E-001
 11
9.155E+001
 21
-2.9015224
  0
LINE
  5
1b8
100
AcDbEntity
  8
1
100
AcDbLine
  6
CONTINUOUS
 62
7
 10
9.418934E+001
 20
-6.3692893
 11
9.2135786E+001
 21
-4.3157359
  0
ARC
  5
1b9
100
AcDbEntity
  8
1
100
AcDbCircle
  6
CONTINUOUS
 62
7
 10
9.355E+001
 20
-2.9015224
 40
2.0
100
AcDbArc
 50
1.8E+002
 51
2.25E+002
  0
LINE
  5
1ba
100
AcDbEntity
  8
1
100
AcDbLine
  6
CONTINUOUS
 62
7
 10
9.185E+001
 20
-2.0E-001
 11
9.865E+001
 21
-2.0E-001
  0
ARC
  5
1bb
100
AcDbEntity
  8
1
100
AcDbCircle
  6
CONTINUOUS
 62
7
 10
9.185E+001
 20
-5.0E-001
 40
3.0E-001
100
AcDbArc
 50
9.0E+001
 51
1.8E+002
  0
ARC
  5
1bc
100
AcDbEntity
  8
1
100
AcDbCircle
  6
CONTINUOUS
 62
7
 10
9.525E+001
 20
-5.3086292
 40
1.5
100
AcDbArc
 50
2.25E+002
 51
3.15E+002
  0
LINE
  5
1bd
100
AcDbEntity
  8
1
100
AcDbLine
  6
CONTINUOUS
 62
7
 10
8.466434E+001
 20
-1.2470711E+001
 11
8.2610786E+001
 21
-1.4524264E+001
  0
ARC
  5
1be
100
AcDbEntity
  8
1
100
AcDbCircle
  6
CONTINUOUS
 62
7
 10
8.5725E+001
 20
-1.3531371E+001
 40
1.5
100
AcDbArc
 50
4.5E+001
 51
1.35E+002
  0
LINE
  5
1bf
100
AcDbEntity
  8
1
100
AcDbLine
  6
CONTINUOUS
 62
7
 10
8.678566E+001
 20
-1.2470711E+001
 11
8.8839214E+001
 21
-1.4524264E+001
  0
ARC
  5
1c0
100
AcDbEntity
  8
1
100
AcDbCircle
  6
CONTINUOUS
 62
7
 10
8.7425E+001
 20
-1.5938478E+001
 40
2.0
100
AcDbArc
 50
0.0
 51
4.5E+001
  0
ARC
  5
1c1
100
AcDbEntity
  8
1
100
AcDbCircle
  6
CONTINUOUS
 62
7
 10
8.4025E+001
 20
-1.5938478E+001
 40
2.0
100
AcDbArc
 50
1.35E+002
 51
1.8E+002
  0
LINE
  5
1c2
100
AcDbEntity
  8
1
100
AcDbLine
  6
CONTINUOUS
 62
7
 10
8.2025E+001
 20
-1.5938478E+001
 11
8.2025E+001
 21
-1.834E+001
  0
LINE
  5
1c3
100
AcDbEntity
  8
1
100
AcDbLine
  6
CONTINUOUS
 62
7
 10
8.9425E+001
 20
-1.5938478E+001
 11
8.9425E+001
 21
-1.834E+001
  0
LINE
  5
1c4
100
AcDbEntity
  8
1
100
AcDbLine
  6
CONTINUOUS
 62
7
 10
8.2325E+001
 20
-1.864E+001
 11
8.9125E+001
 21
-1.864E+001
  0
ARC
  5
1c5
100
AcDbEntity
  8
1
100
AcDbCircle
  6
CONTINUOUS
 62
7
 10
8.9125E+001
 20
-1.834E+001
 40
3.0E-001
100
AcDbArc
 50
2.7E+002
 51
3.6E+002
  0
ARC
  5
1c6
100
AcDbEntity
  8
1
100
AcDbCircle
  6
CONTINUOUS
 62
7
 10
8.2325E+001
 20
-1.834E+001
 40
3.0E-001
100
AcDbArc
 50
1.8E+002
 51
2.7E+002
  0
LINE
  5
1c7
100
AcDbEntity
  8
1
100
AcDbLine
  6
CONTINUOUS
 62
7
 10
9.013156E+001
 20
-7.0491967
 11
8.9094993E+001
 21
-1.2404276E+001
  0
LINE
  5
1c8
100
AcDbEntity
  8
1
100
AcDbLine
  6
CONTINUOUS
 62
7
 10
9.084344E+001
 20
-1.1790803E+001
 11
9.1880007E+001
 21
-6.4357237
  0
LINE
  5
1c9
100
AcDbEntity
  8
1
100
AcDbLine
  6
CONTINUOUS
 62
7
 10
8.131844E+001
 20
-7.0491967
 11
8.2355007E+001
 21
-1.2404276E+001
  0
LINE
  5
1ca
100
AcDbEntity
  8
1
100
AcDbLine
  6
CONTINUOUS
 62
7
 10
7.7292893E+001
 20
-9.7701515
 11
7.9762118E+001
 21
-1.2239376E+001
  0
LINE
  5
1cb
100
AcDbEntity
  8
1
100
AcDbLine
  6
CONTINUOUS
 62
7
 10
7.7E+001
 20
-8.3169553
 11
7.7E+001
 21
-9.0630447
  0
ARC
  5
1cc
100
AcDbEntity
  8
1
100
AcDbCircle
  6
CONTINUOUS
 62
7
 10
7.8E+001
 20
-9.0630447
 40
1.0
100
AcDbArc
 50
1.8E+002
 51
2.25E+002
  0
LINE
  5
1cd
100
AcDbEntity
  8
1
100
AcDbLine
  6
CONTINUOUS
 62
7
 10
8.6817893E+001
 20
-9.0698485
 11
8.9287118E+001
 21
-6.6006236
  0
ARC
  5
1ce
100
AcDbEntity
  8
1
100
AcDbCircle
  6
CONTINUOUS
 62
7
 10
8.9640672E+001
 20
-6.954177
 40
5.0E-001
100
AcDbArc
 50
3.4904491E+002
 51
4.95E+002
  0
ARC
  5
1cf
100
AcDbEntity
  8
1
100
AcDbCircle
  6
CONTINUOUS
 62
7
 10
8.7525E+001
 20
-9.7769553
 40
1.0
100
AcDbArc
 50
1.35E+002
 51
1.8E+002
  0
LINE
  5
1d0
100
AcDbEntity
  8
1
100
AcDbLine
  6
CONTINUOUS
 62
7
 10
8.6525E+001
 20
-9.7769553
 11
8.6525E+001
 21
-1.0523045E+001
  0
LINE
  5
1d1
100
AcDbEntity
  8
1
100
AcDbLine
  6
CONTINUOUS
 62
7
 10
8.6817893E+001
 20
-1.1230152E+001
 11
8.8250552E+001
 21
-1.266281E+001
  0
ARC
  5
1d2
100
AcDbEntity
  8
1
100
AcDbCircle
  6
CONTINUOUS
 62
7
 10
8.7525E+001
 20
-1.0523045E+001
 40
1.0
100
AcDbArc
 50
1.8E+002
 51
2.25E+002
  0
ARC
  5
1d3
100
AcDbEntity
  8
1
100
AcDbCircle
  6
CONTINUOUS
 62
7
 10
8.8604105E+001
 20
-1.2309257E+001
 40
5.0E-001
100
AcDbArc
 50
2.25E+002
 51
3.4904491E+002
  0
LINE
  5
1d4
100
AcDbEntity
  8
1
100
AcDbLine
  6
CONTINUOUS
 62
7
 10
8.4925E+001
 20
-9.7769553
 11
8.4925E+001
 21
-1.0523045E+001
  0
ARC
  5
1d5
100
AcDbEntity
  8
1
100
AcDbCircle
  6
CONTINUOUS
 62
7
 10
8.3925E+001
 20
-9.7769553
 40
1.0
100
AcDbArc
 50
0.0
 51
4.5E+001
  0
LINE
  5
1d6
100
AcDbEntity
  8
1
100
AcDbLine
  6
CONTINUOUS
 62
7
 10
8.4632107E+001
 20
-1.1230152E+001
 11
8.3199448E+001
 21
-1.266281E+001
  0
ARC
  5
1d7
100
AcDbEntity
  8
1
100
AcDbCircle
  6
CONTINUOUS
 62
7
 10
8.3925E+001
 20
-1.0523045E+001
 40
1.0
100
AcDbArc
 50
3.15E+002
 51
3.6E+002
  0
ARC
  5
1d8
100
AcDbEntity
  8
1
100
AcDbCircle
  6
CONTINUOUS
 62
7
 10
8.2845895E+001
 20
-1.2309257E+001
 40
5.0E-001
100
AcDbArc
 50
1.9095509E+002
 51
3.15E+002
  0
ARC
  5
1d9
100
AcDbEntity
  8
1
100
AcDbCircle
  6
CONTINUOUS
 62
7
 10
8.1809328E+001
 20
-6.954177
 40
5.0E-001
100
AcDbArc
 50
4.5E+001
 51
1.9095509E+002
  0
LINE
  5
1da
100
AcDbEntity
  8
1
100
AcDbLine
  6
CONTINUOUS
 62
7
 10
8.4632107E+001
 20
-9.0698485
 11
8.2162882E+001
 21
-6.6006236
  0
LINE
  5
1db
100
AcDbEntity
  8
1
100
AcDbLine
  6
CONTINUOUS
 62
7
 10
9.4157107E+001
 20
-7.6098485
 11
9.2724448E+001
 21
-6.1771901
  0
ARC
  5
1dc
100
AcDbEntity
  8
1
100
AcDbCircle
  6
CONTINUOUS
 62
7
 10
9.2370895E+001
 20
-6.5307435
 40
5.0E-001
100
AcDbArc
 50
4.5E+001
 51
1.6904491E+002
  0
ARC
  5
1dd
100
AcDbEntity
  8
1
100
AcDbCircle
  6
CONTINUOUS
 62
7
 10
9.1334328E+001
 20
-1.1885823E+001
 40
5.0E-001
100
AcDbArc
 50
1.6904491E+002
 51
3.15E+002
  0
LINE
  5
1de
100
AcDbEntity
  8
1
100
AcDbLine
  6
CONTINUOUS
 62
7
 10
9.4157107E+001
 20
-9.7701515
 11
9.1687882E+001
 21
-1.2239376E+001
  0
ARC
  5
1df
100
AcDbEntity
  8
1
100
AcDbCircle
  6
CONTINUOUS
 62
7
 10
9.345E+001
 20
-9.0630447
 40
1.0
100
AcDbArc
 50
3.15E+002
 51
3.6E+002
  0
LINE
  5
1e0
100
AcDbEntity
  8
1
100
AcDbLine
  6
CONTINUOUS
 62
7
 10
9.445E+001
 20
-9.0630447
 11
9.445E+001
 21
-8.3169553
  0
ARC
  5
1e1
100
AcDbEntity
  8
1
100
AcDbCircle
  6
CONTINUOUS
 62
7
 10
9.345E+001
 20
-8.3169553
 40
1.0
100
AcDbArc
 50
0.0
 51
4.5E+001
  0
LINE
  5
1e2
100
AcDbEntity
  8
1
100
AcDbLine
  6
CONTINUOUS
 62
7
 10
9.631066E+001
 20
-6.3692893
 11
9.8364214E+001
 21
-4.3157359
  0
LINE
  5
1e3
100
AcDbEntity
  8
1
100
AcDbLine
  6
CONTINUOUS
 62
7
 10
9.895E+001
 20
-5.0E-001
 11
9.895E+001
 21
-2.9015224
  0
ARC
  5
1e4
100
AcDbEntity
  8
1
100
AcDbCircle
  6
CONTINUOUS
 62
7
 10
9.695E+001
 20
-2.9015224
 40
2.0
100
AcDbArc
 50
3.15E+002
 51
3.6E+002
  0
ARC
  5
1e5
100
AcDbEntity
  8
1
100
AcDbCircle
  6
CONTINUOUS
 62
7
 10
9.865E+001
 20
-5.0E-001
 40
3.0E-001
100
AcDbArc
 50
0.0
 51
9.0E+001
  0
LINE
  5
1e6
100
AcDbEntity
  8
1
100
AcDbLine
  6
CONTINUOUS
 62
7
 10
9.6342893E+001
 20
-7.6098485
 11
9.7775552E+001
 21
-6.1771901
  0
ARC
  5
1e7
100
AcDbEntity
  8
1
100
AcDbCircle
  6
CONTINUOUS
 62
7
 10
9.705E+001
 20
-8.3169553
 40
1.0
100
AcDbArc
 50
1.35E+002
 51
1.8E+002
  0
LINE
  5
1e8
100
AcDbEntity
  8
1
100
AcDbLine
  6
CONTINUOUS
 62
7
 10
9.8619993E+001
 20
-6.4357237
 11
9.965656E+001
 21
-1.1790803E+001
  0
ARC
  5
1e9
100
AcDbEntity
  8
1
100
AcDbCircle
  6
CONTINUOUS
 62
7
 10
9.8129105E+001
 20
-6.5307435
 40
5.0E-001
100
AcDbArc
 50
1.0955088E+001
 51
1.35E+002
  0
ARC
  5
1ea
100
AcDbEntity
  8
1
100
AcDbCircle
  6
CONTINUOUS
 62
7
 10
9.9165672E+001
 20
-1.1885823E+001
 40
5.0E-001
100
AcDbArc
 50
2.25E+002
 51
3.7095509E+002
  0
LINE
  5
1eb
100
AcDbEntity
  8
1
100
AcDbLine
  6
CONTINUOUS
 62
7
 10
1.106E+002
 20
-5.0E-001
 11
1.106E+002
 21
-2.9015224
  0
LINE
  5
1ec
100
AcDbEntity
  8
1
100
AcDbLine
  6
CONTINUOUS
 62
7
 10
1.1323934E+002
 20
-6.3692893
 11
1.1118579E+002
 21
-4.3157359
  0
ARC
  5
1ed
100
AcDbEntity
  8
1
100
AcDbCircle
  6
CONTINUOUS
 62
7
 10
1.126E+002
 20
-2.9015224
 40
2.0
100
AcDbArc
 50
1.8E+002
 51
2.25E+002
  0
LINE
  5
1ee
100
AcDbEntity
  8
1
100
AcDbLine
  6
CONTINUOUS
 62
7
 10
1.109E+002
 20
-2.0E-001
 11
1.177E+002
 21
-2.0E-001
  0
ARC
  5
1ef
100
AcDbEntity
  8
1
100
AcDbCircle
  6
CONTINUOUS
 62
7
 10
1.109E+002
 20
-5.0E-001
 40
3.0E-001
100
AcDbArc
 50
9.0E+001
 51
1.8E+002
  0
ARC
  5
1f0
100
AcDbEntity
  8
1
100
AcDbCircle
  6
CONTINUOUS
 62
7
 10
1.143E+002
 20
-5.3086292
 40
1.5
100
AcDbArc
 50
2.25E+002
 51
3.15E+002
  0
LINE
  5
1f1
100
AcDbEntity
  8
1
100
AcDbLine
  6
CONTINUOUS
 62
7
 10
1.0371434E+002
 20
-1.2470711E+001
 11
1.0166079E+002
 21
-1.4524264E+001
  0
ARC
  5
1f2
100
AcDbEntity
  8
1
100
AcDbCircle
  6
CONTINUOUS
 62
7
 10
1.04775E+002
 20
-1.3531371E+001
 40
1.5
100
AcDbArc
 50
4.5E+001
 51
1.35E+002
  0
LINE
  5
1f3
100
AcDbEntity
  8
1
100
AcDbLine
  6
CONTINUOUS
 62
7
 10
1.0583566E+002
 20
-1.2470711E+001
 11
1.0788921E+002
 21
-1.4524264E+001
  0
ARC
  5
1f4
100
AcDbEntity
  8
1
100
AcDbCircle
  6
CONTINUOUS
 62
7
 10
1.06475E+002
 20
-1.5938478E+001
 40
2.0
100
AcDbArc
 50
0.0
 51
4.5E+001
  0
ARC
  5
1f5
100
AcDbEntity
  8
1
100
AcDbCircle
  6
CONTINUOUS
 62
7
 10
1.03075E+002
 20
-1.5938478E+001
 40
2.0
100
AcDbArc
 50
1.35E+002
 51
1.8E+002
  0
LINE
  5
1f6
100
AcDbEntity
  8
1
100
AcDbLine
  6
CONTINUOUS
 62
7
 10
1.01075E+002
 20
-1.5938478E+001
 11
1.01075E+002
 21
-1.834E+001
  0
LINE
  5
1f7
100
AcDbEntity
  8
1
100
AcDbLine
  6
CONTINUOUS
 62
7
 10
1.08475E+002
 20
-1.5938478E+001
 11
1.08475E+002
 21
-1.834E+001
  0
LINE
  5
1f8
100
AcDbEntity
  8
1
100
AcDbLine
  6
CONTINUOUS
 62
7
 10
1.01375E+002
 20
-1.864E+001
 11
1.08175E+002
 21
-1.864E+001
  0
ARC
  5
1f9
100
AcDbEntity
  8
1
100
AcDbCircle
  6
CONTINUOUS
 62
7
 10
1.08175E+002
 20
-1.834E+001
 40
3.0E-001
100
AcDbArc
 50
2.7E+002
 51
3.6E+002
  0
ARC
  5
1fa
100
AcDbEntity
  8
1
100
AcDbCircle
  6
CONTINUOUS
 62
7
 10
1.01375E+002
 20
-1.834E+001
 40
3.0E-001
100
AcDbArc
 50
1.8E+002
 51
2.7E+002
  0
LINE
  5
1fb
100
AcDbEntity
  8
1
100
AcDbLine
  6
CONTINUOUS
 62
7
 10
1.0918156E+002
 20
-7.0491967
 11
1.0814499E+002
 21
-1.2404276E+001
  0
LINE
  5
1fc
100
AcDbEntity
  8
1
100
AcDbLine
  6
CONTINUOUS
 62
7
 10
1.0989344E+002
 20
-1.1790803E+001
 11
1.1093001E+002
 21
-6.4357237
  0
LINE
  5
1fd
100
AcDbEntity
  8
1
100
AcDbLine
  6
CONTINUOUS
 62
7
 10
1.0036844E+002
 20
-7.0491967
 11
1.0140501E+002
 21
-1.2404276E+001
  0
LINE
  5
1fe
100
AcDbEntity
  8
1
100
AcDbLine
  6
CONTINUOUS
 62
7
 10
9.6342893E+001
 20
-9.7701515
 11
9.8812118E+001
 21
-1.2239376E+001
  0
LINE
  5
1ff
100
AcDbEntity
  8
1
100
AcDbLine
  6
CONTINUOUS
 62
7
 10
9.605E+001
 20
-8.3169553
 11
9.605E+001
 21
-9.0630447
  0
ARC
  5
200
100
AcDbEntity
  8
1
100
AcDbCircle
  6
CONTINUOUS
 62
7
 10
9.705E+001
 20
-9.0630447
 40
1.0
100
AcDbArc
 50
1.8E+002
 51
2.25E+002
  0
LINE
  5
201
100
AcDbEntity
  8
1
100
AcDbLine
  6
CONTINUOUS
 62
7
 10
1.0586789E+002
 20
-9.0698485
 11
1.0833712E+002
 21
-6.6006236
  0
ARC
  5
202
100
AcDbEntity
  8
1
100
AcDbCircle
  6
CONTINUOUS
 62
7
 10
1.0869067E+002
 20
-6.954177
 40
5.0E-001
100
AcDbArc
 50
3.4904491E+002
 51
4.95E+002
  0
ARC
  5
203
100
AcDbEntity
  8
1
100
AcDbCircle
  6
CONTINUOUS
 62
7
 10
1.06575E+002
 20
-9.7769553
 40
1.0
100
AcDbArc
 50
1.35E+002
 51
1.8E+002
  0
LINE
  5
204
100
AcDbEntity
  8
1
100
AcDbLine
  6
CONTINUOUS
 62
7
 10
1.05575E+002
 20
-9.7769553
 11
1.05575E+002
 21
-1.0523045E+001
  0
LINE
  5
205
100
AcDbEntity
  8
1
100
AcDbLine
  6
CONTINUOUS
 62
7
 10
1.0586789E+002
 20
-1.1230152E+001
 11
1.0730055E+002
 21
-1.266281E+001
  0
ARC
  5
206
100
AcDbEntity
  8
1
100
AcDbCircle
  6
CONTINUOUS
 62
7
 10
1.06575E+002
 20
-1.0523045E+001
 40
1.0
100
AcDbArc
 50
1.8E+002
 51
2.25E+002
  0
ARC
  5
207
100
AcDbEntity
  8
1
100
AcDbCircle
  6
CONTINUOUS
 62
7
 10
1.0765411E+002
 20
-1.2309257E+001
 40
5.0E-001
100
AcDbArc
 50
2.25E+002
 51
3.4904491E+002
  0
LINE
  5
208
100
AcDbEntity
  8
1
100
AcDbLine
  6
CONTINUOUS
 62
7
 10
1.03975E+002
 20
-9.7769553
 11
1.03975E+002
 21
-1.0523045E+001
  0
ARC
  5
209
100
AcDbEntity
  8
1
100
AcDbCircle
  6
CONTINUOUS
 62
7
 10
1.02975E+002
 20
-9.7769553
 40
1.0
100
AcDbArc
 50
0.0
 51
4.5E+001
  0
LINE
  5
20a
100
AcDbEntity
  8
1
100
AcDbLine
  6
CONTINUOUS
 62
7
 10
1.0368211E+002
 20
-1.1230152E+001
 11
1.0224945E+002
 21
-1.266281E+001
  0
ARC
  5
20b
100
AcDbEntity
  8
1
100
AcDbCircle
  6
CONTINUOUS
 62
7
 10
1.02975E+002
 20
-1.0523045E+001
 40
1.0
100
AcDbArc
 50
3.15E+002
 51
3.6E+002
  0
ARC
  5
20c
100
AcDbEntity
  8
1
100
AcDbCircle
  6
CONTINUOUS
 62
7
 10
1.0189589E+002
 20
-1.2309257E+001
 40
5.0E-001
100
AcDbArc
 50
1.9095509E+002
 51
3.15E+002
  0
ARC
  5
20d
100
AcDbEntity
  8
1
100
AcDbCircle
  6
CONTINUOUS
 62
7
 10
1.0085933E+002
 20
-6.954177
 40
5.0E-001
100
AcDbArc
 50
4.5E+001
 51
1.9095509E+002
  0
LINE
  5
20e
100
AcDbEntity
  8
1
100
AcDbLine
  6
CONTINUOUS
 62
7
 10
1.0368211E+002
 20
-9.0698485
 11
1.0121288E+002
 21
-6.6006236
  0
LINE
  5
20f
100
AcDbEntity
  8
1
100
AcDbLine
  6
CONTINUOUS
 62
7
 10
1.1320711E+002
 20
-7.6098485
 11
1.1177445E+002
 21
-6.1771901
  0
ARC
  5
210
100
AcDbEntity
  8
1
100
AcDbCircle
  6
CONTINUOUS
 62
7
 10
1.1142089E+002
 20
-6.5307435
 40
5.0E-001
100
AcDbArc
 50
4.5E+001
 51
1.6904491E+002
  0
ARC
  5
211
100
AcDbEntity
  8
1
100
AcDbCircle
  6
CONTINUOUS
 62
7
 10
1.1038433E+002
 20
-1.1885823E+001
 40
5.0E-001
100
AcDbArc
 50
1.6904491E+002
 51
3.15E+002
  0
LINE
  5
212
100
AcDbEntity
  8
1
100
AcDbLine
  6
CONTINUOUS
 62
7
 10
1.1320711E+002
 20
-9.7701515
 11
1.1073788E+002
 21
-1.2239376E+001
  0
ARC
  5
213
100
AcDbEntity
  8
1
100
AcDbCircle
  6
CONTINUOUS
 62
7
 10
1.125E+002
 20
-9.0630447
 40
1.0
100
AcDbArc
 50
3.15E+002
 51
3.6E+002
  0
LINE
  5
214
100
AcDbEntity
  8
1
100
AcDbLine
  6
CONTINUOUS
 62
7
 10
1.135E+002
 20
-9.0630447
 11
1.135E+002
 21
-8.3169553
  0
ARC
  5
215
100
AcDbEntity
  8
1
100
AcDbCircle
  6
CONTINUOUS
 62
7
 10
1.125E+002
 20
-8.3169553
 40
1.0
100
AcDbArc
 50
0.0
 51
4.5E+001
  0
LINE
  5
216
100
AcDbEntity
  8
1
100
AcDbLine
  6
CONTINUOUS
 62
7
 10
1.1536066E+002
 20
-6.3692893
 11
1.1741421E+002
 21
-4.3157359
  0
LINE
  5
217
100
AcDbEntity
  8
1
100
AcDbLine
  6
CONTINUOUS
 62
7
 10
1.18E+002
 20
-5.0E-001
 11
1.18E+002
 21
-2.9015224
  0
ARC
  5
218
100
AcDbEntity
  8
1
100
AcDbCircle
  6
CONTINUOUS
 62
7
 10
1.16E+002
 20
-2.9015224
 40
2.0
100
AcDbArc
 50
3.15E+002
 51
3.6E+002
  0
ARC
  5
219
100
AcDbEntity
  8
1
100
AcDbCircle
  6
CONTINUOUS
 62
7
 10
1.177E+002
 20
-5.0E-001
 40
3.0E-001
100
AcDbArc
 50
0.0
 51
9.0E+001
  0
LINE
  5
21a
100
AcDbEntity
  8
1
100
AcDbLine
  6
CONTINUOUS
 62
7
 10
1.1539289E+002
 20
-7.6098485
 11
1.1682555E+002
 21
-6.1771901
  0
ARC
  5
21b
100
AcDbEntity
  8
1
100
AcDbCircle
  6
CONTINUOUS
 62
7
 10
1.161E+002
 20
-8.3169553
 40
1.0
100
AcDbArc
 50
1.35E+002
 51
1.8E+002
  0
LINE
  5
21c
100
AcDbEntity
  8
1
100
AcDbLine
  6
CONTINUOUS
 62
7
 10
1.1766999E+002
 20
-6.4357237
 11
1.1870656E+002
 21
-1.1790803E+001
  0
ARC
  5
21d
100
AcDbEntity
  8
1
100
AcDbCircle
  6
CONTINUOUS
 62
7
 10
1.1717911E+002
 20
-6.5307435
 40
5.0E-001
100
AcDbArc
 50
1.0955088E+001
 51
1.35E+002
  0
ARC
  5
21e
100
AcDbEntity
  8
1
100
AcDbCircle
  6
CONTINUOUS
 62
7
 10
1.1821567E+002
 20
-1.1885823E+001
 40
5.0E-001
100
AcDbArc
 50
2.25E+002
 51
3.7095509E+002
  0
LINE
  5
21f
100
AcDbEntity
  8
1
100
AcDbLine
  6
CONTINUOUS
 62
7
 10
1.2965E+002
 20
-5.0E-001
 11
1.2965E+002
 21
-2.9015224
  0
LINE
  5
220
100
AcDbEntity
  8
1
100
AcDbLine
  6
CONTINUOUS
 62
7
 10
1.3228934E+002
 20
-6.3692893
 11
1.3023579E+002
 21
-4.3157359
  0
ARC
  5
221
100
AcDbEntity
  8
1
100
AcDbCircle
  6
CONTINUOUS
 62
7
 10
1.3165E+002
 20
-2.9015224
 40
2.0
100
AcDbArc
 50
1.8E+002
 51
2.25E+002
  0
LINE
  5
222
100
AcDbEntity
  8
1
100
AcDbLine
  6
CONTINUOUS
 62
7
 10
1.2995E+002
 20
-2.0E-001
 11
1.3675E+002
 21
-2.0E-001
  0
ARC
  5
223
100
AcDbEntity
  8
1
100
AcDbCircle
  6
CONTINUOUS
 62
7
 10
1.2995E+002
 20
-5.0E-001
 40
3.0E-001
100
AcDbArc
 50
9.0E+001
 51
1.8E+002
  0
ARC
  5
224
100
AcDbEntity
  8
1
100
AcDbCircle
  6
CONTINUOUS
 62
7
 10
1.3335E+002
 20
-5.3086292
 40
1.5
100
AcDbArc
 50
2.25E+002
 51
3.15E+002
  0
LINE
  5
225
100
AcDbEntity
  8
1
100
AcDbLine
  6
CONTINUOUS
 62
7
 10
1.2276434E+002
 20
-1.2470711E+001
 11
1.2071079E+002
 21
-1.4524264E+001
  0
ARC
  5
226
100
AcDbEntity
  8
1
100
AcDbCircle
  6
CONTINUOUS
 62
7
 10
1.23825E+002
 20
-1.3531371E+001
 40
1.5
100
AcDbArc
 50
4.5E+001
 51
1.35E+002
  0
LINE
  5
227
100
AcDbEntity
  8
1
100
AcDbLine
  6
CONTINUOUS
 62
7
 10
1.2488566E+002
 20
-1.2470711E+001
 11
1.2693921E+002
 21
-1.4524264E+001
  0
ARC
  5
228
100
AcDbEntity
  8
1
100
AcDbCircle
  6
CONTINUOUS
 62
7
 10
1.25525E+002
 20
-1.5938478E+001
 40
2.0
100
AcDbArc
 50
0.0
 51
4.5E+001
  0
ARC
  5
229
100
AcDbEntity
  8
1
100
AcDbCircle
  6
CONTINUOUS
 62
7
 10
1.22125E+002
 20
-1.5938478E+001
 40
2.0
100
AcDbArc
 50
1.35E+002
 51
1.8E+002
  0
LINE
  5
22a
100
AcDbEntity
  8
1
100
AcDbLine
  6
CONTINUOUS
 62
7
 10
1.20125E+002
 20
-1.5938478E+001
 11
1.20125E+002
 21
-1.834E+001
  0
LINE
  5
22b
100
AcDbEntity
  8
1
100
AcDbLine
  6
CONTINUOUS
 62
7
 10
1.27525E+002
 20
-1.5938478E+001
 11
1.27525E+002
 21
-1.834E+001
  0
LINE
  5
22c
100
AcDbEntity
  8
1
100
AcDbLine
  6
CONTINUOUS
 62
7
 10
1.20425E+002
 20
-1.864E+001
 11
1.27225E+002
 21
-1.864E+001
  0
ARC
  5
22d
100
AcDbEntity
  8
1
100
AcDbCircle
  6
CONTINUOUS
 62
7
 10
1.27225E+002
 20
-1.834E+001
 40
3.0E-001
100
AcDbArc
 50
2.7E+002
 51
3.6E+002
  0
ARC
  5
22e
100
AcDbEntity
  8
1
100
AcDbCircle
  6
CONTINUOUS
 62
7
 10
1.20425E+002
 20
-1.834E+001
 40
3.0E-001
100
AcDbArc
 50
1.8E+002
 51
2.7E+002
  0
LINE
  5
22f
100
AcDbEntity
  8
1
100
AcDbLine
  6
CONTINUOUS
 62
7
 10
1.2823156E+002
 20
-7.0491967
 11
1.2719499E+002
 21
-1.2404276E+001
  0
LINE
  5
230
100
AcDbEntity
  8
1
100
AcDbLine
  6
CONTINUOUS
 62
7
 10
1.2894344E+002
 20
-1.1790803E+001
 11
1.2998001E+002
 21
-6.4357237
  0
LINE
  5
231
100
AcDbEntity
  8
1
100
AcDbLine
  6
CONTINUOUS
 62
7
 10
1.1941844E+002
 20
-7.0491967
 11
1.2045501E+002
 21
-1.2404276E+001
  0
LINE
  5
232
100
AcDbEntity
  8
1
100
AcDbLine
  6
CONTINUOUS
 62
7
 10
1.1539289E+002
 20
-9.7701515
 11
1.1786212E+002
 21
-1.2239376E+001
  0
LINE
  5
233
100
AcDbEntity
  8
1
100
AcDbLine
  6
CONTINUOUS
 62
7
 10
1.151E+002
 20
-8.3169553
 11
1.151E+002
 21
-9.0630447
  0
ARC
  5
234
100
AcDbEntity
  8
1
100
AcDbCircle
  6
CONTINUOUS
 62
7
 10
1.161E+002
 20
-9.0630447
 40
1.0
100
AcDbArc
 50
1.8E+002
 51
2.25E+002
  0
LINE
  5
235
100
AcDbEntity
  8
1
100
AcDbLine
  6
CONTINUOUS
 62
7
 10
1.2491789E+002
 20
-9.0698485
 11
1.2738712E+002
 21
-6.6006236
  0
ARC
  5
236
100
AcDbEntity
  8
1
100
AcDbCircle
  6
CONTINUOUS
 62
7
 10
1.2774067E+002
 20
-6.954177
 40
5.0E-001
100
AcDbArc
 50
3.4904491E+002
 51
4.95E+002
  0
ARC
  5
237
100
AcDbEntity
  8
1
100
AcDbCircle
  6
CONTINUOUS
 62
7
 10
1.25625E+002
 20
-9.7769553
 40
1.0
100
AcDbArc
 50
1.35E+002
 51
1.8E+002
  0
LINE
  5
238
100
AcDbEntity
  8
1
100
AcDbLine
  6
CONTINUOUS
 62
7
 10
1.24625E+002
 20
-9.7769553
 11
1.24625E+002
 21
-1.0523045E+001
  0
LINE
  5
239
100
AcDbEntity
  8
1
100
AcDbLine
  6
CONTINUOUS
 62
7
 10
1.2491789E+002
 20
-1.1230152E+001
 11
1.2635055E+002
 21
-1.266281E+001
  0
ARC
  5
23a
100
AcDbEntity
  8
1
100
AcDbCircle
  6
CONTINUOUS
 62
7
 10
1.25625E+002
 20
-1.0523045E+001
 40
1.0
100
AcDbArc
 50
1.8E+002
 51
2.25E+002
  0
ARC
  5
23b
100
AcDbEntity
  8
1
100
AcDbCircle
  6
CONTINUOUS
 62
7
 10
1.2670411E+002
 20
-1.2309257E+001
 40
5.0E-001
100
AcDbArc
 50
2.25E+002
 51
3.4904491E+002
  0
LINE
  5
23c
100
AcDbEntity
  8
1
100
AcDbLine
  6
CONTINUOUS
 62
7
 10
1.23025E+002
 20
-9.7769553
 11
1.23025E+002
 21
-1.0523045E+001
  0
ARC
  5
23d
100
AcDbEntity
  8
1
100
AcDbCircle
  6
CONTINUOUS
 62
7
 10
1.22025E+002
 20
-9.7769553
 40
1.0
100
AcDbArc
 50
0.0
 51
4.5E+001
  0
LINE
  5
23e
100
AcDbEntity
  8
1
100
AcDbLine
  6
CONTINUOUS
 62
7
 10
1.2273211E+002
 20
-1.1230152E+001
 11
1.2129945E+002
 21
-1.266281E+001
  0
ARC
  5
23f
100
AcDbEntity
  8
1
100
AcDbCircle
  6
CONTINUOUS
 62
7
 10
1.22025E+002
 20
-1.0523045E+001
 40
1.0
100
AcDbArc
 50
3.15E+002
 51
3.6E+002
  0
ARC
  5
240
100
AcDbEntity
  8
1
100
AcDbCircle
  6
CONTINUOUS
 62
7
 10
1.2094589E+002
 20
-1.2309257E+001
 40
5.0E-001
100
AcDbArc
 50
1.9095509E+002
 51
3.15E+002
  0
ARC
  5
241
100
AcDbEntity
  8
1
100
AcDbCircle
  6
CONTINUOUS
 62
7
 10
1.1990933E+002
 20
-6.954177
 40
5.0E-001
100
AcDbArc
 50
4.5E+001
 51
1.9095509E+002
  0
LINE
  5
242
100
AcDbEntity
  8
1
100
AcDbLine
  6
CONTINUOUS
 62
7
 10
1.2273211E+002
 20
-9.0698485
 11
1.2026288E+002
 21
-6.6006236
  0
LINE
  5
243
100
AcDbEntity
  8
1
100
AcDbLine
  6
CONTINUOUS
 62
7
 10
1.3225711E+002
 20
-7.6098485
 11
1.3082445E+002
 21
-6.1771901
  0
ARC
  5
244
100
AcDbEntity
  8
1
100
AcDbCircle
  6
CONTINUOUS
 62
7
 10
1.3047089E+002
 20
-6.5307435
 40
5.0E-001
100
AcDbArc
 50
4.5E+001
 51
1.6904491E+002
  0
ARC
  5
245
100
AcDbEntity
  8
1
100
AcDbCircle
  6
CONTINUOUS
 62
7
 10
1.2943433E+002
 20
-1.1885823E+001
 40
5.0E-001
100
AcDbArc
 50
1.6904491E+002
 51
3.15E+002
  0
LINE
  5
246
100
AcDbEntity
  8
1
100
AcDbLine
  6
CONTINUOUS
 62
7
 10
1.3225711E+002
 20
-9.7701515
 11
1.2978788E+002
 21
-1.2239376E+001
  0
ARC
  5
247
100
AcDbEntity
  8
1
100
AcDbCircle
  6
CONTINUOUS
 62
7
 10
1.3155E+002
 20
-9.0630447
 40
1.0
100
AcDbArc
 50
3.15E+002
 51
3.6E+002
  0
LINE
  5
248
100
AcDbEntity
  8
1
100
AcDbLine
  6
CONTINUOUS
 62
7
 10
1.3255E+002
 20
-9.0630447
 11
1.3255E+002
 21
-8.3169553
  0
ARC
  5
249
100
AcDbEntity
  8
1
100
AcDbCircle
  6
CONTINUOUS
 62
7
 10
1.3155E+002
 20
-8.3169553
 40
1.0
100
AcDbArc
 50
0.0
 51
4.5E+001
  0
LINE
  5
24a
100
AcDbEntity
  8
1
100
AcDbLine
  6
CONTINUOUS
 62
7
 10
1.3441066E+002
 20
-6.3692893
 11
1.3646421E+002
 21
-4.3157359
  0
LINE
  5
24b
100
AcDbEntity
  8
1
100
AcDbLine
  6
CONTINUOUS
 62
7
 10
1.3705E+002
 20
-5.0E-001
 11
1.3705E+002
 21
-2.9015224
  0
ARC
  5
24c
100
AcDbEntity
  8
1
100
AcDbCircle
  6
CONTINUOUS
 62
7
 10
1.3505E+002
 20
-2.9015224
 40
2.0
100
AcDbArc
 50
3.15E+002
 51
3.6E+002
  0
ARC
  5
24d
100
AcDbEntity
  8
1
100
AcDbCircle
  6
CONTINUOUS
 62
7
 10
1.3675E+002
 20
-5.0E-001
 40
3.0E-001
100
AcDbArc
 50
0.0
 51
9.0E+001
  0
LINE
  5
24e
100
AcDbEntity
  8
1
100
AcDbLine
  6
CONTINUOUS
 62
7
 10
1.3444289E+002
 20
-7.6098485
 11
1.3587555E+002
 21
-6.1771901
  0
ARC
  5
24f
100
AcDbEntity
  8
1
100
AcDbCircle
  6
CONTINUOUS
 62
7
 10
1.3515E+002
 20
-8.3169553
 40
1.0
100
AcDbArc
 50
1.35E+002
 51
1.8E+002
  0
LINE
  5
250
100
AcDbEntity
  8
1
100
AcDbLine
  6
CONTINUOUS
 62
7
 10
1.3671999E+002
 20
-6.4357237
 11
1.3775656E+002
 21
-1.1790803E+001
  0
ARC
  5
251
100
AcDbEntity
  8
1
100
AcDbCircle
  6
CONTINUOUS
 62
7
 10
1.3622911E+002
 20
-6.5307435
 40
5.0E-001
100
AcDbArc
 50
1.0955088E+001
 51
1.35E+002
  0
ARC
  5
252
100
AcDbEntity
  8
1
100
AcDbCircle
  6
CONTINUOUS
 62
7
 10
1.3726567E+002
 20
-1.1885823E+001
 40
5.0E-001
100
AcDbArc
 50
2.25E+002
 51
3.7095509E+002
  0
LINE
  5
253
100
AcDbEntity
  8
1
100
AcDbLine
  6
CONTINUOUS
 62
7
 10
1.4181434E+002
 20
-1.2470711E+001
 11
1.3976079E+002
 21
-1.4524264E+001
  0
ARC
  5
254
100
AcDbEntity
  8
1
100
AcDbCircle
  6
CONTINUOUS
 62
7
 10
1.42875E+002
 20
-1.3531371E+001
 40
1.5
100
AcDbArc
 50
4.5E+001
 51
1.35E+002
  0
LINE
  5
255
100
AcDbEntity
  8
1
100
AcDbLine
  6
CONTINUOUS
 62
7
 10
1.4393566E+002
 20
-1.2470711E+001
 11
1.4598921E+002
 21
-1.4524264E+001
  0
ARC
  5
256
100
AcDbEntity
  8
1
100
AcDbCircle
  6
CONTINUOUS
 62
7
 10
1.44575E+002
 20
-1.5938478E+001
 40
2.0
100
AcDbArc
 50
0.0
 51
4.5E+001
  0
ARC
  5
257
100
AcDbEntity
  8
1
100
AcDbCircle
  6
CONTINUOUS
 62
7
 10
1.41175E+002
 20
-1.5938478E+001
 40
2.0
100
AcDbArc
 50
1.35E+002
 51
1.8E+002
  0
LINE
  5
258
100
AcDbEntity
  8
1
100
AcDbLine
  6
CONTINUOUS
 62
7
 10
1.39175E+002
 20
-1.5938478E+001
 11
1.39175E+002
 21
-1.834E+001
  0
LINE
  5
259
100
AcDbEntity
  8
1
100
AcDbLine
  6
CONTINUOUS
 62
7
 10
1.46575E+002
 20
-1.5938478E+001
 11
1.46575E+002
 21
-1.834E+001
  0
LINE
  5
25a
100
AcDbEntity
  8
1
100
AcDbLine
  6
CONTINUOUS
 62
7
 10
1.39475E+002
 20
-1.864E+001
 11
1.46275E+002
 21
-1.864E+001
  0
ARC
  5
25b
100
AcDbEntity
  8
1
100
AcDbCircle
  6
CONTINUOUS
 62
7
 10
1.46275E+002
 20
-1.834E+001
 40
3.0E-001
100
AcDbArc
 50
2.7E+002
 51
3.6E+002
  0
ARC
  5
25c
100
AcDbEntity
  8
1
100
AcDbCircle
  6
CONTINUOUS
 62
7
 10
1.39475E+002
 20
-1.834E+001
 40
3.0E-001
100
AcDbArc
 50
1.8E+002
 51
2.7E+002
  0
LINE
  5
25d
100
AcDbEntity
  8
1
100
AcDbLine
  6
CONTINUOUS
 62
7
 10
1.4728156E+002
 20
-7.0491967
 11
1.4624499E+002
 21
-1.2404276E+001
  0
LINE
  5
25e
100
AcDbEntity
  8
1
100
AcDbLine
  6
CONTINUOUS
 62
7
 10
1.3846844E+002
 20
-7.0491967
 11
1.3950501E+002
 21
-1.2404276E+001
  0
LINE
  5
25f
100
AcDbEntity
  8
1
100
AcDbLine
  6
CONTINUOUS
 62
7
 10
1.3444289E+002
 20
-9.7701515
 11
1.3691212E+002
 21
-1.2239376E+001
  0
LINE
  5
260
100
AcDbEntity
  8
1
100
AcDbLine
  6
CONTINUOUS
 62
7
 10
1.3415E+002
 20
-8.3169553
 11
1.3415E+002
 21
-9.0630447
  0
ARC
  5
261
100
AcDbEntity
  8
1
100
AcDbCircle
  6
CONTINUOUS
 62
7
 10
1.3515E+002
 20
-9.0630447
 40
1.0
100
AcDbArc
 50
1.8E+002
 51
2.25E+002
  0
LINE
  5
262
100
AcDbEntity
  8
1
100
AcDbLine
  6
CONTINUOUS
 62
7
 10
1.4396789E+002
 20
-9.0698485
 11
1.4643712E+002
 21
-6.6006236
  0
ARC
  5
263
100
AcDbEntity
  8
1
100
AcDbCircle
  6
CONTINUOUS
 62
7
 10
1.4679067E+002
 20
-6.954177
 40
5.0E-001
100
AcDbArc
 50
3.4904491E+002
 51
4.95E+002
  0
ARC
  5
264
100
AcDbEntity
  8
1
100
AcDbCircle
  6
CONTINUOUS
 62
7
 10
1.44675E+002
 20
-9.7769553
 40
1.0
100
AcDbArc
 50
1.35E+002
 51
1.8E+002
  0
LINE
  5
265
100
AcDbEntity
  8
1
100
AcDbLine
  6
CONTINUOUS
 62
7
 10
1.43675E+002
 20
-9.7769553
 11
1.43675E+002
 21
-1.0523045E+001
  0
LINE
  5
266
100
AcDbEntity
  8
1
100
AcDbLine
  6
CONTINUOUS
 62
7
 10
1.4396789E+002
 20
-1.1230152E+001
 11
1.4540055E+002
 21
-1.266281E+001
  0
ARC
  5
267
100
AcDbEntity
  8
1
100
AcDbCircle
  6
CONTINUOUS
 62
7
 10
1.44675E+002
 20
-1.0523045E+001
 40
1.0
100
AcDbArc
 50
1.8E+002
 51
2.25E+002
  0
ARC
  5
268
100
AcDbEntity
  8
1
100
AcDbCircle
  6
CONTINUOUS
 62
7
 10
1.4575411E+002
 20
-1.2309257E+001
 40
5.0E-001
100
AcDbArc
 50
2.25E+002
 51
3.4904491E+002
  0
LINE
  5
269
100
AcDbEntity
  8
1
100
AcDbLine
  6
CONTINUOUS
 62
7
 10
1.42075E+002
 20
-9.7769553
 11
1.42075E+002
 21
-1.0523045E+001
  0
ARC
  5
26a
100
AcDbEntity
  8
1
100
AcDbCircle
  6
CONTINUOUS
 62
7
 10
1.41075E+002
 20
-9.7769553
 40
1.0
100
AcDbArc
 50
0.0
 51
4.5E+001
  0
LINE
  5
26b
100
AcDbEntity
  8
1
100
AcDbLine
  6
CONTINUOUS
 62
7
 10
1.4178211E+002
 20
-1.1230152E+001
 11
1.4034945E+002
 21
-1.266281E+001
  0
ARC
  5
26c
100
AcDbEntity
  8
1
100
AcDbCircle
  6
CONTINUOUS
 62
7
 10
1.41075E+002
 20
-1.0523045E+001
 40
1.0
100
AcDbArc
 50
3.15E+002
 51
3.6E+002
  0
ARC
  5
26d
100
AcDbEntity
  8
1
100
AcDbCircle
  6
CONTINUOUS
 62
7
 10
1.3999589E+002
 20
-1.2309257E+001
 40
5.0E-001
100
AcDbArc
 50
1.9095509E+002
 51
3.15E+002
  0
ARC
  5
26e
100
AcDbEntity
  8
1
100
AcDbCircle
  6
CONTINUOUS
 62
7
 10
1.3895933E+002
 20
-6.954177
 40
5.0E-001
100
AcDbArc
 50
4.5E+001
 51
1.9095509E+002
  0
LINE
  5
26f
100
AcDbEntity
  8
1
100
AcDbLine
  6
CONTINUOUS
 62
7
 10
1.4178211E+002
 20
-9.0698485
 11
1.3931288E+002
 21
-6.6006236
  0
POINT
  5
270
100
AcDbEntity
  8
Drafting_Hidden_Entities
100
AcDbPoint
  6
CONTINUOUS
 62
1
 10
0.0
 20
0.0
  0
ENDBLK
  5
271
100
AcDbEntity
100
AcDbBlockEnd
  0
BLOCK
  5
272
100
AcDbEntity
100
AcDbBlockBegin
  2
_AH1
 70
0
 10
0.0
 20
0.0
  3
_AH1
  0
LINE
  5
273
100
AcDbEntity
  8
0
100
AcDbLine
  6
CONTINUOUS
 62
0
 10
-1.0
 20
1.66667E-001
 11
0.0
 21
0.0
  0
LINE
  5
274
100
AcDbEntity
  8
0
100
AcDbLine
  6
CONTINUOUS
 62
0
 10
0.0
 20
0.0
 11
-1.0
 21
-1.66667E-001
  0
LINE
  5
275
100
AcDbEntity
  8
0
100
AcDbLine
  6
CONTINUOUS
 62
0
 10
-1.0
 20
1.66667E-001
 11
-1.0
 21
-1.66667E-001
  0
LINE
  5
276
100
AcDbEntity
  8
0
100
AcDbLine
  6
CONTINUOUS
 62
0
 10
0.0
 20
0.0
 11
-1.0
 21
0.0
  0
ENDBLK
  5
277
100
AcDbEntity
100
AcDbBlockEnd
  0
BLOCK
  5
278
100
AcDbEntity
100
AcDbBlockBegin
  2
_AH2
 70
0
 10
0.0
 20
0.0
  3
_AH2
  0
LINE
  5
279
100
AcDbEntity
  8
0
100
AcDbLine
  6
CONTINUOUS
 62
0
 10
-1.0
 20
1.66667E-001
 11
0.0
 21
0.0
  0
LINE
  5
27a
100
AcDbEntity
  8
0
100
AcDbLine
  6
CONTINUOUS
 62
0
 10
0.0
 20
0.0
 11
-1.0
 21
-1.66667E-001
  0
LINE
  5
27b
100
AcDbEntity
  8
0
100
AcDbLine
  6
CONTINUOUS
 62
0
 10
0.0
 20
0.0
 11
-1.0
 21
0.0
  0
ENDBLK
  5
27c
100
AcDbEntity
100
AcDbBlockEnd
  0
BLOCK
  5
27d
100
AcDbEntity
100
AcDbBlockBegin
  2
*D188
  3
*D
 10
0.0
 20
0.0
 70
65
  0
LINE
  5
27e
100
AcDbEntity
  8
1
100
AcDbLine
  6
CONTINUOUS
 62
1
 10
3.5398523E+001
 20
9.1035852E+001
 11
3.5398523E+001
 21
8.701142E+001
  0
LINE
  5
27f
100
AcDbEntity
  8
1
100
AcDbLine
  6
CONTINUOUS
 62
1
 10
3.9748523E+001
 20
8.751142E+001
 11
3.5398523E+001
 21
8.751142E+001
  0
LINE
  5
280
100
AcDbEntity
  8
1
100
AcDbLine
  6
CONTINUOUS
 62
1
 10
3.9748523E+001
 20
8.751142E+001
 11
5.2812572E+001
 21
8.751142E+001
  0
TEXT
  5
281
100
AcDbEntity
  8
1
100
AcDbText
  6
CONTINUOUS
 62
1
 10
4.1712572E+001
 20
8.801242E+001
 40
3.0
  1
4.35
 41
8.0E-001
100
AcDbText
  0
INSERT
  5
282
100
AcDbEntity
100
AcDbBlockReference
  2
_AH15
  8
1
 62
1
 10
3.5398523E+001
 20
8.751142E+001
 41
1.5
 42
1.5
 43
1.5
 50
1.8E+002
  0
INSERT
  5
283
100
AcDbEntity
100
AcDbBlockReference
  2
_AH2
  8
1
 62
1
 10
3.9748523E+001
 20
8.751142E+001
 41
1.5
 42
1.5
 43
1.5
 50
0.0
  0
ENDBLK
  5
284
100
AcDbEntity
100
AcDbBlockEnd
  0
BLOCK
  5
285
100
AcDbEntity
100
AcDbBlockBegin
  2
*D189
  3
*D
 10
0.0
 20
0.0
 70
65
  0
LINE
  5
286
100
AcDbEntity
  8
1
100
AcDbLine
  6
CONTINUOUS
 62
1
 10
3.1048523E+001
 20
8.751142E+001
 11
3.2548523E+001
 21
8.726142E+001
  0
LINE
  5
287
100
AcDbEntity
  8
1
100
AcDbLine
  6
CONTINUOUS
 62
1
 10
3.1048523E+001
 20
8.751142E+001
 11
3.2548523E+001
 21
8.776142E+001
  0
LINE
  5
288
100
AcDbEntity
  8
1
100
AcDbLine
  6
CONTINUOUS
 62
1
 10
3.5398523E+001
 20
8.751142E+001
 11
3.1048523E+001
 21
8.751142E+001
  0
LINE
  5
289
100
AcDbEntity
  8
1
100
AcDbLine
  6
CONTINUOUS
 62
1
 10
3.1048523E+001
 20
8.751142E+001
 11
1.918726E+001
 21
8.751142E+001
  0
TEXT
  5
28a
100
AcDbEntity
  8
1
100
AcDbText
  6
CONTINUOUS
 62
1
 10
2.068726E+001
 20
8.801242E+001
 40
3.0
  1
4.35
 41
8.0E-001
100
AcDbText
  0
ENDBLK
  5
28b
100
AcDbEntity
100
AcDbBlockEnd
  0
BLOCK
  5
28c
100
AcDbEntity
100
AcDbBlockBegin
  2
*D190
  3
*D
 10
0.0
 20
0.0
 70
65
  0
LINE
  5
28d
100
AcDbEntity
  8
1
100
AcDbLine
  6
CONTINUOUS
 62
1
 10
3.1048523E+001
 20
9.8300545E+001
 11
3.1048523E+001
 21
8.011759E+001
  0
LINE
  5
28e
100
AcDbEntity
  8
1
100
AcDbLine
  6
CONTINUOUS
 62
1
 10
3.9748523E+001
 20
9.8300545E+001
 11
3.9748523E+001
 21
8.011759E+001
  0
LINE
  5
28f
100
AcDbEntity
  8
1
100
AcDbLine
  6
CONTINUOUS
 62
1
 10
3.1048523E+001
 20
8.061759E+001
 11
3.5398523E+001
 21
8.061759E+001
  0
LINE
  5
290
100
AcDbEntity
  8
1
100
AcDbLine
  6
CONTINUOUS
 62
1
 10
3.9748523E+001
 20
8.061759E+001
 11
3.5398523E+001
 21
8.061759E+001
  0
TEXT
  5
291
100
AcDbEntity
  8
1
100
AcDbText
  6
CONTINUOUS
 62
1
 10
3.1798523E+001
 20
8.111859E+001
 40
3.0
  1
8.7
 41
8.0E-001
100
AcDbText
  0
INSERT
  5
292
100
AcDbEntity
100
AcDbBlockReference
  2
_AH2
  8
1
 62
1
 10
3.1048523E+001
 20
8.061759E+001
 41
1.5
 42
1.5
 43
1.5
 50
1.8E+002
  0
INSERT
  5
293
100
AcDbEntity
100
AcDbBlockReference
  2
_AH2
  8
1
 62
1
 10
3.9748523E+001
 20
8.061759E+001
 41
1.5
 42
1.5
 43
1.5
 50
0.0
  0
ENDBLK
  5
294
100
AcDbEntity
100
AcDbBlockEnd
  0
BLOCK
  5
295
100
AcDbEntity
100
AcDbBlockBegin
  2
*D8551
  3
*D
 10
0.0
 20
0.0
 70
65
  0
LINE
  5
296
100
AcDbEntity
  8
1
100
AcDbLine
  6
CONTINUOUS
 62
1
 10
2.9639887E+001
 20
1.5582589E+002
 11
2.2406194E+001
 21
1.5582589E+002
  0
LINE
  5
297
100
AcDbEntity
  8
1
100
AcDbLine
  6
CONTINUOUS
 62
1
 10
2.9639887E+001
 20
1.3677589E+002
 11
2.2406194E+001
 21
1.3677589E+002
  0
LINE
  5
298
100
AcDbEntity
  8
1
100
AcDbLine
  6
CONTINUOUS
 62
1
 10
2.3606194E+001
 20
1.5582589E+002
 11
2.3606194E+001
 21
1.4630089E+002
  0
LINE
  5
299
100
AcDbEntity
  8
1
100
AcDbLine
  6
CONTINUOUS
 62
1
 10
2.3606194E+001
 20
1.3677589E+002
 11
2.3606194E+001
 21
1.4630089E+002
  0
TEXT
  5
29a
100
AcDbEntity
  8
1
100
AcDbText
  6
CONTINUOUS
 62
1
 10
2.3005194E+001
 20
1.4030089E+002
 40
3.0
  1
19.05
 41
8.0E-001
 50
9.0E+001
100
AcDbText
  0
INSERT
  5
29b
100
AcDbEntity
100
AcDbBlockReference
  2
_AH2
  8
1
 62
1
 10
2.3606194E+001
 20
1.5582589E+002
 41
1.8
 42
1.8
 43
1.8
 50
9.0E+001
  0
INSERT
  5
29c
100
AcDbEntity
100
AcDbBlockReference
  2
_AH2
  8
1
 62
1
 10
2.3606194E+001
 20
1.3677589E+002
 41
1.8
 42
1.8
 43
1.8
 50
2.7E+002
  0
ENDBLK
  5
29d
100
AcDbEntity
100
AcDbBlockEnd
  0
BLOCK
  5
29e
100
AcDbEntity
100
AcDbBlockBegin
  2
*D10655
  3
*D
 10
0.0
 20
0.0
 70
65
  0
LINE
  5
29f
100
AcDbEntity
  8
1
100
AcDbLine
  6
CONTINUOUS
 62
1
 10
7.646704E+001
 20
1.5882589E+002
 11
7.646704E+001
 21
1.7523063E+002
  0
LINE
  5
2a0
100
AcDbEntity
  8
1
100
AcDbLine
  6
CONTINUOUS
 62
1
 10
2.2886704E+002
 20
1.5882589E+002
 11
2.2886704E+002
 21
1.7523063E+002
  0
LINE
  5
2a1
100
AcDbEntity
  8
1
100
AcDbLine
  6
CONTINUOUS
 62
1
 10
7.646704E+001
 20
1.7473063E+002
 11
1.5266704E+002
 21
1.7473063E+002
  0
LINE
  5
2a2
100
AcDbEntity
  8
1
100
AcDbLine
  6
CONTINUOUS
 62
1
 10
2.2886704E+002
 20
1.7473063E+002
 11
1.5266704E+002
 21
1.7473063E+002
  0
TEXT
  5
2a3
100
AcDbEntity
  8
1
100
AcDbText
  6
CONTINUOUS
 62
1
 10
1.4666704E+002
 20
1.7573163E+002
 40
3.0
  1
152.4
 41
8.0E-001
100
AcDbText
  0
INSERT
  5
2a4
100
AcDbEntity
100
AcDbBlockReference
  2
_AH2
  8
1
 62
1
 10
7.646704E+001
 20
1.7473063E+002
 41
1.5
 42
1.5
 43
1.5
 50
1.8E+002
  0
INSERT
  5
2a5
100
AcDbEntity
100
AcDbBlockReference
  2
_AH2
  8
1
 62
1
 10
2.2886704E+002
 20
1.7473063E+002
 41
1.5
 42
1.5
 43
1.5
 50
0.0
  0
ENDBLK
  5
2a6
100
AcDbEntity
100
AcDbBlockEnd
  0
BLOCK
  5
2a7
100
AcDbEntity
100
AcDbBlockBegin
  2
*D23750
  3
*D
 10
0.0
 20
0.0
 70
65
  0
LINE
  5
2a8
100
AcDbEntity
  8
1
100
AcDbLine
  6
CONTINUOUS
 62
1
 10
2.9739887E+001
 20
1.1772589E+002
 11
2.3106194E+001
 21
1.1772589E+002
  0
LINE
  5
2a9
100
AcDbEntity
  8
1
100
AcDbLine
  6
CONTINUOUS
 62
1
 10
2.3606194E+001
 20
1.1772589E+002
 11
2.3606194E+001
 21
1.2725089E+002
  0
LINE
  5
2aa
100
AcDbEntity
  8
1
100
AcDbLine
  6
CONTINUOUS
 62
1
 10
2.3606194E+001
 20
1.3677589E+002
 11
2.3606194E+001
 21
1.2725089E+002
  0
TEXT
  5
2ab
100
AcDbEntity
  8
1
100
AcDbText
  6
CONTINUOUS
 62
1
 10
2.3105194E+001
 20
1.2125089E+002
 40
3.0
  1
19.05
 41
8.0E-001
 50
9.0E+001
100
AcDbText
  0
INSERT
  5
2ac
100
AcDbEntity
100
AcDbBlockReference
  2
_AH2
  8
1
 62
1
 10
2.3606194E+001
 20
1.1772589E+002
 41
2.0
 42
2.0
 43
2.0
 50
2.7E+002
  0
INSERT
  5
2ad
100
AcDbEntity
100
AcDbBlockReference
  2
_AH2
  8
1
 62
1
 10
2.3606194E+001
 20
1.3677589E+002
 41
2.0
 42
2.0
 43
2.0
 50
9.0E+001
  0
ENDBLK
  5
2ae
100
AcDbEntity
100
AcDbBlockEnd
  0
ENDSEC
  0
SECTION
  2
ENTITIES
  0
LINE
  5
2af
100
AcDbEntity
  8
1
100
AcDbLine
  6
CONTINUOUS
 62
7
 10
5.9122195E+001
 20
1.0855257E+002
 11
5.9122195E+001
 21
1.3898232E+002
  0
LINE
  5
2b0
100
AcDbEntity
  8
1
100
AcDbLine
  6
CONTINUOUS
 62
7
 10
5.9122195E+001
 20
1.3898232E+002
 11
5.9998608E+001
 21
1.357115E+002
  0
LINE
  5
2b1
100
AcDbEntity
  8
1
100
AcDbLine
  6
CONTINUOUS
 62
7
 10
5.9122195E+001
 20
1.3898232E+002
 11
5.8245782E+001
 21
1.357115E+002
  0
LINE
  5
2b2
100
AcDbEntity
  8
1
100
AcDbLine
  6
CONTINUOUS
 62
7
 10
2.2836704E+002
 20
4.7404401E+001
 11
7.696704E+001
 21
4.7404401E+001
  0
LINE
  5
2b3
100
AcDbEntity
  8
1
100
AcDbLine
  6
CONTINUOUS
 62
7
 10
5.9122195E+001
 20
1.0855257E+002
 11
5.9998608E+001
 21
1.1182339E+002
  0
LINE
  5
2b4
100
AcDbEntity
  8
1
100
AcDbLine
  6
CONTINUOUS
 62
7
 10
5.9122195E+001
 20
1.0855257E+002
 11
5.8245782E+001
 21
1.1182339E+002
  0
ARC
  5
2b5
100
AcDbEntity
  8
1
100
AcDbCircle
  6
CONTINUOUS
 62
7
 10
9.111704E+001
 20
4.5004401E+001
 40
5.0E-001
100
AcDbArc
 50
9.0E+001
 51
1.8E+002
  0
ARC
  5
2b6
100
AcDbEntity
  8
1
100
AcDbCircle
  6
CONTINUOUS
 62
7
 10
9.991704E+001
 20
4.5004401E+001
 40
5.0E-001
100
AcDbArc
 50
0.0
 51
9.0E+001
  0
ARC
  5
2b7
100
AcDbEntity
  8
1
100
AcDbCircle
  6
CONTINUOUS
 62
7
 10
1.1016704E+002
 20
4.5004401E+001
 40
5.0E-001
100
AcDbArc
 50
9.0E+001
 51
1.8E+002
  0
ARC
  5
2b8
100
AcDbEntity
  8
1
100
AcDbCircle
  6
CONTINUOUS
 62
7
 10
1.1896704E+002
 20
4.5004401E+001
 40
5.0E-001
100
AcDbArc
 50
0.0
 51
9.0E+001
  0
ARC
  5
2b9
100
AcDbEntity
  8
1
100
AcDbCircle
  6
CONTINUOUS
 62
7
 10
1.2921704E+002
 20
4.5004401E+001
 40
5.0E-001
100
AcDbArc
 50
9.0E+001
 51
1.8E+002
  0
ARC
  5
2ba
100
AcDbEntity
  8
1
100
AcDbCircle
  6
CONTINUOUS
 62
7
 10
1.3801704E+002
 20
4.5004401E+001
 40
5.0E-001
100
AcDbArc
 50
0.0
 51
9.0E+001
  0
INSERT
  5
2bb
100
AcDbEntity
100
AcDbBlockReference
  2
*TX28
  8
1
 10
6.167539E+001
 20
1.3000551E+002
  0
LINE
  5
2bc
100
AcDbEntity
  8
1
100
AcDbLine
  6
CONTINUOUS
 62
7
 10
2.2836704E+002
 20
3.8704401E+001
 11
7.696704E+001
 21
3.8704401E+001
  0
LINE
  5
2bd
100
AcDbEntity
  8
1
100
AcDbLine
  6
CENTERLINE
 62
6
 10
3.5398523E+001
 20
1.6223573E+002
 11
3.5398523E+001
 21
9.1535852E+001
  0
DIMENSION
  5
2be
100
AcDbEntity
  8
1
100
AcDbDimension
  6
CONTINUOUS
 62
1
  2
*D188
  3
DSTYLE1
 10
3.9748523E+001
 20
8.751142E+001
 11
4.6512572E+001
 21
8.951242E+001
 70
128
100
AcDbAlignedDimension
 13
3.5398523E+001
 23
9.1535852E+001
 14
3.9748523E+001
 24
9.8885699E+001
 40
1.0
 50
0.0
100
AcDbRotatedDimension
1001
ACAD
1000
DSTYLE
1002
{
1070
173
1070
1
1070
7
1000
_AH2
1070
6
1000
_AH15
1002
}
  0
DIMENSION
  5
2bf
100
AcDbEntity
  8
1
100
AcDbDimension
  6
CONTINUOUS
 62
1
  2
*D189
  3
DSTYLE2
 10
3.5398523E+001
 20
8.751142E+001
 11
2.548726E+001
 21
8.951242E+001
 70
128
100
AcDbAlignedDimension
 13
3.1048523E+001
 23
9.8885889E+001
 14
3.5398523E+001
 24
9.1535852E+001
 40
1.0
 50
0.0
100
AcDbRotatedDimension
1001
ACAD
1000
DSTYLE
1002
{
1070
173
1070
0
1070
5
1000
_AH2
1002
}
  0
DIMENSION
  5
2c0
100
AcDbEntity
  8
1
100
AcDbDimension
  6
CONTINUOUS
 62
1
  2
*D190
  3
DSTYLE3
 10
3.9748523E+001
 20
8.061759E+001
 11
3.5398523E+001
 21
8.261859E+001
 70
128
100
AcDbAlignedDimension
 13
3.1048523E+001
 23
9.8800545E+001
 14
3.9748523E+001
 24
9.8800545E+001
 40
1.0
 50
0.0
100
AcDbRotatedDimension
1001
ACAD
1000
DSTYLE
1002
{
1070
173
1070
0
1070
5
1000
_AH2
1002
}
  0
LINE
  5
2c1
100
AcDbEntity
  8
1
100
AcDbLine
  6
CENTER_C
 62
6
 10
3.0239887E+001
 20
1.5582589E+002
 11
4.0901068E+001
 21
1.5582589E+002
  0
ARC
  5
2c2
100
AcDbEntity
  8
1
100
AcDbCircle
  6
CONTINUOUS
 62
7
 10
3.5398523E+001
 20
1.5582589E+002
 40
2.4
100
AcDbArc
 50
2.0175521E+002
 51
2.5346195E+002
  0
LINE
  5
2c3
100
AcDbEntity
  8
1
100
AcDbLine
  6
CONTINUOUS
 62
7
 10
3.1048523E+001
 20
1.5582589E+002
 11
3.1048523E+001
 21
1.3698589E+002
  0
ARC
  5
2c4
100
AcDbEntity
  8
1
100
AcDbCircle
  6
CONTINUOUS
 62
7
 10
3.5398523E+001
 20
1.5582589E+002
 40
4.35
100
AcDbArc
 50
8.9997501E+001
 51
1.8E+002
  0
ARC
  5
2c5
100
AcDbEntity
  8
1
100
AcDbCircle
  6
CONTINUOUS
 62
7
 10
3.4349523E+001
 20
1.5477689E+002
 40
5.5
100
AcDbArc
 50
1.0997243E+001
 51
7.9002757E+001
  0
LINE
  5
2c6
100
AcDbEntity
  8
1
100
AcDbLine
  6
CONTINUOUS
 62
7
 10
3.9748523E+001
 20
1.5582608E+002
 11
3.9748523E+001
 21
1.369857E+002
  0
ARC
  5
2c7
100
AcDbEntity
  8
1
100
AcDbCircle
  6
CONTINUOUS
 62
7
 10
3.5398523E+001
 20
1.3698589E+002
 40
4.35
100
AcDbArc
 50
1.8E+002
 51
1.8138314E+002
  0
ARC
  5
2c8
100
AcDbEntity
  8
1
100
AcDbCircle
  6
CONTINUOUS
 62
7
 10
3.4349523E+001
 20
1.3803489E+002
 40
5.5
100
AcDbArc
 50
3.478883E+002
 51
3.4900276E+002
  0
ARC
  5
2c9
100
AcDbEntity
  8
1
100
AcDbCircle
  6
CONTINUOUS
 62
7
 10
2.1361576E+002
 20
1.5947589E+002
 40
7.0E-001
100
AcDbArc
 50
1.974934
 51
9.0E+001
  0
ARC
  5
2ca
100
AcDbEntity
  8
1
100
AcDbCircle
  6
CONTINUOUS
 62
7
 10
2.0601832E+002
 20
1.5947589E+002
 40
7.0E-001
100
AcDbArc
 50
9.0E+001
 51
1.7802507E+002
  0
ARC
  5
2cb
100
AcDbEntity
  8
1
100
AcDbCircle
  6
CONTINUOUS
 62
7
 10
1.9456576E+002
 20
1.5947589E+002
 40
7.0E-001
100
AcDbArc
 50
1.974934
 51
9.0E+001
  0
ARC
  5
2cc
100
AcDbEntity
  8
1
100
AcDbCircle
  6
CONTINUOUS
 62
7
 10
1.8696832E+002
 20
1.5947589E+002
 40
7.0E-001
100
AcDbArc
 50
9.0E+001
 51
1.7802507E+002
  0
ARC
  5
2cd
100
AcDbEntity
  8
1
100
AcDbCircle
  6
CONTINUOUS
 62
7
 10
1.7551576E+002
 20
1.5947589E+002
 40
7.0E-001
100
AcDbArc
 50
1.974934
 51
9.0E+001
  0
ARC
  5
2ce
100
AcDbEntity
  8
1
100
AcDbCircle
  6
CONTINUOUS
 62
7
 10
1.6791832E+002
 20
1.5947589E+002
 40
7.0E-001
100
AcDbArc
 50
9.0E+001
 51
1.7802507E+002
  0
LINE
  5
2cf
100
AcDbEntity
  8
1
100
AcDbLine
  6
CONTINUOUS
 62
7
 10
2.2886704E+002
 20
1.5832589E+002
 11
2.2886704E+002
 21
1.4268589E+002
  0
LINE
  5
2d0
100
AcDbEntity
  8
1
100
AcDbLine
  6
CONTINUOUS
 62
7
 10
2.2424204E+002
 20
1.5582589E+002
 11
2.2424204E+002
 21
1.532401E+002
  0
LINE
  5
2d1
100
AcDbEntity
  8
1
100
AcDbLine
  6
CONTINUOUS
 62
7
 10
2.1444204E+002
 20
1.5582589E+002
 11
2.1444204E+002
 21
1.532401E+002
  0
LINE
  5
2d2
100
AcDbEntity
  8
1
100
AcDbLine
  6
CONTINUOUS
 62
7
 10
2.0519204E+002
 20
1.5582589E+002
 11
2.0519204E+002
 21
1.532401E+002
  0
LINE
  5
2d3
100
AcDbEntity
  8
1
100
AcDbLine
  6
CONTINUOUS
 62
7
 10
1.9539204E+002
 20
1.5582589E+002
 11
1.9539204E+002
 21
1.532401E+002
  0
LINE
  5
2d4
100
AcDbEntity
  8
1
100
AcDbLine
  6
CONTINUOUS
 62
7
 10
2.2396704E+002
 20
1.4068589E+002
 11
2.2396704E+002
 21
1.3698589E+002
  0
LINE
  5
2d5
100
AcDbEntity
  8
1
100
AcDbLine
  6
CONTINUOUS
 62
7
 10
2.1471704E+002
 20
1.3957168E+002
 11
2.1471704E+002
 21
1.3698589E+002
  0
LINE
  5
2d6
100
AcDbEntity
  8
1
100
AcDbLine
  6
CONTINUOUS
 62
7
 10
2.0491704E+002
 20
1.3957168E+002
 11
2.0491704E+002
 21
1.3698589E+002
  0
LINE
  5
2d7
100
AcDbEntity
  8
1
100
AcDbLine
  6
CONTINUOUS
 62
7
 10
1.9566704E+002
 20
1.3957168E+002
 11
1.9566704E+002
 21
1.3698589E+002
  0
LINE
  5
2d8
100
AcDbEntity
  8
1
100
AcDbLine
  6
CONTINUOUS
 62
7
 10
2.2783111E+002
 20
1.6017589E+002
 11
2.2506832E+002
 21
1.6017589E+002
  0
LINE
  5
2d9
100
AcDbEntity
  8
1
100
AcDbLine
  6
CONTINUOUS
 62
7
 10
2.2786704E+002
 20
1.4168589E+002
 11
2.2496704E+002
 21
1.4168589E+002
  0
LINE
  5
2da
100
AcDbEntity
  8
1
100
AcDbLine
  6
CONTINUOUS
 62
7
 10
2.2850687E+002
 20
1.5965852E+002
 11
2.2886704E+002
 21
1.5832589E+002
  0
ARC
  5
2db
100
AcDbEntity
  8
1
100
AcDbCircle
  6
CONTINUOUS
 62
7
 10
3.5398523E+001
 20
1.5372589E+002
 40
2.95
100
AcDbArc
 50
2.7E+002
 51
3.6E+002
  0
ARC
  5
2dc
100
AcDbEntity
  8
1
100
AcDbCircle
  6
CONTINUOUS
 62
7
 10
2.2783111E+002
 20
1.5947589E+002
 40
7.0E-001
100
AcDbArc
 50
1.5124007E+001
 51
9.0E+001
  0
LINE
  5
2dd
100
AcDbEntity
  8
1
100
AcDbLine
  6
CONTINUOUS
 62
7
 10
2.2424204E+002
 20
1.5582589E+002
 11
2.2436873E+002
 21
1.5950001E+002
  0
ARC
  5
2de
100
AcDbEntity
  8
1
100
AcDbCircle
  6
CONTINUOUS
 62
7
 10
2.2506832E+002
 20
1.5947589E+002
 40
7.0E-001
100
AcDbArc
 50
9.0E+001
 51
1.7802507E+002
  0
LINE
  5
2df
100
AcDbEntity
  8
1
100
AcDbLine
  6
CONTINUOUS
 62
7
 10
2.1444204E+002
 20
1.5582589E+002
 11
2.1431535E+002
 21
1.5950001E+002
  0
LINE
  5
2e0
100
AcDbEntity
  8
1
100
AcDbLine
  6
CONTINUOUS
 62
7
 10
2.0519204E+002
 20
1.5582589E+002
 11
2.0531873E+002
 21
1.5950001E+002
  0
LINE
  5
2e1
100
AcDbEntity
  8
1
100
AcDbLine
  6
CONTINUOUS
 62
7
 10
1.9539204E+002
 20
1.5582589E+002
 11
1.9526535E+002
 21
1.5950001E+002
  0
LINE
  5
2e2
100
AcDbEntity
  8
1
100
AcDbLine
  6
CONTINUOUS
 62
7
 10
2.1361576E+002
 20
1.6017589E+002
 11
2.0601832E+002
 21
1.6017589E+002
  0
ARC
  5
2e3
100
AcDbEntity
  8
1
100
AcDbCircle
  6
CONTINUOUS
 62
7
 10
2.2496704E+002
 20
1.4068589E+002
 40
1.0
100
AcDbArc
 50
9.0E+001
 51
1.8E+002
  0
ARC
  5
2e4
100
AcDbEntity
  8
1
100
AcDbCircle
  6
CONTINUOUS
 62
7
 10
2.2786704E+002
 20
1.4268589E+002
 40
1.0
100
AcDbArc
 50
2.7E+002
 51
3.6E+002
  0
LINE
  5
2e5
100
AcDbEntity
  8
1
100
AcDbLine
  6
CONTINUOUS
 62
7
 10
2.1863493E+002
 20
1.48633E+002
 11
2.1473493E+002
 21
1.52533E+002
  0
LINE
  5
2e6
100
AcDbEntity
  8
1
100
AcDbLine
  6
CONTINUOUS
 62
7
 10
2.2004915E+002
 20
1.48633E+002
 11
2.2394915E+002
 21
1.52533E+002
  0
ARC
  5
2e7
100
AcDbEntity
  8
1
100
AcDbCircle
  6
CONTINUOUS
 62
7
 10
2.1544204E+002
 20
1.532401E+002
 40
1.0
100
AcDbArc
 50
1.8E+002
 51
2.25E+002
  0
ARC
  5
2e8
100
AcDbEntity
  8
1
100
AcDbCircle
  6
CONTINUOUS
 62
7
 10
2.2324204E+002
 20
1.532401E+002
 40
1.0
100
AcDbArc
 50
3.15E+002
 51
3.6E+002
  0
ARC
  5
2e9
100
AcDbEntity
  8
1
100
AcDbCircle
  6
CONTINUOUS
 62
7
 10
2.1934204E+002
 20
1.493401E+002
 40
1.0
100
AcDbArc
 50
2.25E+002
 51
3.15E+002
  0
LINE
  5
2ea
100
AcDbEntity
  8
1
100
AcDbLine
  6
CONTINUOUS
 62
7
 10
2.2396704E+002
 20
1.3698589E+002
 11
2.2384258E+002
 21
1.3337642E+002
  0
LINE
  5
2eb
100
AcDbEntity
  8
1
100
AcDbLine
  6
CONTINUOUS
 62
7
 10
2.1471704E+002
 20
1.3698589E+002
 11
2.148415E+002
 21
1.3337642E+002
  0
LINE
  5
2ec
100
AcDbEntity
  8
1
100
AcDbLine
  6
CONTINUOUS
 62
7
 10
2.2310204E+002
 20
1.3263589E+002
 11
2.2134204E+002
 21
1.3263589E+002
  0
LINE
  5
2ed
100
AcDbEntity
  8
1
100
AcDbLine
  6
CONTINUOUS
 62
7
 10
2.2134204E+002
 20
1.3283589E+002
 11
2.2134204E+002
 21
1.3263589E+002
  0
LINE
  5
2ee
100
AcDbEntity
  8
1
100
AcDbLine
  6
CONTINUOUS
 62
7
 10
2.1734204E+002
 20
1.3283589E+002
 11
2.1734204E+002
 21
1.3263589E+002
  0
LINE
  5
2ef
100
AcDbEntity
  8
1
100
AcDbLine
  6
CONTINUOUS
 62
7
 10
2.2134204E+002
 20
1.3283589E+002
 11
2.1734204E+002
 21
1.3283589E+002
  0
LINE
  5
2f0
100
AcDbEntity
  8
1
100
AcDbLine
  6
CONTINUOUS
 62
7
 10
2.1734204E+002
 20
1.3263589E+002
 11
2.1558204E+002
 21
1.3263589E+002
  0
ARC
  5
2f1
100
AcDbEntity
  8
1
100
AcDbCircle
  6
CONTINUOUS
 62
7
 10
2.0419204E+002
 20
1.532401E+002
 40
1.0
100
AcDbArc
 50
3.15E+002
 51
3.6E+002
  0
LINE
  5
2f2
100
AcDbEntity
  8
1
100
AcDbLine
  6
CONTINUOUS
 62
7
 10
2.0099915E+002
 20
1.48633E+002
 11
2.0489915E+002
 21
1.52533E+002
  0
ARC
  5
2f3
100
AcDbEntity
  8
1
100
AcDbCircle
  6
CONTINUOUS
 62
7
 10
2.0029204E+002
 20
1.493401E+002
 40
1.0
100
AcDbArc
 50
2.25E+002
 51
3.15E+002
  0
LINE
  5
2f4
100
AcDbEntity
  8
1
100
AcDbLine
  6
CONTINUOUS
 62
7
 10
1.9958493E+002
 20
1.48633E+002
 11
1.9568493E+002
 21
1.52533E+002
  0
ARC
  5
2f5
100
AcDbEntity
  8
1
100
AcDbCircle
  6
CONTINUOUS
 62
7
 10
1.9639204E+002
 20
1.532401E+002
 40
1.0
100
AcDbArc
 50
1.8E+002
 51
2.25E+002
  0
ARC
  5
2f6
100
AcDbEntity
  8
1
100
AcDbCircle
  6
CONTINUOUS
 62
7
 10
2.1371704E+002
 20
1.3957168E+002
 40
1.0
100
AcDbArc
 50
0.0
 51
4.5E+001
  0
LINE
  5
2f7
100
AcDbEntity
  8
1
100
AcDbLine
  6
CONTINUOUS
 62
7
 10
2.1052415E+002
 20
1.4417878E+002
 11
2.1442415E+002
 21
1.4027878E+002
  0
ARC
  5
2f8
100
AcDbEntity
  8
1
100
AcDbCircle
  6
CONTINUOUS
 62
7
 10
2.0981704E+002
 20
1.4347168E+002
 40
1.0
100
AcDbArc
 50
4.5E+001
 51
1.35E+002
  0
LINE
  5
2f9
100
AcDbEntity
  8
1
100
AcDbLine
  6
CONTINUOUS
 62
7
 10
2.0910993E+002
 20
1.4417878E+002
 11
2.0520993E+002
 21
1.4027878E+002
  0
ARC
  5
2fa
100
AcDbEntity
  8
1
100
AcDbCircle
  6
CONTINUOUS
 62
7
 10
2.0591704E+002
 20
1.3957168E+002
 40
1.0
100
AcDbArc
 50
1.35E+002
 51
1.8E+002
  0
LINE
  5
2fb
100
AcDbEntity
  8
1
100
AcDbLine
  6
CONTINUOUS
 62
7
 10
1.9456576E+002
 20
1.6017589E+002
 11
1.8696832E+002
 21
1.6017589E+002
  0
LINE
  5
2fc
100
AcDbEntity
  8
1
100
AcDbLine
  6
CONTINUOUS
 62
7
 10
1.9147415E+002
 20
1.4417878E+002
 11
1.9537415E+002
 21
1.4027878E+002
  0
ARC
  5
2fd
100
AcDbEntity
  8
1
100
AcDbCircle
  6
CONTINUOUS
 62
7
 10
1.9466704E+002
 20
1.3957168E+002
 40
1.0
100
AcDbArc
 50
0.0
 51
4.5E+001
  0
ARC
  5
2fe
100
AcDbEntity
  8
1
100
AcDbCircle
  6
CONTINUOUS
 62
7
 10
1.9076704E+002
 20
1.4347168E+002
 40
1.0
100
AcDbArc
 50
4.5E+001
 51
1.35E+002
  0
LINE
  5
2ff
100
AcDbEntity
  8
1
100
AcDbLine
  6
CONTINUOUS
 62
7
 10
2.0405204E+002
 20
1.3263589E+002
 11
2.0229204E+002
 21
1.3263589E+002
  0
LINE
  5
300
100
AcDbEntity
  8
1
100
AcDbLine
  6
CONTINUOUS
 62
7
 10
2.0229204E+002
 20
1.3283589E+002
 11
2.0229204E+002
 21
1.3263589E+002
  0
LINE
  5
301
100
AcDbEntity
  8
1
100
AcDbLine
  6
CONTINUOUS
 62
7
 10
1.9829204E+002
 20
1.3283589E+002
 11
1.9829204E+002
 21
1.3263589E+002
  0
LINE
  5
302
100
AcDbEntity
  8
1
100
AcDbLine
  6
CONTINUOUS
 62
7
 10
2.0229204E+002
 20
1.3283589E+002
 11
1.9829204E+002
 21
1.3283589E+002
  0
LINE
  5
303
100
AcDbEntity
  8
1
100
AcDbLine
  6
CONTINUOUS
 62
7
 10
1.9829204E+002
 20
1.3263589E+002
 11
1.9653204E+002
 21
1.3263589E+002
  0
LINE
  5
304
100
AcDbEntity
  8
1
100
AcDbLine
  6
CONTINUOUS
 62
7
 10
2.0491704E+002
 20
1.3698589E+002
 11
2.0479258E+002
 21
1.3337642E+002
  0
LINE
  5
305
100
AcDbEntity
  8
1
100
AcDbLine
  6
CONTINUOUS
 62
7
 10
1.9566704E+002
 20
1.3698589E+002
 11
1.957915E+002
 21
1.3337642E+002
  0
LINE
  5
306
100
AcDbEntity
  8
1
100
AcDbLine
  6
CONTINUOUS
 62
7
 10
1.8614204E+002
 20
1.5582589E+002
 11
1.8614204E+002
 21
1.532401E+002
  0
LINE
  5
307
100
AcDbEntity
  8
1
100
AcDbLine
  6
CONTINUOUS
 62
7
 10
1.7634204E+002
 20
1.5582589E+002
 11
1.7634204E+002
 21
1.532401E+002
  0
LINE
  5
308
100
AcDbEntity
  8
1
100
AcDbLine
  6
CONTINUOUS
 62
7
 10
1.8614204E+002
 20
1.5582589E+002
 11
1.8626873E+002
 21
1.5950001E+002
  0
LINE
  5
309
100
AcDbEntity
  8
1
100
AcDbLine
  6
CONTINUOUS
 62
7
 10
1.7634204E+002
 20
1.5582589E+002
 11
1.7621535E+002
 21
1.5950001E+002
  0
ARC
  5
30a
100
AcDbEntity
  8
1
100
AcDbCircle
  6
CONTINUOUS
 62
7
 10
1.8514204E+002
 20
1.532401E+002
 40
1.0
100
AcDbArc
 50
3.15E+002
 51
3.6E+002
  0
LINE
  5
30b
100
AcDbEntity
  8
1
100
AcDbLine
  6
CONTINUOUS
 62
7
 10
1.8194915E+002
 20
1.48633E+002
 11
1.8584915E+002
 21
1.52533E+002
  0
ARC
  5
30c
100
AcDbEntity
  8
1
100
AcDbCircle
  6
CONTINUOUS
 62
7
 10
1.8124204E+002
 20
1.493401E+002
 40
1.0
100
AcDbArc
 50
2.25E+002
 51
3.15E+002
  0
LINE
  5
30d
100
AcDbEntity
  8
1
100
AcDbLine
  6
CONTINUOUS
 62
7
 10
1.8053493E+002
 20
1.48633E+002
 11
1.7663493E+002
 21
1.52533E+002
  0
ARC
  5
30e
100
AcDbEntity
  8
1
100
AcDbCircle
  6
CONTINUOUS
 62
7
 10
1.7734204E+002
 20
1.532401E+002
 40
1.0
100
AcDbArc
 50
1.8E+002
 51
2.25E+002
  0
LINE
  5
30f
100
AcDbEntity
  8
1
100
AcDbLine
  6
CONTINUOUS
 62
7
 10
1.7551576E+002
 20
1.6017589E+002
 11
1.6791832E+002
 21
1.6017589E+002
  0
LINE
  5
310
100
AcDbEntity
  8
1
100
AcDbLine
  6
CONTINUOUS
 62
7
 10
1.9005993E+002
 20
1.4417878E+002
 11
1.8615993E+002
 21
1.4027878E+002
  0
ARC
  5
311
100
AcDbEntity
  8
1
100
AcDbCircle
  6
CONTINUOUS
 62
7
 10
1.8686704E+002
 20
1.3957168E+002
 40
1.0
100
AcDbArc
 50
1.35E+002
 51
1.8E+002
  0
LINE
  5
312
100
AcDbEntity
  8
1
100
AcDbLine
  6
CONTINUOUS
 62
7
 10
1.8586704E+002
 20
1.3957168E+002
 11
1.8586704E+002
 21
1.3698589E+002
  0
LINE
  5
313
100
AcDbEntity
  8
1
100
AcDbLine
  6
CONTINUOUS
 62
7
 10
1.8586704E+002
 20
1.3698589E+002
 11
1.8574258E+002
 21
1.3337642E+002
  0
LINE
  5
314
100
AcDbEntity
  8
1
100
AcDbLine
  6
CONTINUOUS
 62
7
 10
1.8500204E+002
 20
1.3263589E+002
 11
1.8324204E+002
 21
1.3263589E+002
  0
LINE
  5
315
100
AcDbEntity
  8
1
100
AcDbLine
  6
CONTINUOUS
 62
7
 10
1.8324204E+002
 20
1.3283589E+002
 11
1.8324204E+002
 21
1.3263589E+002
  0
LINE
  5
316
100
AcDbEntity
  8
1
100
AcDbLine
  6
CONTINUOUS
 62
7
 10
1.8324204E+002
 20
1.3283589E+002
 11
1.7924204E+002
 21
1.3283589E+002
  0
LINE
  5
317
100
AcDbEntity
  8
1
100
AcDbLine
  6
CONTINUOUS
 62
7
 10
1.7924204E+002
 20
1.3283589E+002
 11
1.7924204E+002
 21
1.3263589E+002
  0
LINE
  5
318
100
AcDbEntity
  8
1
100
AcDbLine
  6
CONTINUOUS
 62
7
 10
1.7924204E+002
 20
1.3263589E+002
 11
1.7748204E+002
 21
1.3263589E+002
  0
LINE
  5
319
100
AcDbEntity
  8
1
100
AcDbLine
  6
CONTINUOUS
 62
7
 10
1.7661704E+002
 20
1.3698589E+002
 11
1.767415E+002
 21
1.3337642E+002
  0
LINE
  5
31a
100
AcDbEntity
  8
1
100
AcDbLine
  6
CONTINUOUS
 62
7
 10
1.7661704E+002
 20
1.3957168E+002
 11
1.7661704E+002
 21
1.3698589E+002
  0
ARC
  5
31b
100
AcDbEntity
  8
1
100
AcDbCircle
  6
CONTINUOUS
 62
7
 10
1.7561704E+002
 20
1.3957168E+002
 40
1.0
100
AcDbArc
 50
0.0
 51
4.5E+001
  0
LINE
  5
31c
100
AcDbEntity
  8
1
100
AcDbLine
  6
CONTINUOUS
 62
7
 10
1.7242415E+002
 20
1.4417878E+002
 11
1.7632415E+002
 21
1.4027878E+002
  0
ARC
  5
31d
100
AcDbEntity
  8
1
100
AcDbCircle
  6
CONTINUOUS
 62
7
 10
1.7171704E+002
 20
1.4347168E+002
 40
1.0
100
AcDbArc
 50
4.5E+001
 51
1.35E+002
  0
LINE
  5
31e
100
AcDbEntity
  8
1
100
AcDbLine
  6
CONTINUOUS
 62
7
 10
1.6709204E+002
 20
1.5582589E+002
 11
1.6709204E+002
 21
1.532401E+002
  0
LINE
  5
31f
100
AcDbEntity
  8
1
100
AcDbLine
  6
CONTINUOUS
 62
7
 10
1.6709204E+002
 20
1.5582589E+002
 11
1.6721873E+002
 21
1.5950001E+002
  0
ARC
  5
320
100
AcDbEntity
  8
1
100
AcDbCircle
  6
CONTINUOUS
 62
7
 10
1.6609204E+002
 20
1.532401E+002
 40
1.0
100
AcDbArc
 50
3.15E+002
 51
3.6E+002
  0
LINE
  5
321
100
AcDbEntity
  8
1
100
AcDbLine
  6
CONTINUOUS
 62
7
 10
1.6289915E+002
 20
1.48633E+002
 11
1.6679915E+002
 21
1.52533E+002
  0
ARC
  5
322
100
AcDbEntity
  8
1
100
AcDbCircle
  6
CONTINUOUS
 62
7
 10
1.6219204E+002
 20
1.493401E+002
 40
1.0
100
AcDbArc
 50
2.25E+002
 51
3.15E+002
  0
LINE
  5
323
100
AcDbEntity
  8
1
100
AcDbLine
  6
CONTINUOUS
 62
7
 10
1.7100993E+002
 20
1.4417878E+002
 11
1.6710993E+002
 21
1.4027878E+002
  0
ARC
  5
324
100
AcDbEntity
  8
1
100
AcDbCircle
  6
CONTINUOUS
 62
7
 10
1.6781704E+002
 20
1.3957168E+002
 40
1.0
100
AcDbArc
 50
1.35E+002
 51
1.8E+002
  0
LINE
  5
325
100
AcDbEntity
  8
1
100
AcDbLine
  6
CONTINUOUS
 62
7
 10
1.6681704E+002
 20
1.3957168E+002
 11
1.6681704E+002
 21
1.3698589E+002
  0
LINE
  5
326
100
AcDbEntity
  8
1
100
AcDbLine
  6
CONTINUOUS
 62
7
 10
1.6681704E+002
 20
1.3698589E+002
 11
1.6669258E+002
 21
1.3337642E+002
  0
LINE
  5
327
100
AcDbEntity
  8
1
100
AcDbLine
  6
CONTINUOUS
 62
7
 10
1.6595204E+002
 20
1.3263589E+002
 11
1.6419204E+002
 21
1.3263589E+002
  0
LINE
  5
328
100
AcDbEntity
  8
1
100
AcDbLine
  6
CONTINUOUS
 62
7
 10
1.6419204E+002
 20
1.3283589E+002
 11
1.6419204E+002
 21
1.3263589E+002
  0
LINE
  5
329
100
AcDbEntity
  8
1
100
AcDbLine
  6
CONTINUOUS
 62
7
 10
1.6419204E+002
 20
1.3283589E+002
 11
1.6019204E+002
 21
1.3283589E+002
  0
LINE
  5
32a
100
AcDbEntity
  8
1
100
AcDbLine
  6
CONTINUOUS
 62
7
 10
1.6019204E+002
 20
1.3283589E+002
 11
1.6019204E+002
 21
1.3263589E+002
  0
LINE
  5
32b
100
AcDbEntity
  8
1
100
AcDbLine
  6
CONTINUOUS
 62
7
 10
1.6019204E+002
 20
1.3263589E+002
 11
1.5843204E+002
 21
1.3263589E+002
  0
LINE
  5
32c
100
AcDbEntity
  8
1
100
AcDbLine
  6
CONTINUOUS
 62
7
 10
2.2886704E+002
 20
1.2022589E+002
 11
2.2886704E+002
 21
1.0458589E+002
  0
LINE
  5
32d
100
AcDbEntity
  8
1
100
AcDbLine
  6
CONTINUOUS
 62
7
 10
2.2424204E+002
 20
1.1772589E+002
 11
2.2424204E+002
 21
1.151401E+002
  0
LINE
  5
32e
100
AcDbEntity
  8
1
100
AcDbLine
  6
CONTINUOUS
 62
7
 10
2.1444204E+002
 20
1.1772589E+002
 11
2.1444204E+002
 21
1.151401E+002
  0
LINE
  5
32f
100
AcDbEntity
  8
1
100
AcDbLine
  6
CONTINUOUS
 62
7
 10
2.0519204E+002
 20
1.1772589E+002
 11
2.0519204E+002
 21
1.151401E+002
  0
LINE
  5
330
100
AcDbEntity
  8
1
100
AcDbLine
  6
CONTINUOUS
 62
7
 10
1.9539204E+002
 20
1.1772589E+002
 11
1.9539204E+002
 21
1.151401E+002
  0
LINE
  5
331
100
AcDbEntity
  8
1
100
AcDbLine
  6
CONTINUOUS
 62
7
 10
2.2396704E+002
 20
1.0258589E+002
 11
2.2396704E+002
 21
9.8885889E+001
  0
LINE
  5
332
100
AcDbEntity
  8
1
100
AcDbLine
  6
CONTINUOUS
 62
7
 10
2.1471704E+002
 20
1.0147168E+002
 11
2.1471704E+002
 21
9.8885889E+001
  0
LINE
  5
333
100
AcDbEntity
  8
1
100
AcDbLine
  6
CONTINUOUS
 62
7
 10
2.0491704E+002
 20
1.0147168E+002
 11
2.0491704E+002
 21
9.8885889E+001
  0
LINE
  5
334
100
AcDbEntity
  8
1
100
AcDbLine
  6
CONTINUOUS
 62
7
 10
1.9566704E+002
 20
1.0147168E+002
 11
1.9566704E+002
 21
9.8885889E+001
  0
LINE
  5
335
100
AcDbEntity
  8
1
100
AcDbLine
  6
CONTINUOUS
 62
7
 10
2.2783111E+002
 20
1.2207589E+002
 11
2.2510704E+002
 21
1.2207589E+002
  0
LINE
  5
336
100
AcDbEntity
  8
1
100
AcDbLine
  6
CONTINUOUS
 62
7
 10
2.2786704E+002
 20
1.0358589E+002
 11
2.2496704E+002
 21
1.0358589E+002
  0
LINE
  5
337
100
AcDbEntity
  8
1
100
AcDbLine
  6
CONTINUOUS
 62
7
 10
2.2850687E+002
 20
1.2155852E+002
 11
2.2886704E+002
 21
1.2022589E+002
  0
ARC
  5
338
100
AcDbEntity
  8
1
100
AcDbCircle
  6
CONTINUOUS
 62
7
 10
2.2783111E+002
 20
1.2137589E+002
 40
7.0E-001
100
AcDbArc
 50
1.5124007E+001
 51
9.0E+001
  0
LINE
  5
339
100
AcDbEntity
  8
1
100
AcDbLine
  6
CONTINUOUS
 62
7
 10
2.2424204E+002
 20
1.1772589E+002
 11
2.243665E+002
 21
1.2133535E+002
  0
LINE
  5
33a
100
AcDbEntity
  8
1
100
AcDbLine
  6
CONTINUOUS
 62
7
 10
2.1444204E+002
 20
1.1772589E+002
 11
2.1431758E+002
 21
1.2133535E+002
  0
LINE
  5
33b
100
AcDbEntity
  8
1
100
AcDbLine
  6
CONTINUOUS
 62
7
 10
2.0519204E+002
 20
1.1772589E+002
 11
2.053165E+002
 21
1.2133535E+002
  0
LINE
  5
33c
100
AcDbEntity
  8
1
100
AcDbLine
  6
CONTINUOUS
 62
7
 10
1.9539204E+002
 20
1.1772589E+002
 11
1.9526758E+002
 21
1.2133535E+002
  0
LINE
  5
33d
100
AcDbEntity
  8
1
100
AcDbLine
  6
CONTINUOUS
 62
7
 10
2.1357704E+002
 20
1.2207589E+002
 11
2.0605704E+002
 21
1.2207589E+002
  0
ARC
  5
33e
100
AcDbEntity
  8
1
100
AcDbCircle
  6
CONTINUOUS
 62
7
 10
2.2496704E+002
 20
1.0258589E+002
 40
1.0
100
AcDbArc
 50
9.0E+001
 51
1.8E+002
  0
ARC
  5
33f
100
AcDbEntity
  8
1
100
AcDbCircle
  6
CONTINUOUS
 62
7
 10
2.2786704E+002
 20
1.0458589E+002
 40
1.0
100
AcDbArc
 50
2.7E+002
 51
3.6E+002
  0
LINE
  5
340
100
AcDbEntity
  8
1
100
AcDbLine
  6
CONTINUOUS
 62
7
 10
2.1863493E+002
 20
1.10533E+002
 11
2.1473493E+002
 21
1.14433E+002
  0
LINE
  5
341
100
AcDbEntity
  8
1
100
AcDbLine
  6
CONTINUOUS
 62
7
 10
2.2004915E+002
 20
1.10533E+002
 11
2.2394915E+002
 21
1.14433E+002
  0
ARC
  5
342
100
AcDbEntity
  8
1
100
AcDbCircle
  6
CONTINUOUS
 62
7
 10
2.1544204E+002
 20
1.151401E+002
 40
1.0
100
AcDbArc
 50
1.8E+002
 51
2.25E+002
  0
ARC
  5
343
100
AcDbEntity
  8
1
100
AcDbCircle
  6
CONTINUOUS
 62
7
 10
2.2324204E+002
 20
1.151401E+002
 40
1.0
100
AcDbArc
 50
3.15E+002
 51
3.6E+002
  0
ARC
  5
344
100
AcDbEntity
  8
1
100
AcDbCircle
  6
CONTINUOUS
 62
7
 10
2.1934204E+002
 20
1.112401E+002
 40
1.0
100
AcDbArc
 50
2.25E+002
 51
3.15E+002
  0
LINE
  5
345
100
AcDbEntity
  8
1
100
AcDbLine
  6
CONTINUOUS
 62
7
 10
2.2396704E+002
 20
9.8885889E+001
 11
2.2384035E+002
 21
9.5211765E+001
  0
LINE
  5
346
100
AcDbEntity
  8
1
100
AcDbLine
  6
CONTINUOUS
 62
7
 10
2.1471704E+002
 20
9.8885889E+001
 11
2.1484373E+002
 21
9.5211765E+001
  0
LINE
  5
347
100
AcDbEntity
  8
1
100
AcDbLine
  6
CONTINUOUS
 62
7
 10
2.2314076E+002
 20
9.4535889E+001
 11
2.2134204E+002
 21
9.4535889E+001
  0
LINE
  5
348
100
AcDbEntity
  8
1
100
AcDbLine
  6
CONTINUOUS
 62
7
 10
2.2134204E+002
 20
9.4735889E+001
 11
2.2134204E+002
 21
9.4535889E+001
  0
LINE
  5
349
100
AcDbEntity
  8
1
100
AcDbLine
  6
CONTINUOUS
 62
7
 10
2.1734204E+002
 20
9.4735889E+001
 11
2.1734204E+002
 21
9.4535889E+001
  0
LINE
  5
34a
100
AcDbEntity
  8
1
100
AcDbLine
  6
CONTINUOUS
 62
7
 10
2.2134204E+002
 20
9.4735889E+001
 11
2.1734204E+002
 21
9.4735889E+001
  0
LINE
  5
34b
100
AcDbEntity
  8
1
100
AcDbLine
  6
CONTINUOUS
 62
7
 10
2.1734204E+002
 20
9.4535889E+001
 11
2.1554332E+002
 21
9.4535889E+001
  0
ARC
  5
34c
100
AcDbEntity
  8
1
100
AcDbCircle
  6
CONTINUOUS
 62
7
 10
2.0419204E+002
 20
1.151401E+002
 40
1.0
100
AcDbArc
 50
3.15E+002
 51
3.6E+002
  0
LINE
  5
34d
100
AcDbEntity
  8
1
100
AcDbLine
  6
CONTINUOUS
 62
7
 10
2.0099915E+002
 20
1.10533E+002
 11
2.0489915E+002
 21
1.14433E+002
  0
ARC
  5
34e
100
AcDbEntity
  8
1
100
AcDbCircle
  6
CONTINUOUS
 62
7
 10
2.0029204E+002
 20
1.112401E+002
 40
1.0
100
AcDbArc
 50
2.25E+002
 51
3.15E+002
  0
LINE
  5
34f
100
AcDbEntity
  8
1
100
AcDbLine
  6
CONTINUOUS
 62
7
 10
1.9958493E+002
 20
1.10533E+002
 11
1.9568493E+002
 21
1.14433E+002
  0
ARC
  5
350
100
AcDbEntity
  8
1
100
AcDbCircle
  6
CONTINUOUS
 62
7
 10
1.9639204E+002
 20
1.151401E+002
 40
1.0
100
AcDbArc
 50
1.8E+002
 51
2.25E+002
  0
ARC
  5
351
100
AcDbEntity
  8
1
100
AcDbCircle
  6
CONTINUOUS
 62
7
 10
2.1371704E+002
 20
1.0147168E+002
 40
1.0
100
AcDbArc
 50
0.0
 51
4.5E+001
  0
LINE
  5
352
100
AcDbEntity
  8
1
100
AcDbLine
  6
CONTINUOUS
 62
7
 10
2.1052415E+002
 20
1.0607878E+002
 11
2.1442415E+002
 21
1.0217878E+002
  0
ARC
  5
353
100
AcDbEntity
  8
1
100
AcDbCircle
  6
CONTINUOUS
 62
7
 10
2.0981704E+002
 20
1.0537168E+002
 40
1.0
100
AcDbArc
 50
4.5E+001
 51
1.35E+002
  0
LINE
  5
354
100
AcDbEntity
  8
1
100
AcDbLine
  6
CONTINUOUS
 62
7
 10
2.0910993E+002
 20
1.0607878E+002
 11
2.0520993E+002
 21
1.0217878E+002
  0
ARC
  5
355
100
AcDbEntity
  8
1
100
AcDbCircle
  6
CONTINUOUS
 62
7
 10
2.0591704E+002
 20
1.0147168E+002
 40
1.0
100
AcDbArc
 50
1.35E+002
 51
1.8E+002
  0
LINE
  5
356
100
AcDbEntity
  8
1
100
AcDbLine
  6
CONTINUOUS
 62
7
 10
1.9452704E+002
 20
1.2207589E+002
 11
1.8700704E+002
 21
1.2207589E+002
  0
LINE
  5
357
100
AcDbEntity
  8
1
100
AcDbLine
  6
CONTINUOUS
 62
7
 10
1.9147415E+002
 20
1.0607878E+002
 11
1.9537415E+002
 21
1.0217878E+002
  0
ARC
  5
358
100
AcDbEntity
  8
1
100
AcDbCircle
  6
CONTINUOUS
 62
7
 10
1.9466704E+002
 20
1.0147168E+002
 40
1.0
100
AcDbArc
 50
0.0
 51
4.5E+001
  0
ARC
  5
359
100
AcDbEntity
  8
1
100
AcDbCircle
  6
CONTINUOUS
 62
7
 10
1.9076704E+002
 20
1.0537168E+002
 40
1.0
100
AcDbArc
 50
4.5E+001
 51
1.35E+002
  0
LINE
  5
35a
100
AcDbEntity
  8
1
100
AcDbLine
  6
CONTINUOUS
 62
7
 10
2.0409076E+002
 20
9.4535889E+001
 11
2.0229204E+002
 21
9.4535889E+001
  0
LINE
  5
35b
100
AcDbEntity
  8
1
100
AcDbLine
  6
CONTINUOUS
 62
7
 10
2.0229204E+002
 20
9.4735889E+001
 11
2.0229204E+002
 21
9.4535889E+001
  0
LINE
  5
35c
100
AcDbEntity
  8
1
100
AcDbLine
  6
CONTINUOUS
 62
7
 10
1.9829204E+002
 20
9.4735889E+001
 11
1.9829204E+002
 21
9.4535889E+001
  0
LINE
  5
35d
100
AcDbEntity
  8
1
100
AcDbLine
  6
CONTINUOUS
 62
7
 10
2.0229204E+002
 20
9.4735889E+001
 11
1.9829204E+002
 21
9.4735889E+001
  0
LINE
  5
35e
100
AcDbEntity
  8
1
100
AcDbLine
  6
CONTINUOUS
 62
7
 10
1.9829204E+002
 20
9.4535889E+001
 11
1.9649332E+002
 21
9.4535889E+001
  0
LINE
  5
35f
100
AcDbEntity
  8
1
100
AcDbLine
  6
CONTINUOUS
 62
7
 10
2.0491704E+002
 20
9.8885889E+001
 11
2.0479035E+002
 21
9.5211765E+001
  0
LINE
  5
360
100
AcDbEntity
  8
1
100
AcDbLine
  6
CONTINUOUS
 62
7
 10
1.9566704E+002
 20
9.8885889E+001
 11
1.9579373E+002
 21
9.5211765E+001
  0
LINE
  5
361
100
AcDbEntity
  8
1
100
AcDbLine
  6
CONTINUOUS
 62
7
 10
1.8614204E+002
 20
1.1772589E+002
 11
1.8614204E+002
 21
1.151401E+002
  0
LINE
  5
362
100
AcDbEntity
  8
1
100
AcDbLine
  6
CONTINUOUS
 62
7
 10
1.7634204E+002
 20
1.1772589E+002
 11
1.7634204E+002
 21
1.151401E+002
  0
LINE
  5
363
100
AcDbEntity
  8
1
100
AcDbLine
  6
CONTINUOUS
 62
7
 10
1.8614204E+002
 20
1.1772589E+002
 11
1.862665E+002
 21
1.2133535E+002
  0
LINE
  5
364
100
AcDbEntity
  8
1
100
AcDbLine
  6
CONTINUOUS
 62
7
 10
1.7634204E+002
 20
1.1772589E+002
 11
1.7621758E+002
 21
1.2133535E+002
  0
ARC
  5
365
100
AcDbEntity
  8
1
100
AcDbCircle
  6
CONTINUOUS
 62
7
 10
1.8514204E+002
 20
1.151401E+002
 40
1.0
100
AcDbArc
 50
3.15E+002
 51
3.6E+002
  0
LINE
  5
366
100
AcDbEntity
  8
1
100
AcDbLine
  6
CONTINUOUS
 62
7
 10
1.8194915E+002
 20
1.10533E+002
 11
1.8584915E+002
 21
1.14433E+002
  0
ARC
  5
367
100
AcDbEntity
  8
1
100
AcDbCircle
  6
CONTINUOUS
 62
7
 10
1.8124204E+002
 20
1.112401E+002
 40
1.0
100
AcDbArc
 50
2.25E+002
 51
3.15E+002
  0
LINE
  5
368
100
AcDbEntity
  8
1
100
AcDbLine
  6
CONTINUOUS
 62
7
 10
1.8053493E+002
 20
1.10533E+002
 11
1.7663493E+002
 21
1.14433E+002
  0
ARC
  5
369
100
AcDbEntity
  8
1
100
AcDbCircle
  6
CONTINUOUS
 62
7
 10
3.5398523E+001
 20
1.5322589E+002
 40
2.45
100
AcDbArc
 50
1.8E+002
 51
2.7E+002
  0
ARC
  5
36a
100
AcDbEntity
  8
1
100
AcDbCircle
  6
CONTINUOUS
 62
7
 10
1.7734204E+002
 20
1.151401E+002
 40
1.0
100
AcDbArc
 50
1.8E+002
 51
2.25E+002
  0
LINE
  5
36b
100
AcDbEntity
  8
1
100
AcDbLine
  6
CONTINUOUS
 62
7
 10
1.7547704E+002
 20
1.2207589E+002
 11
1.6795704E+002
 21
1.2207589E+002
  0
LINE
  5
36c
100
AcDbEntity
  8
1
100
AcDbLine
  6
CONTINUOUS
 62
7
 10
1.9005993E+002
 20
1.0607878E+002
 11
1.8615993E+002
 21
1.0217878E+002
  0
ARC
  5
36d
100
AcDbEntity
  8
1
100
AcDbCircle
  6
CONTINUOUS
 62
7
 10
1.8686704E+002
 20
1.0147168E+002
 40
1.0
100
AcDbArc
 50
1.35E+002
 51
1.8E+002
  0
LINE
  5
36e
100
AcDbEntity
  8
1
100
AcDbLine
  6
CONTINUOUS
 62
7
 10
1.8586704E+002
 20
1.0147168E+002
 11
1.8586704E+002
 21
9.8885889E+001
  0
LINE
  5
36f
100
AcDbEntity
  8
1
100
AcDbLine
  6
CONTINUOUS
 62
7
 10
1.8586704E+002
 20
9.8885889E+001
 11
1.8574035E+002
 21
9.5211765E+001
  0
LINE
  5
370
100
AcDbEntity
  8
1
100
AcDbLine
  6
CONTINUOUS
 62
7
 10
1.8504076E+002
 20
9.4535889E+001
 11
1.8324204E+002
 21
9.4535889E+001
  0
LINE
  5
371
100
AcDbEntity
  8
1
100
AcDbLine
  6
CONTINUOUS
 62
7
 10
1.8324204E+002
 20
9.4735889E+001
 11
1.8324204E+002
 21
9.4535889E+001
  0
LINE
  5
372
100
AcDbEntity
  8
1
100
AcDbLine
  6
CONTINUOUS
 62
7
 10
1.8324204E+002
 20
9.4735889E+001
 11
1.7924204E+002
 21
9.4735889E+001
  0
LINE
  5
373
100
AcDbEntity
  8
1
100
AcDbLine
  6
CONTINUOUS
 62
7
 10
1.7924204E+002
 20
9.4735889E+001
 11
1.7924204E+002
 21
9.4535889E+001
  0
LINE
  5
374
100
AcDbEntity
  8
1
100
AcDbLine
  6
CONTINUOUS
 62
7
 10
1.7924204E+002
 20
9.4535889E+001
 11
1.7744332E+002
 21
9.4535889E+001
  0
LINE
  5
375
100
AcDbEntity
  8
1
100
AcDbLine
  6
CONTINUOUS
 62
7
 10
3.8348523E+001
 20
1.5372589E+002
 11
3.8348523E+001
 21
1.5582589E+002
  0
LINE
  5
376
100
AcDbEntity
  8
1
100
AcDbLine
  6
CONTINUOUS
 62
7
 10
3.8348523E+001
 20
1.5582589E+002
 11
3.7798523E+001
 21
1.5582589E+002
  0
LINE
  5
377
100
AcDbEntity
  8
1
100
AcDbLine
  6
CONTINUOUS
 62
7
 10
1.7661704E+002
 20
9.8885889E+001
 11
1.7674373E+002
 21
9.5211765E+001
  0
LINE
  5
378
100
AcDbEntity
  8
1
100
AcDbLine
  6
CONTINUOUS
 62
7
 10
1.7661704E+002
 20
1.0147168E+002
 11
1.7661704E+002
 21
9.8885889E+001
  0
ARC
  5
379
100
AcDbEntity
  8
1
100
AcDbCircle
  6
CONTINUOUS
 62
7
 10
1.7561704E+002
 20
1.0147168E+002
 40
1.0
100
AcDbArc
 50
0.0
 51
4.5E+001
  0
LINE
  5
37a
100
AcDbEntity
  8
1
100
AcDbLine
  6
CONTINUOUS
 62
7
 10
1.7242415E+002
 20
1.0607878E+002
 11
1.7632415E+002
 21
1.0217878E+002
  0
ARC
  5
37b
100
AcDbEntity
  8
1
100
AcDbCircle
  6
CONTINUOUS
 62
7
 10
1.7171704E+002
 20
1.0537168E+002
 40
1.0
100
AcDbArc
 50
4.5E+001
 51
1.35E+002
  0
LINE
  5
37c
100
AcDbEntity
  8
1
100
AcDbLine
  6
CONTINUOUS
 62
7
 10
1.6709204E+002
 20
1.1772589E+002
 11
1.6709204E+002
 21
1.151401E+002
  0
LINE
  5
37d
100
AcDbEntity
  8
1
100
AcDbLine
  6
CONTINUOUS
 62
7
 10
1.6709204E+002
 20
1.1772589E+002
 11
1.672165E+002
 21
1.2133535E+002
  0
ARC
  5
37e
100
AcDbEntity
  8
1
100
AcDbCircle
  6
CONTINUOUS
 62
7
 10
1.6609204E+002
 20
1.151401E+002
 40
1.0
100
AcDbArc
 50
3.15E+002
 51
3.6E+002
  0
LINE
  5
37f
100
AcDbEntity
  8
1
100
AcDbLine
  6
CONTINUOUS
 62
7
 10
1.6289915E+002
 20
1.10533E+002
 11
1.6679915E+002
 21
1.14433E+002
  0
ARC
  5
380
100
AcDbEntity
  8
1
100
AcDbCircle
  6
CONTINUOUS
 62
7
 10
1.6219204E+002
 20
1.112401E+002
 40
1.0
100
AcDbArc
 50
2.25E+002
 51
3.15E+002
  0
LINE
  5
381
100
AcDbEntity
  8
1
100
AcDbLine
  6
CONTINUOUS
 62
7
 10
1.7100993E+002
 20
1.0607878E+002
 11
1.6710993E+002
 21
1.0217878E+002
  0
ARC
  5
382
100
AcDbEntity
  8
1
100
AcDbCircle
  6
CONTINUOUS
 62
7
 10
1.6781704E+002
 20
1.0147168E+002
 40
1.0
100
AcDbArc
 50
1.35E+002
 51
1.8E+002
  0
LINE
  5
383
100
AcDbEntity
  8
1
100
AcDbLine
  6
CONTINUOUS
 62
7
 10
1.6681704E+002
 20
1.0147168E+002
 11
1.6681704E+002
 21
9.8885889E+001
  0
LINE
  5
384
100
AcDbEntity
  8
1
100
AcDbLine
  6
CONTINUOUS
 62
7
 10
1.6681704E+002
 20
9.8885889E+001
 11
1.6669035E+002
 21
9.5211765E+001
  0
LINE
  5
385
100
AcDbEntity
  8
1
100
AcDbLine
  6
CONTINUOUS
 62
7
 10
1.6599076E+002
 20
9.4535889E+001
 11
1.6419204E+002
 21
9.4535889E+001
  0
LINE
  5
386
100
AcDbEntity
  8
1
100
AcDbLine
  6
CONTINUOUS
 62
7
 10
1.6419204E+002
 20
9.4735889E+001
 11
1.6419204E+002
 21
9.4535889E+001
  0
LINE
  5
387
100
AcDbEntity
  8
1
100
AcDbLine
  6
CONTINUOUS
 62
7
 10
1.6419204E+002
 20
9.4735889E+001
 11
1.6019204E+002
 21
9.4735889E+001
  0
LINE
  5
388
100
AcDbEntity
  8
1
100
AcDbLine
  6
CONTINUOUS
 62
7
 10
1.6019204E+002
 20
9.4735889E+001
 11
1.6019204E+002
 21
9.4535889E+001
  0
LINE
  5
389
100
AcDbEntity
  8
1
100
AcDbLine
  6
CONTINUOUS
 62
7
 10
1.6019204E+002
 20
9.4535889E+001
 11
1.5839332E+002
 21
9.4535889E+001
  0
LINE
  5
38a
100
AcDbEntity
  8
1
100
AcDbLine
  6
CONTINUOUS
 62
7
 10
7.646704E+001
 20
1.3927589E+002
 11
7.646704E+001
 21
1.2363589E+002
  0
ARC
  5
38b
100
AcDbEntity
  8
1
100
AcDbCircle
  6
CONTINUOUS
 62
7
 10
7.746704E+001
 20
1.2363589E+002
 40
1.0
100
AcDbArc
 50
1.8E+002
 51
2.7E+002
  0
LINE
  5
38c
100
AcDbEntity
  8
1
100
AcDbLine
  6
CONTINUOUS
 62
7
 10
7.746704E+001
 20
1.2263589E+002
 11
8.036704E+001
 21
1.2263589E+002
  0
ARC
  5
38d
100
AcDbEntity
  8
1
100
AcDbCircle
  6
CONTINUOUS
 62
7
 10
8.036704E+001
 20
1.2163589E+002
 40
1.0
100
AcDbArc
 50
0.0
 51
9.0E+001
  0
LINE
  5
38e
100
AcDbEntity
  8
1
100
AcDbLine
  6
CONTINUOUS
 62
7
 10
8.136704E+001
 20
1.2163589E+002
 11
8.136704E+001
 21
1.1793589E+002
  0
LINE
  5
38f
100
AcDbEntity
  8
1
100
AcDbLine
  6
CONTINUOUS
 62
7
 10
8.136704E+001
 20
1.1793589E+002
 11
8.1491504E+001
 21
1.1432642E+002
  0
LINE
  5
390
100
AcDbEntity
  8
1
100
AcDbLine
  6
CONTINUOUS
 62
7
 10
8.223204E+001
 20
1.1358589E+002
 11
8.399204E+001
 21
1.1358589E+002
  0
LINE
  5
391
100
AcDbEntity
  8
1
100
AcDbLine
  6
CONTINUOUS
 62
7
 10
8.399204E+001
 20
1.1378589E+002
 11
8.399204E+001
 21
1.1358589E+002
  0
LINE
  5
392
100
AcDbEntity
  8
1
100
AcDbLine
  6
CONTINUOUS
 62
7
 10
8.399204E+001
 20
1.1378589E+002
 11
8.799204E+001
 21
1.1378589E+002
  0
LINE
  5
393
100
AcDbEntity
  8
1
100
AcDbLine
  6
CONTINUOUS
 62
7
 10
8.799204E+001
 20
1.1378589E+002
 11
8.799204E+001
 21
1.1358589E+002
  0
LINE
  5
394
100
AcDbEntity
  8
1
100
AcDbLine
  6
CONTINUOUS
 62
7
 10
8.799204E+001
 20
1.1358589E+002
 11
8.975204E+001
 21
1.1358589E+002
  0
LINE
  5
395
100
AcDbEntity
  8
1
100
AcDbLine
  6
CONTINUOUS
 62
7
 10
9.061704E+001
 20
1.1793589E+002
 11
9.0492576E+001
 21
1.1432642E+002
  0
LINE
  5
396
100
AcDbEntity
  8
1
100
AcDbLine
  6
CONTINUOUS
 62
7
 10
9.061704E+001
 20
1.2052168E+002
 11
9.061704E+001
 21
1.1793589E+002
  0
ARC
  5
397
100
AcDbEntity
  8
1
100
AcDbCircle
  6
CONTINUOUS
 62
7
 10
9.161704E+001
 20
1.2052168E+002
 40
1.0
100
AcDbArc
 50
1.35E+002
 51
1.8E+002
  0
LINE
  5
398
100
AcDbEntity
  8
1
100
AcDbLine
  6
CONTINUOUS
 62
7
 10
9.4809933E+001
 20
1.2512878E+002
 11
9.0909933E+001
 21
1.2122878E+002
  0
ARC
  5
399
100
AcDbEntity
  8
1
100
AcDbCircle
  6
CONTINUOUS
 62
7
 10
9.551704E+001
 20
1.2442168E+002
 40
1.0
100
AcDbArc
 50
4.5E+001
 51
1.35E+002
  0
LINE
  5
39a
100
AcDbEntity
  8
1
100
AcDbLine
  6
CONTINUOUS
 62
7
 10
9.6224147E+001
 20
1.2512878E+002
 11
1.0012415E+002
 21
1.2122878E+002
  0
ARC
  5
39b
100
AcDbEntity
  8
1
100
AcDbCircle
  6
CONTINUOUS
 62
7
 10
9.941704E+001
 20
1.2052168E+002
 40
1.0
100
AcDbArc
 50
0.0
 51
4.5E+001
  0
LINE
  5
39c
100
AcDbEntity
  8
1
100
AcDbLine
  6
CONTINUOUS
 62
7
 10
1.0041704E+002
 20
1.2052168E+002
 11
1.0041704E+002
 21
1.1793589E+002
  0
LINE
  5
39d
100
AcDbEntity
  8
1
100
AcDbLine
  6
CONTINUOUS
 62
7
 10
1.0041704E+002
 20
1.1793589E+002
 11
1.005415E+002
 21
1.1432642E+002
  0
LINE
  5
39e
100
AcDbEntity
  8
1
100
AcDbLine
  6
CONTINUOUS
 62
7
 10
1.0128204E+002
 20
1.1358589E+002
 11
1.0304204E+002
 21
1.1358589E+002
  0
LINE
  5
39f
100
AcDbEntity
  8
1
100
AcDbLine
  6
CONTINUOUS
 62
7
 10
1.0304204E+002
 20
1.1378589E+002
 11
1.0304204E+002
 21
1.1358589E+002
  0
LINE
  5
3a0
100
AcDbEntity
  8
1
100
AcDbLine
  6
CONTINUOUS
 62
7
 10
1.0304204E+002
 20
1.1378589E+002
 11
1.0704204E+002
 21
1.1378589E+002
  0
LINE
  5
3a1
100
AcDbEntity
  8
1
100
AcDbLine
  6
CONTINUOUS
 62
7
 10
1.0704204E+002
 20
1.1378589E+002
 11
1.0704204E+002
 21
1.1358589E+002
  0
LINE
  5
3a2
100
AcDbEntity
  8
1
100
AcDbLine
  6
CONTINUOUS
 62
7
 10
1.0704204E+002
 20
1.1358589E+002
 11
1.0880204E+002
 21
1.1358589E+002
  0
LINE
  5
3a3
100
AcDbEntity
  8
1
100
AcDbLine
  6
CONTINUOUS
 62
7
 10
1.0966704E+002
 20
1.1793589E+002
 11
1.0954258E+002
 21
1.1432642E+002
  0
LINE
  5
3a4
100
AcDbEntity
  8
1
100
AcDbLine
  6
CONTINUOUS
 62
7
 10
1.0966704E+002
 20
1.2052168E+002
 11
1.0966704E+002
 21
1.1793589E+002
  0
ARC
  5
3a5
100
AcDbEntity
  8
1
100
AcDbCircle
  6
CONTINUOUS
 62
7
 10
1.1066704E+002
 20
1.2052168E+002
 40
1.0
100
AcDbArc
 50
1.35E+002
 51
1.8E+002
  0
LINE
  5
3a6
100
AcDbEntity
  8
1
100
AcDbLine
  6
CONTINUOUS
 62
7
 10
1.1385993E+002
 20
1.2512878E+002
 11
1.0995993E+002
 21
1.2122878E+002
  0
ARC
  5
3a7
100
AcDbEntity
  8
1
100
AcDbCircle
  6
CONTINUOUS
 62
7
 10
1.1456704E+002
 20
1.2442168E+002
 40
1.0
100
AcDbArc
 50
4.5E+001
 51
1.35E+002
  0
LINE
  5
3a8
100
AcDbEntity
  8
1
100
AcDbLine
  6
CONTINUOUS
 62
7
 10
1.1527415E+002
 20
1.2512878E+002
 11
1.1917415E+002
 21
1.2122878E+002
  0
ARC
  5
3a9
100
AcDbEntity
  8
1
100
AcDbCircle
  6
CONTINUOUS
 62
7
 10
1.1846704E+002
 20
1.2052168E+002
 40
1.0
100
AcDbArc
 50
0.0
 51
4.5E+001
  0
LINE
  5
3aa
100
AcDbEntity
  8
1
100
AcDbLine
  6
CONTINUOUS
 62
7
 10
1.1946704E+002
 20
1.2052168E+002
 11
1.1946704E+002
 21
1.1793589E+002
  0
LINE
  5
3ab
100
AcDbEntity
  8
1
100
AcDbLine
  6
CONTINUOUS
 62
7
 10
1.1946704E+002
 20
1.1793589E+002
 11
1.195915E+002
 21
1.1432642E+002
  0
LINE
  5
3ac
100
AcDbEntity
  8
1
100
AcDbLine
  6
CONTINUOUS
 62
7
 10
1.2033204E+002
 20
1.1358589E+002
 11
1.2209204E+002
 21
1.1358589E+002
  0
LINE
  5
3ad
100
AcDbEntity
  8
1
100
AcDbLine
  6
CONTINUOUS
 62
7
 10
1.2209204E+002
 20
1.1378589E+002
 11
1.2209204E+002
 21
1.1358589E+002
  0
LINE
  5
3ae
100
AcDbEntity
  8
1
100
AcDbLine
  6
CONTINUOUS
 62
7
 10
1.2209204E+002
 20
1.1378589E+002
 11
1.2609204E+002
 21
1.1378589E+002
  0
LINE
  5
3af
100
AcDbEntity
  8
1
100
AcDbLine
  6
CONTINUOUS
 62
7
 10
1.2609204E+002
 20
1.1378589E+002
 11
1.2609204E+002
 21
1.1358589E+002
  0
LINE
  5
3b0
100
AcDbEntity
  8
1
100
AcDbLine
  6
CONTINUOUS
 62
7
 10
1.2609204E+002
 20
1.1358589E+002
 11
1.2785204E+002
 21
1.1358589E+002
  0
LINE
  5
3b1
100
AcDbEntity
  8
1
100
AcDbLine
  6
CONTINUOUS
 62
7
 10
1.2871704E+002
 20
1.1793589E+002
 11
1.2859258E+002
 21
1.1432642E+002
  0
LINE
  5
3b2
100
AcDbEntity
  8
1
100
AcDbLine
  6
CONTINUOUS
 62
7
 10
1.2871704E+002
 20
1.2052168E+002
 11
1.2871704E+002
 21
1.1793589E+002
  0
ARC
  5
3b3
100
AcDbEntity
  8
1
100
AcDbCircle
  6
CONTINUOUS
 62
7
 10
1.2971704E+002
 20
1.2052168E+002
 40
1.0
100
AcDbArc
 50
1.35E+002
 51
1.8E+002
  0
LINE
  5
3b4
100
AcDbEntity
  8
1
100
AcDbLine
  6
CONTINUOUS
 62
7
 10
1.3290993E+002
 20
1.2512878E+002
 11
1.2900993E+002
 21
1.2122878E+002
  0
ARC
  5
3b5
100
AcDbEntity
  8
1
100
AcDbCircle
  6
CONTINUOUS
 62
7
 10
1.3361704E+002
 20
1.2442168E+002
 40
1.0
100
AcDbArc
 50
4.5E+001
 51
1.35E+002
  0
LINE
  5
3b6
100
AcDbEntity
  8
1
100
AcDbLine
  6
CONTINUOUS
 62
7
 10
1.3432415E+002
 20
1.2512878E+002
 11
1.3822415E+002
 21
1.2122878E+002
  0
ARC
  5
3b7
100
AcDbEntity
  8
1
100
AcDbCircle
  6
CONTINUOUS
 62
7
 10
1.3751704E+002
 20
1.2052168E+002
 40
1.0
100
AcDbArc
 50
0.0
 51
4.5E+001
  0
LINE
  5
3b8
100
AcDbEntity
  8
1
100
AcDbLine
  6
CONTINUOUS
 62
7
 10
1.3851704E+002
 20
1.2052168E+002
 11
1.3851704E+002
 21
1.1793589E+002
  0
LINE
  5
3b9
100
AcDbEntity
  8
1
100
AcDbLine
  6
CONTINUOUS
 62
7
 10
1.3851704E+002
 20
1.1793589E+002
 11
1.386415E+002
 21
1.1432642E+002
  0
LINE
  5
3ba
100
AcDbEntity
  8
1
100
AcDbLine
  6
CONTINUOUS
 62
7
 10
1.3938204E+002
 20
1.1358589E+002
 11
1.4114204E+002
 21
1.1358589E+002
  0
LINE
  5
3bb
100
AcDbEntity
  8
1
100
AcDbLine
  6
CONTINUOUS
 62
7
 10
1.4114204E+002
 20
1.1378589E+002
 11
1.4114204E+002
 21
1.1358589E+002
  0
LINE
  5
3bc
100
AcDbEntity
  8
1
100
AcDbLine
  6
CONTINUOUS
 62
7
 10
1.4114204E+002
 20
1.1378589E+002
 11
1.4514204E+002
 21
1.1378589E+002
  0
LINE
  5
3bd
100
AcDbEntity
  8
1
100
AcDbLine
  6
CONTINUOUS
 62
7
 10
1.4514204E+002
 20
1.1378589E+002
 11
1.4514204E+002
 21
1.1358589E+002
  0
LINE
  5
3be
100
AcDbEntity
  8
1
100
AcDbLine
  6
CONTINUOUS
 62
7
 10
1.4514204E+002
 20
1.1358589E+002
 11
1.4690204E+002
 21
1.1358589E+002
  0
LINE
  5
3bf
100
AcDbEntity
  8
1
100
AcDbLine
  6
CONTINUOUS
 62
7
 10
1.4776704E+002
 20
1.1793589E+002
 11
1.4764258E+002
 21
1.1432642E+002
  0
LINE
  5
3c0
100
AcDbEntity
  8
1
100
AcDbLine
  6
CONTINUOUS
 62
7
 10
1.4776704E+002
 20
1.2052168E+002
 11
1.4776704E+002
 21
1.1793589E+002
  0
ARC
  5
3c1
100
AcDbEntity
  8
1
100
AcDbCircle
  6
CONTINUOUS
 62
7
 10
1.4876704E+002
 20
1.2052168E+002
 40
1.0
100
AcDbArc
 50
1.35E+002
 51
1.8E+002
  0
LINE
  5
3c2
100
AcDbEntity
  8
1
100
AcDbLine
  6
CONTINUOUS
 62
7
 10
1.5195993E+002
 20
1.2512878E+002
 11
1.4805993E+002
 21
1.2122878E+002
  0
ARC
  5
3c3
100
AcDbEntity
  8
1
100
AcDbCircle
  6
CONTINUOUS
 62
7
 10
1.5266704E+002
 20
1.2442168E+002
 40
1.0
100
AcDbArc
 50
4.5E+001
 51
1.35E+002
  0
LINE
  5
3c4
100
AcDbEntity
  8
1
100
AcDbLine
  6
CONTINUOUS
 62
7
 10
1.5337415E+002
 20
1.2512878E+002
 11
1.5727415E+002
 21
1.2122878E+002
  0
ARC
  5
3c5
100
AcDbEntity
  8
1
100
AcDbCircle
  6
CONTINUOUS
 62
7
 10
1.5656704E+002
 20
1.2052168E+002
 40
1.0
100
AcDbArc
 50
0.0
 51
4.5E+001
  0
LINE
  5
3c6
100
AcDbEntity
  8
1
100
AcDbLine
  6
CONTINUOUS
 62
7
 10
1.5756704E+002
 20
1.2052168E+002
 11
1.5756704E+002
 21
1.1793589E+002
  0
LINE
  5
3c7
100
AcDbEntity
  8
1
100
AcDbLine
  6
CONTINUOUS
 62
7
 10
1.5756704E+002
 20
1.1793589E+002
 11
1.5769373E+002
 21
1.1426177E+002
  0
ARC
  5
3c8
100
AcDbEntity
  8
1
100
AcDbCircle
  6
CONTINUOUS
 62
7
 10
1.5839332E+002
 20
1.1428589E+002
 40
7.0E-001
100
AcDbArc
 50
1.8197493E+002
 51
2.7E+002
  0
LINE
  5
3c9
100
AcDbEntity
  8
1
100
AcDbLine
  6
CONTINUOUS
 62
7
 10
1.5839332E+002
 20
1.1358589E+002
 11
1.6019204E+002
 21
1.1358589E+002
  0
LINE
  5
3ca
100
AcDbEntity
  8
1
100
AcDbLine
  6
CONTINUOUS
 62
7
 10
1.6019204E+002
 20
1.1378589E+002
 11
1.6019204E+002
 21
1.1358589E+002
  0
LINE
  5
3cb
100
AcDbEntity
  8
1
100
AcDbLine
  6
CONTINUOUS
 62
7
 10
1.6019204E+002
 20
1.1378589E+002
 11
1.6419204E+002
 21
1.1378589E+002
  0
LINE
  5
3cc
100
AcDbEntity
  8
1
100
AcDbLine
  6
CONTINUOUS
 62
7
 10
1.6419204E+002
 20
1.1378589E+002
 11
1.6419204E+002
 21
1.1358589E+002
  0
LINE
  5
3cd
100
AcDbEntity
  8
1
100
AcDbLine
  6
CONTINUOUS
 62
7
 10
1.6419204E+002
 20
1.1358589E+002
 11
1.6599076E+002
 21
1.1358589E+002
  0
ARC
  5
3ce
100
AcDbEntity
  8
1
100
AcDbCircle
  6
CONTINUOUS
 62
7
 10
1.6599076E+002
 20
1.1428589E+002
 40
7.0E-001
100
AcDbArc
 50
2.7E+002
 51
3.5802507E+002
  0
LINE
  5
3cf
100
AcDbEntity
  8
1
100
AcDbLine
  6
CONTINUOUS
 62
7
 10
1.6681704E+002
 20
1.1793589E+002
 11
1.6669035E+002
 21
1.1426177E+002
  0
LINE
  5
3d0
100
AcDbEntity
  8
1
100
AcDbLine
  6
CONTINUOUS
 62
7
 10
1.6681704E+002
 20
1.2052168E+002
 11
1.6681704E+002
 21
1.1793589E+002
  0
ARC
  5
3d1
100
AcDbEntity
  8
1
100
AcDbCircle
  6
CONTINUOUS
 62
7
 10
1.6781704E+002
 20
1.2052168E+002
 40
1.0
100
AcDbArc
 50
1.35E+002
 51
1.8E+002
  0
LINE
  5
3d2
100
AcDbEntity
  8
1
100
AcDbLine
  6
CONTINUOUS
 62
7
 10
1.7100993E+002
 20
1.2512878E+002
 11
1.6710993E+002
 21
1.2122878E+002
  0
ARC
  5
3d3
100
AcDbEntity
  8
1
100
AcDbCircle
  6
CONTINUOUS
 62
7
 10
1.7171704E+002
 20
1.2442168E+002
 40
1.0
100
AcDbArc
 50
4.5E+001
 51
1.35E+002
  0
LINE
  5
3d4
100
AcDbEntity
  8
1
100
AcDbLine
  6
CONTINUOUS
 62
7
 10
1.7242415E+002
 20
1.2512878E+002
 11
1.7632415E+002
 21
1.2122878E+002
  0
ARC
  5
3d5
100
AcDbEntity
  8
1
100
AcDbCircle
  6
CONTINUOUS
 62
7
 10
1.7561704E+002
 20
1.2052168E+002
 40
1.0
100
AcDbArc
 50
0.0
 51
4.5E+001
  0
LINE
  5
3d6
100
AcDbEntity
  8
1
100
AcDbLine
  6
CONTINUOUS
 62
7
 10
1.7661704E+002
 20
1.2052168E+002
 11
1.7661704E+002
 21
1.1793589E+002
  0
LINE
  5
3d7
100
AcDbEntity
  8
1
100
AcDbLine
  6
CONTINUOUS
 62
7
 10
1.7661704E+002
 20
1.1793589E+002
 11
1.7674373E+002
 21
1.1426177E+002
  0
ARC
  5
3d8
100
AcDbEntity
  8
1
100
AcDbCircle
  6
CONTINUOUS
 62
7
 10
1.7744332E+002
 20
1.1428589E+002
 40
7.0E-001
100
AcDbArc
 50
1.8197493E+002
 51
2.7E+002
  0
LINE
  5
3d9
100
AcDbEntity
  8
1
100
AcDbLine
  6
CONTINUOUS
 62
7
 10
1.7744332E+002
 20
1.1358589E+002
 11
1.7924204E+002
 21
1.1358589E+002
  0
LINE
  5
3da
100
AcDbEntity
  8
1
100
AcDbLine
  6
CONTINUOUS
 62
7
 10
1.7924204E+002
 20
1.1378589E+002
 11
1.7924204E+002
 21
1.1358589E+002
  0
LINE
  5
3db
100
AcDbEntity
  8
1
100
AcDbLine
  6
CONTINUOUS
 62
7
 10
1.7924204E+002
 20
1.1378589E+002
 11
1.8324204E+002
 21
1.1378589E+002
  0
LINE
  5
3dc
100
AcDbEntity
  8
1
100
AcDbLine
  6
CONTINUOUS
 62
7
 10
1.8324204E+002
 20
1.1378589E+002
 11
1.8324204E+002
 21
1.1358589E+002
  0
LINE
  5
3dd
100
AcDbEntity
  8
1
100
AcDbLine
  6
CONTINUOUS
 62
7
 10
1.8324204E+002
 20
1.1358589E+002
 11
1.8504076E+002
 21
1.1358589E+002
  0
ARC
  5
3de
100
AcDbEntity
  8
1
100
AcDbCircle
  6
CONTINUOUS
 62
7
 10
1.8504076E+002
 20
1.1428589E+002
 40
7.0E-001
100
AcDbArc
 50
2.7E+002
 51
3.5802507E+002
  0
LINE
  5
3df
100
AcDbEntity
  8
1
100
AcDbLine
  6
CONTINUOUS
 62
7
 10
1.8586704E+002
 20
1.1793589E+002
 11
1.8574035E+002
 21
1.1426177E+002
  0
LINE
  5
3e0
100
AcDbEntity
  8
1
100
AcDbLine
  6
CONTINUOUS
 62
7
 10
1.8586704E+002
 20
1.2052168E+002
 11
1.8586704E+002
 21
1.1793589E+002
  0
ARC
  5
3e1
100
AcDbEntity
  8
1
100
AcDbCircle
  6
CONTINUOUS
 62
7
 10
1.8686704E+002
 20
1.2052168E+002
 40
1.0
100
AcDbArc
 50
1.35E+002
 51
1.8E+002
  0
LINE
  5
3e2
100
AcDbEntity
  8
1
100
AcDbLine
  6
CONTINUOUS
 62
7
 10
1.9005993E+002
 20
1.2512878E+002
 11
1.8615993E+002
 21
1.2122878E+002
  0
ARC
  5
3e3
100
AcDbEntity
  8
1
100
AcDbCircle
  6
CONTINUOUS
 62
7
 10
1.9076704E+002
 20
1.2442168E+002
 40
1.0
100
AcDbArc
 50
4.5E+001
 51
1.35E+002
  0
LINE
  5
3e4
100
AcDbEntity
  8
1
100
AcDbLine
  6
CONTINUOUS
 62
7
 10
1.9147415E+002
 20
1.2512878E+002
 11
1.9537415E+002
 21
1.2122878E+002
  0
ARC
  5
3e5
100
AcDbEntity
  8
1
100
AcDbCircle
  6
CONTINUOUS
 62
7
 10
1.9466704E+002
 20
1.2052168E+002
 40
1.0
100
AcDbArc
 50
0.0
 51
4.5E+001
  0
LINE
  5
3e6
100
AcDbEntity
  8
1
100
AcDbLine
  6
CONTINUOUS
 62
7
 10
1.9566704E+002
 20
1.2052168E+002
 11
1.9566704E+002
 21
1.1793589E+002
  0
LINE
  5
3e7
100
AcDbEntity
  8
1
100
AcDbLine
  6
CONTINUOUS
 62
7
 10
1.9566704E+002
 20
1.1793589E+002
 11
1.9579373E+002
 21
1.1426177E+002
  0
ARC
  5
3e8
100
AcDbEntity
  8
1
100
AcDbCircle
  6
CONTINUOUS
 62
7
 10
1.9649332E+002
 20
1.1428589E+002
 40
7.0E-001
100
AcDbArc
 50
1.8197493E+002
 51
2.7E+002
  0
LINE
  5
3e9
100
AcDbEntity
  8
1
100
AcDbLine
  6
CONTINUOUS
 62
7
 10
1.9649332E+002
 20
1.1358589E+002
 11
1.9829204E+002
 21
1.1358589E+002
  0
LINE
  5
3ea
100
AcDbEntity
  8
1
100
AcDbLine
  6
CONTINUOUS
 62
7
 10
1.9829204E+002
 20
1.1378589E+002
 11
1.9829204E+002
 21
1.1358589E+002
  0
LINE
  5
3eb
100
AcDbEntity
  8
1
100
AcDbLine
  6
CONTINUOUS
 62
7
 10
1.9829204E+002
 20
1.1378589E+002
 11
2.0229204E+002
 21
1.1378589E+002
  0
LINE
  5
3ec
100
AcDbEntity
  8
1
100
AcDbLine
  6
CONTINUOUS
 62
7
 10
2.0229204E+002
 20
1.1378589E+002
 11
2.0229204E+002
 21
1.1358589E+002
  0
LINE
  5
3ed
100
AcDbEntity
  8
1
100
AcDbLine
  6
CONTINUOUS
 62
7
 10
2.0229204E+002
 20
1.1358589E+002
 11
2.0409076E+002
 21
1.1358589E+002
  0
ARC
  5
3ee
100
AcDbEntity
  8
1
100
AcDbCircle
  6
CONTINUOUS
 62
7
 10
2.0409076E+002
 20
1.1428589E+002
 40
7.0E-001
100
AcDbArc
 50
2.7E+002
 51
3.5802507E+002
  0
LINE
  5
3ef
100
AcDbEntity
  8
1
100
AcDbLine
  6
CONTINUOUS
 62
7
 10
2.0491704E+002
 20
1.1793589E+002
 11
2.0479035E+002
 21
1.1426177E+002
  0
LINE
  5
3f0
100
AcDbEntity
  8
1
100
AcDbLine
  6
CONTINUOUS
 62
7
 10
2.0491704E+002
 20
1.2052168E+002
 11
2.0491704E+002
 21
1.1793589E+002
  0
ARC
  5
3f1
100
AcDbEntity
  8
1
100
AcDbCircle
  6
CONTINUOUS
 62
7
 10
2.0591704E+002
 20
1.2052168E+002
 40
1.0
100
AcDbArc
 50
1.35E+002
 51
1.8E+002
  0
LINE
  5
3f2
100
AcDbEntity
  8
1
100
AcDbLine
  6
CONTINUOUS
 62
7
 10
2.0910993E+002
 20
1.2512878E+002
 11
2.0520993E+002
 21
1.2122878E+002
  0
ARC
  5
3f3
100
AcDbEntity
  8
1
100
AcDbCircle
  6
CONTINUOUS
 62
7
 10
2.0981704E+002
 20
1.2442168E+002
 40
1.0
100
AcDbArc
 50
4.5E+001
 51
1.35E+002
  0
LINE
  5
3f4
100
AcDbEntity
  8
1
100
AcDbLine
  6
CONTINUOUS
 62
7
 10
2.1052415E+002
 20
1.2512878E+002
 11
2.1442415E+002
 21
1.2122878E+002
  0
ARC
  5
3f5
100
AcDbEntity
  8
1
100
AcDbCircle
  6
CONTINUOUS
 62
7
 10
2.1371704E+002
 20
1.2052168E+002
 40
1.0
100
AcDbArc
 50
0.0
 51
4.5E+001
  0
LINE
  5
3f6
100
AcDbEntity
  8
1
100
AcDbLine
  6
CONTINUOUS
 62
7
 10
2.1471704E+002
 20
1.2052168E+002
 11
2.1471704E+002
 21
1.1793589E+002
  0
LINE
  5
3f7
100
AcDbEntity
  8
1
100
AcDbLine
  6
CONTINUOUS
 62
7
 10
2.1471704E+002
 20
1.1793589E+002
 11
2.1484373E+002
 21
1.1426177E+002
  0
ARC
  5
3f8
100
AcDbEntity
  8
1
100
AcDbCircle
  6
CONTINUOUS
 62
7
 10
2.1554332E+002
 20
1.1428589E+002
 40
7.0E-001
100
AcDbArc
 50
1.8197493E+002
 51
2.7E+002
  0
LINE
  5
3f9
100
AcDbEntity
  8
1
100
AcDbLine
  6
CONTINUOUS
 62
7
 10
2.1554332E+002
 20
1.1358589E+002
 11
2.1734204E+002
 21
1.1358589E+002
  0
LINE
  5
3fa
100
AcDbEntity
  8
1
100
AcDbLine
  6
CONTINUOUS
 62
7
 10
2.1734204E+002
 20
1.1378589E+002
 11
2.1734204E+002
 21
1.1358589E+002
  0
LINE
  5
3fb
100
AcDbEntity
  8
1
100
AcDbLine
  6
CONTINUOUS
 62
7
 10
2.1734204E+002
 20
1.1378589E+002
 11
2.2134204E+002
 21
1.1378589E+002
  0
LINE
  5
3fc
100
AcDbEntity
  8
1
100
AcDbLine
  6
CONTINUOUS
 62
7
 10
2.2134204E+002
 20
1.1378589E+002
 11
2.2134204E+002
 21
1.1358589E+002
  0
LINE
  5
3fd
100
AcDbEntity
  8
1
100
AcDbLine
  6
CONTINUOUS
 62
7
 10
2.2134204E+002
 20
1.1358589E+002
 11
2.2314076E+002
 21
1.1358589E+002
  0
ARC
  5
3fe
100
AcDbEntity
  8
1
100
AcDbCircle
  6
CONTINUOUS
 62
7
 10
2.2314076E+002
 20
1.1428589E+002
 40
7.0E-001
100
AcDbArc
 50
2.7E+002
 51
3.5802507E+002
  0
LINE
  5
3ff
100
AcDbEntity
  8
1
100
AcDbLine
  6
CONTINUOUS
 62
7
 10
2.2396704E+002
 20
1.1793589E+002
 11
2.2384035E+002
 21
1.1426177E+002
  0
LINE
  5
400
100
AcDbEntity
  8
1
100
AcDbLine
  6
CONTINUOUS
 62
7
 10
2.2396704E+002
 20
1.2163589E+002
 11
2.2396704E+002
 21
1.1793589E+002
  0
ARC
  5
401
100
AcDbEntity
  8
1
100
AcDbCircle
  6
CONTINUOUS
 62
7
 10
2.2496704E+002
 20
1.2163589E+002
 40
1.0
100
AcDbArc
 50
9.0E+001
 51
1.8E+002
  0
LINE
  5
402
100
AcDbEntity
  8
1
100
AcDbLine
  6
CONTINUOUS
 62
7
 10
2.2786704E+002
 20
1.2263589E+002
 11
2.2496704E+002
 21
1.2263589E+002
  0
ARC
  5
403
100
AcDbEntity
  8
1
100
AcDbCircle
  6
CONTINUOUS
 62
7
 10
2.2786704E+002
 20
1.2363589E+002
 40
1.0
100
AcDbArc
 50
2.7E+002
 51
3.6E+002
  0
LINE
  5
404
100
AcDbEntity
  8
1
100
AcDbLine
  6
CONTINUOUS
 62
7
 10
2.2886704E+002
 20
1.3927589E+002
 11
2.2886704E+002
 21
1.2363589E+002
  0
LINE
  5
405
100
AcDbEntity
  8
1
100
AcDbLine
  6
CONTINUOUS
 62
7
 10
3.2398523E+001
 20
1.5382589E+002
 11
3.2948523E+001
 21
1.5382589E+002
  0
LINE
  5
406
100
AcDbEntity
  8
1
100
AcDbLine
  6
CONTINUOUS
 62
7
 10
2.2850687E+002
 20
1.4060852E+002
 11
2.2886704E+002
 21
1.3927589E+002
  0
ARC
  5
407
100
AcDbEntity
  8
1
100
AcDbCircle
  6
CONTINUOUS
 62
7
 10
2.2783111E+002
 20
1.4042589E+002
 40
7.0E-001
100
AcDbArc
 50
1.5124007E+001
 51
9.0E+001
  0
LINE
  5
408
100
AcDbEntity
  8
1
100
AcDbLine
  6
CONTINUOUS
 62
7
 10
2.2506832E+002
 20
1.4112589E+002
 11
2.2783111E+002
 21
1.4112589E+002
  0
ARC
  5
409
100
AcDbEntity
  8
1
100
AcDbCircle
  6
CONTINUOUS
 62
7
 10
2.2506832E+002
 20
1.4042589E+002
 40
7.0E-001
100
AcDbArc
 50
9.0E+001
 51
1.7802507E+002
  0
LINE
  5
40a
100
AcDbEntity
  8
1
100
AcDbLine
  6
CONTINUOUS
 62
7
 10
2.2424204E+002
 20
1.3677589E+002
 11
2.2436873E+002
 21
1.4045001E+002
  0
LINE
  5
40b
100
AcDbEntity
  8
1
100
AcDbLine
  6
CONTINUOUS
 62
7
 10
2.2424204E+002
 20
1.3677589E+002
 11
2.2424204E+002
 21
1.341901E+002
  0
ARC
  5
40c
100
AcDbEntity
  8
1
100
AcDbCircle
  6
CONTINUOUS
 62
7
 10
2.2324204E+002
 20
1.341901E+002
 40
1.0
100
AcDbArc
 50
3.15E+002
 51
3.6E+002
  0
LINE
  5
40d
100
AcDbEntity
  8
1
100
AcDbLine
  6
CONTINUOUS
 62
7
 10
2.2004915E+002
 20
1.29583E+002
 11
2.2394915E+002
 21
1.33483E+002
  0
ARC
  5
40e
100
AcDbEntity
  8
1
100
AcDbCircle
  6
CONTINUOUS
 62
7
 10
2.1934204E+002
 20
1.302901E+002
 40
1.0
100
AcDbArc
 50
2.25E+002
 51
3.15E+002
  0
LINE
  5
40f
100
AcDbEntity
  8
1
100
AcDbLine
  6
CONTINUOUS
 62
7
 10
2.1863493E+002
 20
1.29583E+002
 11
2.1473493E+002
 21
1.33483E+002
  0
ARC
  5
410
100
AcDbEntity
  8
1
100
AcDbCircle
  6
CONTINUOUS
 62
7
 10
2.1544204E+002
 20
1.341901E+002
 40
1.0
100
AcDbArc
 50
1.8E+002
 51
2.25E+002
  0
LINE
  5
411
100
AcDbEntity
  8
1
100
AcDbLine
  6
CONTINUOUS
 62
7
 10
2.1444204E+002
 20
1.3677589E+002
 11
2.1444204E+002
 21
1.341901E+002
  0
LINE
  5
412
100
AcDbEntity
  8
1
100
AcDbLine
  6
CONTINUOUS
 62
7
 10
2.1444204E+002
 20
1.3677589E+002
 11
2.1431535E+002
 21
1.4045001E+002
  0
ARC
  5
413
100
AcDbEntity
  8
1
100
AcDbCircle
  6
CONTINUOUS
 62
7
 10
2.1361576E+002
 20
1.4042589E+002
 40
7.0E-001
100
AcDbArc
 50
1.974934
 51
9.0E+001
  0
LINE
  5
414
100
AcDbEntity
  8
1
100
AcDbLine
  6
CONTINUOUS
 62
7
 10
2.0601832E+002
 20
1.4112589E+002
 11
2.1361576E+002
 21
1.4112589E+002
  0
ARC
  5
415
100
AcDbEntity
  8
1
100
AcDbCircle
  6
CONTINUOUS
 62
7
 10
2.0601832E+002
 20
1.4042589E+002
 40
7.0E-001
100
AcDbArc
 50
9.0E+001
 51
1.7802507E+002
  0
LINE
  5
416
100
AcDbEntity
  8
1
100
AcDbLine
  6
CONTINUOUS
 62
7
 10
2.0519204E+002
 20
1.3677589E+002
 11
2.0531873E+002
 21
1.4045001E+002
  0
LINE
  5
417
100
AcDbEntity
  8
1
100
AcDbLine
  6
CONTINUOUS
 62
7
 10
2.0519204E+002
 20
1.3677589E+002
 11
2.0519204E+002
 21
1.341901E+002
  0
ARC
  5
418
100
AcDbEntity
  8
1
100
AcDbCircle
  6
CONTINUOUS
 62
7
 10
2.0419204E+002
 20
1.341901E+002
 40
1.0
100
AcDbArc
 50
3.15E+002
 51
3.6E+002
  0
LINE
  5
419
100
AcDbEntity
  8
1
100
AcDbLine
  6
CONTINUOUS
 62
7
 10
2.0099915E+002
 20
1.29583E+002
 11
2.0489915E+002
 21
1.33483E+002
  0
ARC
  5
41a
100
AcDbEntity
  8
1
100
AcDbCircle
  6
CONTINUOUS
 62
7
 10
2.0029204E+002
 20
1.302901E+002
 40
1.0
100
AcDbArc
 50
2.25E+002
 51
3.15E+002
  0
LINE
  5
41b
100
AcDbEntity
  8
1
100
AcDbLine
  6
CONTINUOUS
 62
7
 10
1.9958493E+002
 20
1.29583E+002
 11
1.9568493E+002
 21
1.33483E+002
  0
ARC
  5
41c
100
AcDbEntity
  8
1
100
AcDbCircle
  6
CONTINUOUS
 62
7
 10
1.9639204E+002
 20
1.341901E+002
 40
1.0
100
AcDbArc
 50
1.8E+002
 51
2.25E+002
  0
LINE
  5
41d
100
AcDbEntity
  8
1
100
AcDbLine
  6
CONTINUOUS
 62
7
 10
1.9539204E+002
 20
1.3677589E+002
 11
1.9539204E+002
 21
1.341901E+002
  0
LINE
  5
41e
100
AcDbEntity
  8
1
100
AcDbLine
  6
CONTINUOUS
 62
7
 10
1.9539204E+002
 20
1.3677589E+002
 11
1.9526535E+002
 21
1.4045001E+002
  0
ARC
  5
41f
100
AcDbEntity
  8
1
100
AcDbCircle
  6
CONTINUOUS
 62
7
 10
1.9456576E+002
 20
1.4042589E+002
 40
7.0E-001
100
AcDbArc
 50
1.974934
 51
9.0E+001
  0
LINE
  5
420
100
AcDbEntity
  8
1
100
AcDbLine
  6
CONTINUOUS
 62
7
 10
1.8696832E+002
 20
1.4112589E+002
 11
1.9456576E+002
 21
1.4112589E+002
  0
ARC
  5
421
100
AcDbEntity
  8
1
100
AcDbCircle
  6
CONTINUOUS
 62
7
 10
1.8696832E+002
 20
1.4042589E+002
 40
7.0E-001
100
AcDbArc
 50
9.0E+001
 51
1.7802507E+002
  0
LINE
  5
422
100
AcDbEntity
  8
1
100
AcDbLine
  6
CONTINUOUS
 62
7
 10
1.8614204E+002
 20
1.3677589E+002
 11
1.8626873E+002
 21
1.4045001E+002
  0
LINE
  5
423
100
AcDbEntity
  8
1
100
AcDbLine
  6
CONTINUOUS
 62
7
 10
1.8614204E+002
 20
1.3677589E+002
 11
1.8614204E+002
 21
1.341901E+002
  0
ARC
  5
424
100
AcDbEntity
  8
1
100
AcDbCircle
  6
CONTINUOUS
 62
7
 10
1.8514204E+002
 20
1.341901E+002
 40
1.0
100
AcDbArc
 50
3.15E+002
 51
3.6E+002
  0
LINE
  5
425
100
AcDbEntity
  8
1
100
AcDbLine
  6
CONTINUOUS
 62
7
 10
1.8194915E+002
 20
1.29583E+002
 11
1.8584915E+002
 21
1.33483E+002
  0
ARC
  5
426
100
AcDbEntity
  8
1
100
AcDbCircle
  6
CONTINUOUS
 62
7
 10
1.8124204E+002
 20
1.302901E+002
 40
1.0
100
AcDbArc
 50
2.25E+002
 51
3.15E+002
  0
LINE
  5
427
100
AcDbEntity
  8
1
100
AcDbLine
  6
CONTINUOUS
 62
7
 10
1.8053493E+002
 20
1.29583E+002
 11
1.7663493E+002
 21
1.33483E+002
  0
ARC
  5
428
100
AcDbEntity
  8
1
100
AcDbCircle
  6
CONTINUOUS
 62
7
 10
1.7734204E+002
 20
1.341901E+002
 40
1.0
100
AcDbArc
 50
1.8E+002
 51
2.25E+002
  0
LINE
  5
429
100
AcDbEntity
  8
1
100
AcDbLine
  6
CONTINUOUS
 62
7
 10
1.7634204E+002
 20
1.3677589E+002
 11
1.7634204E+002
 21
1.341901E+002
  0
LINE
  5
42a
100
AcDbEntity
  8
1
100
AcDbLine
  6
CONTINUOUS
 62
7
 10
1.7634204E+002
 20
1.3677589E+002
 11
1.7621535E+002
 21
1.4045001E+002
  0
ARC
  5
42b
100
AcDbEntity
  8
1
100
AcDbCircle
  6
CONTINUOUS
 62
7
 10
1.7551576E+002
 20
1.4042589E+002
 40
7.0E-001
100
AcDbArc
 50
1.974934
 51
9.0E+001
  0
LINE
  5
42c
100
AcDbEntity
  8
1
100
AcDbLine
  6
CONTINUOUS
 62
7
 10
1.6791832E+002
 20
1.4112589E+002
 11
1.7551576E+002
 21
1.4112589E+002
  0
ARC
  5
42d
100
AcDbEntity
  8
1
100
AcDbCircle
  6
CONTINUOUS
 62
7
 10
1.6791832E+002
 20
1.4042589E+002
 40
7.0E-001
100
AcDbArc
 50
9.0E+001
 51
1.7802507E+002
  0
LINE
  5
42e
100
AcDbEntity
  8
1
100
AcDbLine
  6
CONTINUOUS
 62
7
 10
1.6709204E+002
 20
1.3677589E+002
 11
1.6721873E+002
 21
1.4045001E+002
  0
LINE
  5
42f
100
AcDbEntity
  8
1
100
AcDbLine
  6
CONTINUOUS
 62
7
 10
1.6709204E+002
 20
1.3677589E+002
 11
1.6709204E+002
 21
1.341901E+002
  0
ARC
  5
430
100
AcDbEntity
  8
1
100
AcDbCircle
  6
CONTINUOUS
 62
7
 10
1.6609204E+002
 20
1.341901E+002
 40
1.0
100
AcDbArc
 50
3.15E+002
 51
3.6E+002
  0
LINE
  5
431
100
AcDbEntity
  8
1
100
AcDbLine
  6
CONTINUOUS
 62
7
 10
1.6289915E+002
 20
1.29583E+002
 11
1.6679915E+002
 21
1.33483E+002
  0
ARC
  5
432
100
AcDbEntity
  8
1
100
AcDbCircle
  6
CONTINUOUS
 62
7
 10
1.6219204E+002
 20
1.302901E+002
 40
1.0
100
AcDbArc
 50
2.25E+002
 51
3.15E+002
  0
LINE
  5
433
100
AcDbEntity
  8
1
100
AcDbLine
  6
CONTINUOUS
 62
7
 10
1.6148493E+002
 20
1.29583E+002
 11
1.5758493E+002
 21
1.33483E+002
  0
ARC
  5
434
100
AcDbEntity
  8
1
100
AcDbCircle
  6
CONTINUOUS
 62
7
 10
1.5829204E+002
 20
1.341901E+002
 40
1.0
100
AcDbArc
 50
1.8E+002
 51
2.25E+002
  0
LINE
  5
435
100
AcDbEntity
  8
1
100
AcDbLine
  6
CONTINUOUS
 62
7
 10
1.5729204E+002
 20
1.3677589E+002
 11
1.5729204E+002
 21
1.341901E+002
  0
LINE
  5
436
100
AcDbEntity
  8
1
100
AcDbLine
  6
CONTINUOUS
 62
7
 10
1.5729204E+002
 20
1.3677589E+002
 11
1.5716535E+002
 21
1.4045001E+002
  0
ARC
  5
437
100
AcDbEntity
  8
1
100
AcDbCircle
  6
CONTINUOUS
 62
7
 10
1.5646576E+002
 20
1.4042589E+002
 40
7.0E-001
100
AcDbArc
 50
1.974934
 51
9.0E+001
  0
LINE
  5
438
100
AcDbEntity
  8
1
100
AcDbLine
  6
CONTINUOUS
 62
7
 10
1.4886832E+002
 20
1.4112589E+002
 11
1.5646576E+002
 21
1.4112589E+002
  0
ARC
  5
439
100
AcDbEntity
  8
1
100
AcDbCircle
  6
CONTINUOUS
 62
7
 10
1.4886832E+002
 20
1.4042589E+002
 40
7.0E-001
100
AcDbArc
 50
9.0E+001
 51
1.7802507E+002
  0
LINE
  5
43a
100
AcDbEntity
  8
1
100
AcDbLine
  6
CONTINUOUS
 62
7
 10
1.4804204E+002
 20
1.3677589E+002
 11
1.4816873E+002
 21
1.4045001E+002
  0
LINE
  5
43b
100
AcDbEntity
  8
1
100
AcDbLine
  6
CONTINUOUS
 62
7
 10
1.4804204E+002
 20
1.3677589E+002
 11
1.4804204E+002
 21
1.341901E+002
  0
ARC
  5
43c
100
AcDbEntity
  8
1
100
AcDbCircle
  6
CONTINUOUS
 62
7
 10
1.4704204E+002
 20
1.341901E+002
 40
1.0
100
AcDbArc
 50
3.15E+002
 51
3.6E+002
  0
LINE
  5
43d
100
AcDbEntity
  8
1
100
AcDbLine
  6
CONTINUOUS
 62
7
 10
1.4384915E+002
 20
1.29583E+002
 11
1.4774915E+002
 21
1.33483E+002
  0
ARC
  5
43e
100
AcDbEntity
  8
1
100
AcDbCircle
  6
CONTINUOUS
 62
7
 10
1.4314204E+002
 20
1.302901E+002
 40
1.0
100
AcDbArc
 50
2.25E+002
 51
3.15E+002
  0
LINE
  5
43f
100
AcDbEntity
  8
1
100
AcDbLine
  6
CONTINUOUS
 62
7
 10
1.4243493E+002
 20
1.29583E+002
 11
1.3853493E+002
 21
1.33483E+002
  0
ARC
  5
440
100
AcDbEntity
  8
1
100
AcDbCircle
  6
CONTINUOUS
 62
7
 10
1.3924204E+002
 20
1.341901E+002
 40
1.0
100
AcDbArc
 50
1.8E+002
 51
2.25E+002
  0
LINE
  5
441
100
AcDbEntity
  8
1
100
AcDbLine
  6
CONTINUOUS
 62
7
 10
1.3824204E+002
 20
1.3677589E+002
 11
1.3824204E+002
 21
1.341901E+002
  0
LINE
  5
442
100
AcDbEntity
  8
1
100
AcDbLine
  6
CONTINUOUS
 62
7
 10
1.3824204E+002
 20
1.3677589E+002
 11
1.3811758E+002
 21
1.4038535E+002
  0
LINE
  5
443
100
AcDbEntity
  8
1
100
AcDbLine
  6
CONTINUOUS
 62
7
 10
1.2985704E+002
 20
1.4112589E+002
 11
1.3737704E+002
 21
1.4112589E+002
  0
LINE
  5
444
100
AcDbEntity
  8
1
100
AcDbLine
  6
CONTINUOUS
 62
7
 10
1.2899204E+002
 20
1.3677589E+002
 11
1.291165E+002
 21
1.4038535E+002
  0
LINE
  5
445
100
AcDbEntity
  8
1
100
AcDbLine
  6
CONTINUOUS
 62
7
 10
1.2899204E+002
 20
1.3677589E+002
 11
1.2899204E+002
 21
1.341901E+002
  0
ARC
  5
446
100
AcDbEntity
  8
1
100
AcDbCircle
  6
CONTINUOUS
 62
7
 10
1.2799204E+002
 20
1.341901E+002
 40
1.0
100
AcDbArc
 50
3.15E+002
 51
3.6E+002
  0
LINE
  5
447
100
AcDbEntity
  8
1
100
AcDbLine
  6
CONTINUOUS
 62
7
 10
1.2479915E+002
 20
1.29583E+002
 11
1.2869915E+002
 21
1.33483E+002
  0
ARC
  5
448
100
AcDbEntity
  8
1
100
AcDbCircle
  6
CONTINUOUS
 62
7
 10
1.2409204E+002
 20
1.302901E+002
 40
1.0
100
AcDbArc
 50
2.25E+002
 51
3.15E+002
  0
LINE
  5
449
100
AcDbEntity
  8
1
100
AcDbLine
  6
CONTINUOUS
 62
7
 10
1.2338493E+002
 20
1.29583E+002
 11
1.1948493E+002
 21
1.33483E+002
  0
ARC
  5
44a
100
AcDbEntity
  8
1
100
AcDbCircle
  6
CONTINUOUS
 62
7
 10
1.2019204E+002
 20
1.341901E+002
 40
1.0
100
AcDbArc
 50
1.8E+002
 51
2.25E+002
  0
LINE
  5
44b
100
AcDbEntity
  8
1
100
AcDbLine
  6
CONTINUOUS
 62
7
 10
1.1919204E+002
 20
1.3677589E+002
 11
1.1919204E+002
 21
1.341901E+002
  0
LINE
  5
44c
100
AcDbEntity
  8
1
100
AcDbLine
  6
CONTINUOUS
 62
7
 10
1.1919204E+002
 20
1.3677589E+002
 11
1.1906758E+002
 21
1.4038535E+002
  0
LINE
  5
44d
100
AcDbEntity
  8
1
100
AcDbLine
  6
CONTINUOUS
 62
7
 10
1.1080704E+002
 20
1.4112589E+002
 11
1.1832704E+002
 21
1.4112589E+002
  0
LINE
  5
44e
100
AcDbEntity
  8
1
100
AcDbLine
  6
CONTINUOUS
 62
7
 10
1.0994204E+002
 20
1.3677589E+002
 11
1.100665E+002
 21
1.4038535E+002
  0
LINE
  5
44f
100
AcDbEntity
  8
1
100
AcDbLine
  6
CONTINUOUS
 62
7
 10
1.0994204E+002
 20
1.3677589E+002
 11
1.0994204E+002
 21
1.341901E+002
  0
ARC
  5
450
100
AcDbEntity
  8
1
100
AcDbCircle
  6
CONTINUOUS
 62
7
 10
1.0894204E+002
 20
1.341901E+002
 40
1.0
100
AcDbArc
 50
3.15E+002
 51
3.6E+002
  0
LINE
  5
451
100
AcDbEntity
  8
1
100
AcDbLine
  6
CONTINUOUS
 62
7
 10
1.0574915E+002
 20
1.29583E+002
 11
1.0964915E+002
 21
1.33483E+002
  0
ARC
  5
452
100
AcDbEntity
  8
1
100
AcDbCircle
  6
CONTINUOUS
 62
7
 10
1.0504204E+002
 20
1.302901E+002
 40
1.0
100
AcDbArc
 50
2.25E+002
 51
3.15E+002
  0
LINE
  5
453
100
AcDbEntity
  8
1
100
AcDbLine
  6
CONTINUOUS
 62
7
 10
1.0433493E+002
 20
1.29583E+002
 11
1.0043493E+002
 21
1.33483E+002
  0
ARC
  5
454
100
AcDbEntity
  8
1
100
AcDbCircle
  6
CONTINUOUS
 62
7
 10
1.0114204E+002
 20
1.341901E+002
 40
1.0
100
AcDbArc
 50
1.8E+002
 51
2.25E+002
  0
LINE
  5
455
100
AcDbEntity
  8
1
100
AcDbLine
  6
CONTINUOUS
 62
7
 10
1.0014204E+002
 20
1.3677589E+002
 11
1.0014204E+002
 21
1.341901E+002
  0
LINE
  5
456
100
AcDbEntity
  8
1
100
AcDbLine
  6
CONTINUOUS
 62
7
 10
1.0014204E+002
 20
1.3677589E+002
 11
1.0001758E+002
 21
1.4038535E+002
  0
LINE
  5
457
100
AcDbEntity
  8
1
100
AcDbLine
  6
CONTINUOUS
 62
7
 10
9.175704E+001
 20
1.4112589E+002
 11
9.927704E+001
 21
1.4112589E+002
  0
LINE
  5
458
100
AcDbEntity
  8
1
100
AcDbLine
  6
CONTINUOUS
 62
7
 10
9.089204E+001
 20
1.3677589E+002
 11
9.1016504E+001
 21
1.4038535E+002
  0
LINE
  5
459
100
AcDbEntity
  8
1
100
AcDbLine
  6
CONTINUOUS
 62
7
 10
9.089204E+001
 20
1.3677589E+002
 11
9.089204E+001
 21
1.341901E+002
  0
ARC
  5
45a
100
AcDbEntity
  8
1
100
AcDbCircle
  6
CONTINUOUS
 62
7
 10
8.989204E+001
 20
1.341901E+002
 40
1.0
100
AcDbArc
 50
3.15E+002
 51
3.6E+002
  0
LINE
  5
45b
100
AcDbEntity
  8
1
100
AcDbLine
  6
CONTINUOUS
 62
7
 10
8.6699147E+001
 20
1.29583E+002
 11
9.0599147E+001
 21
1.33483E+002
  0
ARC
  5
45c
100
AcDbEntity
  8
1
100
AcDbCircle
  6
CONTINUOUS
 62
7
 10
8.599204E+001
 20
1.302901E+002
 40
1.0
100
AcDbArc
 50
2.25E+002
 51
3.15E+002
  0
LINE
  5
45d
100
AcDbEntity
  8
1
100
AcDbLine
  6
CONTINUOUS
 62
7
 10
8.5284933E+001
 20
1.29583E+002
 11
8.1384933E+001
 21
1.33483E+002
  0
ARC
  5
45e
100
AcDbEntity
  8
1
100
AcDbCircle
  6
CONTINUOUS
 62
7
 10
8.209204E+001
 20
1.341901E+002
 40
1.0
100
AcDbArc
 50
1.8E+002
 51
2.25E+002
  0
LINE
  5
45f
100
AcDbEntity
  8
1
100
AcDbLine
  6
CONTINUOUS
 62
7
 10
8.109204E+001
 20
1.3677589E+002
 11
8.109204E+001
 21
1.341901E+002
  0
LINE
  5
460
100
AcDbEntity
  8
1
100
AcDbLine
  6
CONTINUOUS
 62
7
 10
8.109204E+001
 20
1.3677589E+002
 11
8.0967576E+001
 21
1.4038535E+002
  0
LINE
  5
461
100
AcDbEntity
  8
1
100
AcDbLine
  6
CONTINUOUS
 62
7
 10
7.7502966E+001
 20
1.4112589E+002
 11
8.022704E+001
 21
1.4112589E+002
  0
ARC
  5
462
100
AcDbEntity
  8
1
100
AcDbCircle
  6
CONTINUOUS
 62
7
 10
7.7502966E+001
 20
1.4042589E+002
 40
7.0E-001
100
AcDbArc
 50
9.0E+001
 51
1.6487599E+002
  0
LINE
  5
463
100
AcDbEntity
  8
1
100
AcDbLine
  6
CONTINUOUS
 62
7
 10
7.6827212E+001
 20
1.4060852E+002
 11
7.646704E+001
 21
1.3927589E+002
  0
ARC
  5
464
100
AcDbEntity
  8
1
100
AcDbCircle
  6
CONTINUOUS
 62
7
 10
2.1554332E+002
 20
9.5235889E+001
 40
7.0E-001
100
AcDbArc
 50
1.8197493E+002
 51
2.7E+002
  0
ARC
  5
465
100
AcDbEntity
  8
1
100
AcDbCircle
  6
CONTINUOUS
 62
7
 10
2.2314076E+002
 20
9.5235889E+001
 40
7.0E-001
100
AcDbArc
 50
2.7E+002
 51
3.5802507E+002
  0
ARC
  5
466
100
AcDbEntity
  8
1
100
AcDbCircle
  6
CONTINUOUS
 62
7
 10
1.9649332E+002
 20
9.5235889E+001
 40
7.0E-001
100
AcDbArc
 50
1.8197493E+002
 51
2.7E+002
  0
ARC
  5
467
100
AcDbEntity
  8
1
100
AcDbCircle
  6
CONTINUOUS
 62
7
 10
2.0409076E+002
 20
9.5235889E+001
 40
7.0E-001
100
AcDbArc
 50
2.7E+002
 51
3.5802507E+002
  0
ARC
  5
468
100
AcDbEntity
  8
1
100
AcDbCircle
  6
CONTINUOUS
 62
7
 10
1.7744332E+002
 20
9.5235889E+001
 40
7.0E-001
100
AcDbArc
 50
1.8197493E+002
 51
2.7E+002
  0
ARC
  5
469
100
AcDbEntity
  8
1
100
AcDbCircle
  6
CONTINUOUS
 62
7
 10
1.8504076E+002
 20
9.5235889E+001
 40
7.0E-001
100
AcDbArc
 50
2.7E+002
 51
3.5802507E+002
  0
ARC
  5
46a
100
AcDbEntity
  8
1
100
AcDbCircle
  6
CONTINUOUS
 62
7
 10
1.5839332E+002
 20
9.5235889E+001
 40
7.0E-001
100
AcDbArc
 50
1.8197493E+002
 51
2.7E+002
  0
ARC
  5
46b
100
AcDbEntity
  8
1
100
AcDbCircle
  6
CONTINUOUS
 62
7
 10
1.6599076E+002
 20
9.5235889E+001
 40
7.0E-001
100
AcDbArc
 50
2.7E+002
 51
3.5802507E+002
  0
ARC
  5
46c
100
AcDbEntity
  8
1
100
AcDbCircle
  6
CONTINUOUS
 62
7
 10
1.3934332E+002
 20
9.5235889E+001
 40
7.0E-001
100
AcDbArc
 50
1.8197493E+002
 51
2.7E+002
  0
ARC
  5
46d
100
AcDbEntity
  8
1
100
AcDbCircle
  6
CONTINUOUS
 62
7
 10
1.4694076E+002
 20
9.5235889E+001
 40
7.0E-001
100
AcDbArc
 50
2.7E+002
 51
3.5802507E+002
  0
ARC
  5
46e
100
AcDbEntity
  8
1
100
AcDbCircle
  6
CONTINUOUS
 62
7
 10
1.2029332E+002
 20
9.5235889E+001
 40
7.0E-001
100
AcDbArc
 50
1.8197493E+002
 51
2.7E+002
  0
ARC
  5
46f
100
AcDbEntity
  8
1
100
AcDbCircle
  6
CONTINUOUS
 62
7
 10
1.2789076E+002
 20
9.5235889E+001
 40
7.0E-001
100
AcDbArc
 50
2.7E+002
 51
3.5802507E+002
  0
ARC
  5
470
100
AcDbEntity
  8
1
100
AcDbCircle
  6
CONTINUOUS
 62
7
 10
1.0124332E+002
 20
9.5235889E+001
 40
7.0E-001
100
AcDbArc
 50
1.8197493E+002
 51
2.7E+002
  0
ARC
  5
471
100
AcDbEntity
  8
1
100
AcDbCircle
  6
CONTINUOUS
 62
7
 10
1.0884076E+002
 20
9.5235889E+001
 40
7.0E-001
100
AcDbArc
 50
2.7E+002
 51
3.5802507E+002
  0
ARC
  5
472
100
AcDbEntity
  8
1
100
AcDbCircle
  6
CONTINUOUS
 62
7
 10
8.2193318E+001
 20
9.5235889E+001
 40
7.0E-001
100
AcDbArc
 50
1.8197493E+002
 51
2.7E+002
  0
ARC
  5
473
100
AcDbEntity
  8
1
100
AcDbCircle
  6
CONTINUOUS
 62
7
 10
8.9790762E+001
 20
9.5235889E+001
 40
7.0E-001
100
AcDbArc
 50
2.7E+002
 51
3.5802507E+002
  0
LINE
  5
474
100
AcDbEntity
  8
1
100
AcDbLine
  6
CONTINUOUS
 62
7
 10
3.2948523E+001
 20
1.5322589E+002
 11
3.2948523E+001
 21
1.5382589E+002
  0
INSERT
  5
475
100
AcDbEntity
100
AcDbBlockReference
  2
BTN6_1524_IN
  8
1
 10
7.646704E+001
 20
1.5582589E+002
  0
ARC
  5
476
100
AcDbEntity
  8
1
100
AcDbCircle
  6
CONTINUOUS
 62
7
 10
2.1421704E+002
 20
4.5004401E+001
 40
5.0E-001
100
AcDbArc
 50
0.0
 51
9.0E+001
  0
ARC
  5
477
100
AcDbEntity
  8
1
100
AcDbCircle
  6
CONTINUOUS
 62
7
 10
2.0541704E+002
 20
4.5004401E+001
 40
5.0E-001
100
AcDbArc
 50
9.0E+001
 51
1.8E+002
  0
ARC
  5
478
100
AcDbEntity
  8
1
100
AcDbCircle
  6
CONTINUOUS
 62
7
 10
1.9516704E+002
 20
4.5004401E+001
 40
5.0E-001
100
AcDbArc
 50
0.0
 51
9.0E+001
  0
ARC
  5
479
100
AcDbEntity
  8
1
100
AcDbCircle
  6
CONTINUOUS
 62
7
 10
1.8636704E+002
 20
4.5004401E+001
 40
5.0E-001
100
AcDbArc
 50
9.0E+001
 51
1.8E+002
  0
ARC
  5
47a
100
AcDbEntity
  8
1
100
AcDbCircle
  6
CONTINUOUS
 62
7
 10
1.7611704E+002
 20
4.5004401E+001
 40
5.0E-001
100
AcDbArc
 50
0.0
 51
9.0E+001
  0
ARC
  5
47b
100
AcDbEntity
  8
1
100
AcDbCircle
  6
CONTINUOUS
 62
7
 10
1.6731704E+002
 20
4.5004401E+001
 40
5.0E-001
100
AcDbArc
 50
9.0E+001
 51
1.8E+002
  0
LINE
  5
47c
100
AcDbEntity
  8
1
100
AcDbLine
  6
CONTINUOUS
 62
7
 10
2.2886704E+002
 20
4.6904401E+001
 11
2.2886704E+002
 21
3.9204401E+001
  0
LINE
  5
47d
100
AcDbEntity
  8
1
100
AcDbLine
  6
CONTINUOUS
 62
7
 10
2.1471704E+002
 20
4.6904401E+001
 11
2.1471704E+002
 21
3.9204401E+001
  0
LINE
  5
47e
100
AcDbEntity
  8
1
100
AcDbLine
  6
CONTINUOUS
 62
7
 10
1.9566704E+002
 20
4.6904401E+001
 11
1.9566704E+002
 21
3.9204401E+001
  0
LINE
  5
47f
100
AcDbEntity
  8
1
100
AcDbLine
  6
CONTINUOUS
 62
7
 10
2.0491704E+002
 20
4.6904401E+001
 11
2.0491704E+002
 21
3.9204401E+001
  0
LINE
  5
480
100
AcDbEntity
  8
1
100
AcDbLine
  6
CONTINUOUS
 62
7
 10
1.8586704E+002
 20
4.6904401E+001
 11
1.8586704E+002
 21
3.9204401E+001
  0
LINE
  5
481
100
AcDbEntity
  8
1
100
AcDbLine
  6
CONTINUOUS
 62
7
 10
1.7661704E+002
 20
4.6904401E+001
 11
1.7661704E+002
 21
3.9204401E+001
  0
LINE
  5
482
100
AcDbEntity
  8
1
100
AcDbLine
  6
CONTINUOUS
 62
7
 10
1.6681704E+002
 20
4.6904401E+001
 11
1.6681704E+002
 21
3.9204401E+001
  0
LINE
  5
483
100
AcDbEntity
  8
1
100
AcDbLine
  6
CONTINUOUS
 62
7
 10
1.5756704E+002
 20
4.6904401E+001
 11
1.5756704E+002
 21
3.9204401E+001
  0
LINE
  5
484
100
AcDbEntity
  8
1
100
AcDbLine
  6
CONTINUOUS
 62
7
 10
2.0541704E+002
 20
4.5504401E+001
 11
2.1421704E+002
 21
4.5504401E+001
  0
LINE
  5
485
100
AcDbEntity
  8
1
100
AcDbLine
  6
CONTINUOUS
 62
7
 10
2.1281704E+002
 20
4.5504401E+001
 11
2.1281704E+002
 21
3.9204401E+001
  0
LINE
  5
486
100
AcDbEntity
  8
1
100
AcDbLine
  6
CONTINUOUS
 62
7
 10
2.0681704E+002
 20
4.5504401E+001
 11
2.0681704E+002
 21
3.9204401E+001
  0
ARC
  5
487
100
AcDbEntity
  8
1
100
AcDbCircle
  6
CONTINUOUS
 62
7
 10
2.1521704E+002
 20
4.6904401E+001
 40
5.0E-001
100
AcDbArc
 50
9.0E+001
 51
1.8E+002
  0
ARC
  5
488
100
AcDbEntity
  8
1
100
AcDbCircle
  6
CONTINUOUS
 62
7
 10
2.0441704E+002
 20
4.6904401E+001
 40
5.0E-001
100
AcDbArc
 50
0.0
 51
9.0E+001
  0
ARC
  5
489
100
AcDbEntity
  8
1
100
AcDbCircle
  6
CONTINUOUS
 62
7
 10
2.0441704E+002
 20
3.9204401E+001
 40
5.0E-001
100
AcDbArc
 50
2.7E+002
 51
3.6E+002
  0
ARC
  5
48a
100
AcDbEntity
  8
1
100
AcDbCircle
  6
CONTINUOUS
 62
7
 10
2.0631704E+002
 20
3.9204401E+001
 40
5.0E-001
100
AcDbArc
 50
2.7E+002
 51
3.6E+002
  0
ARC
  5
48b
100
AcDbEntity
  8
1
100
AcDbCircle
  6
CONTINUOUS
 62
7
 10
2.1331704E+002
 20
3.9204401E+001
 40
5.0E-001
100
AcDbArc
 50
1.8E+002
 51
2.7E+002
  0
ARC
  5
48c
100
AcDbEntity
  8
1
100
AcDbCircle
  6
CONTINUOUS
 62
7
 10
2.1521704E+002
 20
3.9204401E+001
 40
5.0E-001
100
AcDbArc
 50
1.8E+002
 51
2.7E+002
  0
ARC
  5
48d
100
AcDbEntity
  8
1
100
AcDbCircle
  6
CONTINUOUS
 62
7
 10
2.2836704E+002
 20
4.6904401E+001
 40
5.0E-001
100
AcDbArc
 50
0.0
 51
9.0E+001
  0
ARC
  5
48e
100
AcDbEntity
  8
1
100
AcDbCircle
  6
CONTINUOUS
 62
7
 10
2.2836704E+002
 20
3.9204401E+001
 40
5.0E-001
100
AcDbArc
 50
2.7E+002
 51
3.6E+002
  0
LINE
  5
48f
100
AcDbEntity
  8
1
100
AcDbLine
  6
CONTINUOUS
 62
7
 10
1.8636704E+002
 20
4.5504401E+001
 11
1.9516704E+002
 21
4.5504401E+001
  0
LINE
  5
490
100
AcDbEntity
  8
1
100
AcDbLine
  6
CONTINUOUS
 62
7
 10
1.9376704E+002
 20
4.5504401E+001
 11
1.9376704E+002
 21
3.9204401E+001
  0
LINE
  5
491
100
AcDbEntity
  8
1
100
AcDbLine
  6
CONTINUOUS
 62
7
 10
1.8776704E+002
 20
4.5504401E+001
 11
1.8776704E+002
 21
3.9204401E+001
  0
ARC
  5
492
100
AcDbEntity
  8
1
100
AcDbCircle
  6
CONTINUOUS
 62
7
 10
1.8726704E+002
 20
3.9204401E+001
 40
5.0E-001
100
AcDbArc
 50
2.7E+002
 51
3.6E+002
  0
ARC
  5
493
100
AcDbEntity
  8
1
100
AcDbCircle
  6
CONTINUOUS
 62
7
 10
1.9426704E+002
 20
3.9204401E+001
 40
5.0E-001
100
AcDbArc
 50
1.8E+002
 51
2.7E+002
  0
LINE
  5
494
100
AcDbEntity
  8
1
100
AcDbLine
  6
CONTINUOUS
 62
7
 10
1.6871704E+002
 20
4.5504401E+001
 11
1.6871704E+002
 21
3.9204401E+001
  0
LINE
  5
495
100
AcDbEntity
  8
1
100
AcDbLine
  6
CONTINUOUS
 62
7
 10
1.7471704E+002
 20
4.5504401E+001
 11
1.7471704E+002
 21
3.9204401E+001
  0
ARC
  5
496
100
AcDbEntity
  8
1
100
AcDbCircle
  6
CONTINUOUS
 62
7
 10
1.6821704E+002
 20
3.9204401E+001
 40
5.0E-001
100
AcDbArc
 50
2.7E+002
 51
3.6E+002
  0
ARC
  5
497
100
AcDbEntity
  8
1
100
AcDbCircle
  6
CONTINUOUS
 62
7
 10
1.7521704E+002
 20
3.9204401E+001
 40
5.0E-001
100
AcDbArc
 50
1.8E+002
 51
2.7E+002
  0
ARC
  5
498
100
AcDbEntity
  8
1
100
AcDbCircle
  6
CONTINUOUS
 62
7
 10
1.9616704E+002
 20
4.6904401E+001
 40
5.0E-001
100
AcDbArc
 50
9.0E+001
 51
1.8E+002
  0
ARC
  5
499
100
AcDbEntity
  8
1
100
AcDbCircle
  6
CONTINUOUS
 62
7
 10
1.9616704E+002
 20
3.9204401E+001
 40
5.0E-001
100
AcDbArc
 50
1.8E+002
 51
2.7E+002
  0
ARC
  5
49a
100
AcDbEntity
  8
1
100
AcDbCircle
  6
CONTINUOUS
 62
7
 10
1.8536704E+002
 20
4.6904401E+001
 40
5.0E-001
100
AcDbArc
 50
0.0
 51
9.0E+001
  0
ARC
  5
49b
100
AcDbEntity
  8
1
100
AcDbCircle
  6
CONTINUOUS
 62
7
 10
1.8536704E+002
 20
3.9204401E+001
 40
5.0E-001
100
AcDbArc
 50
2.7E+002
 51
3.6E+002
  0
ARC
  5
49c
100
AcDbEntity
  8
1
100
AcDbCircle
  6
CONTINUOUS
 62
7
 10
1.7711704E+002
 20
4.6904401E+001
 40
5.0E-001
100
AcDbArc
 50
9.0E+001
 51
1.8E+002
  0
ARC
  5
49d
100
AcDbEntity
  8
1
100
AcDbCircle
  6
CONTINUOUS
 62
7
 10
1.7711704E+002
 20
3.9204401E+001
 40
5.0E-001
100
AcDbArc
 50
1.8E+002
 51
2.7E+002
  0
ARC
  5
49e
100
AcDbEntity
  8
1
100
AcDbCircle
  6
CONTINUOUS
 62
7
 10
1.6631704E+002
 20
4.6904401E+001
 40
5.0E-001
100
AcDbArc
 50
0.0
 51
9.0E+001
  0
ARC
  5
49f
100
AcDbEntity
  8
1
100
AcDbCircle
  6
CONTINUOUS
 62
7
 10
1.6631704E+002
 20
3.9204401E+001
 40
5.0E-001
100
AcDbArc
 50
2.7E+002
 51
3.6E+002
  0
ARC
  5
4a0
100
AcDbEntity
  8
1
100
AcDbCircle
  6
CONTINUOUS
 62
7
 10
1.5806704E+002
 20
3.9204401E+001
 40
5.0E-001
100
AcDbArc
 50
1.8E+002
 51
2.7E+002
  0
ARC
  5
4a1
100
AcDbEntity
  8
1
100
AcDbCircle
  6
CONTINUOUS
 62
7
 10
1.5806704E+002
 20
4.6904401E+001
 40
5.0E-001
100
AcDbArc
 50
9.0E+001
 51
1.8E+002
  0
LINE
  5
4a2
100
AcDbEntity
  8
1
100
AcDbLine
  6
CONTINUOUS
 62
7
 10
1.7611704E+002
 20
4.5504401E+001
 11
1.6731704E+002
 21
4.5504401E+001
  0
LINE
  5
4a3
100
AcDbEntity
  8
1
100
AcDbLine
  6
CONTINUOUS
 62
7
 10
2.2396704E+002
 20
4.6904401E+001
 11
2.2396704E+002
 21
3.9204401E+001
  0
ARC
  5
4a4
100
AcDbEntity
  8
1
100
AcDbCircle
  6
CONTINUOUS
 62
7
 10
2.2346704E+002
 20
4.6904401E+001
 40
5.0E-001
100
AcDbArc
 50
0.0
 51
9.0E+001
  0
ARC
  5
4a5
100
AcDbEntity
  8
1
100
AcDbCircle
  6
CONTINUOUS
 62
7
 10
2.2346704E+002
 20
3.9204401E+001
 40
5.0E-001
100
AcDbArc
 50
2.7E+002
 51
3.6E+002
  0
ARC
  5
4a6
100
AcDbEntity
  8
1
100
AcDbCircle
  6
CONTINUOUS
 62
7
 10
1.5706704E+002
 20
4.5004401E+001
 40
5.0E-001
100
AcDbArc
 50
0.0
 51
9.0E+001
  0
ARC
  5
4a7
100
AcDbEntity
  8
1
100
AcDbCircle
  6
CONTINUOUS
 62
7
 10
1.4826704E+002
 20
4.5004401E+001
 40
5.0E-001
100
AcDbArc
 50
9.0E+001
 51
1.8E+002
  0
LINE
  5
4a8
100
AcDbEntity
  8
1
100
AcDbLine
  6
CONTINUOUS
 62
7
 10
1.5706704E+002
 20
4.5504401E+001
 11
1.4826704E+002
 21
4.5504401E+001
  0
LINE
  5
4a9
100
AcDbEntity
  8
1
100
AcDbLine
  6
CONTINUOUS
 62
7
 10
1.5566704E+002
 20
4.5504401E+001
 11
1.5566704E+002
 21
3.9204401E+001
  0
LINE
  5
4aa
100
AcDbEntity
  8
1
100
AcDbLine
  6
CONTINUOUS
 62
7
 10
1.4966704E+002
 20
4.5504401E+001
 11
1.4966704E+002
 21
3.9204401E+001
  0
ARC
  5
4ab
100
AcDbEntity
  8
1
100
AcDbCircle
  6
CONTINUOUS
 62
7
 10
1.4916704E+002
 20
3.9204401E+001
 40
5.0E-001
100
AcDbArc
 50
2.7E+002
 51
3.6E+002
  0
ARC
  5
4ac
100
AcDbEntity
  8
1
100
AcDbCircle
  6
CONTINUOUS
 62
7
 10
1.5616704E+002
 20
3.9204401E+001
 40
5.0E-001
100
AcDbArc
 50
1.8E+002
 51
2.7E+002
  0
INSERT
  5
4ad
100
AcDbEntity
100
AcDbBlockReference
  2
BTN6_1524_IN
  8
1
 10
7.646704E+001
 20
1.3677589E+002
  0
LINE
  5
4ae
100
AcDbEntity
  8
1
100
AcDbLine
  6
CONTINUOUS
 62
7
 10
2.2432307E+002
 20
1.5817589E+002
 11
2.1436101E+002
 21
1.5817589E+002
  0
LINE
  5
4af
100
AcDbEntity
  8
1
100
AcDbLine
  6
CONTINUOUS
 62
7
 10
2.2424204E+002
 20
1.5347589E+002
 11
2.1444204E+002
 21
1.5347589E+002
  0
LINE
  5
4b0
100
AcDbEntity
  8
1
100
AcDbLine
  6
CONTINUOUS
 62
7
 10
1.8614204E+002
 20
1.5347589E+002
 11
1.7634204E+002
 21
1.5347589E+002
  0
LINE
  5
4b1
100
AcDbEntity
  8
1
100
AcDbLine
  6
CONTINUOUS
 62
7
 10
1.8622307E+002
 20
1.5817589E+002
 11
1.7626101E+002
 21
1.5817589E+002
  0
LINE
  5
4b2
100
AcDbEntity
  8
1
100
AcDbLine
  6
CONTINUOUS
 62
7
 10
2.0527307E+002
 20
1.5817589E+002
 11
1.9531101E+002
 21
1.5817589E+002
  0
LINE
  5
4b3
100
AcDbEntity
  8
1
100
AcDbLine
  6
CONTINUOUS
 62
7
 10
2.0519204E+002
 20
1.5347589E+002
 11
1.9539204E+002
 21
1.5347589E+002
  0
TEXT
  5
4b4
100
AcDbEntity
  8
1
100
AcDbText
  6
CONTINUOUS
 62
7
 10
1.3832692E+002
 20
1.8545412E+002
 40
4.0
  1

 41
8.0E-001
 72
1
 11
1.5272692E+002
 21
1.8545412E+002
100
AcDbText
  0
LINE
  5
4b5
100
AcDbEntity
  8
1
100
AcDbLine
  6
CONTINUOUS
 62
7
 10
3.2398523E+001
 20
1.5382589E+002
 11
3.2398523E+001
 21
1.5582589E+002
  0
LINE
  5
4b6
100
AcDbEntity
  8
1
100
AcDbLine
  6
CONTINUOUS
 62
7
 10
3.2398523E+001
 20
1.5582589E+002
 11
3.2998523E+001
 21
1.5582589E+002
  0
LINE
  5
4b7
100
AcDbEntity
  8
1
100
AcDbLine
  6
CONTINUOUS
 62
7
 10
3.1348523E+001
 20
1.4168589E+002
 11
3.9448523E+001
 21
1.4168589E+002
  0
ARC
  5
4b8
100
AcDbEntity
  8
1
100
AcDbCircle
  6
CONTINUOUS
 62
7
 10
3.1348523E+001
 20
1.4198589E+002
 40
3.0E-001
100
AcDbArc
 50
1.8E+002
 51
2.7E+002
  0
ARC
  5
4b9
100
AcDbEntity
  8
1
100
AcDbCircle
  6
CONTINUOUS
 62
7
 10
3.9448523E+001
 20
1.4198589E+002
 40
3.0E-001
100
AcDbArc
 50
2.7E+002
 51
3.6E+002
  0
LINE
  5
4ba
100
AcDbEntity
  8
1
100
AcDbLine
  6
CONTINUOUS
 62
7
 10
3.7170738E+001
 20
1.5728089E+002
 11
3.7170738E+001
 21
1.5590487E+002
  0
ARC
  5
4bb
100
AcDbEntity
  8
1
100
AcDbCircle
  6
CONTINUOUS
 62
7
 10
3.4170738E+001
 20
1.5448089E+002
 40
1.1
100
AcDbArc
 50
3.6221547E+001
 51
3.2377845E+002
  0
LINE
  5
4bc
100
AcDbEntity
  8
1
100
AcDbLine
  6
CONTINUOUS
 62
7
 10
3.505815E+001
 20
1.5513089E+002
 11
3.6752461E+001
 21
1.5541159E+002
  0
LINE
  5
4bd
100
AcDbEntity
  8
1
100
AcDbLine
  6
CONTINUOUS
 62
7
 10
3.505815E+001
 20
1.5383089E+002
 11
3.6752461E+001
 21
1.5355019E+002
  0
LINE
  5
4be
100
AcDbEntity
  8
1
100
AcDbLine
  6
CONTINUOUS
 62
7
 10
3.7170738E+001
 20
1.5305691E+002
 11
3.7170738E+001
 21
1.5217599E+002
  0
LINE
  5
4bf
100
AcDbEntity
  8
1
100
AcDbLine
  6
CONTINUOUS
 62
7
 10
3.6841749E+001
 20
1.5170615E+002
 11
3.4882765E+001
 21
1.5099313E+002
  0
ARC
  5
4c0
100
AcDbEntity
  8
1
100
AcDbCircle
  6
CONTINUOUS
 62
7
 10
3.4609149E+001
 20
1.5174489E+002
 40
8.0E-001
100
AcDbArc
 50
2.6046841E+002
 51
2.9E+002
  0
LINE
  5
4c1
100
AcDbEntity
  8
1
100
AcDbLine
  6
CONTINUOUS
 62
7
 10
3.6770738E+001
 20
1.5768089E+002
 11
3.6267575E+001
 21
1.5768089E+002
  0
LINE
  5
4c2
100
AcDbEntity
  8
1
100
AcDbLine
  6
CONTINUOUS
 62
7
 10
3.4928317E+001
 20
1.5818089E+002
 11
3.6080903E+001
 21
1.5771704E+002
  0
ARC
  5
4c3
100
AcDbEntity
  8
1
100
AcDbCircle
  6
CONTINUOUS
 62
7
 10
3.5420738E+001
 20
1.5578089E+002
 40
2.45
100
AcDbArc
 50
1.0159476E+002
 51
1.2725792E+002
  0
ARC
  5
4c4
100
AcDbEntity
  8
1
100
AcDbCircle
  6
CONTINUOUS
 62
7
 10
3.6670738E+001
 20
1.5305691E+002
 40
5.0E-001
100
AcDbArc
 50
0.0
 51
8.0593049E+001
  0
ARC
  5
4c5
100
AcDbEntity
  8
1
100
AcDbCircle
  6
CONTINUOUS
 62
7
 10
3.6670738E+001
 20
1.5217599E+002
 40
5.0E-001
100
AcDbArc
 50
2.9E+002
 51
3.6E+002
  0
ARC
  5
4c6
100
AcDbEntity
  8
1
100
AcDbCircle
  6
CONTINUOUS
 62
7
 10
3.6670738E+001
 20
1.5590487E+002
 40
5.0E-001
100
AcDbArc
 50
2.7940695E+002
 51
3.6E+002
  0
ARC
  5
4c7
100
AcDbEntity
  8
1
100
AcDbCircle
  6
CONTINUOUS
 62
7
 10
3.6770738E+001
 20
1.5728089E+002
 40
4.0E-001
100
AcDbArc
 50
0.0
 51
9.0E+001
  0
ARC
  5
4c8
100
AcDbEntity
  8
1
100
AcDbCircle
  6
CONTINUOUS
 62
7
 10
3.3737499E+001
 20
1.5773089E+002
 40
2.0E-001
100
AcDbArc
 50
2.6244476E+002
 51
3.6E+002
  0
ARC
  5
4c9
100
AcDbEntity
  8
1
100
AcDbCircle
  6
CONTINUOUS
 62
7
 10
3.6267575E+001
 20
1.5818089E+002
 40
5.0E-001
100
AcDbArc
 50
2.48078E+002
 51
2.7E+002
  0
ARC
  5
4ca
100
AcDbEntity
  8
1
100
AcDbCircle
  6
CONTINUOUS
 62
7
 10
3.5398523E+001
 20
1.5582589E+002
 40
2.4
100
AcDbArc
 50
2.9310794E+002
 51
5.4E+002
  0
LINE
  5
4cb
100
AcDbEntity
  8
1
100
AcDbLine
  6
CENTER_C
 62
6
 10
3.0239887E+001
 20
1.1772589E+002
 11
4.0901068E+001
 21
1.1772589E+002
  0
ARC
  5
4cc
100
AcDbEntity
  8
1
100
AcDbCircle
  6
CONTINUOUS
 62
7
 10
3.5398523E+001
 20
1.1772589E+002
 40
2.4
100
AcDbArc
 50
2.0175521E+002
 51
2.5346195E+002
  0
LINE
  5
4cd
100
AcDbEntity
  8
1
100
AcDbLine
  6
CONTINUOUS
 62
7
 10
3.1048523E+001
 20
1.1772589E+002
 11
3.1048523E+001
 21
9.8885889E+001
  0
ARC
  5
4ce
100
AcDbEntity
  8
1
100
AcDbCircle
  6
CONTINUOUS
 62
7
 10
3.5398523E+001
 20
1.1772589E+002
 40
4.35
100
AcDbArc
 50
8.9997501E+001
 51
1.8E+002
  0
ARC
  5
4cf
100
AcDbEntity
  8
1
100
AcDbCircle
  6
CONTINUOUS
 62
7
 10
3.4349523E+001
 20
1.1667689E+002
 40
5.5
100
AcDbArc
 50
1.0997243E+001
 51
7.9002757E+001
  0
LINE
  5
4d0
100
AcDbEntity
  8
1
100
AcDbLine
  6
CONTINUOUS
 62
7
 10
3.9748523E+001
 20
1.1772608E+002
 11
3.9748523E+001
 21
9.8885699E+001
  0
ARC
  5
4d1
100
AcDbEntity
  8
1
100
AcDbCircle
  6
CONTINUOUS
 62
7
 10
3.5398523E+001
 20
1.1562589E+002
 40
2.95
100
AcDbArc
 50
2.7E+002
 51
3.6E+002
  0
ARC
  5
4d2
100
AcDbEntity
  8
1
100
AcDbCircle
  6
CONTINUOUS
 62
7
 10
3.5398523E+001
 20
1.1512589E+002
 40
2.45
100
AcDbArc
 50
1.8E+002
 51
2.7E+002
  0
LINE
  5
4d3
100
AcDbEntity
  8
1
100
AcDbLine
  6
CONTINUOUS
 62
7
 10
3.8348523E+001
 20
1.1562589E+002
 11
3.8348523E+001
 21
1.1772589E+002
  0
LINE
  5
4d4
100
AcDbEntity
  8
1
100
AcDbLine
  6
CONTINUOUS
 62
7
 10
3.8348523E+001
 20
1.1772589E+002
 11
3.7798523E+001
 21
1.1772589E+002
  0
LINE
  5
4d5
100
AcDbEntity
  8
1
100
AcDbLine
  6
CONTINUOUS
 62
7
 10
3.2398523E+001
 20
1.1572589E+002
 11
3.2948523E+001
 21
1.1572589E+002
  0
LINE
  5
4d6
100
AcDbEntity
  8
1
100
AcDbLine
  6
CONTINUOUS
 62
7
 10
3.2948523E+001
 20
1.1512589E+002
 11
3.2948523E+001
 21
1.1572589E+002
  0
LINE
  5
4d7
100
AcDbEntity
  8
1
100
AcDbLine
  6
CONTINUOUS
 62
7
 10
3.2398523E+001
 20
1.1572589E+002
 11
3.2398523E+001
 21
1.1772589E+002
  0
LINE
  5
4d8
100
AcDbEntity
  8
1
100
AcDbLine
  6
CONTINUOUS
 62
7
 10
3.2398523E+001
 20
1.1772589E+002
 11
3.2998523E+001
 21
1.1772589E+002
  0
LINE
  5
4d9
100
AcDbEntity
  8
1
100
AcDbLine
  6
CONTINUOUS
 62
7
 10
3.1348523E+001
 20
1.0358589E+002
 11
3.9448523E+001
 21
1.0358589E+002
  0
ARC
  5
4da
100
AcDbEntity
  8
1
100
AcDbCircle
  6
CONTINUOUS
 62
7
 10
3.1348523E+001
 20
1.0388589E+002
 40
3.0E-001
100
AcDbArc
 50
1.8E+002
 51
2.7E+002
  0
ARC
  5
4db
100
AcDbEntity
  8
1
100
AcDbCircle
  6
CONTINUOUS
 62
7
 10
3.9448523E+001
 20
1.0388589E+002
 40
3.0E-001
100
AcDbArc
 50
2.7E+002
 51
3.6E+002
  0
LINE
  5
4dc
100
AcDbEntity
  8
1
100
AcDbLine
  6
CONTINUOUS
 62
7
 10
3.7170738E+001
 20
1.1918089E+002
 11
3.7170738E+001
 21
1.1780487E+002
  0
ARC
  5
4dd
100
AcDbEntity
  8
1
100
AcDbCircle
  6
CONTINUOUS
 62
7
 10
3.4170738E+001
 20
1.1638089E+002
 40
1.1
100
AcDbArc
 50
3.6221547E+001
 51
3.2377845E+002
  0
LINE
  5
4de
100
AcDbEntity
  8
1
100
AcDbLine
  6
CONTINUOUS
 62
7
 10
3.505815E+001
 20
1.1703089E+002
 11
3.6752461E+001
 21
1.1731159E+002
  0
LINE
  5
4df
100
AcDbEntity
  8
1
100
AcDbLine
  6
CONTINUOUS
 62
7
 10
3.505815E+001
 20
1.1573089E+002
 11
3.6752461E+001
 21
1.1545019E+002
  0
DIMENSION
  5
4e0
100
AcDbEntity
  8
1
100
AcDbDimension
  6
CONTINUOUS
 62
1
  2
*D8551
  3
DSTYLE4
 10
2.3606194E+001
 20
1.3677589E+002
 11
2.1505194E+001
 21
1.4630089E+002
 70
128
100
AcDbAlignedDimension
 13
3.0239887E+001
 23
1.5582589E+002
 14
3.0239887E+001
 24
1.3677589E+002
 40
3.6
 50
2.7E+002
100
AcDbRotatedDimension
1001
ACAD
1000
DSTYLE
1002
{
1070
173
1070
0
1070
5
1000
_AH2
1002
}
  0
LINE
  5
4e1
100
AcDbEntity
  8
1
100
AcDbLine
  6
CONTINUOUS
 62
7
 10
3.7170738E+001
 20
1.1495691E+002
 11
3.7170738E+001
 21
1.1407599E+002
  0
LINE
  5
4e2
100
AcDbEntity
  8
1
100
AcDbLine
  6
CONTINUOUS
 62
7
 10
3.6841749E+001
 20
1.1360615E+002
 11
3.4882765E+001
 21
1.1289313E+002
  0
ARC
  5
4e3
100
AcDbEntity
  8
1
100
AcDbCircle
  6
CONTINUOUS
 62
7
 10
3.4609149E+001
 20
1.1364489E+002
 40
8.0E-001
100
AcDbArc
 50
2.6046841E+002
 51
2.9E+002
  0
LINE
  5
4e4
100
AcDbEntity
  8
1
100
AcDbLine
  6
CONTINUOUS
 62
7
 10
3.6770738E+001
 20
1.1958089E+002
 11
3.6267575E+001
 21
1.1958089E+002
  0
LINE
  5
4e5
100
AcDbEntity
  8
1
100
AcDbLine
  6
CONTINUOUS
 62
7
 10
3.4928317E+001
 20
1.2008089E+002
 11
3.6080903E+001
 21
1.1961704E+002
  0
ARC
  5
4e6
100
AcDbEntity
  8
1
100
AcDbCircle
  6
CONTINUOUS
 62
7
 10
3.5420738E+001
 20
1.1768089E+002
 40
2.45
100
AcDbArc
 50
1.0159476E+002
 51
1.2725792E+002
  0
ARC
  5
4e7
100
AcDbEntity
  8
1
100
AcDbCircle
  6
CONTINUOUS
 62
7
 10
3.6670738E+001
 20
1.1495691E+002
 40
5.0E-001
100
AcDbArc
 50
0.0
 51
8.0593049E+001
  0
ARC
  5
4e8
100
AcDbEntity
  8
1
100
AcDbCircle
  6
CONTINUOUS
 62
7
 10
3.6670738E+001
 20
1.1407599E+002
 40
5.0E-001
100
AcDbArc
 50
2.9E+002
 51
3.6E+002
  0
ARC
  5
4e9
100
AcDbEntity
  8
1
100
AcDbCircle
  6
CONTINUOUS
 62
7
 10
3.6670738E+001
 20
1.1780487E+002
 40
5.0E-001
100
AcDbArc
 50
2.7940695E+002
 51
3.6E+002
  0
ARC
  5
4ea
100
AcDbEntity
  8
1
100
AcDbCircle
  6
CONTINUOUS
 62
7
 10
3.6770738E+001
 20
1.1918089E+002
 40
4.0E-001
100
AcDbArc
 50
0.0
 51
9.0E+001
  0
ARC
  5
4eb
100
AcDbEntity
  8
1
100
AcDbCircle
  6
CONTINUOUS
 62
7
 10
3.3737499E+001
 20
1.1963089E+002
 40
2.0E-001
100
AcDbArc
 50
2.6244476E+002
 51
3.6E+002
  0
ARC
  5
4ec
100
AcDbEntity
  8
1
100
AcDbCircle
  6
CONTINUOUS
 62
7
 10
3.6267575E+001
 20
1.2008089E+002
 40
5.0E-001
100
AcDbArc
 50
2.48078E+002
 51
2.7E+002
  0
ARC
  5
4ed
100
AcDbEntity
  8
1
100
AcDbCircle
  6
CONTINUOUS
 62
7
 10
3.5398523E+001
 20
1.1772589E+002
 40
2.4
100
AcDbArc
 50
2.9310794E+002
 51
5.4E+002
  0
LINE
  5
4ee
100
AcDbEntity
  8
1
100
AcDbLine
  6
CENTER_C
 62
6
 10
3.0239887E+001
 20
1.3677589E+002
 11
4.0901068E+001
 21
1.3677589E+002
  0
ARC
  5
4ef
100
AcDbEntity
  8
1
100
AcDbCircle
  6
CONTINUOUS
 62
7
 10
3.5398523E+001
 20
1.3677589E+002
 40
2.4
100
AcDbArc
 50
2.0175521E+002
 51
2.5346195E+002
  0
LINE
  5
4f0
100
AcDbEntity
  8
1
100
AcDbLine
  6
CONTINUOUS
 62
7
 10
3.1048523E+001
 20
1.3677589E+002
 11
3.1048523E+001
 21
1.1793589E+002
  0
ARC
  5
4f1
100
AcDbEntity
  8
1
100
AcDbCircle
  6
CONTINUOUS
 62
7
 10
3.5398523E+001
 20
1.3677589E+002
 40
4.35
100
AcDbArc
 50
8.9997501E+001
 51
1.8E+002
  0
ARC
  5
4f2
100
AcDbEntity
  8
1
100
AcDbCircle
  6
CONTINUOUS
 62
7
 10
3.4349523E+001
 20
1.3572689E+002
 40
5.5
100
AcDbArc
 50
1.0997243E+001
 51
7.9002757E+001
  0
LINE
  5
4f3
100
AcDbEntity
  8
1
100
AcDbLine
  6
CONTINUOUS
 62
7
 10
3.9748523E+001
 20
1.3677608E+002
 11
3.9748523E+001
 21
1.179357E+002
  0
ARC
  5
4f4
100
AcDbEntity
  8
1
100
AcDbCircle
  6
CONTINUOUS
 62
7
 10
3.5398523E+001
 20
1.1793589E+002
 40
4.35
100
AcDbArc
 50
1.8E+002
 51
1.8138314E+002
  0
ARC
  5
4f5
100
AcDbEntity
  8
1
100
AcDbCircle
  6
CONTINUOUS
 62
7
 10
3.4349523E+001
 20
1.1898489E+002
 40
5.5
100
AcDbArc
 50
3.478883E+002
 51
3.4900276E+002
  0
ARC
  5
4f6
100
AcDbEntity
  8
1
100
AcDbCircle
  6
CONTINUOUS
 62
7
 10
3.5398523E+001
 20
1.3467589E+002
 40
2.95
100
AcDbArc
 50
2.7E+002
 51
3.6E+002
  0
ARC
  5
4f7
100
AcDbEntity
  8
1
100
AcDbCircle
  6
CONTINUOUS
 62
7
 10
3.5398523E+001
 20
1.3417589E+002
 40
2.45
100
AcDbArc
 50
1.8E+002
 51
2.7E+002
  0
LINE
  5
4f8
100
AcDbEntity
  8
1
100
AcDbLine
  6
CONTINUOUS
 62
7
 10
3.8348523E+001
 20
1.3467589E+002
 11
3.8348523E+001
 21
1.3677589E+002
  0
LINE
  5
4f9
100
AcDbEntity
  8
1
100
AcDbLine
  6
CONTINUOUS
 62
7
 10
3.8348523E+001
 20
1.3677589E+002
 11
3.7798523E+001
 21
1.3677589E+002
  0
LINE
  5
4fa
100
AcDbEntity
  8
1
100
AcDbLine
  6
CONTINUOUS
 62
7
 10
3.2398523E+001
 20
1.3477589E+002
 11
3.2948523E+001
 21
1.3477589E+002
  0
LINE
  5
4fb
100
AcDbEntity
  8
1
100
AcDbLine
  6
CONTINUOUS
 62
7
 10
3.2948523E+001
 20
1.3417589E+002
 11
3.2948523E+001
 21
1.3477589E+002
  0
LINE
  5
4fc
100
AcDbEntity
  8
1
100
AcDbLine
  6
CONTINUOUS
 62
7
 10
3.2398523E+001
 20
1.3477589E+002
 11
3.2398523E+001
 21
1.3677589E+002
  0
LINE
  5
4fd
100
AcDbEntity
  8
1
100
AcDbLine
  6
CONTINUOUS
 62
7
 10
3.2398523E+001
 20
1.3677589E+002
 11
3.2998523E+001
 21
1.3677589E+002
  0
LINE
  5
4fe
100
AcDbEntity
  8
1
100
AcDbLine
  6
CONTINUOUS
 62
7
 10
3.1348523E+001
 20
1.2263589E+002
 11
3.9448523E+001
 21
1.2263589E+002
  0
ARC
  5
4ff
100
AcDbEntity
  8
1
100
AcDbCircle
  6
CONTINUOUS
 62
7
 10
3.1348523E+001
 20
1.2293589E+002
 40
3.0E-001
100
AcDbArc
 50
1.8E+002
 51
2.7E+002
  0
ARC
  5
500
100
AcDbEntity
  8
1
100
AcDbCircle
  6
CONTINUOUS
 62
7
 10
3.9448523E+001
 20
1.2293589E+002
 40
3.0E-001
100
AcDbArc
 50
2.7E+002
 51
3.6E+002
  0
LINE
  5
501
100
AcDbEntity
  8
1
100
AcDbLine
  6
CONTINUOUS
 62
7
 10
3.7170738E+001
 20
1.3823089E+002
 11
3.7170738E+001
 21
1.3685487E+002
  0
ARC
  5
502
100
AcDbEntity
  8
1
100
AcDbCircle
  6
CONTINUOUS
 62
7
 10
3.4170738E+001
 20
1.3543089E+002
 40
1.1
100
AcDbArc
 50
3.6221547E+001
 51
3.2377845E+002
  0
LINE
  5
503
100
AcDbEntity
  8
1
100
AcDbLine
  6
CONTINUOUS
 62
7
 10
3.505815E+001
 20
1.3608089E+002
 11
3.6752461E+001
 21
1.3636159E+002
  0
LINE
  5
504
100
AcDbEntity
  8
1
100
AcDbLine
  6
CONTINUOUS
 62
7
 10
3.505815E+001
 20
1.3478089E+002
 11
3.6752461E+001
 21
1.3450019E+002
  0
LINE
  5
505
100
AcDbEntity
  8
1
100
AcDbLine
  6
CONTINUOUS
 62
7
 10
3.7170738E+001
 20
1.3400691E+002
 11
3.7170738E+001
 21
1.3312599E+002
  0
LINE
  5
506
100
AcDbEntity
  8
1
100
AcDbLine
  6
CONTINUOUS
 62
7
 10
3.6841749E+001
 20
1.3265615E+002
 11
3.4882765E+001
 21
1.3194313E+002
  0
ARC
  5
507
100
AcDbEntity
  8
1
100
AcDbCircle
  6
CONTINUOUS
 62
7
 10
3.4609149E+001
 20
1.3269489E+002
 40
8.0E-001
100
AcDbArc
 50
2.6046841E+002
 51
2.9E+002
  0
LINE
  5
508
100
AcDbEntity
  8
1
100
AcDbLine
  6
CONTINUOUS
 62
7
 10
3.6770738E+001
 20
1.3863089E+002
 11
3.6267575E+001
 21
1.3863089E+002
  0
LINE
  5
509
100
AcDbEntity
  8
1
100
AcDbLine
  6
CONTINUOUS
 62
7
 10
3.4928317E+001
 20
1.3913089E+002
 11
3.6080903E+001
 21
1.3866704E+002
  0
ARC
  5
50a
100
AcDbEntity
  8
1
100
AcDbCircle
  6
CONTINUOUS
 62
7
 10
3.5420738E+001
 20
1.3673089E+002
 40
2.45
100
AcDbArc
 50
1.0159476E+002
 51
1.2725792E+002
  0
ARC
  5
50b
100
AcDbEntity
  8
1
100
AcDbCircle
  6
CONTINUOUS
 62
7
 10
3.6670738E+001
 20
1.3400691E+002
 40
5.0E-001
100
AcDbArc
 50
0.0
 51
8.0593049E+001
  0
ARC
  5
50c
100
AcDbEntity
  8
1
100
AcDbCircle
  6
CONTINUOUS
 62
7
 10
3.6670738E+001
 20
1.3312599E+002
 40
5.0E-001
100
AcDbArc
 50
2.9E+002
 51
3.6E+002
  0
ARC
  5
50d
100
AcDbEntity
  8
1
100
AcDbCircle
  6
CONTINUOUS
 62
7
 10
3.6670738E+001
 20
1.3685487E+002
 40
5.0E-001
100
AcDbArc
 50
2.7940695E+002
 51
3.6E+002
  0
ARC
  5
50e
100
AcDbEntity
  8
1
100
AcDbCircle
  6
CONTINUOUS
 62
7
 10
3.6770738E+001
 20
1.3823089E+002
 40
4.0E-001
100
AcDbArc
 50
0.0
 51
9.0E+001
  0
ARC
  5
50f
100
AcDbEntity
  8
1
100
AcDbCircle
  6
CONTINUOUS
 62
7
 10
3.3737499E+001
 20
1.3868089E+002
 40
2.0E-001
100
AcDbArc
 50
2.6244476E+002
 51
3.6E+002
  0
ARC
  5
510
100
AcDbEntity
  8
1
100
AcDbCircle
  6
CONTINUOUS
 62
7
 10
3.6267575E+001
 20
1.3913089E+002
 40
5.0E-001
100
AcDbArc
 50
2.48078E+002
 51
2.7E+002
  0
ARC
  5
511
100
AcDbEntity
  8
1
100
AcDbCircle
  6
CONTINUOUS
 62
7
 10
3.5398523E+001
 20
1.3677589E+002
 40
2.4
100
AcDbArc
 50
2.9310794E+002
 51
5.4E+002
  0
LINE
  5
512
100
AcDbEntity
  8
1
100
AcDbLine
  6
CENTER_C
 62
6
 10
3.0239887E+001
 20
9.8675889E+001
 11
4.0901068E+001
 21
9.8675889E+001
  0
ARC
  5
513
100
AcDbEntity
  8
1
100
AcDbCircle
  6
CONTINUOUS
 62
7
 10
3.5398523E+001
 20
9.8885889E+001
 40
4.35
100
AcDbArc
 50
1.8E+002
 51
2.700025E+002
  0
ARC
  5
514
100
AcDbEntity
  8
1
100
AcDbCircle
  6
CONTINUOUS
 62
7
 10
3.4349523E+001
 20
9.9934889E+001
 40
5.5
100
AcDbArc
 50
2.8099724E+002
 51
3.4900276E+002
  0
CIRCLE
  5
515
100
AcDbEntity
  8
1
100
AcDbCircle
  6
CONTINUOUS
 62
7
 10
3.5398523E+001
 20
9.8675889E+001
 40
2.4
  0
ARC
  5
516
100
AcDbEntity
  8
1
100
AcDbCircle
  6
CONTINUOUS
 62
7
 10
9.1718318E+001
 20
1.5947589E+002
 40
7.0E-001
100
AcDbArc
 50
9.0E+001
 51
1.7802507E+002
  0
ARC
  5
517
100
AcDbEntity
  8
1
100
AcDbCircle
  6
CONTINUOUS
 62
7
 10
9.9315762E+001
 20
1.5947589E+002
 40
7.0E-001
100
AcDbArc
 50
1.974934
 51
9.0E+001
  0
ARC
  5
518
100
AcDbEntity
  8
1
100
AcDbCircle
  6
CONTINUOUS
 62
7
 10
1.1076832E+002
 20
1.5947589E+002
 40
7.0E-001
100
AcDbArc
 50
9.0E+001
 51
1.7802507E+002
  0
ARC
  5
519
100
AcDbEntity
  8
1
100
AcDbCircle
  6
CONTINUOUS
 62
7
 10
1.1836576E+002
 20
1.5947589E+002
 40
7.0E-001
100
AcDbArc
 50
1.974934
 51
9.0E+001
  0
ARC
  5
51a
100
AcDbEntity
  8
1
100
AcDbCircle
  6
CONTINUOUS
 62
7
 10
1.2981832E+002
 20
1.5947589E+002
 40
7.0E-001
100
AcDbArc
 50
9.0E+001
 51
1.7802507E+002
  0
ARC
  5
51b
100
AcDbEntity
  8
1
100
AcDbCircle
  6
CONTINUOUS
 62
7
 10
1.3741576E+002
 20
1.5947589E+002
 40
7.0E-001
100
AcDbArc
 50
1.974934
 51
9.0E+001
  0
LINE
  5
51c
100
AcDbEntity
  8
1
100
AcDbLine
  6
CENTERLINE
 62
6
 10
7.836704E+001
 20
9.8675889E+001
 11
2.2696704E+002
 21
9.8675889E+001
  0
LINE
  5
51d
100
AcDbEntity
  8
1
100
AcDbLine
  6
CENTERLINE
 62
6
 10
2.3186704E+002
 20
1.1772589E+002
 11
7.346704E+001
 21
1.1772589E+002
  0
LINE
  5
51e
100
AcDbEntity
  8
1
100
AcDbLine
  6
CENTERLINE
 62
6
 10
2.3186704E+002
 20
1.3677589E+002
 11
7.346704E+001
 21
1.3677589E+002
  0
LINE
  5
51f
100
AcDbEntity
  8
1
100
AcDbLine
  6
CONTINUOUS
 62
7
 10
8.1011006E+001
 20
1.5817589E+002
 11
9.0973075E+001
 21
1.5817589E+002
  0
LINE
  5
520
100
AcDbEntity
  8
1
100
AcDbLine
  6
CONTINUOUS
 62
7
 10
8.109204E+001
 20
1.5347589E+002
 11
9.089204E+001
 21
1.5347589E+002
  0
LINE
  5
521
100
AcDbEntity
  8
1
100
AcDbLine
  6
CONTINUOUS
 62
7
 10
1.5729204E+002
 20
1.5347589E+002
 11
1.6709204E+002
 21
1.5347589E+002
  0
LINE
  5
522
100
AcDbEntity
  8
1
100
AcDbLine
  6
CONTINUOUS
 62
7
 10
1.5721101E+002
 20
1.5817589E+002
 11
1.6717307E+002
 21
1.5817589E+002
  0
LINE
  5
523
100
AcDbEntity
  8
1
100
AcDbLine
  6
CONTINUOUS
 62
7
 10
1.3816101E+002
 20
1.5817589E+002
 11
1.4812307E+002
 21
1.5817589E+002
  0
LINE
  5
524
100
AcDbEntity
  8
1
100
AcDbLine
  6
CENTERLINE
 62
6
 10
2.3186704E+002
 20
1.5582589E+002
 11
7.346704E+001
 21
1.5582589E+002
  0
LINE
  5
525
100
AcDbEntity
  8
1
100
AcDbLine
  6
CONTINUOUS
 62
7
 10
1.3824204E+002
 20
1.5347589E+002
 11
1.4804204E+002
 21
1.5347589E+002
  0
LINE
  5
526
100
AcDbEntity
  8
1
100
AcDbLine
  6
CONTINUOUS
 62
7
 10
1.1919204E+002
 20
1.5347589E+002
 11
1.2899204E+002
 21
1.5347589E+002
  0
LINE
  5
527
100
AcDbEntity
  8
1
100
AcDbLine
  6
CONTINUOUS
 62
7
 10
1.1911101E+002
 20
1.5817589E+002
 11
1.2907307E+002
 21
1.5817589E+002
  0
LINE
  5
528
100
AcDbEntity
  8
1
100
AcDbLine
  6
CONTINUOUS
 62
7
 10
1.0006101E+002
 20
1.5817589E+002
 11
1.1002307E+002
 21
1.5817589E+002
  0
LINE
  5
529
100
AcDbEntity
  8
1
100
AcDbLine
  6
CONTINUOUS
 62
7
 10
1.0014204E+002
 20
1.5347589E+002
 11
1.0994204E+002
 21
1.5347589E+002
  0
DIMENSION
  5
52a
100
AcDbEntity
  8
1
100
AcDbDimension
  6
CONTINUOUS
 62
1
  2
*D10655
  3
DSTYLE5
 10
2.2886704E+002
 20
1.7473063E+002
 11
1.5266704E+002
 21
1.7723163E+002
 70
128
100
AcDbAlignedDimension
 13
7.646704E+001
 23
1.5832589E+002
 14
2.2886704E+002
 24
1.5832589E+002
 40
1.0
 50
0.0
100
AcDbRotatedDimension
1001
ACAD
1000
DSTYLE
1002
{
1070
173
1070
0
1070
5
1000
_AH2
1002
}
  0
LINE
  5
52b
100
AcDbEntity
  8
1
100
AcDbLine
  6
CONTINUOUS
 62
7
 10
7.646704E+001
 20
1.5832589E+002
 11
7.646704E+001
 21
1.4268589E+002
  0
LINE
  5
52c
100
AcDbEntity
  8
1
100
AcDbLine
  6
CONTINUOUS
 62
7
 10
8.109204E+001
 20
1.5582589E+002
 11
8.109204E+001
 21
1.532401E+002
  0
LINE
  5
52d
100
AcDbEntity
  8
1
100
AcDbLine
  6
CONTINUOUS
 62
7
 10
9.089204E+001
 20
1.5582589E+002
 11
9.089204E+001
 21
1.532401E+002
  0
LINE
  5
52e
100
AcDbEntity
  8
1
100
AcDbLine
  6
CONTINUOUS
 62
7
 10
1.0014204E+002
 20
1.5582589E+002
 11
1.0014204E+002
 21
1.532401E+002
  0
LINE
  5
52f
100
AcDbEntity
  8
1
100
AcDbLine
  6
CONTINUOUS
 62
7
 10
1.0994204E+002
 20
1.5582589E+002
 11
1.0994204E+002
 21
1.532401E+002
  0
LINE
  5
530
100
AcDbEntity
  8
1
100
AcDbLine
  6
CONTINUOUS
 62
7
 10
8.136704E+001
 20
1.4068589E+002
 11
8.136704E+001
 21
1.3698589E+002
  0
LINE
  5
531
100
AcDbEntity
  8
1
100
AcDbLine
  6
CONTINUOUS
 62
7
 10
9.061704E+001
 20
1.3957168E+002
 11
9.061704E+001
 21
1.3698589E+002
  0
LINE
  5
532
100
AcDbEntity
  8
1
100
AcDbLine
  6
CONTINUOUS
 62
7
 10
1.0041704E+002
 20
1.3957168E+002
 11
1.0041704E+002
 21
1.3698589E+002
  0
LINE
  5
533
100
AcDbEntity
  8
1
100
AcDbLine
  6
CONTINUOUS
 62
7
 10
1.0966704E+002
 20
1.3957168E+002
 11
1.0966704E+002
 21
1.3698589E+002
  0
LINE
  5
534
100
AcDbEntity
  8
1
100
AcDbLine
  6
CONTINUOUS
 62
7
 10
7.7502966E+001
 20
1.6017589E+002
 11
8.0265762E+001
 21
1.6017589E+002
  0
LINE
  5
535
100
AcDbEntity
  8
1
100
AcDbLine
  6
CONTINUOUS
 62
7
 10
7.746704E+001
 20
1.4168589E+002
 11
8.036704E+001
 21
1.4168589E+002
  0
LINE
  5
536
100
AcDbEntity
  8
1
100
AcDbLine
  6
CONTINUOUS
 62
7
 10
7.6827212E+001
 20
1.5965852E+002
 11
7.646704E+001
 21
1.5832589E+002
  0
ARC
  5
537
100
AcDbEntity
  8
1
100
AcDbCircle
  6
CONTINUOUS
 62
7
 10
7.7502966E+001
 20
1.5947589E+002
 40
7.0E-001
100
AcDbArc
 50
9.0E+001
 51
1.6487599E+002
  0
LINE
  5
538
100
AcDbEntity
  8
1
100
AcDbLine
  6
CONTINUOUS
 62
7
 10
8.109204E+001
 20
1.5582589E+002
 11
8.0965346E+001
 21
1.5950001E+002
  0
ARC
  5
539
100
AcDbEntity
  8
1
100
AcDbCircle
  6
CONTINUOUS
 62
7
 10
8.0265762E+001
 20
1.5947589E+002
 40
7.0E-001
100
AcDbArc
 50
1.974934
 51
9.0E+001
  0
LINE
  5
53a
100
AcDbEntity
  8
1
100
AcDbLine
  6
CONTINUOUS
 62
7
 10
9.089204E+001
 20
1.5582589E+002
 11
9.1018734E+001
 21
1.5950001E+002
  0
LINE
  5
53b
100
AcDbEntity
  8
1
100
AcDbLine
  6
CONTINUOUS
 62
7
 10
1.0014204E+002
 20
1.5582589E+002
 11
1.0001535E+002
 21
1.5950001E+002
  0
LINE
  5
53c
100
AcDbEntity
  8
1
100
AcDbLine
  6
CONTINUOUS
 62
7
 10
1.0994204E+002
 20
1.5582589E+002
 11
1.1006873E+002
 21
1.5950001E+002
  0
LINE
  5
53d
100
AcDbEntity
  8
1
100
AcDbLine
  6
CONTINUOUS
 62
7
 10
9.1718318E+001
 20
1.6017589E+002
 11
9.9315762E+001
 21
1.6017589E+002
  0
ARC
  5
53e
100
AcDbEntity
  8
1
100
AcDbCircle
  6
CONTINUOUS
 62
7
 10
8.036704E+001
 20
1.4068589E+002
 40
1.0
100
AcDbArc
 50
0.0
 51
9.0E+001
  0
ARC
  5
53f
100
AcDbEntity
  8
1
100
AcDbCircle
  6
CONTINUOUS
 62
7
 10
7.746704E+001
 20
1.4268589E+002
 40
1.0
100
AcDbArc
 50
1.8E+002
 51
2.7E+002
  0
LINE
  5
540
100
AcDbEntity
  8
1
100
AcDbLine
  6
CONTINUOUS
 62
7
 10
8.6699147E+001
 20
1.48633E+002
 11
9.0599147E+001
 21
1.52533E+002
  0
LINE
  5
541
100
AcDbEntity
  8
1
100
AcDbLine
  6
CONTINUOUS
 62
7
 10
8.5284933E+001
 20
1.48633E+002
 11
8.1384933E+001
 21
1.52533E+002
  0
ARC
  5
542
100
AcDbEntity
  8
1
100
AcDbCircle
  6
CONTINUOUS
 62
7
 10
8.989204E+001
 20
1.532401E+002
 40
1.0
100
AcDbArc
 50
3.15E+002
 51
3.6E+002
  0
ARC
  5
543
100
AcDbEntity
  8
1
100
AcDbCircle
  6
CONTINUOUS
 62
7
 10
8.209204E+001
 20
1.532401E+002
 40
1.0
100
AcDbArc
 50
1.8E+002
 51
2.25E+002
  0
ARC
  5
544
100
AcDbEntity
  8
1
100
AcDbCircle
  6
CONTINUOUS
 62
7
 10
8.599204E+001
 20
1.493401E+002
 40
1.0
100
AcDbArc
 50
2.25E+002
 51
3.15E+002
  0
LINE
  5
545
100
AcDbEntity
  8
1
100
AcDbLine
  6
CONTINUOUS
 62
7
 10
8.136704E+001
 20
1.3698589E+002
 11
8.1491504E+001
 21
1.3337642E+002
  0
LINE
  5
546
100
AcDbEntity
  8
1
100
AcDbLine
  6
CONTINUOUS
 62
7
 10
9.061704E+001
 20
1.3698589E+002
 11
9.0492576E+001
 21
1.3337642E+002
  0
LINE
  5
547
100
AcDbEntity
  8
1
100
AcDbLine
  6
CONTINUOUS
 62
7
 10
8.223204E+001
 20
1.3263589E+002
 11
8.399204E+001
 21
1.3263589E+002
  0
LINE
  5
548
100
AcDbEntity
  8
1
100
AcDbLine
  6
CONTINUOUS
 62
7
 10
8.399204E+001
 20
1.3283589E+002
 11
8.399204E+001
 21
1.3263589E+002
  0
LINE
  5
549
100
AcDbEntity
  8
1
100
AcDbLine
  6
CONTINUOUS
 62
7
 10
8.799204E+001
 20
1.3283589E+002
 11
8.799204E+001
 21
1.3263589E+002
  0
LINE
  5
54a
100
AcDbEntity
  8
1
100
AcDbLine
  6
CONTINUOUS
 62
7
 10
8.399204E+001
 20
1.3283589E+002
 11
8.799204E+001
 21
1.3283589E+002
  0
LINE
  5
54b
100
AcDbEntity
  8
1
100
AcDbLine
  6
CONTINUOUS
 62
7
 10
8.799204E+001
 20
1.3263589E+002
 11
8.975204E+001
 21
1.3263589E+002
  0
ARC
  5
54c
100
AcDbEntity
  8
1
100
AcDbCircle
  6
CONTINUOUS
 62
7
 10
1.0114204E+002
 20
1.532401E+002
 40
1.0
100
AcDbArc
 50
1.8E+002
 51
2.25E+002
  0
LINE
  5
54d
100
AcDbEntity
  8
1
100
AcDbLine
  6
CONTINUOUS
 62
7
 10
1.0433493E+002
 20
1.48633E+002
 11
1.0043493E+002
 21
1.52533E+002
  0
ARC
  5
54e
100
AcDbEntity
  8
1
100
AcDbCircle
  6
CONTINUOUS
 62
7
 10
1.0504204E+002
 20
1.493401E+002
 40
1.0
100
AcDbArc
 50
2.25E+002
 51
3.15E+002
  0
LINE
  5
54f
100
AcDbEntity
  8
1
100
AcDbLine
  6
CONTINUOUS
 62
7
 10
1.0574915E+002
 20
1.48633E+002
 11
1.0964915E+002
 21
1.52533E+002
  0
ARC
  5
550
100
AcDbEntity
  8
1
100
AcDbCircle
  6
CONTINUOUS
 62
7
 10
1.0894204E+002
 20
1.532401E+002
 40
1.0
100
AcDbArc
 50
3.15E+002
 51
3.6E+002
  0
ARC
  5
551
100
AcDbEntity
  8
1
100
AcDbCircle
  6
CONTINUOUS
 62
7
 10
9.161704E+001
 20
1.3957168E+002
 40
1.0
100
AcDbArc
 50
1.35E+002
 51
1.8E+002
  0
LINE
  5
552
100
AcDbEntity
  8
1
100
AcDbLine
  6
CONTINUOUS
 62
7
 10
9.4809933E+001
 20
1.4417878E+002
 11
9.0909933E+001
 21
1.4027878E+002
  0
ARC
  5
553
100
AcDbEntity
  8
1
100
AcDbCircle
  6
CONTINUOUS
 62
7
 10
9.551704E+001
 20
1.4347168E+002
 40
1.0
100
AcDbArc
 50
4.5E+001
 51
1.35E+002
  0
LINE
  5
554
100
AcDbEntity
  8
1
100
AcDbLine
  6
CONTINUOUS
 62
7
 10
9.6224147E+001
 20
1.4417878E+002
 11
1.0012415E+002
 21
1.4027878E+002
  0
ARC
  5
555
100
AcDbEntity
  8
1
100
AcDbCircle
  6
CONTINUOUS
 62
7
 10
9.941704E+001
 20
1.3957168E+002
 40
1.0
100
AcDbArc
 50
0.0
 51
4.5E+001
  0
LINE
  5
556
100
AcDbEntity
  8
1
100
AcDbLine
  6
CONTINUOUS
 62
7
 10
1.1076832E+002
 20
1.6017589E+002
 11
1.1836576E+002
 21
1.6017589E+002
  0
LINE
  5
557
100
AcDbEntity
  8
1
100
AcDbLine
  6
CONTINUOUS
 62
7
 10
1.1385993E+002
 20
1.4417878E+002
 11
1.0995993E+002
 21
1.4027878E+002
  0
ARC
  5
558
100
AcDbEntity
  8
1
100
AcDbCircle
  6
CONTINUOUS
 62
7
 10
1.1066704E+002
 20
1.3957168E+002
 40
1.0
100
AcDbArc
 50
1.35E+002
 51
1.8E+002
  0
ARC
  5
559
100
AcDbEntity
  8
1
100
AcDbCircle
  6
CONTINUOUS
 62
7
 10
1.1456704E+002
 20
1.4347168E+002
 40
1.0
100
AcDbArc
 50
4.5E+001
 51
1.35E+002
  0
LINE
  5
55a
100
AcDbEntity
  8
1
100
AcDbLine
  6
CONTINUOUS
 62
7
 10
1.0128204E+002
 20
1.3263589E+002
 11
1.0304204E+002
 21
1.3263589E+002
  0
LINE
  5
55b
100
AcDbEntity
  8
1
100
AcDbLine
  6
CONTINUOUS
 62
7
 10
1.0304204E+002
 20
1.3283589E+002
 11
1.0304204E+002
 21
1.3263589E+002
  0
LINE
  5
55c
100
AcDbEntity
  8
1
100
AcDbLine
  6
CONTINUOUS
 62
7
 10
1.0704204E+002
 20
1.3283589E+002
 11
1.0704204E+002
 21
1.3263589E+002
  0
LINE
  5
55d
100
AcDbEntity
  8
1
100
AcDbLine
  6
CONTINUOUS
 62
7
 10
1.0304204E+002
 20
1.3283589E+002
 11
1.0704204E+002
 21
1.3283589E+002
  0
LINE
  5
55e
100
AcDbEntity
  8
1
100
AcDbLine
  6
CONTINUOUS
 62
7
 10
1.0704204E+002
 20
1.3263589E+002
 11
1.0880204E+002
 21
1.3263589E+002
  0
LINE
  5
55f
100
AcDbEntity
  8
1
100
AcDbLine
  6
CONTINUOUS
 62
7
 10
1.0041704E+002
 20
1.3698589E+002
 11
1.005415E+002
 21
1.3337642E+002
  0
LINE
  5
560
100
AcDbEntity
  8
1
100
AcDbLine
  6
CONTINUOUS
 62
7
 10
1.0966704E+002
 20
1.3698589E+002
 11
1.0954258E+002
 21
1.3337642E+002
  0
LINE
  5
561
100
AcDbEntity
  8
1
100
AcDbLine
  6
CONTINUOUS
 62
7
 10
1.1919204E+002
 20
1.5582589E+002
 11
1.1919204E+002
 21
1.532401E+002
  0
LINE
  5
562
100
AcDbEntity
  8
1
100
AcDbLine
  6
CONTINUOUS
 62
7
 10
1.2899204E+002
 20
1.5582589E+002
 11
1.2899204E+002
 21
1.532401E+002
  0
LINE
  5
563
100
AcDbEntity
  8
1
100
AcDbLine
  6
CONTINUOUS
 62
7
 10
1.1919204E+002
 20
1.5582589E+002
 11
1.1906535E+002
 21
1.5950001E+002
  0
LINE
  5
564
100
AcDbEntity
  8
1
100
AcDbLine
  6
CONTINUOUS
 62
7
 10
1.2899204E+002
 20
1.5582589E+002
 11
1.2911873E+002
 21
1.5950001E+002
  0
ARC
  5
565
100
AcDbEntity
  8
1
100
AcDbCircle
  6
CONTINUOUS
 62
7
 10
1.2019204E+002
 20
1.532401E+002
 40
1.0
100
AcDbArc
 50
1.8E+002
 51
2.25E+002
  0
LINE
  5
566
100
AcDbEntity
  8
1
100
AcDbLine
  6
CONTINUOUS
 62
7
 10
1.2338493E+002
 20
1.48633E+002
 11
1.1948493E+002
 21
1.52533E+002
  0
ARC
  5
567
100
AcDbEntity
  8
1
100
AcDbCircle
  6
CONTINUOUS
 62
7
 10
1.2409204E+002
 20
1.493401E+002
 40
1.0
100
AcDbArc
 50
2.25E+002
 51
3.15E+002
  0
LINE
  5
568
100
AcDbEntity
  8
1
100
AcDbLine
  6
CONTINUOUS
 62
7
 10
1.2479915E+002
 20
1.48633E+002
 11
1.2869915E+002
 21
1.52533E+002
  0
ARC
  5
569
100
AcDbEntity
  8
1
100
AcDbCircle
  6
CONTINUOUS
 62
7
 10
1.2799204E+002
 20
1.532401E+002
 40
1.0
100
AcDbArc
 50
3.15E+002
 51
3.6E+002
  0
LINE
  5
56a
100
AcDbEntity
  8
1
100
AcDbLine
  6
CONTINUOUS
 62
7
 10
1.2981832E+002
 20
1.6017589E+002
 11
1.3741576E+002
 21
1.6017589E+002
  0
LINE
  5
56b
100
AcDbEntity
  8
1
100
AcDbLine
  6
CONTINUOUS
 62
7
 10
1.1527415E+002
 20
1.4417878E+002
 11
1.1917415E+002
 21
1.4027878E+002
  0
ARC
  5
56c
100
AcDbEntity
  8
1
100
AcDbCircle
  6
CONTINUOUS
 62
7
 10
1.1846704E+002
 20
1.3957168E+002
 40
1.0
100
AcDbArc
 50
0.0
 51
4.5E+001
  0
LINE
  5
56d
100
AcDbEntity
  8
1
100
AcDbLine
  6
CONTINUOUS
 62
7
 10
1.1946704E+002
 20
1.3957168E+002
 11
1.1946704E+002
 21
1.3698589E+002
  0
LINE
  5
56e
100
AcDbEntity
  8
1
100
AcDbLine
  6
CONTINUOUS
 62
7
 10
1.1946704E+002
 20
1.3698589E+002
 11
1.195915E+002
 21
1.3337642E+002
  0
LINE
  5
56f
100
AcDbEntity
  8
1
100
AcDbLine
  6
CONTINUOUS
 62
7
 10
1.2033204E+002
 20
1.3263589E+002
 11
1.2209204E+002
 21
1.3263589E+002
  0
LINE
  5
570
100
AcDbEntity
  8
1
100
AcDbLine
  6
CONTINUOUS
 62
7
 10
1.2209204E+002
 20
1.3283589E+002
 11
1.2209204E+002
 21
1.3263589E+002
  0
LINE
  5
571
100
AcDbEntity
  8
1
100
AcDbLine
  6
CONTINUOUS
 62
7
 10
1.2209204E+002
 20
1.3283589E+002
 11
1.2609204E+002
 21
1.3283589E+002
  0
LINE
  5
572
100
AcDbEntity
  8
1
100
AcDbLine
  6
CONTINUOUS
 62
7
 10
1.2609204E+002
 20
1.3283589E+002
 11
1.2609204E+002
 21
1.3263589E+002
  0
LINE
  5
573
100
AcDbEntity
  8
1
100
AcDbLine
  6
CONTINUOUS
 62
7
 10
1.2609204E+002
 20
1.3263589E+002
 11
1.2785204E+002
 21
1.3263589E+002
  0
LINE
  5
574
100
AcDbEntity
  8
1
100
AcDbLine
  6
CONTINUOUS
 62
7
 10
1.2871704E+002
 20
1.3698589E+002
 11
1.2859258E+002
 21
1.3337642E+002
  0
LINE
  5
575
100
AcDbEntity
  8
1
100
AcDbLine
  6
CONTINUOUS
 62
7
 10
1.2871704E+002
 20
1.3957168E+002
 11
1.2871704E+002
 21
1.3698589E+002
  0
ARC
  5
576
100
AcDbEntity
  8
1
100
AcDbCircle
  6
CONTINUOUS
 62
7
 10
1.2971704E+002
 20
1.3957168E+002
 40
1.0
100
AcDbArc
 50
1.35E+002
 51
1.8E+002
  0
LINE
  5
577
100
AcDbEntity
  8
1
100
AcDbLine
  6
CONTINUOUS
 62
7
 10
1.3290993E+002
 20
1.4417878E+002
 11
1.2900993E+002
 21
1.4027878E+002
  0
ARC
  5
578
100
AcDbEntity
  8
1
100
AcDbCircle
  6
CONTINUOUS
 62
7
 10
1.3361704E+002
 20
1.4347168E+002
 40
1.0
100
AcDbArc
 50
4.5E+001
 51
1.35E+002
  0
LINE
  5
579
100
AcDbEntity
  8
1
100
AcDbLine
  6
CONTINUOUS
 62
7
 10
1.3824204E+002
 20
1.5582589E+002
 11
1.3824204E+002
 21
1.532401E+002
  0
LINE
  5
57a
100
AcDbEntity
  8
1
100
AcDbLine
  6
CONTINUOUS
 62
7
 10
1.4804204E+002
 20
1.5582589E+002
 11
1.4804204E+002
 21
1.532401E+002
  0
LINE
  5
57b
100
AcDbEntity
  8
1
100
AcDbLine
  6
CONTINUOUS
 62
7
 10
1.3824204E+002
 20
1.5582589E+002
 11
1.3811535E+002
 21
1.5950001E+002
  0
LINE
  5
57c
100
AcDbEntity
  8
1
100
AcDbLine
  6
CONTINUOUS
 62
7
 10
1.4804204E+002
 20
1.5582589E+002
 11
1.4816873E+002
 21
1.5950001E+002
  0
ARC
  5
57d
100
AcDbEntity
  8
1
100
AcDbCircle
  6
CONTINUOUS
 62
7
 10
1.4886832E+002
 20
1.5947589E+002
 40
7.0E-001
100
AcDbArc
 50
9.0E+001
 51
1.7802507E+002
  0
ARC
  5
57e
100
AcDbEntity
  8
1
100
AcDbCircle
  6
CONTINUOUS
 62
7
 10
1.3924204E+002
 20
1.532401E+002
 40
1.0
100
AcDbArc
 50
1.8E+002
 51
2.25E+002
  0
LINE
  5
57f
100
AcDbEntity
  8
1
100
AcDbLine
  6
CONTINUOUS
 62
7
 10
1.4243493E+002
 20
1.48633E+002
 11
1.3853493E+002
 21
1.52533E+002
  0
ARC
  5
580
100
AcDbEntity
  8
1
100
AcDbCircle
  6
CONTINUOUS
 62
7
 10
1.4314204E+002
 20
1.493401E+002
 40
1.0
100
AcDbArc
 50
2.25E+002
 51
3.15E+002
  0
LINE
  5
581
100
AcDbEntity
  8
1
100
AcDbLine
  6
CONTINUOUS
 62
7
 10
1.4384915E+002
 20
1.48633E+002
 11
1.4774915E+002
 21
1.52533E+002
  0
ARC
  5
582
100
AcDbEntity
  8
1
100
AcDbCircle
  6
CONTINUOUS
 62
7
 10
1.4704204E+002
 20
1.532401E+002
 40
1.0
100
AcDbArc
 50
3.15E+002
 51
3.6E+002
  0
LINE
  5
583
100
AcDbEntity
  8
1
100
AcDbLine
  6
CONTINUOUS
 62
7
 10
1.4886832E+002
 20
1.6017589E+002
 11
1.5646576E+002
 21
1.6017589E+002
  0
LINE
  5
584
100
AcDbEntity
  8
1
100
AcDbLine
  6
CONTINUOUS
 62
7
 10
1.3432415E+002
 20
1.4417878E+002
 11
1.3822415E+002
 21
1.4027878E+002
  0
ARC
  5
585
100
AcDbEntity
  8
1
100
AcDbCircle
  6
CONTINUOUS
 62
7
 10
1.3751704E+002
 20
1.3957168E+002
 40
1.0
100
AcDbArc
 50
0.0
 51
4.5E+001
  0
LINE
  5
586
100
AcDbEntity
  8
1
100
AcDbLine
  6
CONTINUOUS
 62
7
 10
1.3851704E+002
 20
1.3957168E+002
 11
1.3851704E+002
 21
1.3698589E+002
  0
LINE
  5
587
100
AcDbEntity
  8
1
100
AcDbLine
  6
CONTINUOUS
 62
7
 10
1.3851704E+002
 20
1.3698589E+002
 11
1.386415E+002
 21
1.3337642E+002
  0
LINE
  5
588
100
AcDbEntity
  8
1
100
AcDbLine
  6
CONTINUOUS
 62
7
 10
1.3938204E+002
 20
1.3263589E+002
 11
1.4114204E+002
 21
1.3263589E+002
  0
LINE
  5
589
100
AcDbEntity
  8
1
100
AcDbLine
  6
CONTINUOUS
 62
7
 10
1.4114204E+002
 20
1.3283589E+002
 11
1.4114204E+002
 21
1.3263589E+002
  0
LINE
  5
58a
100
AcDbEntity
  8
1
100
AcDbLine
  6
CONTINUOUS
 62
7
 10
1.4114204E+002
 20
1.3283589E+002
 11
1.4514204E+002
 21
1.3283589E+002
  0
LINE
  5
58b
100
AcDbEntity
  8
1
100
AcDbLine
  6
CONTINUOUS
 62
7
 10
1.4514204E+002
 20
1.3283589E+002
 11
1.4514204E+002
 21
1.3263589E+002
  0
LINE
  5
58c
100
AcDbEntity
  8
1
100
AcDbLine
  6
CONTINUOUS
 62
7
 10
1.4514204E+002
 20
1.3263589E+002
 11
1.4690204E+002
 21
1.3263589E+002
  0
LINE
  5
58d
100
AcDbEntity
  8
1
100
AcDbLine
  6
CONTINUOUS
 62
7
 10
1.4776704E+002
 20
1.3698589E+002
 11
1.4764258E+002
 21
1.3337642E+002
  0
LINE
  5
58e
100
AcDbEntity
  8
1
100
AcDbLine
  6
CONTINUOUS
 62
7
 10
1.4776704E+002
 20
1.3957168E+002
 11
1.4776704E+002
 21
1.3698589E+002
  0
ARC
  5
58f
100
AcDbEntity
  8
1
100
AcDbCircle
  6
CONTINUOUS
 62
7
 10
1.4876704E+002
 20
1.3957168E+002
 40
1.0
100
AcDbArc
 50
1.35E+002
 51
1.8E+002
  0
LINE
  5
590
100
AcDbEntity
  8
1
100
AcDbLine
  6
CONTINUOUS
 62
7
 10
1.5195993E+002
 20
1.4417878E+002
 11
1.4805993E+002
 21
1.4027878E+002
  0
ARC
  5
591
100
AcDbEntity
  8
1
100
AcDbCircle
  6
CONTINUOUS
 62
7
 10
1.5266704E+002
 20
1.4347168E+002
 40
1.0
100
AcDbArc
 50
4.5E+001
 51
1.35E+002
  0
LINE
  5
592
100
AcDbEntity
  8
1
100
AcDbLine
  6
CONTINUOUS
 62
7
 10
1.5729204E+002
 20
1.5582589E+002
 11
1.5729204E+002
 21
1.532401E+002
  0
LINE
  5
593
100
AcDbEntity
  8
1
100
AcDbLine
  6
CONTINUOUS
 62
7
 10
1.5729204E+002
 20
1.5582589E+002
 11
1.5716535E+002
 21
1.5950001E+002
  0
ARC
  5
594
100
AcDbEntity
  8
1
100
AcDbCircle
  6
CONTINUOUS
 62
7
 10
1.5646576E+002
 20
1.5947589E+002
 40
7.0E-001
100
AcDbArc
 50
1.974934
 51
9.0E+001
  0
ARC
  5
595
100
AcDbEntity
  8
1
100
AcDbCircle
  6
CONTINUOUS
 62
7
 10
1.5829204E+002
 20
1.532401E+002
 40
1.0
100
AcDbArc
 50
1.8E+002
 51
2.25E+002
  0
LINE
  5
596
100
AcDbEntity
  8
1
100
AcDbLine
  6
CONTINUOUS
 62
7
 10
1.6148493E+002
 20
1.48633E+002
 11
1.5758493E+002
 21
1.52533E+002
  0
LINE
  5
597
100
AcDbEntity
  8
1
100
AcDbLine
  6
CONTINUOUS
 62
7
 10
1.5337415E+002
 20
1.4417878E+002
 11
1.5727415E+002
 21
1.4027878E+002
  0
ARC
  5
598
100
AcDbEntity
  8
1
100
AcDbCircle
  6
CONTINUOUS
 62
7
 10
1.5656704E+002
 20
1.3957168E+002
 40
1.0
100
AcDbArc
 50
0.0
 51
4.5E+001
  0
LINE
  5
599
100
AcDbEntity
  8
1
100
AcDbLine
  6
CONTINUOUS
 62
7
 10
1.5756704E+002
 20
1.3957168E+002
 11
1.5756704E+002
 21
1.3698589E+002
  0
LINE
  5
59a
100
AcDbEntity
  8
1
100
AcDbLine
  6
CONTINUOUS
 62
7
 10
1.5756704E+002
 20
1.3698589E+002
 11
1.576915E+002
 21
1.3337642E+002
  0
LINE
  5
59b
100
AcDbEntity
  8
1
100
AcDbLine
  6
CONTINUOUS
 62
7
 10
7.646704E+001
 20
1.2022589E+002
 11
7.646704E+001
 21
1.0458589E+002
  0
LINE
  5
59c
100
AcDbEntity
  8
1
100
AcDbLine
  6
CONTINUOUS
 62
7
 10
8.109204E+001
 20
1.1772589E+002
 11
8.109204E+001
 21
1.151401E+002
  0
LINE
  5
59d
100
AcDbEntity
  8
1
100
AcDbLine
  6
CONTINUOUS
 62
7
 10
9.089204E+001
 20
1.1772589E+002
 11
9.089204E+001
 21
1.151401E+002
  0
LINE
  5
59e
100
AcDbEntity
  8
1
100
AcDbLine
  6
CONTINUOUS
 62
7
 10
1.0014204E+002
 20
1.1772589E+002
 11
1.0014204E+002
 21
1.151401E+002
  0
LINE
  5
59f
100
AcDbEntity
  8
1
100
AcDbLine
  6
CONTINUOUS
 62
7
 10
1.0994204E+002
 20
1.1772589E+002
 11
1.0994204E+002
 21
1.151401E+002
  0
LINE
  5
5a0
100
AcDbEntity
  8
1
100
AcDbLine
  6
CONTINUOUS
 62
7
 10
8.136704E+001
 20
1.0258589E+002
 11
8.136704E+001
 21
9.8885889E+001
  0
LINE
  5
5a1
100
AcDbEntity
  8
1
100
AcDbLine
  6
CONTINUOUS
 62
7
 10
9.061704E+001
 20
1.0147168E+002
 11
9.061704E+001
 21
9.8885889E+001
  0
LINE
  5
5a2
100
AcDbEntity
  8
1
100
AcDbLine
  6
CONTINUOUS
 62
7
 10
1.0041704E+002
 20
1.0147168E+002
 11
1.0041704E+002
 21
9.8885889E+001
  0
LINE
  5
5a3
100
AcDbEntity
  8
1
100
AcDbLine
  6
CONTINUOUS
 62
7
 10
1.0966704E+002
 20
1.0147168E+002
 11
1.0966704E+002
 21
9.8885889E+001
  0
LINE
  5
5a4
100
AcDbEntity
  8
1
100
AcDbLine
  6
CONTINUOUS
 62
7
 10
7.7502966E+001
 20
1.2207589E+002
 11
8.0265762E+001
 21
1.2207589E+002
  0
LINE
  5
5a5
100
AcDbEntity
  8
1
100
AcDbLine
  6
CONTINUOUS
 62
7
 10
7.746704E+001
 20
1.0358589E+002
 11
8.036704E+001
 21
1.0358589E+002
  0
LINE
  5
5a6
100
AcDbEntity
  8
1
100
AcDbLine
  6
CONTINUOUS
 62
7
 10
7.6827212E+001
 20
1.2155852E+002
 11
7.646704E+001
 21
1.2022589E+002
  0
ARC
  5
5a7
100
AcDbEntity
  8
1
100
AcDbCircle
  6
CONTINUOUS
 62
7
 10
7.7502966E+001
 20
1.2137589E+002
 40
7.0E-001
100
AcDbArc
 50
9.0E+001
 51
1.6487599E+002
  0
LINE
  5
5a8
100
AcDbEntity
  8
1
100
AcDbLine
  6
CONTINUOUS
 62
7
 10
8.109204E+001
 20
1.1772589E+002
 11
8.0965346E+001
 21
1.2140001E+002
  0
ARC
  5
5a9
100
AcDbEntity
  8
1
100
AcDbCircle
  6
CONTINUOUS
 62
7
 10
8.0265762E+001
 20
1.2137589E+002
 40
7.0E-001
100
AcDbArc
 50
1.974934
 51
9.0E+001
  0
LINE
  5
5aa
100
AcDbEntity
  8
1
100
AcDbLine
  6
CONTINUOUS
 62
7
 10
9.089204E+001
 20
1.1772589E+002
 11
9.1016504E+001
 21
1.2133535E+002
  0
LINE
  5
5ab
100
AcDbEntity
  8
1
100
AcDbLine
  6
CONTINUOUS
 62
7
 10
1.0014204E+002
 20
1.1772589E+002
 11
1.0001758E+002
 21
1.2133535E+002
  0
LINE
  5
5ac
100
AcDbEntity
  8
1
100
AcDbLine
  6
CONTINUOUS
 62
7
 10
1.0994204E+002
 20
1.1772589E+002
 11
1.100665E+002
 21
1.2133535E+002
  0
LINE
  5
5ad
100
AcDbEntity
  8
1
100
AcDbLine
  6
CONTINUOUS
 62
7
 10
9.175704E+001
 20
1.2207589E+002
 11
9.927704E+001
 21
1.2207589E+002
  0
ARC
  5
5ae
100
AcDbEntity
  8
1
100
AcDbCircle
  6
CONTINUOUS
 62
7
 10
8.036704E+001
 20
1.0258589E+002
 40
1.0
100
AcDbArc
 50
0.0
 51
9.0E+001
  0
ARC
  5
5af
100
AcDbEntity
  8
1
100
AcDbCircle
  6
CONTINUOUS
 62
7
 10
7.746704E+001
 20
1.0458589E+002
 40
1.0
100
AcDbArc
 50
1.8E+002
 51
2.7E+002
  0
LINE
  5
5b0
100
AcDbEntity
  8
1
100
AcDbLine
  6
CONTINUOUS
 62
7
 10
8.6699147E+001
 20
1.10533E+002
 11
9.0599147E+001
 21
1.14433E+002
  0
LINE
  5
5b1
100
AcDbEntity
  8
1
100
AcDbLine
  6
CONTINUOUS
 62
7
 10
8.5284933E+001
 20
1.10533E+002
 11
8.1384933E+001
 21
1.14433E+002
  0
ARC
  5
5b2
100
AcDbEntity
  8
1
100
AcDbCircle
  6
CONTINUOUS
 62
7
 10
8.989204E+001
 20
1.151401E+002
 40
1.0
100
AcDbArc
 50
3.15E+002
 51
3.6E+002
  0
ARC
  5
5b3
100
AcDbEntity
  8
1
100
AcDbCircle
  6
CONTINUOUS
 62
7
 10
8.209204E+001
 20
1.151401E+002
 40
1.0
100
AcDbArc
 50
1.8E+002
 51
2.25E+002
  0
ARC
  5
5b4
100
AcDbEntity
  8
1
100
AcDbCircle
  6
CONTINUOUS
 62
7
 10
8.599204E+001
 20
1.112401E+002
 40
1.0
100
AcDbArc
 50
2.25E+002
 51
3.15E+002
  0
LINE
  5
5b5
100
AcDbEntity
  8
1
100
AcDbLine
  6
CONTINUOUS
 62
7
 10
8.136704E+001
 20
9.8885889E+001
 11
8.1493734E+001
 21
9.5211765E+001
  0
LINE
  5
5b6
100
AcDbEntity
  8
1
100
AcDbLine
  6
CONTINUOUS
 62
7
 10
9.061704E+001
 20
9.8885889E+001
 11
9.0490346E+001
 21
9.5211765E+001
  0
LINE
  5
5b7
100
AcDbEntity
  8
1
100
AcDbLine
  6
CONTINUOUS
 62
7
 10
8.2193318E+001
 20
9.4535889E+001
 11
8.399204E+001
 21
9.4535889E+001
  0
LINE
  5
5b8
100
AcDbEntity
  8
1
100
AcDbLine
  6
CONTINUOUS
 62
7
 10
8.399204E+001
 20
9.4735889E+001
 11
8.399204E+001
 21
9.4535889E+001
  0
LINE
  5
5b9
100
AcDbEntity
  8
1
100
AcDbLine
  6
CONTINUOUS
 62
7
 10
8.799204E+001
 20
9.4735889E+001
 11
8.799204E+001
 21
9.4535889E+001
  0
LINE
  5
5ba
100
AcDbEntity
  8
1
100
AcDbLine
  6
CONTINUOUS
 62
7
 10
8.399204E+001
 20
9.4735889E+001
 11
8.799204E+001
 21
9.4735889E+001
  0
LINE
  5
5bb
100
AcDbEntity
  8
1
100
AcDbLine
  6
CONTINUOUS
 62
7
 10
8.799204E+001
 20
9.4535889E+001
 11
8.9790762E+001
 21
9.4535889E+001
  0
ARC
  5
5bc
100
AcDbEntity
  8
1
100
AcDbCircle
  6
CONTINUOUS
 62
7
 10
1.0114204E+002
 20
1.151401E+002
 40
1.0
100
AcDbArc
 50
1.8E+002
 51
2.25E+002
  0
LINE
  5
5bd
100
AcDbEntity
  8
1
100
AcDbLine
  6
CONTINUOUS
 62
7
 10
1.0433493E+002
 20
1.10533E+002
 11
1.0043493E+002
 21
1.14433E+002
  0
ARC
  5
5be
100
AcDbEntity
  8
1
100
AcDbCircle
  6
CONTINUOUS
 62
7
 10
1.0504204E+002
 20
1.112401E+002
 40
1.0
100
AcDbArc
 50
2.25E+002
 51
3.15E+002
  0
LINE
  5
5bf
100
AcDbEntity
  8
1
100
AcDbLine
  6
CONTINUOUS
 62
7
 10
1.0574915E+002
 20
1.10533E+002
 11
1.0964915E+002
 21
1.14433E+002
  0
ARC
  5
5c0
100
AcDbEntity
  8
1
100
AcDbCircle
  6
CONTINUOUS
 62
7
 10
1.0894204E+002
 20
1.151401E+002
 40
1.0
100
AcDbArc
 50
3.15E+002
 51
3.6E+002
  0
ARC
  5
5c1
100
AcDbEntity
  8
1
100
AcDbCircle
  6
CONTINUOUS
 62
7
 10
9.161704E+001
 20
1.0147168E+002
 40
1.0
100
AcDbArc
 50
1.35E+002
 51
1.8E+002
  0
LINE
  5
5c2
100
AcDbEntity
  8
1
100
AcDbLine
  6
CONTINUOUS
 62
7
 10
9.4809933E+001
 20
1.0607878E+002
 11
9.0909933E+001
 21
1.0217878E+002
  0
ARC
  5
5c3
100
AcDbEntity
  8
1
100
AcDbCircle
  6
CONTINUOUS
 62
7
 10
9.551704E+001
 20
1.0537168E+002
 40
1.0
100
AcDbArc
 50
4.5E+001
 51
1.35E+002
  0
LINE
  5
5c4
100
AcDbEntity
  8
1
100
AcDbLine
  6
CONTINUOUS
 62
7
 10
9.6224147E+001
 20
1.0607878E+002
 11
1.0012415E+002
 21
1.0217878E+002
  0
ARC
  5
5c5
100
AcDbEntity
  8
1
100
AcDbCircle
  6
CONTINUOUS
 62
7
 10
9.941704E+001
 20
1.0147168E+002
 40
1.0
100
AcDbArc
 50
0.0
 51
4.5E+001
  0
LINE
  5
5c6
100
AcDbEntity
  8
1
100
AcDbLine
  6
CONTINUOUS
 62
7
 10
1.1080704E+002
 20
1.2207589E+002
 11
1.1832704E+002
 21
1.2207589E+002
  0
LINE
  5
5c7
100
AcDbEntity
  8
1
100
AcDbLine
  6
CONTINUOUS
 62
7
 10
1.1385993E+002
 20
1.0607878E+002
 11
1.0995993E+002
 21
1.0217878E+002
  0
ARC
  5
5c8
100
AcDbEntity
  8
1
100
AcDbCircle
  6
CONTINUOUS
 62
7
 10
1.1066704E+002
 20
1.0147168E+002
 40
1.0
100
AcDbArc
 50
1.35E+002
 51
1.8E+002
  0
ARC
  5
5c9
100
AcDbEntity
  8
1
100
AcDbCircle
  6
CONTINUOUS
 62
7
 10
1.1456704E+002
 20
1.0537168E+002
 40
1.0
100
AcDbArc
 50
4.5E+001
 51
1.35E+002
  0
LINE
  5
5ca
100
AcDbEntity
  8
1
100
AcDbLine
  6
CONTINUOUS
 62
7
 10
1.0124332E+002
 20
9.4535889E+001
 11
1.0304204E+002
 21
9.4535889E+001
  0
LINE
  5
5cb
100
AcDbEntity
  8
1
100
AcDbLine
  6
CONTINUOUS
 62
7
 10
1.0304204E+002
 20
9.4735889E+001
 11
1.0304204E+002
 21
9.4535889E+001
  0
LINE
  5
5cc
100
AcDbEntity
  8
1
100
AcDbLine
  6
CONTINUOUS
 62
7
 10
1.0704204E+002
 20
9.4735889E+001
 11
1.0704204E+002
 21
9.4535889E+001
  0
LINE
  5
5cd
100
AcDbEntity
  8
1
100
AcDbLine
  6
CONTINUOUS
 62
7
 10
1.0304204E+002
 20
9.4735889E+001
 11
1.0704204E+002
 21
9.4735889E+001
  0
LINE
  5
5ce
100
AcDbEntity
  8
1
100
AcDbLine
  6
CONTINUOUS
 62
7
 10
1.0704204E+002
 20
9.4535889E+001
 11
1.0884076E+002
 21
9.4535889E+001
  0
LINE
  5
5cf
100
AcDbEntity
  8
1
100
AcDbLine
  6
CONTINUOUS
 62
7
 10
1.0041704E+002
 20
9.8885889E+001
 11
1.0054373E+002
 21
9.5211765E+001
  0
LINE
  5
5d0
100
AcDbEntity
  8
1
100
AcDbLine
  6
CONTINUOUS
 62
7
 10
1.0966704E+002
 20
9.8885889E+001
 11
1.0954035E+002
 21
9.5211765E+001
  0
LINE
  5
5d1
100
AcDbEntity
  8
1
100
AcDbLine
  6
CONTINUOUS
 62
7
 10
1.1919204E+002
 20
1.1772589E+002
 11
1.1919204E+002
 21
1.151401E+002
  0
LINE
  5
5d2
100
AcDbEntity
  8
1
100
AcDbLine
  6
CONTINUOUS
 62
7
 10
1.2899204E+002
 20
1.1772589E+002
 11
1.2899204E+002
 21
1.151401E+002
  0
LINE
  5
5d3
100
AcDbEntity
  8
1
100
AcDbLine
  6
CONTINUOUS
 62
7
 10
1.1919204E+002
 20
1.1772589E+002
 11
1.1906758E+002
 21
1.2133535E+002
  0
LINE
  5
5d4
100
AcDbEntity
  8
1
100
AcDbLine
  6
CONTINUOUS
 62
7
 10
1.2899204E+002
 20
1.1772589E+002
 11
1.291165E+002
 21
1.2133535E+002
  0
ARC
  5
5d5
100
AcDbEntity
  8
1
100
AcDbCircle
  6
CONTINUOUS
 62
7
 10
1.2019204E+002
 20
1.151401E+002
 40
1.0
100
AcDbArc
 50
1.8E+002
 51
2.25E+002
  0
LINE
  5
5d6
100
AcDbEntity
  8
1
100
AcDbLine
  6
CONTINUOUS
 62
7
 10
1.2338493E+002
 20
1.10533E+002
 11
1.1948493E+002
 21
1.14433E+002
  0
ARC
  5
5d7
100
AcDbEntity
  8
1
100
AcDbCircle
  6
CONTINUOUS
 62
7
 10
1.2409204E+002
 20
1.112401E+002
 40
1.0
100
AcDbArc
 50
2.25E+002
 51
3.15E+002
  0
LINE
  5
5d8
100
AcDbEntity
  8
1
100
AcDbLine
  6
CONTINUOUS
 62
7
 10
1.2479915E+002
 20
1.10533E+002
 11
1.2869915E+002
 21
1.14433E+002
  0
ARC
  5
5d9
100
AcDbEntity
  8
1
100
AcDbCircle
  6
CONTINUOUS
 62
7
 10
1.2799204E+002
 20
1.151401E+002
 40
1.0
100
AcDbArc
 50
3.15E+002
 51
3.6E+002
  0
LINE
  5
5da
100
AcDbEntity
  8
1
100
AcDbLine
  6
CONTINUOUS
 62
7
 10
1.2985704E+002
 20
1.2207589E+002
 11
1.3737704E+002
 21
1.2207589E+002
  0
LINE
  5
5db
100
AcDbEntity
  8
1
100
AcDbLine
  6
CONTINUOUS
 62
7
 10
1.1527415E+002
 20
1.0607878E+002
 11
1.1917415E+002
 21
1.0217878E+002
  0
ARC
  5
5dc
100
AcDbEntity
  8
1
100
AcDbCircle
  6
CONTINUOUS
 62
7
 10
1.1846704E+002
 20
1.0147168E+002
 40
1.0
100
AcDbArc
 50
0.0
 51
4.5E+001
  0
LINE
  5
5dd
100
AcDbEntity
  8
1
100
AcDbLine
  6
CONTINUOUS
 62
7
 10
1.1946704E+002
 20
1.0147168E+002
 11
1.1946704E+002
 21
9.8885889E+001
  0
LINE
  5
5de
100
AcDbEntity
  8
1
100
AcDbLine
  6
CONTINUOUS
 62
7
 10
1.1946704E+002
 20
9.8885889E+001
 11
1.1959373E+002
 21
9.5211765E+001
  0
LINE
  5
5df
100
AcDbEntity
  8
1
100
AcDbLine
  6
CONTINUOUS
 62
7
 10
1.2029332E+002
 20
9.4535889E+001
 11
1.2209204E+002
 21
9.4535889E+001
  0
LINE
  5
5e0
100
AcDbEntity
  8
1
100
AcDbLine
  6
CONTINUOUS
 62
7
 10
1.2209204E+002
 20
9.4735889E+001
 11
1.2209204E+002
 21
9.4535889E+001
  0
LINE
  5
5e1
100
AcDbEntity
  8
1
100
AcDbLine
  6
CONTINUOUS
 62
7
 10
1.2209204E+002
 20
9.4735889E+001
 11
1.2609204E+002
 21
9.4735889E+001
  0
LINE
  5
5e2
100
AcDbEntity
  8
1
100
AcDbLine
  6
CONTINUOUS
 62
7
 10
1.2609204E+002
 20
9.4735889E+001
 11
1.2609204E+002
 21
9.4535889E+001
  0
LINE
  5
5e3
100
AcDbEntity
  8
1
100
AcDbLine
  6
CONTINUOUS
 62
7
 10
1.2609204E+002
 20
9.4535889E+001
 11
1.2789076E+002
 21
9.4535889E+001
  0
LINE
  5
5e4
100
AcDbEntity
  8
1
100
AcDbLine
  6
CONTINUOUS
 62
7
 10
1.2871704E+002
 20
9.8885889E+001
 11
1.2859035E+002
 21
9.5211765E+001
  0
LINE
  5
5e5
100
AcDbEntity
  8
1
100
AcDbLine
  6
CONTINUOUS
 62
7
 10
1.2871704E+002
 20
1.0147168E+002
 11
1.2871704E+002
 21
9.8885889E+001
  0
ARC
  5
5e6
100
AcDbEntity
  8
1
100
AcDbCircle
  6
CONTINUOUS
 62
7
 10
1.2971704E+002
 20
1.0147168E+002
 40
1.0
100
AcDbArc
 50
1.35E+002
 51
1.8E+002
  0
LINE
  5
5e7
100
AcDbEntity
  8
1
100
AcDbLine
  6
CONTINUOUS
 62
7
 10
1.3290993E+002
 20
1.0607878E+002
 11
1.2900993E+002
 21
1.0217878E+002
  0
ARC
  5
5e8
100
AcDbEntity
  8
1
100
AcDbCircle
  6
CONTINUOUS
 62
7
 10
1.3361704E+002
 20
1.0537168E+002
 40
1.0
100
AcDbArc
 50
4.5E+001
 51
1.35E+002
  0
LINE
  5
5e9
100
AcDbEntity
  8
1
100
AcDbLine
  6
CONTINUOUS
 62
7
 10
1.3824204E+002
 20
1.1772589E+002
 11
1.3824204E+002
 21
1.151401E+002
  0
LINE
  5
5ea
100
AcDbEntity
  8
1
100
AcDbLine
  6
CONTINUOUS
 62
7
 10
1.4804204E+002
 20
1.1772589E+002
 11
1.4804204E+002
 21
1.151401E+002
  0
LINE
  5
5eb
100
AcDbEntity
  8
1
100
AcDbLine
  6
CONTINUOUS
 62
7
 10
1.3824204E+002
 20
1.1772589E+002
 11
1.3811758E+002
 21
1.2133535E+002
  0
LINE
  5
5ec
100
AcDbEntity
  8
1
100
AcDbLine
  6
CONTINUOUS
 62
7
 10
1.4804204E+002
 20
1.1772589E+002
 11
1.4816873E+002
 21
1.2140001E+002
  0
ARC
  5
5ed
100
AcDbEntity
  8
1
100
AcDbCircle
  6
CONTINUOUS
 62
7
 10
1.4886832E+002
 20
1.2137589E+002
 40
7.0E-001
100
AcDbArc
 50
9.0E+001
 51
1.7802507E+002
  0
ARC
  5
5ee
100
AcDbEntity
  8
1
100
AcDbCircle
  6
CONTINUOUS
 62
7
 10
1.3924204E+002
 20
1.151401E+002
 40
1.0
100
AcDbArc
 50
1.8E+002
 51
2.25E+002
  0
LINE
  5
5ef
100
AcDbEntity
  8
1
100
AcDbLine
  6
CONTINUOUS
 62
7
 10
1.4243493E+002
 20
1.10533E+002
 11
1.3853493E+002
 21
1.14433E+002
  0
ARC
  5
5f0
100
AcDbEntity
  8
1
100
AcDbCircle
  6
CONTINUOUS
 62
7
 10
1.4314204E+002
 20
1.112401E+002
 40
1.0
100
AcDbArc
 50
2.25E+002
 51
3.15E+002
  0
LINE
  5
5f1
100
AcDbEntity
  8
1
100
AcDbLine
  6
CONTINUOUS
 62
7
 10
1.4384915E+002
 20
1.10533E+002
 11
1.4774915E+002
 21
1.14433E+002
  0
ARC
  5
5f2
100
AcDbEntity
  8
1
100
AcDbCircle
  6
CONTINUOUS
 62
7
 10
1.4704204E+002
 20
1.151401E+002
 40
1.0
100
AcDbArc
 50
3.15E+002
 51
3.6E+002
  0
LINE
  5
5f3
100
AcDbEntity
  8
1
100
AcDbLine
  6
CONTINUOUS
 62
7
 10
1.4886832E+002
 20
1.2207589E+002
 11
1.5646576E+002
 21
1.2207589E+002
  0
LINE
  5
5f4
100
AcDbEntity
  8
1
100
AcDbLine
  6
CONTINUOUS
 62
7
 10
1.3432415E+002
 20
1.0607878E+002
 11
1.3822415E+002
 21
1.0217878E+002
  0
ARC
  5
5f5
100
AcDbEntity
  8
1
100
AcDbCircle
  6
CONTINUOUS
 62
7
 10
1.3751704E+002
 20
1.0147168E+002
 40
1.0
100
AcDbArc
 50
0.0
 51
4.5E+001
  0
LINE
  5
5f6
100
AcDbEntity
  8
1
100
AcDbLine
  6
CONTINUOUS
 62
7
 10
1.3851704E+002
 20
1.0147168E+002
 11
1.3851704E+002
 21
9.8885889E+001
  0
LINE
  5
5f7
100
AcDbEntity
  8
1
100
AcDbLine
  6
CONTINUOUS
 62
7
 10
1.3851704E+002
 20
9.8885889E+001
 11
1.3864373E+002
 21
9.5211765E+001
  0
LINE
  5
5f8
100
AcDbEntity
  8
1
100
AcDbLine
  6
CONTINUOUS
 62
7
 10
1.3934332E+002
 20
9.4535889E+001
 11
1.4114204E+002
 21
9.4535889E+001
  0
LINE
  5
5f9
100
AcDbEntity
  8
1
100
AcDbLine
  6
CONTINUOUS
 62
7
 10
1.4114204E+002
 20
9.4735889E+001
 11
1.4114204E+002
 21
9.4535889E+001
  0
LINE
  5
5fa
100
AcDbEntity
  8
1
100
AcDbLine
  6
CONTINUOUS
 62
7
 10
1.4114204E+002
 20
9.4735889E+001
 11
1.4514204E+002
 21
9.4735889E+001
  0
LINE
  5
5fb
100
AcDbEntity
  8
1
100
AcDbLine
  6
CONTINUOUS
 62
7
 10
1.4514204E+002
 20
9.4735889E+001
 11
1.4514204E+002
 21
9.4535889E+001
  0
LINE
  5
5fc
100
AcDbEntity
  8
1
100
AcDbLine
  6
CONTINUOUS
 62
7
 10
1.4514204E+002
 20
9.4535889E+001
 11
1.4694076E+002
 21
9.4535889E+001
  0
LINE
  5
5fd
100
AcDbEntity
  8
1
100
AcDbLine
  6
CONTINUOUS
 62
7
 10
1.4776704E+002
 20
9.8885889E+001
 11
1.4764035E+002
 21
9.5211765E+001
  0
LINE
  5
5fe
100
AcDbEntity
  8
1
100
AcDbLine
  6
CONTINUOUS
 62
7
 10
1.4776704E+002
 20
1.0147168E+002
 11
1.4776704E+002
 21
9.8885889E+001
  0
ARC
  5
5ff
100
AcDbEntity
  8
1
100
AcDbCircle
  6
CONTINUOUS
 62
7
 10
1.4876704E+002
 20
1.0147168E+002
 40
1.0
100
AcDbArc
 50
1.35E+002
 51
1.8E+002
  0
LINE
  5
600
100
AcDbEntity
  8
1
100
AcDbLine
  6
CONTINUOUS
 62
7
 10
1.5195993E+002
 20
1.0607878E+002
 11
1.4805993E+002
 21
1.0217878E+002
  0
ARC
  5
601
100
AcDbEntity
  8
1
100
AcDbCircle
  6
CONTINUOUS
 62
7
 10
1.5266704E+002
 20
1.0537168E+002
 40
1.0
100
AcDbArc
 50
4.5E+001
 51
1.35E+002
  0
LINE
  5
602
100
AcDbEntity
  8
1
100
AcDbLine
  6
CONTINUOUS
 62
7
 10
1.5729204E+002
 20
1.1772589E+002
 11
1.5729204E+002
 21
1.151401E+002
  0
LINE
  5
603
100
AcDbEntity
  8
1
100
AcDbLine
  6
CONTINUOUS
 62
7
 10
1.5729204E+002
 20
1.1772589E+002
 11
1.5716535E+002
 21
1.2140001E+002
  0
ARC
  5
604
100
AcDbEntity
  8
1
100
AcDbCircle
  6
CONTINUOUS
 62
7
 10
1.5646576E+002
 20
1.2137589E+002
 40
7.0E-001
100
AcDbArc
 50
1.974934
 51
9.0E+001
  0
ARC
  5
605
100
AcDbEntity
  8
1
100
AcDbCircle
  6
CONTINUOUS
 62
7
 10
1.5829204E+002
 20
1.151401E+002
 40
1.0
100
AcDbArc
 50
1.8E+002
 51
2.25E+002
  0
LINE
  5
606
100
AcDbEntity
  8
1
100
AcDbLine
  6
CONTINUOUS
 62
7
 10
1.6148493E+002
 20
1.10533E+002
 11
1.5758493E+002
 21
1.14433E+002
  0
LINE
  5
607
100
AcDbEntity
  8
1
100
AcDbLine
  6
CONTINUOUS
 62
7
 10
1.5337415E+002
 20
1.0607878E+002
 11
1.5727415E+002
 21
1.0217878E+002
  0
ARC
  5
608
100
AcDbEntity
  8
1
100
AcDbCircle
  6
CONTINUOUS
 62
7
 10
1.5656704E+002
 20
1.0147168E+002
 40
1.0
100
AcDbArc
 50
0.0
 51
4.5E+001
  0
LINE
  5
609
100
AcDbEntity
  8
1
100
AcDbLine
  6
CONTINUOUS
 62
7
 10
1.5756704E+002
 20
1.0147168E+002
 11
1.5756704E+002
 21
9.8885889E+001
  0
LINE
  5
60a
100
AcDbEntity
  8
1
100
AcDbLine
  6
CONTINUOUS
 62
7
 10
1.5756704E+002
 20
9.8885889E+001
 11
1.5769373E+002
 21
9.5211765E+001
  0
DIMENSION
  5
60b
100
AcDbEntity
  8
1
100
AcDbDimension
  6
CONTINUOUS
 62
1
  2
*D23750
  3
DSTYLE6
 10
2.3606194E+001
 20
1.3677589E+002
 11
2.1605194E+001
 21
1.2725089E+002
 70
128
100
AcDbAlignedDimension
 13
3.0239887E+001
 23
1.1772589E+002
 14
3.0239887E+001
 24
1.3677589E+002
 40
0.0
 50
9.0E+001
100
AcDbRotatedDimension
1001
ACAD
1000
DSTYLE
1002
{
1070
173
1070
0
1070
5
1000
_AH2
1002
}
  0
LINE
  5
60c
100
AcDbEntity
  8
1
100
AcDbLine
  6
CONTINUOUS
 62
7
 10
7.646704E+001
 20
4.6904401E+001
 11
7.646704E+001
 21
3.9204401E+001
  0
LINE
  5
60d
100
AcDbEntity
  8
1
100
AcDbLine
  6
CONTINUOUS
 62
7
 10
9.061704E+001
 20
4.6904401E+001
 11
9.061704E+001
 21
3.9204401E+001
  0
LINE
  5
60e
100
AcDbEntity
  8
1
100
AcDbLine
  6
CONTINUOUS
 62
7
 10
1.0966704E+002
 20
4.6904401E+001
 11
1.0966704E+002
 21
3.9204401E+001
  0
LINE
  5
60f
100
AcDbEntity
  8
1
100
AcDbLine
  6
CONTINUOUS
 62
7
 10
1.0041704E+002
 20
4.6904401E+001
 11
1.0041704E+002
 21
3.9204401E+001
  0
LINE
  5
610
100
AcDbEntity
  8
1
100
AcDbLine
  6
CONTINUOUS
 62
7
 10
1.1946704E+002
 20
4.6904401E+001
 11
1.1946704E+002
 21
3.9204401E+001
  0
LINE
  5
611
100
AcDbEntity
  8
1
100
AcDbLine
  6
CONTINUOUS
 62
7
 10
1.2871704E+002
 20
4.6904401E+001
 11
1.2871704E+002
 21
3.9204401E+001
  0
LINE
  5
612
100
AcDbEntity
  8
1
100
AcDbLine
  6
CONTINUOUS
 62
7
 10
1.3851704E+002
 20
4.6904401E+001
 11
1.3851704E+002
 21
3.9204401E+001
  0
LINE
  5
613
100
AcDbEntity
  8
1
100
AcDbLine
  6
CONTINUOUS
 62
7
 10
1.4776704E+002
 20
4.6904401E+001
 11
1.4776704E+002
 21
3.9204401E+001
  0
LINE
  5
614
100
AcDbEntity
  8
1
100
AcDbLine
  6
CONTINUOUS
 62
7
 10
9.991704E+001
 20
4.5504401E+001
 11
9.111704E+001
 21
4.5504401E+001
  0
LINE
  5
615
100
AcDbEntity
  8
1
100
AcDbLine
  6
CONTINUOUS
 62
7
 10
9.251704E+001
 20
4.5504401E+001
 11
9.251704E+001
 21
3.9204401E+001
  0
LINE
  5
616
100
AcDbEntity
  8
1
100
AcDbLine
  6
CONTINUOUS
 62
7
 10
9.851704E+001
 20
4.5504401E+001
 11
9.851704E+001
 21
3.9204401E+001
  0
ARC
  5
617
100
AcDbEntity
  8
1
100
AcDbCircle
  6
CONTINUOUS
 62
7
 10
9.011704E+001
 20
4.6904401E+001
 40
5.0E-001
100
AcDbArc
 50
0.0
 51
9.0E+001
  0
ARC
  5
618
100
AcDbEntity
  8
1
100
AcDbCircle
  6
CONTINUOUS
 62
7
 10
1.0091704E+002
 20
4.6904401E+001
 40
5.0E-001
100
AcDbArc
 50
9.0E+001
 51
1.8E+002
  0
ARC
  5
619
100
AcDbEntity
  8
1
100
AcDbCircle
  6
CONTINUOUS
 62
7
 10
1.0091704E+002
 20
3.9204401E+001
 40
5.0E-001
100
AcDbArc
 50
1.8E+002
 51
2.7E+002
  0
ARC
  5
61a
100
AcDbEntity
  8
1
100
AcDbCircle
  6
CONTINUOUS
 62
7
 10
9.901704E+001
 20
3.9204401E+001
 40
5.0E-001
100
AcDbArc
 50
1.8E+002
 51
2.7E+002
  0
ARC
  5
61b
100
AcDbEntity
  8
1
100
AcDbCircle
  6
CONTINUOUS
 62
7
 10
9.201704E+001
 20
3.9204401E+001
 40
5.0E-001
100
AcDbArc
 50
2.7E+002
 51
3.6E+002
  0
ARC
  5
61c
100
AcDbEntity
  8
1
100
AcDbCircle
  6
CONTINUOUS
 62
7
 10
9.011704E+001
 20
3.9204401E+001
 40
5.0E-001
100
AcDbArc
 50
2.7E+002
 51
3.6E+002
  0
ARC
  5
61d
100
AcDbEntity
  8
1
100
AcDbCircle
  6
CONTINUOUS
 62
7
 10
7.696704E+001
 20
4.6904401E+001
 40
5.0E-001
100
AcDbArc
 50
9.0E+001
 51
1.8E+002
  0
ARC
  5
61e
100
AcDbEntity
  8
1
100
AcDbCircle
  6
CONTINUOUS
 62
7
 10
7.696704E+001
 20
3.9204401E+001
 40
5.0E-001
100
AcDbArc
 50
1.8E+002
 51
2.7E+002
  0
LINE
  5
61f
100
AcDbEntity
  8
1
100
AcDbLine
  6
CONTINUOUS
 62
7
 10
1.1896704E+002
 20
4.5504401E+001
 11
1.1016704E+002
 21
4.5504401E+001
  0
LINE
  5
620
100
AcDbEntity
  8
1
100
AcDbLine
  6
CONTINUOUS
 62
7
 10
1.1156704E+002
 20
4.5504401E+001
 11
1.1156704E+002
 21
3.9204401E+001
  0
LINE
  5
621
100
AcDbEntity
  8
1
100
AcDbLine
  6
CONTINUOUS
 62
7
 10
1.1756704E+002
 20
4.5504401E+001
 11
1.1756704E+002
 21
3.9204401E+001
  0
ARC
  5
622
100
AcDbEntity
  8
1
100
AcDbCircle
  6
CONTINUOUS
 62
7
 10
1.1806704E+002
 20
3.9204401E+001
 40
5.0E-001
100
AcDbArc
 50
1.8E+002
 51
2.7E+002
  0
ARC
  5
623
100
AcDbEntity
  8
1
100
AcDbCircle
  6
CONTINUOUS
 62
7
 10
1.1106704E+002
 20
3.9204401E+001
 40
5.0E-001
100
AcDbArc
 50
2.7E+002
 51
3.6E+002
  0
LINE
  5
624
100
AcDbEntity
  8
1
100
AcDbLine
  6
CONTINUOUS
 62
7
 10
1.3661704E+002
 20
4.5504401E+001
 11
1.3661704E+002
 21
3.9204401E+001
  0
LINE
  5
625
100
AcDbEntity
  8
1
100
AcDbLine
  6
CONTINUOUS
 62
7
 10
1.3061704E+002
 20
4.5504401E+001
 11
1.3061704E+002
 21
3.9204401E+001
  0
ARC
  5
626
100
AcDbEntity
  8
1
100
AcDbCircle
  6
CONTINUOUS
 62
7
 10
1.3711704E+002
 20
3.9204401E+001
 40
5.0E-001
100
AcDbArc
 50
1.8E+002
 51
2.7E+002
  0
ARC
  5
627
100
AcDbEntity
  8
1
100
AcDbCircle
  6
CONTINUOUS
 62
7
 10
1.3011704E+002
 20
3.9204401E+001
 40
5.0E-001
100
AcDbArc
 50
2.7E+002
 51
3.6E+002
  0
ARC
  5
628
100
AcDbEntity
  8
1
100
AcDbCircle
  6
CONTINUOUS
 62
7
 10
1.0916704E+002
 20
4.6904401E+001
 40
5.0E-001
100
AcDbArc
 50
0.0
 51
9.0E+001
  0
ARC
  5
629
100
AcDbEntity
  8
1
100
AcDbCircle
  6
CONTINUOUS
 62
7
 10
1.0916704E+002
 20
3.9204401E+001
 40
5.0E-001
100
AcDbArc
 50
2.7E+002
 51
3.6E+002
  0
ARC
  5
62a
100
AcDbEntity
  8
1
100
AcDbCircle
  6
CONTINUOUS
 62
7
 10
1.1996704E+002
 20
4.6904401E+001
 40
5.0E-001
100
AcDbArc
 50
9.0E+001
 51
1.8E+002
  0
ARC
  5
62b
100
AcDbEntity
  8
1
100
AcDbCircle
  6
CONTINUOUS
 62
7
 10
1.1996704E+002
 20
3.9204401E+001
 40
5.0E-001
100
AcDbArc
 50
1.8E+002
 51
2.7E+002
  0
ARC
  5
62c
100
AcDbEntity
  8
1
100
AcDbCircle
  6
CONTINUOUS
 62
7
 10
1.2821704E+002
 20
4.6904401E+001
 40
5.0E-001
100
AcDbArc
 50
0.0
 51
9.0E+001
  0
ARC
  5
62d
100
AcDbEntity
  8
1
100
AcDbCircle
  6
CONTINUOUS
 62
7
 10
1.2821704E+002
 20
3.9204401E+001
 40
5.0E-001
100
AcDbArc
 50
2.7E+002
 51
3.6E+002
  0
ARC
  5
62e
100
AcDbEntity
  8
1
100
AcDbCircle
  6
CONTINUOUS
 62
7
 10
1.3901704E+002
 20
4.6904401E+001
 40
5.0E-001
100
AcDbArc
 50
9.0E+001
 51
1.8E+002
  0
ARC
  5
62f
100
AcDbEntity
  8
1
100
AcDbCircle
  6
CONTINUOUS
 62
7
 10
1.3901704E+002
 20
3.9204401E+001
 40
5.0E-001
100
AcDbArc
 50
1.8E+002
 51
2.7E+002
  0
ARC
  5
630
100
AcDbEntity
  8
1
100
AcDbCircle
  6
CONTINUOUS
 62
7
 10
1.4726704E+002
 20
3.9204401E+001
 40
5.0E-001
100
AcDbArc
 50
2.7E+002
 51
3.6E+002
  0
ARC
  5
631
100
AcDbEntity
  8
1
100
AcDbCircle
  6
CONTINUOUS
 62
7
 10
1.4726704E+002
 20
4.6904401E+001
 40
5.0E-001
100
AcDbArc
 50
0.0
 51
9.0E+001
  0
LINE
  5
632
100
AcDbEntity
  8
1
100
AcDbLine
  6
CONTINUOUS
 62
7
 10
1.2921704E+002
 20
4.5504401E+001
 11
1.3801704E+002
 21
4.5504401E+001
  0
LINE
  5
633
100
AcDbEntity
  8
1
100
AcDbLine
  6
CENTERLINE
 62
6
 10
2.3186704E+002
 20
4.3054401E+001
 11
7.346704E+001
 21
4.3054401E+001
  0
LINE
  5
634
100
AcDbEntity
  8
1
100
AcDbLine
  6
CONTINUOUS
 62
7
 10
8.136704E+001
 20
4.6904401E+001
 11
8.136704E+001
 21
3.9204401E+001
  0
ARC
  5
635
100
AcDbEntity
  8
1
100
AcDbCircle
  6
CONTINUOUS
 62
7
 10
8.186704E+001
 20
4.6904401E+001
 40
5.0E-001
100
AcDbArc
 50
9.0E+001
 51
1.8E+002
  0
ARC
  5
636
100
AcDbEntity
  8
1
100
AcDbCircle
  6
CONTINUOUS
 62
7
 10
8.186704E+001
 20
3.9204401E+001
 40
5.0E-001
100
AcDbArc
 50
1.8E+002
 51
2.7E+002
  0
LINE
  5
637
100
AcDbEntity
  8
1
100
AcDbLine
  6
CONTINUOUS
 62
7
 10
2.0
 20
2.0
 11
2.95E+002
 21
2.0
  0
LINE
  5
638
100
AcDbEntity
  8
1
100
AcDbLine
  6
CONTINUOUS
 62
7
 10
2.95E+002
 20
2.0
 11
2.95E+002
 21
2.08E+002
  0
LINE
  5
639
100
AcDbEntity
  8
1
100
AcDbLine
  6
CONTINUOUS
 62
7
 10
2.95E+002
 20
2.08E+002
 11
2.0
 21
2.08E+002
  0
LINE
  5
63a
100
AcDbEntity
  8
1
100
AcDbLine
  6
CONTINUOUS
 62
7
 10
2.0
 20
2.08E+002
 11
2.0
 21
2.0
  0
TEXT
  5
63b
100
AcDbEntity
  8
1
100
AcDbText
  6
CONTINUOUS
 62
7
 10
2.618E+002
 20
4.0
 40
3.0
  1
DATE2020.5.1
 41
8.0E-001
 72
2
 11
2.93E+002
 21
4.0
100
AcDbText
  0
INSERT
  5
63c
100
AcDbEntity
100
AcDbBlockReference
  2
BTN6_1524_IN
  8
1
 10
7.646704E+001
 20
1.1772589E+002
  0
VIEWPORT
  5
63d
100
AcDbEntity
 67
1
  8
0
  6
CONTINUOUS
 62
3
100
AcDbViewport
 10
1.485E+002
 20
1.05E+002
 30
0.0
 40
2.1E+002
 41
2.1E+002
 68
1
 69
1
1001
ACAD
1000
MVIEW
1002
{
1070
16
1010
0.0
1020
0.0
1030
0.0
1010
0.0
1020
0.0
1030
1.0
1040
0.0
1040
2.1E+002
1040
8.1675E+001
1040
1.05E+002
1040
5.0E+001
1040
0.0
1040
0.0
1070
0
1070
1000
1070
1
1070
0
1070
0
1070
0
1070
0
1070
0
1040
0.0
1040
0.0
1040
0.0
1040
5.0E-001
1040
5.0E-001
1040
5.0E-001
1040
5.0E-001
1070
0
1002
{
1002
}
1002
}
  0
VIEWPORT
  5
63e
100
AcDbEntity
 67
1
  8
0
100
AcDbViewport
 62
3
 10
1.485E+002
 20
1.05E+002
 30
0.0
 40
2.97E+002
 41
2.1E+002
 68
2
 69
2
1001
ACAD
1000
MVIEW
1002
{
1070
16
1010
0.0
1020
0.0
1030
0.0
1010
0.0
1020
0.0
1030
1.0
1040
0.0
1040
2.1E+002
1040
1.485E+002
1040
1.05E+002
1040
5.0E+001
1040
0.0
1040
0.0
1070
0
1070
1000
1070
1
1070
0
1070
0
1070
0
1070
0
1070
0
1040
0.0
1040
0.0
1040
0.0
1040
5.0E-001
1040
5.0E-001
1040
5.0E-001
1040
5.0E-001
1070
0
1002
{
1002
}
1002
}
  0
ENDSEC
  0
SECTION
  2
OBJECTS
  0
DICTIONARY
  5
63f
100
AcDbDictionary
  3
ACAD_GROUP
350
640
  3
ACAD_MLINESTYLE
350
641
  0
DICTIONARY
  5
640
102
{ACAD_REACTORS
330
63f
102
}
100
AcDbDictionary
  0
DICTIONARY
  5
641
102
{ACAD_REACTORS
330
63f
102
}
100
AcDbDictionary
  3
STANDARD
350
642
  0
MLINESTYLE
  5
642
102
{ACAD_REACTORS
330
641
102
}
100
AcDbMlineStyle
  2
STANDARD
 70
0
  3

 62
256
 51
9.0E+001
 52
9.0E+001
 71
2
 49
5.0E-001
 62
256
  6
BYLAYER
 49
-5.0E-001
 62
256
  6
BYLAYER
  0
ENDSEC
  0
EOF
