  0
SECTION
  2
HEADER
  9
$ACADVER
  1
AC1014
999
I-DEAS 13 NX Not Encoded
  9
$EXTMIN
 10
0.0
 20
0.0
  9
$EXTMAX
 10
2.97E+002
 20
2.1E+002
  9
$TEXTSIZE
 40
1.25E-001
  9
$LTSCALE
 40
1.0
  9
$CLAYER
  8
1
  9
$CECOLOR
 62
1
  9
$DIMASZ
 40
1.25E-001
  9
$DIMEXO
 40
6.25E-002
  9
$DIMDLI
 40
2.5E-001
  9
$DIMEXE
 40
1.25E-001
  9
$DIMTP
 40
5.0E-003
  9
$DIMTM
 40
-5.0E-003
  9
$DIMTXT
 40
3.0
  9
$DIMLIM
 70
0
  9
$DIMTIH
 70
1
  9
$DIMTOH
 70
1
  9
$DIMSE1
 70
0
  9
$DIMSE2
 70
0
  9
$DIMTAD
 70
0
  9
$DIMASO
 70
1
  9
$DIMALT
 70
0
  9
$DIMALTD
 70
0
  9
$DIMTOFL
 70
1
  9
$DIMTIX
 70
0
  9
$DIMSAH
 70
0
  9
$DIMSTYLE
  2
DSTYLE1
  9
$DIMTFAC
 40
1.0
  9
$DIMGAP
 40
6.25E-002
  9
$LUNITS
 70
2
  9
$LUPREC
 70
3
  9
$FILLETRAD
 40
7.0E-001
  9
$AUNITS
 70
0
  9
$AUPREC
 70
1
  9
$CHAMFERA
 40
1.0
  9
$CHAMFERB
 40
1.0
  9
$ANGBASE
 50
0.0
  9
$ANGDIR
 70
0
  9
$PEXTMIN
 10
0.0
 20
0.0
 30
0.0
  9
$PEXTMAX
 10
2.97E+002
 20
2.1E+002
 30
0.0
  9
$PLIMMIN
 10
0.0
 20
0.0
  9
$PLIMMAX
 10
2.97E+002
 20
2.1E+002
  9
$PDMODE
 70
2
  9
$PDSIZE
 40
-1.0E-002
  9
$SPLINETYPE
 70
6
  9
$TILEMODE
 70
0
  9
$HANDLING
 70
1
  9
$HANDSEED
  5
f4240
  0
ENDSEC
  0
SECTION
  2
TABLES
  0
TABLE
  2
VPORT
  5
64
100
AcDbSymbolTable
 70
2
  0
VPORT
  5
65
100
AcDbSymbolTableRecord
100
AcDbViewportTableRecord
  2
*Active
 70
0
 10
0.0
 20
0.0
 11
2.97E+002
 21
2.1E+002
 12
1.485E+002
 22
1.05E+002
 13
0.0
 23
0.0
 14
1.0
 24
1.0
 15
0.0
 25
0.0
 16
0.0
 26
0.0
 36
1.0
 17
0.0
 27
0.0
 37
0.0
 40
2.1E+002
 41
1.4142857
 42
5.0E+001
 43
0.0
 44
0.0
 50
0.0
 51
0.0
 71
0
 72
1000
 73
1
 74
3
 75
0
 76
0
 77
0
 78
0
  0
ENDTAB
  0
TABLE
  2
LTYPE
  5
66
100
AcDbSymbolTable
 70
7
  0
LTYPE
  5
67
100
AcDbSymbolTableRecord
100
AcDbLinetypeTableRecord
  2
BYBLOCK
 70
0
  3

 72
65
 73
0
 40
0.0
  0
LTYPE
  5
68
100
AcDbSymbolTableRecord
100
AcDbLinetypeTableRecord
  2
BYLAYER
 70
0
  3

 72
65
 73
0
 40
0.0
  0
LTYPE
  5
69
100
AcDbSymbolTableRecord
100
AcDbLinetypeTableRecord
  2
CONTINUOUS
 70
0
  3

 72
65
 73
0
 40
0.0
  0
LTYPE
  5
6a
100
AcDbSymbolTableRecord
100
AcDbLinetypeTableRecord
  2
HIDDENNEW0
  3
_ 
 70
64
 72
65
 73
3
 40
4.5
 49
1.5
 74
0
 49
-1.5
 74
0
 49
1.5
 74
0
  0
LTYPE
  5
6b
100
AcDbSymbolTableRecord
100
AcDbLinetypeTableRecord
  2
HIDDENNEW1
  3
_ 
 70
64
 72
65
 73
3
 40
4.5
 49
1.5
 74
0
 49
-1.5
 74
0
 49
1.5
 74
0
  0
LTYPE
  5
6c
100
AcDbSymbolTableRecord
100
AcDbLinetypeTableRecord
  2
HIDDEN
  3
_ 
 70
64
 72
65
 73
3
 40
4.5
 49
1.5
 74
0
 49
-1.5
 74
0
 49
1.5
 74
0
  0
LTYPE
  5
6d
100
AcDbSymbolTableRecord
100
AcDbLinetypeTableRecord
  2
CENTERLINE
  3
_ 
 70
64
 72
65
 73
5
 40
3.0E+001
 49
1.2E+001
 74
0
 49
-1.5
 74
0
 49
3.0
 74
0
 49
-1.5
 74
0
 49
1.2E+001
 74
0
  0
LTYPE
  5
6e
100
AcDbSymbolTableRecord
100
AcDbLinetypeTableRecord
  2
PHANTOM
  3
_ 
 70
64
 72
65
 73
7
 40
2.95E+001
 49
9.5
 74
0
 49
-1.5
 74
0
 49
3.0
 74
0
 49
-1.5
 74
0
 49
3.0
 74
0
 49
-1.5
 74
0
 49
9.5
 74
0
  0
LTYPE
  5
6f
100
AcDbSymbolTableRecord
100
AcDbLinetypeTableRecord
  2
SHORT_DASH
  3
_ 
 70
64
 72
65
 73
3
 40
3.0
 49
7.5E-001
 74
0
 49
-1.5
 74
0
 49
7.5E-001
 74
0
  0
LTYPE
  5
70
100
AcDbSymbolTableRecord
100
AcDbLinetypeTableRecord
  2
LONG_DASH
  3
_ 
 70
64
 72
65
 73
3
 40
9.0
 49
2.25
 74
0
 49
-4.5
 74
0
 49
2.25
 74
0
  0
ENDTAB
  0
TABLE
  2
LAYER
  5
71
100
AcDbSymbolTable
 70
258
  0
LAYER
  5
72
100
AcDbSymbolTableRecord
100
AcDbLayerTableRecord
  2
0
 70
0
 62
7
  6
CONTINUOUS
  0
LAYER
  5
73
100
AcDbSymbolTableRecord
100
AcDbLayerTableRecord
  2
1
 70
0
 62
7
  6
CONTINUOUS
  0
LAYER
  5
74
100
AcDbSymbolTableRecord
100
AcDbLayerTableRecord
  2
AM_VIEWS
 70
0
 62
3
  6
CONTINUOUS
  0
LAYER
  5
75
100
AcDbSymbolTableRecord
100
AcDbLayerTableRecord
  2
Drafting_Hidden_Entities
 70
1
 62
7
  6
CONTINUOUS
  0
ENDTAB
  0
TABLE
  2
STYLE
  5
76
100
AcDbSymbolTable
 70
1
  0
STYLE
  5
77
100
AcDbSymbolTableRecord
100
AcDbTextStyleTableRecord
  2
STANDARD
 70
64
 40
0.0
 41
1.0
 50
0.0
 71
0
 42
1.0
  3
monotxt.shx
  4
bigfont.shx
  0
ENDTAB
  0
TABLE
  2
VIEW
  5
78
100
AcDbSymbolTable
 70
0
  0
ENDTAB
  0
TABLE
  2
UCS
  5
79
100
AcDbSymbolTable
 70
0
  0
ENDTAB
  0
TABLE
  2
APPID
  5
7a
100
AcDbSymbolTable
 70
1
  0
APPID
  5
7b
100
AcDbSymbolTableRecord
100
AcDbRegAppTableRecord
  2
ACAD
 70
1
  0
ENDTAB
  0
TABLE
  2
DIMSTYLE
  5
7c
100
AcDbSymbolTable
 70
7
  0
DIMSTYLE
105
7d
100
AcDbSymbolTableRecord
100
AcDbDimStyleTableRecord
  2
DSTYLE1
 70
0
  3

  4

  5

  6

  7

 40
1.0
 41
1.5
 42
5.0E-001
 43
3.8E-001
 44
6.0E-001
 45
1.0E-001
 46
0.0
 47
1.0
 48
1.0
 71
0
 72
0
 73
0
 74
0
 75
0
 76
0
 77
1
 78
3
140
3.0
141
9.0E-002
142
0.0
143
3.9370079E-002
144
1.0
145
0.0
146
1.0
147
5.0E-001
170
0
171
2
172
0
173
0
174
0
175
0
176
0
177
0
178
0
270
2
271
1
272
4
273
2
274
2
275
0
280
0
281
0
282
0
283
1
284
0
285
0
286
0
287
3
288
0
  0
DIMSTYLE
105
7e
100
AcDbSymbolTableRecord
100
AcDbDimStyleTableRecord
  2
DSTYLE2
 70
0
  3

  4

  5

  6

  7

 40
1.0
 41
1.5
 42
5.0E-001
 43
3.8E-001
 44
6.0E-001
 45
0.0
 46
0.0
 47
1.0
 48
1.0
 71
0
 72
0
 73
0
 74
0
 75
0
 76
0
 77
1
 78
3
140
3.0
141
9.0E-002
142
0.0
143
3.9370079E-002
144
1.0
145
0.0
146
1.0
147
5.0E-001
170
0
171
2
172
0
173
0
174
0
175
0
176
0
177
0
178
0
270
2
271
0
272
4
273
2
274
2
275
0
280
0
281
0
282
0
283
1
284
0
285
0
286
0
287
3
288
0
  0
DIMSTYLE
105
7f
100
AcDbSymbolTableRecord
100
AcDbDimStyleTableRecord
  2
DSTYLE3
 70
0
  3

  4

  5

  6

  7

 40
1.0
 41
1.5
 42
5.0E-001
 43
3.8E-001
 44
6.0E-001
 45
0.0
 46
0.0
 47
1.0
 48
1.0
 71
0
 72
0
 73
0
 74
0
 75
0
 76
1
 77
1
 78
3
140
3.0
141
9.0E-002
142
0.0
143
3.9370079E-002
144
1.0
145
0.0
146
1.0
147
5.0E-001
170
0
171
2
172
0
173
0
174
0
175
0
176
0
177
0
178
0
270
2
271
0
272
4
273
2
274
2
275
0
280
0
281
0
282
0
283
1
284
0
285
0
286
0
287
3
288
0
  0
DIMSTYLE
105
80
100
AcDbSymbolTableRecord
100
AcDbDimStyleTableRecord
  2
DSTYLE4
 70
0
  3

  4

  5

  6

  7

 40
1.0
 41
1.5
 42
5.0E-001
 43
3.8E-001
 44
5.0E-001
 45
0.0
 46
0.0
 47
1.0
 48
1.0
 71
0
 72
0
 73
0
 74
0
 75
0
 76
0
 77
1
 78
3
140
3.0
141
9.0E-002
142
0.0
143
3.9370079E-002
144
1.0
145
0.0
146
1.0
147
5.0E-001
170
0
171
2
172
0
173
0
174
0
175
0
176
0
177
0
178
0
270
2
271
0
272
4
273
2
274
2
275
0
280
0
281
0
282
0
283
1
284
0
285
0
286
0
287
3
288
0
  0
DIMSTYLE
105
81
100
AcDbSymbolTableRecord
100
AcDbDimStyleTableRecord
  2
DSTYLE5
 70
0
  3

  4

  5

  6

  7

 40
1.0
 41
1.5
 42
5.0E-001
 43
3.8E-001
 44
5.0E-001
 45
1.0E-001
 46
0.0
 47
1.0
 48
1.0
 71
0
 72
0
 73
0
 74
0
 75
0
 76
0
 77
1
 78
3
140
3.0
141
9.0E-002
142
0.0
143
3.9370079E-002
144
1.0
145
0.0
146
1.0
147
5.0E-001
170
0
171
2
172
0
173
0
174
0
175
0
176
0
177
0
178
0
270
2
271
1
272
4
273
2
274
2
275
0
280
0
281
0
282
0
283
1
284
0
285
0
286
0
287
3
288
0
  0
DIMSTYLE
105
82
100
AcDbSymbolTableRecord
100
AcDbDimStyleTableRecord
  2
DSTYLE6
 70
0
  3

  4

  5

  6

  7

 40
1.0
 41
1.5
 42
5.0E-001
 43
3.8E-001
 44
5.0E-001
 45
0.0
 46
0.0
 47
1.0
 48
1.0
 71
0
 72
0
 73
0
 74
0
 75
1
 76
0
 77
1
 78
3
140
3.0
141
9.0E-002
142
0.0
143
3.9370079E-002
144
1.0
145
0.0
146
1.0
147
5.0E-001
170
0
171
2
172
0
173
0
174
0
175
0
176
0
177
0
178
0
270
2
271
0
272
4
273
2
274
2
275
0
280
0
281
0
282
0
283
1
284
0
285
0
286
0
287
3
288
0
  0
DIMSTYLE
105
83
100
AcDbSymbolTableRecord
100
AcDbDimStyleTableRecord
  2
DSTYLE7
 70
0
  3

  4

  5

  6

  7

 40
1.0
 41
1.5
 42
1.5
 43
3.8E-001
 44
3.0
 45
0.0
 46
0.0
 47
1.0
 48
1.0
 71
0
 72
0
 73
1
 74
1
 75
0
 76
0
 77
1
 78
3
140
3.0
141
9.0E-002
142
0.0
143
3.9370079E-002
144
1.0
145
0.0
146
1.0
147
1.5
170
0
171
2
172
1
173
0
174
0
175
0
176
0
177
0
178
0
270
2
271
0
272
4
273
2
274
2
275
0
280
0
281
0
282
0
283
1
284
0
285
0
286
0
287
3
288
0
  0
ENDTAB
  0
TABLE
  2
BLOCK_RECORD
  5
84
100
AcDbSymbolTable
 70
0
  0
BLOCK_RECORD
  5
85
100
AcDbSymbolTableRecord
100
AcDbBlockTableRecord
  2
*MODEL_SPACE
  0
BLOCK_RECORD
  5
86
100
AcDbSymbolTableRecord
100
AcDbBlockTableRecord
  2
*PAPER_SPACE
  0
BLOCK_RECORD
  5
87
100
AcDbSymbolTableRecord
100
AcDbBlockTableRecord
  2
*D555
  0
BLOCK_RECORD
  5
88
100
AcDbSymbolTableRecord
100
AcDbBlockTableRecord
  2
*D697
  0
BLOCK_RECORD
  5
89
100
AcDbSymbolTableRecord
100
AcDbBlockTableRecord
  2
*D698
  0
BLOCK_RECORD
  5
8a
100
AcDbSymbolTableRecord
100
AcDbBlockTableRecord
  2
*D699
  0
BLOCK_RECORD
  5
8b
100
AcDbSymbolTableRecord
100
AcDbBlockTableRecord
  2
*D700
  0
BLOCK_RECORD
  5
8c
100
AcDbSymbolTableRecord
100
AcDbBlockTableRecord
  2
*D720
  0
BLOCK_RECORD
  5
8d
100
AcDbSymbolTableRecord
100
AcDbBlockTableRecord
  2
*D721
  0
BLOCK_RECORD
  5
8e
100
AcDbSymbolTableRecord
100
AcDbBlockTableRecord
  2
*D722
  0
BLOCK_RECORD
  5
8f
100
AcDbSymbolTableRecord
100
AcDbBlockTableRecord
  2
*D725
  0
BLOCK_RECORD
  5
90
100
AcDbSymbolTableRecord
100
AcDbBlockTableRecord
  2
*D726
  0
BLOCK_RECORD
  5
91
100
AcDbSymbolTableRecord
100
AcDbBlockTableRecord
  2
*D727
  0
BLOCK_RECORD
  5
92
100
AcDbSymbolTableRecord
100
AcDbBlockTableRecord
  2
*D847
  0
BLOCK_RECORD
  5
93
100
AcDbSymbolTableRecord
100
AcDbBlockTableRecord
  2
*D850
  0
BLOCK_RECORD
  5
94
100
AcDbSymbolTableRecord
100
AcDbBlockTableRecord
  2
*D851
  0
BLOCK_RECORD
  5
95
100
AcDbSymbolTableRecord
100
AcDbBlockTableRecord
  2
*D852
  0
BLOCK_RECORD
  5
96
100
AcDbSymbolTableRecord
100
AcDbBlockTableRecord
  2
*D853
  0
BLOCK_RECORD
  5
97
100
AcDbSymbolTableRecord
100
AcDbBlockTableRecord
  2
_AH1
  0
BLOCK_RECORD
  5
98
100
AcDbSymbolTableRecord
100
AcDbBlockTableRecord
  2
_AH2
  0
BLOCK_RECORD
  5
99
100
AcDbSymbolTableRecord
100
AcDbBlockTableRecord
  2
_AH12
  3
_AH
  0
BLOCK_RECORD
  5
9a
100
AcDbSymbolTableRecord
100
AcDbBlockTableRecord
  2
_AH13
  3
_AH
  0
BLOCK_RECORD
  5
9b
100
AcDbSymbolTableRecord
100
AcDbBlockTableRecord
  2
_AH14
  3
_AH
  0
BLOCK_RECORD
  5
9c
100
AcDbSymbolTableRecord
100
AcDbBlockTableRecord
  2
_AH15
  3
_AH
  0
BLOCK_RECORD
  5
9d
100
AcDbSymbolTableRecord
100
AcDbBlockTableRecord
  2
_AH16
  3
_AH
  0
BLOCK_RECORD
  5
9e
100
AcDbSymbolTableRecord
100
AcDbBlockTableRecord
  2
_AH17
  3
_AH
  0
BLOCK_RECORD
  5
9f
100
AcDbSymbolTableRecord
100
AcDbBlockTableRecord
  2
_AH18
  3
_AH
  0
BLOCK_RECORD
  5
a0
100
AcDbSymbolTableRecord
100
AcDbBlockTableRecord
  2
_AH19
  3
_AH
  0
BLOCK_RECORD
  5
a1
100
AcDbSymbolTableRecord
100
AcDbBlockTableRecord
  2
_AH20
  3
_AH
  0
BLOCK_RECORD
  5
a2
100
AcDbSymbolTableRecord
100
AcDbBlockTableRecord
  2
_AH21
  3
_AH
  0
BLOCK_RECORD
  5
a3
100
AcDbSymbolTableRecord
100
AcDbBlockTableRecord
  2
*XH53
  3
*XH
  0
BLOCK_RECORD
  5
a4
100
AcDbSymbolTableRecord
100
AcDbBlockTableRecord
  2
*XH54
  3
*XH
  0
ENDTAB
  0
ENDSEC
  0
SECTION
  2
BLOCKS
  0
BLOCK
  5
a5
100
AcDbEntity
100
AcDbBlockBegin
  2
*MODEL_SPACE
 70
0
 10
0.0
 20
0.0
 30
0.0
  3
*MODEL_SPACE
  1

  0
ENDBLK
  5
a6
100
AcDbEntity
100
AcDbBlockEnd
  0
BLOCK
  5
a7
100
AcDbEntity
100
AcDbBlockBegin
  2
*PAPER_SPACE
 70
0
 10
0.0
 20
0.0
 30
0.0
  3
*PAPER_SPACE
  1

  0
ENDBLK
  5
a8
100
AcDbEntity
100
AcDbBlockEnd
  0
BLOCK
  5
a9
100
AcDbEntity
100
AcDbBlockBegin
  2
_AH12
  3
_AH
 10
0.0
 20
0.0
 70
64
  0
LINE
  5
aa
100
AcDbEntity
  8
0
100
AcDbLine
  6
CONTINUOUS
 62
0
 10
0.0
 20
0.0
 11
1.0
 21
0.0
  0
LINE
  5
ab
100
AcDbEntity
  8
0
100
AcDbLine
  6
CONTINUOUS
 62
0
 10
0.0
 20
0.0
 11
-1.0
 21
0.0
  0
ENDBLK
  5
ac
100
AcDbEntity
100
AcDbBlockEnd
  0
BLOCK
  5
ad
100
AcDbEntity
100
AcDbBlockBegin
  2
_AH13
  3
_AH
 10
0.0
 20
0.0
 70
64
  0
SOLID
  5
ae
100
AcDbEntity
  8
0
100
AcDbTrace
  6
CONTINUOUS
 62
0
 10
0.0
 20
0.0
 11
1.0
 21
-1.66667E-001
 12
1.0
 22
1.66667E-001
 13
0.0
 23
0.0
  0
ENDBLK
  5
af
100
AcDbEntity
100
AcDbBlockEnd
  0
BLOCK
  5
b0
100
AcDbEntity
100
AcDbBlockBegin
  2
_AH14
  3
_AH
 10
0.0
 20
0.0
 70
64
  0
ENDBLK
  5
b1
100
AcDbEntity
100
AcDbBlockEnd
  0
BLOCK
  5
b2
100
AcDbEntity
100
AcDbBlockBegin
  2
_AH15
  3
_AH
 10
0.0
 20
0.0
 70
64
  0
CIRCLE
  5
b3
100
AcDbEntity
  8
0
100
AcDbCircle
  6
CONTINUOUS
 62
0
 10
0.0
 20
0.0
 40
1.66667E-001
  0
LINE
  5
b4
100
AcDbEntity
  8
0
100
AcDbLine
  6
CONTINUOUS
 62
0
 10
0.0
 20
0.0
 11
-1.0
 21
0.0
  0
ENDBLK
  5
b5
100
AcDbEntity
100
AcDbBlockEnd
  0
BLOCK
  5
b6
100
AcDbEntity
100
AcDbBlockBegin
  2
_AH16
  3
_AH
 10
0.0
 20
0.0
 70
64
  0
POLYLINE
  5
b7
100
AcDbEntity
  8
0
100
AcDb2dPolyline
  6
CONTINUOUS
 62
0
 66
1
 40
1.66667E-001
 41
1.66667E-001
 70
0
  0
VERTEX
  5
b8
100
AcDbEntity
  8
0
100
AcDbVertex
100
AcDb2dVertex
 42
1.0
 10
8.3335E-002
 20
0.0
 70
0
  0
VERTEX
  5
b9
100
AcDbEntity
  8
0
100
AcDbVertex
100
AcDb2dVertex
 42
1.0
 10
-8.3335E-002
 20
0.0
 70
0
  0
VERTEX
  5
ba
100
AcDbEntity
  8
0
100
AcDbVertex
100
AcDb2dVertex
 42
0.0
 10
8.3335E-002
 20
0.0
 70
0
  0
SEQEND
  5
bb
100
AcDbEntity
  0
LINE
  5
bc
100
AcDbEntity
  8
0
100
AcDbLine
  6
CONTINUOUS
 62
0
 10
0.0
 20
0.0
 11
-1.0
 21
0.0
  0
ENDBLK
  5
bd
100
AcDbEntity
100
AcDbBlockEnd
  0
BLOCK
  5
be
100
AcDbEntity
100
AcDbBlockBegin
  2
_AH17
  3
_AH
 10
0.0
 20
0.0
 70
64
  0
LINE
  5
bf
100
AcDbEntity
  8
0
100
AcDbLine
  6
CONTINUOUS
 62
0
 10
-1.66667E-001
 20
-1.66667E-001
 11
1.66667E-001
 21
-1.66667E-001
  0
LINE
  5
c0
100
AcDbEntity
  8
0
100
AcDbLine
  6
CONTINUOUS
 62
0
 10
1.66667E-001
 20
-1.66667E-001
 11
1.66667E-001
 21
1.66667E-001
  0
LINE
  5
c1
100
AcDbEntity
  8
0
100
AcDbLine
  6
CONTINUOUS
 62
0
 10
1.66667E-001
 20
1.66667E-001
 11
-1.66667E-001
 21
1.66667E-001
  0
LINE
  5
c2
100
AcDbEntity
  8
0
100
AcDbLine
  6
CONTINUOUS
 62
0
 10
-1.66667E-001
 20
1.66667E-001
 11
-1.66667E-001
 21
-1.66667E-001
  0
LINE
  5
c3
100
AcDbEntity
  8
0
100
AcDbLine
  6
CONTINUOUS
 62
0
 10
0.0
 20
0.0
 11
-1.0
 21
0.0
  0
ENDBLK
  5
c4
100
AcDbEntity
100
AcDbBlockEnd
  0
BLOCK
  5
c5
100
AcDbEntity
100
AcDbBlockBegin
  2
_AH18
  3
_AH
 10
0.0
 20
0.0
 70
64
  0
SOLID
  5
c6
100
AcDbEntity
  8
0
100
AcDbTrace
  6
CONTINUOUS
 62
0
 10
-1.66667E-001
 20
-1.66667E-001
 11
1.66667E-001
 21
-1.66667E-001
 12
-1.66667E-001
 22
1.66667E-001
 13
1.66667E-001
 23
1.66667E-001
  0
LINE
  5
c7
100
AcDbEntity
  8
0
100
AcDbLine
  6
CONTINUOUS
 62
0
 10
0.0
 20
0.0
 11
-1.0
 21
0.0
  0
ENDBLK
  5
c8
100
AcDbEntity
100
AcDbBlockEnd
  0
BLOCK
  5
c9
100
AcDbEntity
100
AcDbBlockBegin
  2
_AH19
  3
_AH
 10
0.0
 20
0.0
 70
64
  0
LINE
  5
ca
100
AcDbEntity
  8
0
100
AcDbLine
  6
CONTINUOUS
 62
0
 10
-5.0E-001
 20
-5.0E-001
 11
5.0E-001
 21
5.0E-001
  0
LINE
  5
cb
100
AcDbEntity
  8
0
100
AcDbLine
  6
CONTINUOUS
 62
0
 10
0.0
 20
0.0
 11
-1.0
 21
0.0
  0
ENDBLK
  5
cc
100
AcDbEntity
100
AcDbBlockEnd
  0
BLOCK
  5
cd
100
AcDbEntity
100
AcDbBlockBegin
  2
_AH20
  3
_AH
 10
0.0
 20
0.0
 70
64
  0
POLYLINE
  5
ce
100
AcDbEntity
  8
0
100
AcDb2dPolyline
  6
CONTINUOUS
 62
0
 66
1
 40
5.0E-001
 41
5.0E-001
 70
0
  0
VERTEX
  5
cf
100
AcDbEntity
  8
0
100
AcDbVertex
100
AcDb2dVertex
 42
4.1421356E-001
 10
-1.66667E-001
 20
-1.66667E-001
 70
0
  0
VERTEX
  5
d0
100
AcDbEntity
  8
0
100
AcDbVertex
100
AcDb2dVertex
 42
0.0
 10
0.0
 20
0.0
 70
0
  0
SEQEND
  5
d1
100
AcDbEntity
  0
POLYLINE
  5
d2
100
AcDbEntity
  8
0
100
AcDb2dPolyline
  6
CONTINUOUS
 62
0
 66
1
 40
5.0E-001
 41
5.0E-001
 70
0
  0
VERTEX
  5
d3
100
AcDbEntity
  8
0
100
AcDbVertex
100
AcDb2dVertex
 42
4.1421356E-001
 10
1.66667E-001
 20
1.66667E-001
 70
0
  0
VERTEX
  5
d4
100
AcDbEntity
  8
0
100
AcDbVertex
100
AcDb2dVertex
 42
0.0
 10
0.0
 20
0.0
 70
0
  0
SEQEND
  5
d5
100
AcDbEntity
  0
LINE
  5
d6
100
AcDbEntity
  8
0
100
AcDbLine
  6
CONTINUOUS
 62
0
 10
0.0
 20
0.0
 11
-1.0
 21
0.0
  0
ENDBLK
  5
d7
100
AcDbEntity
100
AcDbBlockEnd
  0
BLOCK
  5
d8
100
AcDbEntity
100
AcDbBlockBegin
  2
_AH21
  3
_AH
 10
0.0
 20
0.0
 70
64
  0
LINE
  5
d9
100
AcDbEntity
  8
0
100
AcDbLine
  6
CONTINUOUS
 62
0
 10
0.0
 20
0.0
 11
-1.0
 21
-1.66667E-001
  0
LINE
  5
da
100
AcDbEntity
  8
0
100
AcDbLine
  6
CONTINUOUS
 62
0
 10
-1.0
 20
-1.66667E-001
 11
-1.0
 21
1.66667E-001
  0
LINE
  5
db
100
AcDbEntity
  8
0
100
AcDbLine
  6
CONTINUOUS
 62
0
 10
-1.0
 20
1.66667E-001
 11
0.0
 21
0.0
  0
ENDBLK
  5
dc
100
AcDbEntity
100
AcDbBlockEnd
  0
BLOCK
  5
dd
100
AcDbEntity
100
AcDbBlockBegin
  2
*XH53
  3
*XH
 10
0.0
 20
0.0
 70
65
  0
LINE
  5
de
100
AcDbEntity
  8
1
100
AcDbLine
  6
CONTINUOUS
 62
7
 10
-4.7186288
 20
-4.7186288
 11
4.7186288
 21
4.7186288
  0
LINE
  5
df
100
AcDbEntity
  8
1
100
AcDbLine
  6
CONTINUOUS
 62
7
 10
-4.7186288
 20
-4.759881E-001
 11
5.9863338
 21
1.0228975E+001
  0
LINE
  5
e0
100
AcDbEntity
  8
1
100
AcDbLine
  6
CONTINUOUS
 62
7
 10
-4.7186288
 20
3.7666526
 11
4.8415232
 21
1.3326805E+001
  0
LINE
  5
e1
100
AcDbEntity
  8
1
100
AcDbLine
  6
CONTINUOUS
 62
7
 10
-4.7186288
 20
8.0092933
 11
5.988825E-001
 21
1.3326805E+001
  0
LINE
  5
e2
100
AcDbEntity
  8
1
100
AcDbLine
  6
CONTINUOUS
 62
7
 10
-4.7186288
 20
1.2251934E+001
 11
-3.6437582
 21
1.3326805E+001
  0
ENDBLK
  5
e3
100
AcDbEntity
100
AcDbBlockEnd
  0
BLOCK
  5
e4
100
AcDbEntity
100
AcDbBlockBegin
  2
*XH54
  3
*XH
 10
0.0
 20
0.0
 70
65
  0
LINE
  5
e5
100
AcDbEntity
  8
1
100
AcDbLine
  6
CONTINUOUS
 62
7
 10
-1.1164962
 20
-1.1164962
 11
1.1164962
 21
1.1164962
  0
LINE
  5
e6
100
AcDbEntity
  8
1
100
AcDbLine
  6
CONTINUOUS
 62
7
 10
-5.3591368
 20
-1.1164962
 11
-2.3591368
 21
1.8835038
  0
LINE
  5
e7
100
AcDbEntity
  8
1
100
AcDbLine
  6
CONTINUOUS
 62
7
 10
-9.6017775
 20
-1.1164962
 11
-6.6017775
 21
1.8835038
  0
ENDBLK
  5
e8
100
AcDbEntity
100
AcDbBlockEnd
  0
BLOCK
  5
e9
100
AcDbEntity
100
AcDbBlockBegin
  2
_AH1
 70
0
 10
0.0
 20
0.0
  3
_AH1
  0
LINE
  5
ea
100
AcDbEntity
  8
0
100
AcDbLine
  6
CONTINUOUS
 62
0
 10
-1.0
 20
1.66667E-001
 11
0.0
 21
0.0
  0
LINE
  5
eb
100
AcDbEntity
  8
0
100
AcDbLine
  6
CONTINUOUS
 62
0
 10
0.0
 20
0.0
 11
-1.0
 21
-1.66667E-001
  0
LINE
  5
ec
100
AcDbEntity
  8
0
100
AcDbLine
  6
CONTINUOUS
 62
0
 10
-1.0
 20
1.66667E-001
 11
-1.0
 21
-1.66667E-001
  0
LINE
  5
ed
100
AcDbEntity
  8
0
100
AcDbLine
  6
CONTINUOUS
 62
0
 10
0.0
 20
0.0
 11
-1.0
 21
0.0
  0
ENDBLK
  5
ee
100
AcDbEntity
100
AcDbBlockEnd
  0
BLOCK
  5
ef
100
AcDbEntity
100
AcDbBlockBegin
  2
_AH2
 70
0
 10
0.0
 20
0.0
  3
_AH2
  0
LINE
  5
f0
100
AcDbEntity
  8
0
100
AcDbLine
  6
CONTINUOUS
 62
0
 10
-1.0
 20
1.66667E-001
 11
0.0
 21
0.0
  0
LINE
  5
f1
100
AcDbEntity
  8
0
100
AcDbLine
  6
CONTINUOUS
 62
0
 10
0.0
 20
0.0
 11
-1.0
 21
-1.66667E-001
  0
LINE
  5
f2
100
AcDbEntity
  8
0
100
AcDbLine
  6
CONTINUOUS
 62
0
 10
0.0
 20
0.0
 11
-1.0
 21
0.0
  0
ENDBLK
  5
f3
100
AcDbEntity
100
AcDbBlockEnd
  0
BLOCK
  5
f4
100
AcDbEntity
100
AcDbBlockBegin
  2
*D555
  3
*D
 10
0.0
 20
0.0
 70
65
  0
LINE
  5
f5
100
AcDbEntity
  8
1
100
AcDbLine
  6
CONTINUOUS
 62
1
 10
1.9977782E+002
 20
4.6761122E+001
 11
1.9977782E+002
 21
2.2702693E+001
  0
LINE
  5
f6
100
AcDbEntity
  8
1
100
AcDbLine
  6
CONTINUOUS
 62
1
 10
2.5527782E+002
 20
6.1061122E+001
 11
2.5527782E+002
 21
2.2702693E+001
  0
LINE
  5
f7
100
AcDbEntity
  8
1
100
AcDbLine
  6
CONTINUOUS
 62
1
 10
1.9977782E+002
 20
2.3302693E+001
 11
2.2752782E+002
 21
2.3302693E+001
  0
LINE
  5
f8
100
AcDbEntity
  8
1
100
AcDbLine
  6
CONTINUOUS
 62
1
 10
2.5527782E+002
 20
2.3302693E+001
 11
2.2752782E+002
 21
2.3302693E+001
  0
TEXT
  5
f9
100
AcDbEntity
  8
1
100
AcDbText
  6
CONTINUOUS
 62
1
 10
2.2272782E+002
 20
2.3803693E+001
 40
3.0
  1
55.5
 41
8.0E-001
100
AcDbText
  0
INSERT
  5
fa
100
AcDbEntity
100
AcDbBlockReference
  2
_AH2
  8
1
 62
1
 10
1.9977782E+002
 20
2.3302693E+001
 41
1.5
 42
1.5
 43
1.5
 50
1.8E+002
  0
INSERT
  5
fb
100
AcDbEntity
100
AcDbBlockReference
  2
_AH2
  8
1
 62
1
 10
2.5527782E+002
 20
2.3302693E+001
 41
1.5
 42
1.5
 43
1.5
 50
0.0
  0
ENDBLK
  5
fc
100
AcDbEntity
100
AcDbBlockEnd
  0
BLOCK
  5
fd
100
AcDbEntity
100
AcDbBlockBegin
  2
*D697
  3
*D
 10
0.0
 20
0.0
 70
65
  0
LINE
  5
fe
100
AcDbEntity
  8
1
100
AcDbLine
  6
CONTINUOUS
 62
1
 10
1.4479306E+002
 20
1.681423E+002
 11
1.4479306E+002
 21
1.8735499E+002
  0
LINE
  5
ff
100
AcDbEntity
  8
1
100
AcDbLine
  6
CONTINUOUS
 62
1
 10
6.9793062E+001
 20
1.681423E+002
 11
6.9793062E+001
 21
1.8735499E+002
  0
LINE
  5
100
100
AcDbEntity
  8
1
100
AcDbLine
  6
CONTINUOUS
 62
1
 10
1.4479306E+002
 20
1.8675499E+002
 11
1.0729306E+002
 21
1.8675499E+002
  0
LINE
  5
101
100
AcDbEntity
  8
1
100
AcDbLine
  6
CONTINUOUS
 62
1
 10
6.9793062E+001
 20
1.8675499E+002
 11
1.0729306E+002
 21
1.8675499E+002
  0
TEXT
  5
102
100
AcDbEntity
  8
1
100
AcDbText
  6
CONTINUOUS
 62
1
 10
1.0489306E+002
 20
1.8725599E+002
 40
3.0
  1
75
 41
8.0E-001
 50
3.6E+002
100
AcDbText
  0
INSERT
  5
103
100
AcDbEntity
100
AcDbBlockReference
  2
_AH2
  8
1
 62
1
 10
1.4479306E+002
 20
1.8675499E+002
 41
1.5
 42
1.5
 43
1.5
 50
0.0
  0
INSERT
  5
104
100
AcDbEntity
100
AcDbBlockReference
  2
_AH2
  8
1
 62
1
 10
6.9793062E+001
 20
1.8675499E+002
 41
1.5
 42
1.5
 43
1.5
 50
1.8E+002
  0
ENDBLK
  5
105
100
AcDbEntity
100
AcDbBlockEnd
  0
BLOCK
  5
106
100
AcDbEntity
100
AcDbBlockBegin
  2
*D698
  3
*D
 10
0.0
 20
0.0
 70
65
  0
LINE
  5
107
100
AcDbEntity
  8
1
100
AcDbLine
  6
CONTINUOUS
 62
1
 10
1.4529306E+002
 20
1.131423E+002
 11
1.6449333E+002
 21
1.131423E+002
  0
LINE
  5
108
100
AcDbEntity
  8
1
100
AcDbLine
  6
CONTINUOUS
 62
1
 10
1.4529306E+002
 20
1.676423E+002
 11
1.6449333E+002
 21
1.676423E+002
  0
LINE
  5
109
100
AcDbEntity
  8
1
100
AcDbLine
  6
CONTINUOUS
 62
1
 10
1.6389333E+002
 20
1.131423E+002
 11
1.6389333E+002
 21
1.403923E+002
  0
LINE
  5
10a
100
AcDbEntity
  8
1
100
AcDbLine
  6
CONTINUOUS
 62
1
 10
1.6389333E+002
 20
1.676423E+002
 11
1.6389333E+002
 21
1.403923E+002
  0
TEXT
  5
10b
100
AcDbEntity
  8
1
100
AcDbText
  6
CONTINUOUS
 62
1
 10
1.6339233E+002
 20
1.355923E+002
 40
3.0
  1
54.5
 41
8.0E-001
 50
9.0E+001
100
AcDbText
  0
INSERT
  5
10c
100
AcDbEntity
100
AcDbBlockReference
  2
_AH2
  8
1
 62
1
 10
1.6389333E+002
 20
1.131423E+002
 41
1.5
 42
1.5
 43
1.5
 50
2.7E+002
  0
INSERT
  5
10d
100
AcDbEntity
100
AcDbBlockReference
  2
_AH2
  8
1
 62
1
 10
1.6389333E+002
 20
1.676423E+002
 41
1.5
 42
1.5
 43
1.5
 50
9.0E+001
  0
ENDBLK
  5
10e
100
AcDbEntity
100
AcDbBlockEnd
  0
BLOCK
  5
10f
100
AcDbEntity
100
AcDbBlockBegin
  2
*D699
  3
*D
 10
0.0
 20
0.0
 70
65
  0
LINE
  5
110
100
AcDbEntity
  8
1
100
AcDbLine
  6
CONTINUOUS
 62
1
 10
1.2246806E+002
 20
1.686423E+002
 11
1.4093305E+002
 21
1.686423E+002
  0
LINE
  5
111
100
AcDbEntity
  8
1
100
AcDbLine
  6
CONTINUOUS
 62
1
 10
1.2246806E+002
 20
1.496423E+002
 11
1.4093305E+002
 21
1.496423E+002
  0
LINE
  5
112
100
AcDbEntity
  8
1
100
AcDbLine
  6
CONTINUOUS
 62
1
 10
1.4033305E+002
 20
1.496423E+002
 11
1.4033305E+002
 21
1.686423E+002
  0
LINE
  5
113
100
AcDbEntity
  8
1
100
AcDbLine
  6
CONTINUOUS
 62
1
 10
1.4033305E+002
 20
1.686423E+002
 11
1.4033305E+002
 21
1.8438689E+002
  0
TEXT
  5
114
100
AcDbEntity
  8
1
100
AcDbText
  6
CONTINUOUS
 62
1
 10
1.3983205E+002
 20
1.7568688E+002
 40
3.0
  1
%%c19
 41
8.0E-001
 50
9.0E+001
100
AcDbText
  0
INSERT
  5
115
100
AcDbEntity
100
AcDbBlockReference
  2
_AH2
  8
1
 62
1
 10
1.4033305E+002
 20
1.686423E+002
 41
1.5
 42
1.5
 43
1.5
 50
9.0E+001
  0
INSERT
  5
116
100
AcDbEntity
100
AcDbBlockReference
  2
_AH2
  8
1
 62
1
 10
1.4033305E+002
 20
1.496423E+002
 41
1.5
 42
1.5
 43
1.5
 50
2.7E+002
  0
ENDBLK
  5
117
100
AcDbEntity
100
AcDbBlockEnd
  0
BLOCK
  5
118
100
AcDbEntity
100
AcDbBlockBegin
  2
*D700
  3
*D
 10
0.0
 20
0.0
 70
65
  0
LINE
  5
119
100
AcDbEntity
  8
1
100
AcDbLine
  6
CONTINUOUS
 62
1
 10
1.2246806E+002
 20
1.686423E+002
 11
1.2246806E+002
 21
1.7699771E+002
  0
LINE
  5
11a
100
AcDbEntity
  8
1
100
AcDbLine
  6
CONTINUOUS
 62
1
 10
1.1746806E+002
 20
1.686423E+002
 11
1.1746806E+002
 21
1.7699771E+002
  0
LINE
  5
11b
100
AcDbEntity
  8
1
100
AcDbLine
  6
CONTINUOUS
 62
1
 10
1.2246806E+002
 20
1.7639771E+002
 11
1.1996806E+002
 21
1.7639771E+002
  0
LINE
  5
11c
100
AcDbEntity
  8
1
100
AcDbLine
  6
CONTINUOUS
 62
1
 10
1.1746806E+002
 20
1.7639771E+002
 11
1.1996806E+002
 21
1.7639771E+002
  0
TEXT
  5
11d
100
AcDbEntity
  8
1
100
AcDbText
  6
CONTINUOUS
 62
1
 10
1.1876806E+002
 20
1.7689871E+002
 40
3.0
  1
5
 41
8.0E-001
 50
3.6E+002
100
AcDbText
  0
INSERT
  5
11e
100
AcDbEntity
100
AcDbBlockReference
  2
_AH2
  8
1
 62
1
 10
1.2246806E+002
 20
1.7639771E+002
 41
1.5
 42
1.5
 43
1.5
 50
0.0
  0
INSERT
  5
11f
100
AcDbEntity
100
AcDbBlockReference
  2
_AH2
  8
1
 62
1
 10
1.1746806E+002
 20
1.7639771E+002
 41
1.5
 42
1.5
 43
1.5
 50
1.8E+002
  0
ENDBLK
  5
120
100
AcDbEntity
100
AcDbBlockEnd
  0
BLOCK
  5
121
100
AcDbEntity
100
AcDbBlockBegin
  2
*D720
  3
*D
 10
0.0
 20
0.0
 70
65
  0
LINE
  5
122
100
AcDbEntity
  8
1
100
AcDbLine
  6
CONTINUOUS
 62
1
 10
6.9793062E+001
 20
1.126423E+002
 11
6.9793062E+001
 21
9.6723645E+001
  0
LINE
  5
123
100
AcDbEntity
  8
1
100
AcDbLine
  6
CONTINUOUS
 62
1
 10
6.9793062E+001
 20
9.7323645E+001
 11
7.7293062E+001
 21
9.7323645E+001
  0
LINE
  5
124
100
AcDbEntity
  8
1
100
AcDbLine
  6
CONTINUOUS
 62
1
 10
8.4793062E+001
 20
9.7323645E+001
 11
7.7293062E+001
 21
9.7323645E+001
  0
TEXT
  5
125
100
AcDbEntity
  8
1
100
AcDbText
  6
CONTINUOUS
 62
1
 10
7.4893062E+001
 20
9.7824645E+001
 40
3.0
  1
15
 41
8.0E-001
100
AcDbText
  0
INSERT
  5
126
100
AcDbEntity
100
AcDbBlockReference
  2
_AH2
  8
1
 62
1
 10
6.9793062E+001
 20
9.7323645E+001
 41
1.5
 42
1.5
 43
1.5
 50
1.8E+002
  0
INSERT
  5
127
100
AcDbEntity
100
AcDbBlockReference
  2
_AH2
  8
1
 62
1
 10
8.4793062E+001
 20
9.7323645E+001
 41
1.5
 42
1.5
 43
1.5
 50
0.0
  0
ENDBLK
  5
128
100
AcDbEntity
100
AcDbBlockEnd
  0
BLOCK
  5
129
100
AcDbEntity
100
AcDbBlockBegin
  2
*D721
  3
*D
 10
0.0
 20
0.0
 70
65
  0
LINE
  5
12a
100
AcDbEntity
  8
1
100
AcDbLine
  6
CONTINUOUS
 62
1
 10
8.4793062E+001
 20
1.1976745E+002
 11
8.4793062E+001
 21
9.6723645E+001
  0
LINE
  5
12b
100
AcDbEntity
  8
1
100
AcDbLine
  6
CONTINUOUS
 62
1
 10
8.4793062E+001
 20
9.7323645E+001
 11
1.0729306E+002
 21
9.7323645E+001
  0
LINE
  5
12c
100
AcDbEntity
  8
1
100
AcDbLine
  6
CONTINUOUS
 62
1
 10
1.2979306E+002
 20
9.7323645E+001
 11
1.0729306E+002
 21
9.7323645E+001
  0
TEXT
  5
12d
100
AcDbEntity
  8
1
100
AcDbText
  6
CONTINUOUS
 62
1
 10
1.0489306E+002
 20
9.7824645E+001
 40
3.0
  1
45
 41
8.0E-001
100
AcDbText
  0
INSERT
  5
12e
100
AcDbEntity
100
AcDbBlockReference
  2
_AH2
  8
1
 62
1
 10
8.4793062E+001
 20
9.7323645E+001
 41
1.5
 42
1.5
 43
1.5
 50
1.8E+002
  0
INSERT
  5
12f
100
AcDbEntity
100
AcDbBlockReference
  2
_AH2
  8
1
 62
1
 10
1.2979306E+002
 20
9.7323645E+001
 41
1.5
 42
1.5
 43
1.5
 50
0.0
  0
ENDBLK
  5
130
100
AcDbEntity
100
AcDbBlockEnd
  0
BLOCK
  5
131
100
AcDbEntity
100
AcDbBlockBegin
  2
*D722
  3
*D
 10
0.0
 20
0.0
 70
65
  0
LINE
  5
132
100
AcDbEntity
  8
1
100
AcDbLine
  6
CONTINUOUS
 62
1
 10
1.2979306E+002
 20
1.1956691E+002
 11
1.2979306E+002
 21
9.6723645E+001
  0
LINE
  5
133
100
AcDbEntity
  8
1
100
AcDbLine
  6
CONTINUOUS
 62
1
 10
1.4479306E+002
 20
1.126423E+002
 11
1.4479306E+002
 21
9.6723645E+001
  0
LINE
  5
134
100
AcDbEntity
  8
1
100
AcDbLine
  6
CONTINUOUS
 62
1
 10
1.2979306E+002
 20
9.7323645E+001
 11
1.3729306E+002
 21
9.7323645E+001
  0
LINE
  5
135
100
AcDbEntity
  8
1
100
AcDbLine
  6
CONTINUOUS
 62
1
 10
1.4479306E+002
 20
9.7323645E+001
 11
1.3729306E+002
 21
9.7323645E+001
  0
TEXT
  5
136
100
AcDbEntity
  8
1
100
AcDbText
  6
CONTINUOUS
 62
1
 10
1.3489306E+002
 20
9.7824645E+001
 40
3.0
  1
15
 41
8.0E-001
100
AcDbText
  0
INSERT
  5
137
100
AcDbEntity
100
AcDbBlockReference
  2
_AH2
  8
1
 62
1
 10
1.2979306E+002
 20
9.7323645E+001
 41
1.5
 42
1.5
 43
1.5
 50
1.8E+002
  0
INSERT
  5
138
100
AcDbEntity
100
AcDbBlockReference
  2
_AH2
  8
1
 62
1
 10
1.4479306E+002
 20
9.7323645E+001
 41
1.5
 42
1.5
 43
1.5
 50
0.0
  0
ENDBLK
  5
139
100
AcDbEntity
100
AcDbBlockEnd
  0
BLOCK
  5
13a
100
AcDbEntity
100
AcDbBlockBegin
  2
*D725
  3
*D
 10
0.0
 20
0.0
 70
65
  0
LINE
  5
13b
100
AcDbEntity
  8
1
100
AcDbLine
  6
CONTINUOUS
 62
1
 10
1.9927782E+002
 20
4.7261122E+001
 11
1.9105816E+002
 21
4.7261122E+001
  0
LINE
  5
13c
100
AcDbEntity
  8
1
100
AcDbLine
  6
CONTINUOUS
 62
1
 10
2.2927782E+002
 20
4.1261122E+001
 11
1.9105816E+002
 21
4.1261122E+001
  0
LINE
  5
13d
100
AcDbEntity
  8
1
100
AcDbLine
  6
CONTINUOUS
 62
1
 10
1.9165816E+002
 20
4.7261122E+001
 11
1.9165816E+002
 21
4.4261122E+001
  0
LINE
  5
13e
100
AcDbEntity
  8
1
100
AcDbLine
  6
CONTINUOUS
 62
1
 10
1.9165816E+002
 20
4.1261122E+001
 11
1.9165816E+002
 21
4.4261122E+001
  0
TEXT
  5
13f
100
AcDbEntity
  8
1
100
AcDbText
  6
CONTINUOUS
 62
1
 10
1.9115716E+002
 20
4.3061122E+001
 40
3.0
  1
6
 41
8.0E-001
 50
9.0E+001
100
AcDbText
  0
INSERT
  5
140
100
AcDbEntity
100
AcDbBlockReference
  2
_AH2
  8
1
 62
1
 10
1.9165816E+002
 20
4.7261122E+001
 41
1.5
 42
1.5
 43
1.5
 50
9.0E+001
  0
INSERT
  5
141
100
AcDbEntity
100
AcDbBlockReference
  2
_AH2
  8
1
 62
1
 10
1.9165816E+002
 20
4.1261122E+001
 41
1.5
 42
1.5
 43
1.5
 50
2.7E+002
  0
ENDBLK
  5
142
100
AcDbEntity
100
AcDbBlockEnd
  0
BLOCK
  5
143
100
AcDbEntity
100
AcDbBlockBegin
  2
*D726
  3
*D
 10
0.0
 20
0.0
 70
65
  0
LINE
  5
144
100
AcDbEntity
  8
1
100
AcDbLine
  6
CONTINUOUS
 62
1
 10
1.9927782E+002
 20
7.1261122E+001
 11
1.8328607E+002
 21
7.1261122E+001
  0
LINE
  5
145
100
AcDbEntity
  8
1
100
AcDbLine
  6
CONTINUOUS
 62
1
 10
2.2927782E+002
 20
4.1261122E+001
 11
1.8328607E+002
 21
4.1261122E+001
  0
LINE
  5
146
100
AcDbEntity
  8
1
100
AcDbLine
  6
CONTINUOUS
 62
1
 10
1.8388607E+002
 20
7.1261122E+001
 11
1.8388607E+002
 21
5.6261122E+001
  0
LINE
  5
147
100
AcDbEntity
  8
1
100
AcDbLine
  6
CONTINUOUS
 62
1
 10
1.8388607E+002
 20
4.1261122E+001
 11
1.8388607E+002
 21
5.6261122E+001
  0
TEXT
  5
148
100
AcDbEntity
  8
1
100
AcDbText
  6
CONTINUOUS
 62
1
 10
1.8338507E+002
 20
5.3861122E+001
 40
3.0
  1
30
 41
8.0E-001
 50
9.0E+001
100
AcDbText
  0
INSERT
  5
149
100
AcDbEntity
100
AcDbBlockReference
  2
_AH2
  8
1
 62
1
 10
1.8388607E+002
 20
7.1261122E+001
 41
1.5
 42
1.5
 43
1.5
 50
9.0E+001
  0
INSERT
  5
14a
100
AcDbEntity
100
AcDbBlockReference
  2
_AH2
  8
1
 62
1
 10
1.8388607E+002
 20
4.1261122E+001
 41
1.5
 42
1.5
 43
1.5
 50
2.7E+002
  0
ENDBLK
  5
14b
100
AcDbEntity
100
AcDbBlockEnd
  0
BLOCK
  5
14c
100
AcDbEntity
100
AcDbBlockBegin
  2
*D727
  3
*D
 10
0.0
 20
0.0
 70
65
  0
LINE
  5
14d
100
AcDbEntity
  8
1
100
AcDbLine
  6
CONTINUOUS
 62
1
 10
1.9977782E+002
 20
4.6761122E+001
 11
1.9977782E+002
 21
3.1708604E+001
  0
LINE
  5
14e
100
AcDbEntity
  8
1
100
AcDbLine
  6
CONTINUOUS
 62
1
 10
2.2977782E+002
 20
4.0761122E+001
 11
2.2977782E+002
 21
3.1708604E+001
  0
LINE
  5
14f
100
AcDbEntity
  8
1
100
AcDbLine
  6
CONTINUOUS
 62
1
 10
1.9977782E+002
 20
3.2308604E+001
 11
2.1477782E+002
 21
3.2308604E+001
  0
LINE
  5
150
100
AcDbEntity
  8
1
100
AcDbLine
  6
CONTINUOUS
 62
1
 10
2.2977782E+002
 20
3.2308604E+001
 11
2.1477782E+002
 21
3.2308604E+001
  0
TEXT
  5
151
100
AcDbEntity
  8
1
100
AcDbText
  6
CONTINUOUS
 62
1
 10
2.1237782E+002
 20
3.2809604E+001
 40
3.0
  1
30
 41
8.0E-001
100
AcDbText
  0
INSERT
  5
152
100
AcDbEntity
100
AcDbBlockReference
  2
_AH2
  8
1
 62
1
 10
1.9977782E+002
 20
3.2308604E+001
 41
1.5
 42
1.5
 43
1.5
 50
1.8E+002
  0
INSERT
  5
153
100
AcDbEntity
100
AcDbBlockReference
  2
_AH2
  8
1
 62
1
 10
2.2977782E+002
 20
3.2308604E+001
 41
1.5
 42
1.5
 43
1.5
 50
0.0
  0
ENDBLK
  5
154
100
AcDbEntity
100
AcDbBlockEnd
  0
BLOCK
  5
155
100
AcDbEntity
100
AcDbBlockBegin
  2
*D847
  3
*D
 10
0.0
 20
0.0
 70
65
  0
LINE
  5
156
100
AcDbEntity
  8
1
100
AcDbLine
  6
CONTINUOUS
 62
1
 10
7.5293062E+001
 20
7.0761122E+001
 11
7.5293062E+001
 21
8.4554013E+001
  0
LINE
  5
157
100
AcDbEntity
  8
1
100
AcDbLine
  6
CONTINUOUS
 62
1
 10
9.4293062E+001
 20
7.0761122E+001
 11
9.4293062E+001
 21
8.4554013E+001
  0
LINE
  5
158
100
AcDbEntity
  8
1
100
AcDbLine
  6
CONTINUOUS
 62
1
 10
7.5293062E+001
 20
8.4054013E+001
 11
8.4793062E+001
 21
8.4054013E+001
  0
LINE
  5
159
100
AcDbEntity
  8
1
100
AcDbLine
  6
CONTINUOUS
 62
1
 10
9.4293062E+001
 20
8.4054013E+001
 11
8.4793062E+001
 21
8.4054013E+001
  0
TEXT
  5
15a
100
AcDbEntity
  8
1
100
AcDbText
  6
CONTINUOUS
 62
1
 10
8.1193062E+001
 20
8.4555013E+001
 40
3.0
  1
%%c19
 41
8.0E-001
100
AcDbText
  0
INSERT
  5
15b
100
AcDbEntity
100
AcDbBlockReference
  2
_AH2
  8
1
 62
1
 10
7.5293062E+001
 20
8.4054013E+001
 41
1.5
 42
1.5
 43
1.5
 50
1.8E+002
  0
INSERT
  5
15c
100
AcDbEntity
100
AcDbBlockReference
  2
_AH2
  8
1
 62
1
 10
9.4293062E+001
 20
8.4054013E+001
 41
1.5
 42
1.5
 43
1.5
 50
0.0
  0
ENDBLK
  5
15d
100
AcDbEntity
100
AcDbBlockEnd
  0
BLOCK
  5
15e
100
AcDbEntity
100
AcDbBlockBegin
  2
*D850
  3
*D
 10
0.0
 20
0.0
 70
65
  0
LINE
  5
15f
100
AcDbEntity
  8
1
100
AcDbLine
  6
CONTINUOUS
 62
1
 10
6.9293062E+001
 20
7.1261122E+001
 11
5.8453178E+001
 21
7.1261122E+001
  0
LINE
  5
160
100
AcDbEntity
  8
1
100
AcDbLine
  6
CONTINUOUS
 62
1
 10
7.4793062E+001
 20
5.9761122E+001
 11
5.8453178E+001
 21
5.9761122E+001
  0
LINE
  5
161
100
AcDbEntity
  8
1
100
AcDbLine
  6
CONTINUOUS
 62
1
 10
5.8953178E+001
 20
5.9761122E+001
 11
5.8953178E+001
 21
7.1261122E+001
  0
LINE
  5
162
100
AcDbEntity
  8
1
100
AcDbLine
  6
CONTINUOUS
 62
1
 10
5.8953178E+001
 20
7.1261122E+001
 11
5.8953178E+001
 21
8.7322455E+001
  0
TEXT
  5
163
100
AcDbEntity
  8
1
100
AcDbText
  6
CONTINUOUS
 62
1
 10
5.8452178E+001
 20
7.6222455E+001
 40
3.0
  1
11.5
 41
8.0E-001
 50
9.0E+001
100
AcDbText
  0
INSERT
  5
164
100
AcDbEntity
100
AcDbBlockReference
  2
_AH2
  8
1
 62
1
 10
5.8953178E+001
 20
7.1261122E+001
 41
1.5
 42
1.5
 43
1.5
 50
9.0E+001
  0
INSERT
  5
165
100
AcDbEntity
100
AcDbBlockReference
  2
_AH2
  8
1
 62
1
 10
5.8953178E+001
 20
5.9761122E+001
 41
1.5
 42
1.5
 43
1.5
 50
2.7E+002
  0
ENDBLK
  5
166
100
AcDbEntity
100
AcDbBlockEnd
  0
BLOCK
  5
167
100
AcDbEntity
100
AcDbBlockBegin
  2
*D851
  3
*D
 10
0.0
 20
0.0
 70
65
  0
LINE
  5
168
100
AcDbEntity
  8
1
100
AcDbLine
  6
CONTINUOUS
 62
1
 10
8.0293062E+001
 20
4.6761122E+001
 11
8.0293062E+001
 21
3.1858684E+001
  0
LINE
  5
169
100
AcDbEntity
  8
1
100
AcDbLine
  6
CONTINUOUS
 62
1
 10
8.9293062E+001
 20
4.6761122E+001
 11
8.9293062E+001
 21
3.1858684E+001
  0
LINE
  5
16a
100
AcDbEntity
  8
1
100
AcDbLine
  6
CONTINUOUS
 62
1
 10
8.9293062E+001
 20
3.2358684E+001
 11
8.0293062E+001
 21
3.2358684E+001
  0
LINE
  5
16b
100
AcDbEntity
  8
1
100
AcDbLine
  6
CONTINUOUS
 62
1
 10
8.9293062E+001
 20
3.2358684E+001
 11
1.0005463E+002
 21
3.2358684E+001
  0
TEXT
  5
16c
100
AcDbEntity
  8
1
100
AcDbText
  6
CONTINUOUS
 62
1
 10
9.3754633E+001
 20
3.2859684E+001
 40
3.0
  1
%%c9
 41
8.0E-001
100
AcDbText
  0
INSERT
  5
16d
100
AcDbEntity
100
AcDbBlockReference
  2
_AH2
  8
1
 62
1
 10
8.0293062E+001
 20
3.2358684E+001
 41
1.5
 42
1.5
 43
1.5
 50
1.8E+002
  0
INSERT
  5
16e
100
AcDbEntity
100
AcDbBlockReference
  2
_AH2
  8
1
 62
1
 10
8.9293062E+001
 20
3.2358684E+001
 41
1.5
 42
1.5
 43
1.5
 50
0.0
  0
ENDBLK
  5
16f
100
AcDbEntity
100
AcDbBlockEnd
  0
BLOCK
  5
170
100
AcDbEntity
100
AcDbBlockBegin
  2
*D852
  3
*D
 10
0.0
 20
0.0
 70
65
  0
LINE
  5
171
100
AcDbEntity
  8
1
100
AcDbLine
  6
CONTINUOUS
 62
1
 10
1.9927782E+002
 20
4.7261122E+001
 11
1.9115816E+002
 21
4.7261122E+001
  0
LINE
  5
172
100
AcDbEntity
  8
1
100
AcDbLine
  6
CONTINUOUS
 62
1
 10
1.9165816E+002
 20
7.1261122E+001
 11
1.9165816E+002
 21
5.9261122E+001
  0
LINE
  5
173
100
AcDbEntity
  8
1
100
AcDbLine
  6
CONTINUOUS
 62
1
 10
1.9165816E+002
 20
4.7261122E+001
 11
1.9165816E+002
 21
5.9261122E+001
  0
TEXT
  5
174
100
AcDbEntity
  8
1
100
AcDbText
  6
CONTINUOUS
 62
1
 10
1.9115716E+002
 20
5.6861122E+001
 40
3.0
  1
24
 41
8.0E-001
 50
9.0E+001
100
AcDbText
  0
INSERT
  5
175
100
AcDbEntity
100
AcDbBlockReference
  2
_AH2
  8
1
 62
1
 10
1.9165816E+002
 20
7.1261122E+001
 41
1.5
 42
1.5
 43
1.5
 50
9.0E+001
  0
INSERT
  5
176
100
AcDbEntity
100
AcDbBlockReference
  2
_AH2
  8
1
 62
1
 10
1.9165816E+002
 20
4.7261122E+001
 41
1.5
 42
1.5
 43
1.5
 50
2.7E+002
  0
ENDBLK
  5
177
100
AcDbEntity
100
AcDbBlockEnd
  0
BLOCK
  5
178
100
AcDbEntity
100
AcDbBlockBegin
  2
*D853
  3
*D
 10
0.0
 20
0.0
 70
65
  0
LINE
  5
179
100
AcDbEntity
  8
1
100
AcDbLine
  6
CONTINUOUS
 62
1
 10
2.3784525E+002
 20
5.7386005E+001
 11
2.547104E+002
 21
6.6136239E+001
  0
LINE
  5
17a
100
AcDbEntity
  8
1
100
AcDbLine
  6
CONTINUOUS
 62
1
 10
2.547104E+002
 20
6.6136239E+001
 11
2.6076603E+002
 21
6.9278115E+001
  0
LINE
  5
17b
100
AcDbEntity
  8
1
100
AcDbLine
  6
CONTINUOUS
 62
1
 10
2.3784525E+002
 20
5.7386005E+001
 11
2.3906157E+002
 21
5.8298723E+001
  0
LINE
  5
17c
100
AcDbEntity
  8
1
100
AcDbLine
  6
CONTINUOUS
 62
1
 10
2.3784525E+002
 20
5.7386005E+001
 11
2.3929184E+002
 21
5.7854903E+001
  0
LINE
  5
17d
100
AcDbEntity
  8
1
100
AcDbLine
  6
CONTINUOUS
 62
1
 10
2.7096603E+002
 20
6.9278115E+001
 11
2.6076603E+002
 21
6.9278115E+001
  0
TEXT
  5
17e
100
AcDbEntity
  8
1
100
AcDbText
  6
CONTINUOUS
 62
1
 10
2.6226603E+002
 20
7.0778115E+001
 40
3.0
  1
%%c19
 41
8.0E-001
100
AcDbText
  0
INSERT
  5
17f
100
AcDbEntity
100
AcDbBlockReference
  2
_AH2
  8
1
 62
1
 10
2.547104E+002
 20
6.6136239E+001
 41
1.5
 42
1.5
 43
1.5
 50
2.7421871E+001
  0
INSERT
  5
180
100
AcDbEntity
100
AcDbBlockReference
  2
_AH2
  8
1
 62
1
 10
2.3784525E+002
 20
5.7386005E+001
 41
1.5
 42
1.5
 43
1.5
 50
2.0742187E+002
  0
ENDBLK
  5
181
100
AcDbEntity
100
AcDbBlockEnd
  0
ENDSEC
  0
SECTION
  2
ENTITIES
  0
DIMENSION
  5
182
100
AcDbEntity
  8
1
100
AcDbDimension
  6
CONTINUOUS
 62
1
  2
*D555
  3
DSTYLE1
 10
2.5527782E+002
 20
2.3302693E+001
 11
2.2752782E+002
 21
2.5303693E+001
 70
128
100
AcDbAlignedDimension
 13
1.9977782E+002
 23
4.7261122E+001
 14
2.5527782E+002
 24
6.1561122E+001
 40
3.0
 50
0.0
100
AcDbRotatedDimension
1001
ACAD
1000
DSTYLE
1002
{
1070
173
1070
0
1070
5
1000
_AH2
1002
}
  0
LINE
  5
183
100
AcDbEntity
  8
1
100
AcDbLine
  6
CONTINUOUS
 62
7
 10
1.4479306E+002
 20
1.131423E+002
 11
6.9793062E+001
 21
1.131423E+002
  0
LINE
  5
184
100
AcDbEntity
  8
1
100
AcDbLine
  6
CONTINUOUS
 62
7
 10
1.4479306E+002
 20
1.676423E+002
 11
1.4479306E+002
 21
1.131423E+002
  0
LINE
  5
185
100
AcDbEntity
  8
1
100
AcDbLine
  6
CONTINUOUS
 62
7
 10
1.4479306E+002
 20
1.676423E+002
 11
1.2764306E+002
 21
1.676423E+002
  0
LINE
  5
186
100
AcDbEntity
  8
1
100
AcDbLine
  6
CONTINUOUS
 62
7
 10
1.2764306E+002
 20
1.486423E+002
 11
1.2764306E+002
 21
1.676423E+002
  0
LINE
  5
187
100
AcDbEntity
  8
1
100
AcDbLine
  6
CONTINUOUS
 62
7
 10
8.6943062E+001
 20
1.486423E+002
 11
1.2764306E+002
 21
1.486423E+002
  0
LINE
  5
188
100
AcDbEntity
  8
1
100
AcDbLine
  6
CONTINUOUS
 62
7
 10
8.6943062E+001
 20
1.486423E+002
 11
8.6943062E+001
 21
1.676423E+002
  0
LINE
  5
189
100
AcDbEntity
  8
1
100
AcDbLine
  6
CONTINUOUS
 62
7
 10
6.9793062E+001
 20
1.676423E+002
 11
8.6943062E+001
 21
1.676423E+002
  0
LINE
  5
18a
100
AcDbEntity
  8
1
100
AcDbLine
  6
CONTINUOUS
 62
7
 10
1.1232806E+002
 20
1.516423E+002
 11
1.1232806E+002
 21
1.666423E+002
  0
LINE
  5
18b
100
AcDbEntity
  8
1
100
AcDbLine
  6
CONTINUOUS
 62
7
 10
1.1239806E+002
 20
1.501423E+002
 11
1.1239806E+002
 21
1.681423E+002
  0
LINE
  5
18c
100
AcDbEntity
  8
1
100
AcDbLine
  6
CONTINUOUS
 62
7
 10
1.1739806E+002
 20
1.501423E+002
 11
1.1739806E+002
 21
1.681423E+002
  0
LINE
  5
18d
100
AcDbEntity
  8
1
100
AcDbLine
  6
CONTINUOUS
 62
7
 10
1.2253806E+002
 20
1.5160221E+002
 11
1.2253806E+002
 21
1.6660221E+002
  0
LINE
  5
18e
100
AcDbEntity
  8
1
100
AcDbLine
  6
CONTINUOUS
 62
7
 10
1.2753806E+002
 20
1.5160221E+002
 11
1.2753806E+002
 21
1.6660221E+002
  0
LINE
  5
18f
100
AcDbEntity
  8
1
100
AcDbLine
  6
CONTINUOUS
 62
7
 10
1.1746806E+002
 20
1.501423E+002
 11
1.1746806E+002
 21
1.681423E+002
  0
LINE
  5
190
100
AcDbEntity
  8
1
100
AcDbLine
  6
CONTINUOUS
 62
7
 10
1.2246806E+002
 20
1.501423E+002
 11
1.2246806E+002
 21
1.681423E+002
  0
LINE
  5
191
100
AcDbEntity
  8
1
100
AcDbLine
  6
CONTINUOUS
 62
7
 10
1.0732806E+002
 20
1.666423E+002
 11
1.1232806E+002
 21
1.666423E+002
  0
LINE
  5
192
100
AcDbEntity
  8
1
100
AcDbLine
  6
CONTINUOUS
 62
7
 10
1.0732806E+002
 20
1.516423E+002
 11
1.1232806E+002
 21
1.516423E+002
  0
LINE
  5
193
100
AcDbEntity
  8
1
100
AcDbLine
  6
CONTINUOUS
 62
7
 10
1.2253806E+002
 20
1.6660221E+002
 11
1.2753806E+002
 21
1.6660221E+002
  0
LINE
  5
194
100
AcDbEntity
  8
1
100
AcDbLine
  6
CONTINUOUS
 62
7
 10
1.2253806E+002
 20
1.5160221E+002
 11
1.2753806E+002
 21
1.5160221E+002
  0
ARC
  5
195
100
AcDbEntity
  8
1
100
AcDbCircle
  6
CONTINUOUS
 62
7
 10
1.2196806E+002
 20
1.501423E+002
 40
5.0E-001
100
AcDbArc
 50
2.7E+002
 51
3.6E+002
  0
LINE
  5
196
100
AcDbEntity
  8
1
100
AcDbLine
  6
CONTINUOUS
 62
7
 10
1.1796806E+002
 20
1.496423E+002
 11
1.2196806E+002
 21
1.496423E+002
  0
LINE
  5
197
100
AcDbEntity
  8
1
100
AcDbLine
  6
CONTINUOUS
 62
7
 10
1.1289806E+002
 20
1.496423E+002
 11
1.1689806E+002
 21
1.496423E+002
  0
ARC
  5
198
100
AcDbEntity
  8
1
100
AcDbCircle
  6
CONTINUOUS
 62
7
 10
1.1289806E+002
 20
1.501423E+002
 40
5.0E-001
100
AcDbArc
 50
1.8E+002
 51
2.7E+002
  0
ARC
  5
199
100
AcDbEntity
  8
1
100
AcDbCircle
  6
CONTINUOUS
 62
7
 10
1.1689806E+002
 20
1.501423E+002
 40
5.0E-001
100
AcDbArc
 50
2.7E+002
 51
3.6E+002
  0
ARC
  5
19a
100
AcDbEntity
  8
1
100
AcDbCircle
  6
CONTINUOUS
 62
7
 10
1.1796806E+002
 20
1.501423E+002
 40
5.0E-001
100
AcDbArc
 50
1.8E+002
 51
2.7E+002
  0
LINE
  5
19b
100
AcDbEntity
  8
1
100
AcDbLine
  6
CENTERLINE
 62
6
 10
1.4095973E+002
 20
1.311423E+002
 11
1.1879982E+002
 21
1.311423E+002
  0
LINE
  5
19c
100
AcDbEntity
  8
1
100
AcDbLine
  6
CENTERLINE
 62
6
 10
1.2979306E+002
 20
1.4212655E+002
 11
1.2979306E+002
 21
1.2006691E+002
  0
LINE
  5
19d
100
AcDbEntity
  8
1
100
AcDbLine
  6
CENTERLINE
 62
6
 10
8.4793062E+001
 20
1.2026745E+002
 11
8.4793062E+001
 21
1.4222683E+002
  0
CIRCLE
  5
19e
100
AcDbEntity
  8
1
100
AcDbCircle
  6
CONTINUOUS
 62
7
 10
8.4793062E+001
 20
1.311423E+002
 40
4.5
  0
CIRCLE
  5
19f
100
AcDbEntity
  8
1
100
AcDbCircle
  6
CONTINUOUS
 62
7
 10
8.4793062E+001
 20
1.311423E+002
 40
9.5
  0
CIRCLE
  5
1a0
100
AcDbEntity
  8
1
100
AcDbCircle
  6
CONTINUOUS
 62
7
 10
1.2979306E+002
 20
1.311423E+002
 40
4.5
  0
CIRCLE
  5
1a1
100
AcDbEntity
  8
1
100
AcDbCircle
  6
CONTINUOUS
 62
7
 10
1.2979306E+002
 20
1.311423E+002
 40
9.5
  0
LINE
  5
1a2
100
AcDbEntity
  8
1
100
AcDbLine
  6
CENTERLINE
 62
6
 10
9.5666972E+001
 20
1.311423E+002
 11
7.3908141E+001
 21
1.311423E+002
  0
LINE
  5
1a3
100
AcDbEntity
  8
1
100
AcDbLine
  6
HIDDEN
 62
7
 10
1.4479306E+002
 20
1.431423E+002
 11
6.9793062E+001
 21
1.431423E+002
  0
LINE
  5
1a4
100
AcDbEntity
  8
1
100
AcDbLine
  6
CONTINUOUS
 62
7
 10
6.9793062E+001
 20
1.676423E+002
 11
6.9793062E+001
 21
1.131423E+002
  0
LINE
  5
1a5
100
AcDbEntity
  8
1
100
AcDbLine
  6
CONTINUOUS
 62
7
 10
1.1796806E+002
 20
1.686423E+002
 11
1.2196806E+002
 21
1.686423E+002
  0
ARC
  5
1a6
100
AcDbEntity
  8
1
100
AcDbCircle
  6
CONTINUOUS
 62
7
 10
1.1796806E+002
 20
1.681423E+002
 40
5.0E-001
100
AcDbArc
 50
9.0E+001
 51
1.8E+002
  0
ARC
  5
1a7
100
AcDbEntity
  8
1
100
AcDbCircle
  6
CONTINUOUS
 62
7
 10
1.2196806E+002
 20
1.681423E+002
 40
5.0E-001
100
AcDbArc
 50
0.0
 51
9.0E+001
  0
LINE
  5
1a8
100
AcDbEntity
  8
1
100
AcDbLine
  6
CONTINUOUS
 62
7
 10
1.1289806E+002
 20
1.686423E+002
 11
1.1689806E+002
 21
1.686423E+002
  0
ARC
  5
1a9
100
AcDbEntity
  8
1
100
AcDbCircle
  6
CONTINUOUS
 62
7
 10
1.1689806E+002
 20
1.681423E+002
 40
5.0E-001
100
AcDbArc
 50
0.0
 51
9.0E+001
  0
ARC
  5
1aa
100
AcDbEntity
  8
1
100
AcDbCircle
  6
CONTINUOUS
 62
7
 10
1.1289806E+002
 20
1.681423E+002
 40
5.0E-001
100
AcDbArc
 50
9.0E+001
 51
1.8E+002
  0
DIMENSION
  5
1ab
100
AcDbEntity
  8
1
100
AcDbDimension
  6
CONTINUOUS
 62
1
  2
*D697
  3
DSTYLE2
 10
6.9793062E+001
 20
1.8675499E+002
 11
1.0729306E+002
 21
1.8875599E+002
 70
128
100
AcDbAlignedDimension
 13
1.4479306E+002
 23
1.676423E+002
 14
6.9793062E+001
 24
1.676423E+002
 40
3.0
 50
0.0
100
AcDbRotatedDimension
1001
ACAD
1000
DSTYLE
1002
{
1070
173
1070
0
1070
5
1000
_AH2
1002
}
  0
DIMENSION
  5
1ac
100
AcDbEntity
  8
1
100
AcDbDimension
  6
CONTINUOUS
 62
1
  2
*D698
  3
DSTYLE1
 10
1.6389333E+002
 20
1.676423E+002
 11
1.6189233E+002
 21
1.403923E+002
 70
128
100
AcDbAlignedDimension
 13
1.4479306E+002
 23
1.131423E+002
 14
1.4479306E+002
 24
1.676423E+002
 40
3.0
 50
9.0E+001
100
AcDbRotatedDimension
1001
ACAD
1000
DSTYLE
1002
{
1070
173
1070
0
1070
5
1000
_AH2
1002
}
  0
DIMENSION
  5
1ad
100
AcDbEntity
  8
1
100
AcDbDimension
  6
CONTINUOUS
 62
1
  2
*D699
  3
DSTYLE2
 10
1.4033305E+002
 20
1.496423E+002
 11
1.3833205E+002
 21
1.7928689E+002
 70
128
100
AcDbAlignedDimension
 13
1.2196806E+002
 23
1.686423E+002
 14
1.2196806E+002
 24
1.496423E+002
 40
3.0
 50
9.0E+001
100
AcDbRotatedDimension
1001
ACAD
1000
DSTYLE
1002
{
1070
173
1070
0
1070
5
1000
_AH2
1002
}
  0
DIMENSION
  5
1ae
100
AcDbEntity
  8
1
100
AcDbDimension
  6
CONTINUOUS
 62
1
  2
*D700
  3
DSTYLE2
 10
1.1746806E+002
 20
1.7639771E+002
 11
1.1996806E+002
 21
1.7839871E+002
 70
128
100
AcDbAlignedDimension
 13
1.2246806E+002
 23
1.681423E+002
 14
1.1746806E+002
 24
1.681423E+002
 40
3.0
 50
0.0
100
AcDbRotatedDimension
1001
ACAD
1000
DSTYLE
1002
{
1070
173
1070
0
1070
5
1000
_AH2
1002
}
  0
LINE
  5
1af
100
AcDbEntity
  8
1
100
AcDbLine
  6
CONTINUOUS
 62
7
 10
8.0079808E+001
 20
1.4488731E+002
 11
6.9793062E+001
 21
1.3454946E+002
  0
LINE
  5
1b0
100
AcDbEntity
  8
1
100
AcDbLine
  6
CONTINUOUS
 62
7
 10
7.832763E+001
 20
1.4725275E+002
 11
8.0079808E+001
 21
1.4488731E+002
  0
LINE
  5
1b1
100
AcDbEntity
  8
1
100
AcDbLine
  6
CONTINUOUS
 62
7
 10
8.1229124E+001
 20
1.5299014E+002
 11
7.832763E+001
 21
1.4725275E+002
  0
LINE
  5
1b2
100
AcDbEntity
  8
1
100
AcDbLine
  6
CONTINUOUS
 62
7
 10
7.9960035E+001
 20
1.5674452E+002
 11
8.1229124E+001
 21
1.5299014E+002
  0
LINE
  5
1b3
100
AcDbEntity
  8
1
100
AcDbLine
  6
CONTINUOUS
 62
7
 10
8.1468426E+001
 20
1.5944198E+002
 11
7.9960035E+001
 21
1.5674452E+002
  0
LINE
  5
1b4
100
AcDbEntity
  8
1
100
AcDbLine
  6
CONTINUOUS
 62
7
 10
8.0251982E+001
 20
1.6282675E+002
 11
8.1468426E+001
 21
1.5944198E+002
  0
LINE
  5
1b5
100
AcDbEntity
  8
1
100
AcDbLine
  6
CONTINUOUS
 62
7
 10
8.1711715E+001
 20
1.6545427E+002
 11
8.0251982E+001
 21
1.6282675E+002
  0
LINE
  5
1b6
100
AcDbEntity
  8
1
100
AcDbLine
  6
CONTINUOUS
 62
7
 10
8.0676692E+001
 20
1.676423E+002
 11
8.1692185E+001
 21
1.6541911E+002
  0
LINE
  5
1b7
100
AcDbEntity
  8
1
100
AcDbLine
  6
CONTINUOUS
 62
7
 10
8.1260621E+001
 20
1.646423E+002
 11
6.9793062E+001
 21
1.646423E+002
  0
LINE
  5
1b8
100
AcDbEntity
  8
1
100
AcDbLine
  6
CONTINUOUS
 62
7
 10
8.0670647E+001
 20
1.546423E+002
 11
6.9793062E+001
 21
1.546423E+002
  0
LINE
  5
1b9
100
AcDbEntity
  8
1
100
AcDbLine
  6
CONTINUOUS
 62
7
 10
6.9793062E+001
 20
1.641423E+002
 11
6.9793062E+001
 21
1.551423E+002
  0
LINE
  5
1ba
100
AcDbEntity
  8
1
100
AcDbLine
  6
CONTINUOUS
 62
7
 10
7.0293062E+001
 20
1.646423E+002
 11
6.9793062E+001
 21
1.641423E+002
  0
LINE
  5
1bb
100
AcDbEntity
  8
1
100
AcDbLine
  6
CONTINUOUS
 62
7
 10
6.9793062E+001
 20
1.551423E+002
 11
7.0293062E+001
 21
1.546423E+002
  0
LINE
  5
1bc
100
AcDbEntity
  8
1
100
AcDbLine
  6
CONTINUOUS
 62
7
 10
7.0293062E+001
 20
1.646423E+002
 11
7.0293062E+001
 21
1.546423E+002
  0
LINE
  5
1bd
100
AcDbEntity
  8
1
100
AcDbLine
  6
CENTERLINE
 62
6
 10
6.4651448E+001
 20
1.5910221E+002
 11
1.4937171E+002
 21
1.5910221E+002
  0
DIMENSION
  5
1be
100
AcDbEntity
  8
1
100
AcDbDimension
  6
CONTINUOUS
 62
1
  2
*D720
  3
DSTYLE3
 10
8.4793062E+001
 20
9.7323645E+001
 11
7.7293062E+001
 21
9.9324645E+001
 70
128
100
AcDbAlignedDimension
 13
6.9793062E+001
 23
1.131423E+002
 14
8.4793062E+001
 24
1.2026745E+002
 40
3.0
 50
0.0
100
AcDbRotatedDimension
1001
ACAD
1000
DSTYLE
1002
{
1070
173
1070
0
1070
5
1000
_AH2
1002
}
  0
DIMENSION
  5
1bf
100
AcDbEntity
  8
1
100
AcDbDimension
  6
CONTINUOUS
 62
1
  2
*D721
  3
DSTYLE3
 10
1.2979306E+002
 20
9.7323645E+001
 11
1.0729306E+002
 21
9.9324645E+001
 70
128
100
AcDbAlignedDimension
 13
8.4793062E+001
 23
1.2026745E+002
 14
1.2979306E+002
 24
1.2006691E+002
 40
3.0
 50
0.0
100
AcDbRotatedDimension
1001
ACAD
1000
DSTYLE
1002
{
1070
173
1070
0
1070
5
1000
_AH2
1002
}
  0
DIMENSION
  5
1c0
100
AcDbEntity
  8
1
100
AcDbDimension
  6
CONTINUOUS
 62
1
  2
*D722
  3
DSTYLE2
 10
1.4479306E+002
 20
9.7323645E+001
 11
1.3729306E+002
 21
9.9324645E+001
 70
128
100
AcDbAlignedDimension
 13
1.2979306E+002
 23
1.2006691E+002
 14
1.4479306E+002
 24
1.131423E+002
 40
3.0
 50
0.0
100
AcDbRotatedDimension
1001
ACAD
1000
DSTYLE
1002
{
1070
173
1070
0
1070
5
1000
_AH2
1002
}
  0
LINE
  5
1c1
100
AcDbEntity
  8
1
100
AcDbLine
  6
CONTINUOUS
 62
7
 10
2.2977782E+002
 20
4.1261122E+001
 11
2.4617782E+002
 21
4.1261122E+001
  0
LINE
  5
1c2
100
AcDbEntity
  8
1
100
AcDbLine
  6
CONTINUOUS
 62
7
 10
2.4617782E+002
 20
4.1261122E+001
 11
2.5348119E+002
 21
5.795306E+001
  0
DIMENSION
  5
1c3
100
AcDbEntity
  8
1
100
AcDbDimension
  6
CONTINUOUS
 62
1
  2
*D725
  3
DSTYLE2
 10
1.9165816E+002
 20
4.1261122E+001
 11
1.8965716E+002
 21
4.4261122E+001
 70
128
100
AcDbAlignedDimension
 13
1.9977782E+002
 23
4.7261122E+001
 14
2.2977782E+002
 24
4.1261122E+001
 40
3.0
 50
9.0E+001
100
AcDbRotatedDimension
1001
ACAD
1000
DSTYLE
1002
{
1070
173
1070
0
1070
5
1000
_AH2
1002
}
  0
DIMENSION
  5
1c4
100
AcDbEntity
  8
1
100
AcDbDimension
  6
CONTINUOUS
 62
1
  2
*D726
  3
DSTYLE2
 10
1.8388607E+002
 20
4.1261122E+001
 11
1.8188507E+002
 21
5.6261122E+001
 70
128
100
AcDbAlignedDimension
 13
1.9977782E+002
 23
7.1261122E+001
 14
2.2977782E+002
 24
4.1261122E+001
 40
3.0
 50
9.0E+001
100
AcDbRotatedDimension
1001
ACAD
1000
DSTYLE
1002
{
1070
173
1070
0
1070
5
1000
_AH2
1002
}
  0
DIMENSION
  5
1c5
100
AcDbEntity
  8
1
100
AcDbDimension
  6
CONTINUOUS
 62
1
  2
*D727
  3
DSTYLE2
 10
2.2977782E+002
 20
3.2308604E+001
 11
2.1477782E+002
 21
3.4309604E+001
 70
128
100
AcDbAlignedDimension
 13
1.9977782E+002
 23
4.7261122E+001
 14
2.2977782E+002
 24
4.1261122E+001
 40
3.0
 50
0.0
100
AcDbRotatedDimension
1001
ACAD
1000
DSTYLE
1002
{
1070
173
1070
0
1070
5
1000
_AH2
1002
}
  0
CIRCLE
  5
1c6
100
AcDbEntity
  8
1
100
AcDbCircle
  6
CONTINUOUS
 62
7
 10
2.4577782E+002
 20
6.1561122E+001
 40
4.975
  0
LINE
  5
1c7
100
AcDbEntity
  8
1
100
AcDbLine
  6
CONTINUOUS
 62
7
 10
1.0225806E+002
 20
1.516423E+002
 11
1.0225806E+002
 21
1.666423E+002
  0
LINE
  5
1c8
100
AcDbEntity
  8
1
100
AcDbLine
  6
CONTINUOUS
 62
7
 10
9.2048062E+001
 20
1.5160221E+002
 11
9.2048062E+001
 21
1.6660221E+002
  0
LINE
  5
1c9
100
AcDbEntity
  8
1
100
AcDbLine
  6
CONTINUOUS
 62
7
 10
8.7048062E+001
 20
1.5160221E+002
 11
8.7048062E+001
 21
1.6660221E+002
  0
LINE
  5
1ca
100
AcDbEntity
  8
1
100
AcDbLine
  6
CONTINUOUS
 62
7
 10
1.0725806E+002
 20
1.666423E+002
 11
1.0225806E+002
 21
1.666423E+002
  0
LINE
  5
1cb
100
AcDbEntity
  8
1
100
AcDbLine
  6
CONTINUOUS
 62
7
 10
1.0725806E+002
 20
1.516423E+002
 11
1.0225806E+002
 21
1.516423E+002
  0
LINE
  5
1cc
100
AcDbEntity
  8
1
100
AcDbLine
  6
CONTINUOUS
 62
7
 10
9.2048062E+001
 20
1.6660221E+002
 11
8.7048062E+001
 21
1.6660221E+002
  0
LINE
  5
1cd
100
AcDbEntity
  8
1
100
AcDbLine
  6
CONTINUOUS
 62
7
 10
9.2048062E+001
 20
1.5160221E+002
 11
8.7048062E+001
 21
1.5160221E+002
  0
LINE
  5
1ce
100
AcDbEntity
  8
1
100
AcDbLine
  6
CONTINUOUS
 62
7
 10
1.0218806E+002
 20
1.501423E+002
 11
1.0218806E+002
 21
1.681423E+002
  0
LINE
  5
1cf
100
AcDbEntity
  8
1
100
AcDbLine
  6
CONTINUOUS
 62
7
 10
9.7188062E+001
 20
1.501423E+002
 11
9.7188062E+001
 21
1.681423E+002
  0
LINE
  5
1d0
100
AcDbEntity
  8
1
100
AcDbLine
  6
CONTINUOUS
 62
7
 10
9.7118062E+001
 20
1.501423E+002
 11
9.7118062E+001
 21
1.681423E+002
  0
LINE
  5
1d1
100
AcDbEntity
  8
1
100
AcDbLine
  6
CONTINUOUS
 62
7
 10
9.2118062E+001
 20
1.501423E+002
 11
9.2118062E+001
 21
1.681423E+002
  0
ARC
  5
1d2
100
AcDbEntity
  8
1
100
AcDbCircle
  6
CONTINUOUS
 62
7
 10
9.2618062E+001
 20
1.501423E+002
 40
5.0E-001
100
AcDbArc
 50
1.8E+002
 51
2.7E+002
  0
LINE
  5
1d3
100
AcDbEntity
  8
1
100
AcDbLine
  6
CONTINUOUS
 62
7
 10
9.6618062E+001
 20
1.496423E+002
 11
9.2618062E+001
 21
1.496423E+002
  0
LINE
  5
1d4
100
AcDbEntity
  8
1
100
AcDbLine
  6
CONTINUOUS
 62
7
 10
1.0168806E+002
 20
1.496423E+002
 11
9.7688062E+001
 21
1.496423E+002
  0
ARC
  5
1d5
100
AcDbEntity
  8
1
100
AcDbCircle
  6
CONTINUOUS
 62
7
 10
1.0168806E+002
 20
1.501423E+002
 40
5.0E-001
100
AcDbArc
 50
2.7E+002
 51
3.6E+002
  0
ARC
  5
1d6
100
AcDbEntity
  8
1
100
AcDbCircle
  6
CONTINUOUS
 62
7
 10
9.7688062E+001
 20
1.501423E+002
 40
5.0E-001
100
AcDbArc
 50
1.8E+002
 51
2.7E+002
  0
ARC
  5
1d7
100
AcDbEntity
  8
1
100
AcDbCircle
  6
CONTINUOUS
 62
7
 10
9.6618062E+001
 20
1.501423E+002
 40
5.0E-001
100
AcDbArc
 50
2.7E+002
 51
3.6E+002
  0
LINE
  5
1d8
100
AcDbEntity
  8
1
100
AcDbLine
  6
CONTINUOUS
 62
7
 10
9.6618062E+001
 20
1.686423E+002
 11
9.2618062E+001
 21
1.686423E+002
  0
ARC
  5
1d9
100
AcDbEntity
  8
1
100
AcDbCircle
  6
CONTINUOUS
 62
7
 10
9.6618062E+001
 20
1.681423E+002
 40
5.0E-001
100
AcDbArc
 50
0.0
 51
9.0E+001
  0
ARC
  5
1da
100
AcDbEntity
  8
1
100
AcDbCircle
  6
CONTINUOUS
 62
7
 10
9.2618062E+001
 20
1.681423E+002
 40
5.0E-001
100
AcDbArc
 50
9.0E+001
 51
1.8E+002
  0
LINE
  5
1db
100
AcDbEntity
  8
1
100
AcDbLine
  6
CONTINUOUS
 62
7
 10
1.0168806E+002
 20
1.686423E+002
 11
9.7688062E+001
 21
1.686423E+002
  0
ARC
  5
1dc
100
AcDbEntity
  8
1
100
AcDbCircle
  6
CONTINUOUS
 62
7
 10
9.7688062E+001
 20
1.681423E+002
 40
5.0E-001
100
AcDbArc
 50
9.0E+001
 51
1.8E+002
  0
ARC
  5
1dd
100
AcDbEntity
  8
1
100
AcDbCircle
  6
CONTINUOUS
 62
7
 10
1.0168806E+002
 20
1.681423E+002
 40
5.0E-001
100
AcDbArc
 50
0.0
 51
9.0E+001
  0
LINE
  5
1de
100
AcDbEntity
  8
1
100
AcDbLine
  6
CONTINUOUS
 62
7
 10
1.0732806E+002
 20
1.666423E+002
 11
1.0732806E+002
 21
1.516423E+002
  0
LINE
  5
1df
100
AcDbEntity
  8
1
100
AcDbLine
  6
CONTINUOUS
 62
7
 10
1.0725806E+002
 20
1.516423E+002
 11
1.0725806E+002
 21
1.666423E+002
  0
LINE
  5
1e0
100
AcDbEntity
  8
1
100
AcDbLine
  6
HIDDEN
 62
7
 10
9.4293062E+001
 20
7.0261122E+001
 11
9.5293062E+001
 21
7.1261122E+001
  0
LINE
  5
1e1
100
AcDbEntity
  8
1
100
AcDbLine
  6
HIDDEN
 62
7
 10
7.5293062E+001
 20
7.0261122E+001
 11
7.4293062E+001
 21
7.1261122E+001
  0
LINE
  5
1e2
100
AcDbEntity
  8
1
100
AcDbLine
  6
HIDDEN
 62
7
 10
7.5293062E+001
 20
7.0261122E+001
 11
9.4293062E+001
 21
7.0261122E+001
  0
LINE
  5
1e3
100
AcDbEntity
  8
1
100
AcDbLine
  6
HIDDEN
 62
7
 10
1.3929306E+002
 20
7.0261122E+001
 11
1.4029306E+002
 21
7.1261122E+001
  0
LINE
  5
1e4
100
AcDbEntity
  8
1
100
AcDbLine
  6
HIDDEN
 62
7
 10
1.2029306E+002
 20
7.0261122E+001
 11
1.1929306E+002
 21
7.1261122E+001
  0
LINE
  5
1e5
100
AcDbEntity
  8
1
100
AcDbLine
  6
HIDDEN
 62
7
 10
1.2029306E+002
 20
7.0261122E+001
 11
1.3929306E+002
 21
7.0261122E+001
  0
INSERT
  5
1e6
100
AcDbEntity
100
AcDbBlockReference
  2
*XH53
  8
1
 10
7.4511691E+001
 20
1.4131549E+002
  0
INSERT
  5
1e7
100
AcDbEntity
100
AcDbBlockReference
  2
*XH54
  8
1
 10
7.9910545E+001
 20
1.6575879E+002
  0
LINE
  5
1e8
100
AcDbEntity
  8
1
100
AcDbLine
  6
CONTINUOUS
 62
7
 10
1.4479306E+002
 20
4.1261122E+001
 11
6.9793062E+001
 21
4.1261122E+001
  0
LINE
  5
1e9
100
AcDbEntity
  8
1
100
AcDbLine
  6
CONTINUOUS
 62
7
 10
1.4479306E+002
 20
7.1261122E+001
 11
6.9793062E+001
 21
7.1261122E+001
  0
LINE
  5
1ea
100
AcDbEntity
  8
1
100
AcDbLine
  6
CENTERLINE
 62
6
 10
8.4793062E+001
 20
7.3207056E+001
 11
8.4793062E+001
 21
4.5418518E+001
  0
LINE
  5
1eb
100
AcDbEntity
  8
1
100
AcDbLine
  6
HIDDEN
 62
7
 10
2.0827782E+002
 20
7.0261122E+001
 11
2.0727782E+002
 21
7.1261122E+001
  0
LINE
  5
1ec
100
AcDbEntity
  8
1
100
AcDbLine
  6
HIDDEN
 62
7
 10
2.2727782E+002
 20
7.0261122E+001
 11
2.2827782E+002
 21
7.1261122E+001
  0
LINE
  5
1ed
100
AcDbEntity
  8
1
100
AcDbLine
  6
HIDDEN
 62
7
 10
2.0827782E+002
 20
7.0261122E+001
 11
2.2727782E+002
 21
7.0261122E+001
  0
LINE
  5
1ee
100
AcDbEntity
  8
1
100
AcDbLine
  6
HIDDEN
 62
7
 10
8.0293062E+001
 20
5.9761122E+001
 11
8.0293062E+001
 21
4.7261122E+001
  0
LINE
  5
1ef
100
AcDbEntity
  8
1
100
AcDbLine
  6
HIDDEN
 62
7
 10
7.5293062E+001
 20
7.0261122E+001
 11
7.5293062E+001
 21
5.9761122E+001
  0
LINE
  5
1f0
100
AcDbEntity
  8
1
100
AcDbLine
  6
CONTINUOUS
 62
7
 10
1.4479306E+002
 20
4.7261122E+001
 11
6.9793062E+001
 21
4.7261122E+001
  0
LINE
  5
1f1
100
AcDbEntity
  8
1
100
AcDbLine
  6
CENTERLINE
 62
6
 10
2.4577782E+002
 20
5.5881521E+001
 11
2.4577782E+002
 21
6.7181767E+001
  0
LINE
  5
1f2
100
AcDbEntity
  8
1
100
AcDbLine
  6
HIDDEN
 62
7
 10
9.4293062E+001
 20
5.9761122E+001
 11
7.5293062E+001
 21
5.9761122E+001
  0
LINE
  5
1f3
100
AcDbEntity
  8
1
100
AcDbLine
  6
HIDDEN
 62
7
 10
8.9293062E+001
 20
5.9761122E+001
 11
8.9293062E+001
 21
4.7261122E+001
  0
LINE
  5
1f4
100
AcDbEntity
  8
1
100
AcDbLine
  6
HIDDEN
 62
7
 10
9.4293062E+001
 20
7.0261122E+001
 11
9.4293062E+001
 21
5.9761122E+001
  0
LINE
  5
1f5
100
AcDbEntity
  8
1
100
AcDbLine
  6
CENTERLINE
 62
6
 10
1.2979306E+002
 20
7.3207056E+001
 11
1.2979306E+002
 21
4.5418518E+001
  0
LINE
  5
1f6
100
AcDbEntity
  8
1
100
AcDbLine
  6
HIDDEN
 62
7
 10
1.2529306E+002
 20
5.9761122E+001
 11
1.2529306E+002
 21
4.7261122E+001
  0
LINE
  5
1f7
100
AcDbEntity
  8
1
100
AcDbLine
  6
HIDDEN
 62
7
 10
1.2029306E+002
 20
7.0261122E+001
 11
1.2029306E+002
 21
5.9761122E+001
  0
LINE
  5
1f8
100
AcDbEntity
  8
1
100
AcDbLine
  6
CONTINUOUS
 62
7
 10
6.9793062E+001
 20
7.1261122E+001
 11
6.9793062E+001
 21
4.1261122E+001
  0
LINE
  5
1f9
100
AcDbEntity
  8
1
100
AcDbLine
  6
CONTINUOUS
 62
7
 10
1.4479306E+002
 20
7.1261122E+001
 11
1.4479306E+002
 21
4.1261122E+001
  0
CIRCLE
  5
1fa
100
AcDbEntity
  8
1
100
AcDbCircle
  6
CONTINUOUS
 62
7
 10
2.4577782E+002
 20
6.1561122E+001
 40
5.0
  0
LINE
  5
1fb
100
AcDbEntity
  8
1
100
AcDbLine
  6
HIDDEN
 62
7
 10
1.3929306E+002
 20
5.9761122E+001
 11
1.2029306E+002
 21
5.9761122E+001
  0
LINE
  5
1fc
100
AcDbEntity
  8
1
100
AcDbLine
  6
HIDDEN
 62
7
 10
1.3429306E+002
 20
5.9761122E+001
 11
1.3429306E+002
 21
4.7261122E+001
  0
LINE
  5
1fd
100
AcDbEntity
  8
1
100
AcDbLine
  6
HIDDEN
 62
7
 10
1.3929306E+002
 20
7.0261122E+001
 11
1.3929306E+002
 21
5.9761122E+001
  0
LINE
  5
1fe
100
AcDbEntity
  8
1
100
AcDbLine
  6
CONTINUOUS
 62
7
 10
1.9977782E+002
 20
7.1261122E+001
 11
2.4477782E+002
 21
7.1261122E+001
  0
LINE
  5
1ff
100
AcDbEntity
  8
1
100
AcDbLine
  6
CONTINUOUS
 62
7
 10
1.9977782E+002
 20
4.7261122E+001
 11
1.9977782E+002
 21
7.1261122E+001
  0
LINE
  5
200
100
AcDbEntity
  8
1
100
AcDbLine
  6
CONTINUOUS
 62
7
 10
1.9977782E+002
 20
4.7261122E+001
 11
2.2977782E+002
 21
4.7261122E+001
  0
LINE
  5
201
100
AcDbEntity
  8
1
100
AcDbLine
  6
CONTINUOUS
 62
7
 10
2.2977782E+002
 20
4.1261122E+001
 11
2.2977782E+002
 21
4.7261122E+001
  0
ARC
  5
202
100
AcDbEntity
  8
1
100
AcDbCircle
  6
CONTINUOUS
 62
7
 10
2.4477782E+002
 20
6.1761122E+001
 40
9.5
100
AcDbArc
 50
3.3636876E+002
 51
4.5E+002
  0
LINE
  5
203
100
AcDbEntity
  8
1
100
AcDbLine
  6
CENTERLINE
 62
6
 10
2.354711E+002
 20
6.1561122E+001
 11
2.561769E+002
 21
6.1561122E+001
  0
LINE
  5
204
100
AcDbEntity
  8
1
100
AcDbLine
  6
CENTERLINE
 62
6
 10
2.1777782E+002
 20
7.3207056E+001
 11
2.1777782E+002
 21
4.5418518E+001
  0
LINE
  5
205
100
AcDbEntity
  8
1
100
AcDbLine
  6
HIDDEN
 62
7
 10
2.1327782E+002
 20
5.9761122E+001
 11
2.1327782E+002
 21
4.7261122E+001
  0
LINE
  5
206
100
AcDbEntity
  8
1
100
AcDbLine
  6
HIDDEN
 62
7
 10
2.0827782E+002
 20
7.0261122E+001
 11
2.0827782E+002
 21
5.9761122E+001
  0
LINE
  5
207
100
AcDbEntity
  8
1
100
AcDbLine
  6
HIDDEN
 62
7
 10
2.2727782E+002
 20
5.9761122E+001
 11
2.0827782E+002
 21
5.9761122E+001
  0
LINE
  5
208
100
AcDbEntity
  8
1
100
AcDbLine
  6
HIDDEN
 62
7
 10
2.2227782E+002
 20
5.9761122E+001
 11
2.2227782E+002
 21
4.7261122E+001
  0
LINE
  5
209
100
AcDbEntity
  8
1
100
AcDbLine
  6
HIDDEN
 62
7
 10
2.2727782E+002
 20
7.0261122E+001
 11
2.2727782E+002
 21
5.9761122E+001
  0
ARC
  5
20a
100
AcDbEntity
  8
1
100
AcDbCircle
  6
CONTINUOUS
 62
7
 10
2.4577782E+002
 20
6.1561122E+001
 40
9.5
100
AcDbArc
 50
3.0989323E+002
 51
4.4176683E+002
  0
ARC
  5
20b
100
AcDbEntity
  8
1
100
AcDbCircle
  6
HIDDEN
 62
7
 10
2.4577782E+002
 20
6.1561122E+001
 40
9.5
100
AcDbArc
 50
8.1766833E+001
 51
3.0989323E+002
  0
DIMENSION
  5
20c
100
AcDbEntity
  8
1
100
AcDbDimension
  6
CONTINUOUS
 62
1
  2
*D847
  3
DSTYLE4
 10
9.4293062E+001
 20
8.4054013E+001
 11
8.4793062E+001
 21
8.6055013E+001
 70
128
100
AcDbAlignedDimension
 13
7.5293062E+001
 23
7.0261122E+001
 14
9.4293062E+001
 24
7.0261122E+001
 40
1.0
 50
0.0
100
AcDbRotatedDimension
1001
ACAD
1000
DSTYLE
1002
{
1070
173
1070
0
1070
5
1000
_AH2
1002
}
  0
DIMENSION
  5
20d
100
AcDbEntity
  8
1
100
AcDbDimension
  6
CONTINUOUS
 62
1
  2
*D850
  3
DSTYLE5
 10
5.8953178E+001
 20
5.9761122E+001
 11
5.6952178E+001
 21
8.1022455E+001
 70
128
100
AcDbAlignedDimension
 13
6.9793062E+001
 23
7.1261122E+001
 14
7.5293062E+001
 24
5.9761122E+001
 40
1.0
 50
9.0E+001
100
AcDbRotatedDimension
1001
ACAD
1000
DSTYLE
1002
{
1070
173
1070
0
1070
5
1000
_AH2
1002
}
  0
DIMENSION
  5
20e
100
AcDbEntity
  8
1
100
AcDbDimension
  6
CONTINUOUS
 62
1
  2
*D851
  3
DSTYLE4
 10
8.9293062E+001
 20
3.2358684E+001
 11
9.6154633E+001
 21
3.4359684E+001
 70
128
100
AcDbAlignedDimension
 13
8.0293062E+001
 23
4.7261122E+001
 14
8.9293062E+001
 24
4.7261122E+001
 40
1.0
 50
0.0
100
AcDbRotatedDimension
1001
ACAD
1000
DSTYLE
1002
{
1070
173
1070
0
1070
5
1000
_AH2
1002
}
  0
DIMENSION
  5
20f
100
AcDbEntity
  8
1
100
AcDbDimension
  6
CONTINUOUS
 62
1
  2
*D852
  3
DSTYLE6
 10
1.9165816E+002
 20
4.7261122E+001
 11
1.8965716E+002
 21
5.9261122E+001
 70
128
100
AcDbAlignedDimension
 13
1.9977782E+002
 23
7.1261122E+001
 14
1.9977782E+002
 24
4.7261122E+001
 40
1.0
 50
9.0E+001
100
AcDbRotatedDimension
1001
ACAD
1000
DSTYLE
1002
{
1070
173
1070
0
1070
5
1000
_AH2
1002
}
  0
DIMENSION
  5
210
100
AcDbEntity
  8
1
100
AcDbDimension
  6
CONTINUOUS
 62
1
  2
*D853
  3
DSTYLE7
 10
2.3784525E+002
 20
5.7386005E+001
 11
2.6586603E+002
 21
6.9277115E+001
 70
3
100
AcDbDiametricDimension
 15
2.547104E+002
 25
6.6136239E+001
 40
0.0
1001
ACAD
1000
DSTYLE
1002
{
1070
173
1070
1
1070
7
1000
_AH2
1070
6
1000
_AH2
1002
}
  0
CIRCLE
  5
211
100
AcDbEntity
  8
1
100
AcDbCircle
  6
CONTINUOUS
 62
7
 10
2.4577782E+002
 20
6.1761122E+001
 40
1.975
  0
TEXT
  5
212
100
AcDbEntity
  8
1
100
AcDbText
  6
CONTINUOUS
 62
7
 10
1.2864353E+002
 20
1.9874467E+002
 40
4.0
  1

 41
8.0E-001
 72
1
 11
1.4784353E+002
 21
1.9874467E+002
100
AcDbText
  0
LINE
  5
213
100
AcDbEntity
  8
1
100
AcDbLine
  6
CONTINUOUS
 62
7
 10
2.0
 20
2.0
 11
2.95E+002
 21
2.0
  0
LINE
  5
214
100
AcDbEntity
  8
1
100
AcDbLine
  6
CONTINUOUS
 62
7
 10
2.95E+002
 20
2.0
 11
2.95E+002
 21
2.08E+002
  0
LINE
  5
215
100
AcDbEntity
  8
1
100
AcDbLine
  6
CONTINUOUS
 62
7
 10
2.95E+002
 20
2.08E+002
 11
2.0
 21
2.08E+002
  0
LINE
  5
216
100
AcDbEntity
  8
1
100
AcDbLine
  6
CONTINUOUS
 62
7
 10
2.0
 20
2.08E+002
 11
2.0
 21
2.0
  0
TEXT
  5
217
100
AcDbEntity
  8
1
100
AcDbText
  6
CONTINUOUS
 62
7
 10
2.618E+002
 20
4.0
 40
3.0
  1
DATE2020.5.1
 41
8.0E-001
 72
2
 11
2.93E+002
 21
4.0
100
AcDbText
  0
VIEWPORT
  5
218
100
AcDbEntity
 67
1
  8
0
  6
CONTINUOUS
 62
3
100
AcDbViewport
 10
1.485E+002
 20
1.05E+002
 30
0.0
 40
2.1E+002
 41
2.1E+002
 68
1
 69
1
1001
ACAD
1000
MVIEW
1002
{
1070
16
1010
0.0
1020
0.0
1030
0.0
1010
0.0
1020
0.0
1030
1.0
1040
0.0
1040
2.1E+002
1040
8.1675E+001
1040
1.05E+002
1040
5.0E+001
1040
0.0
1040
0.0
1070
0
1070
1000
1070
1
1070
0
1070
0
1070
0
1070
0
1070
0
1040
0.0
1040
0.0
1040
0.0
1040
5.0E-001
1040
5.0E-001
1040
5.0E-001
1040
5.0E-001
1070
0
1002
{
1002
}
1002
}
  0
VIEWPORT
  5
219
100
AcDbEntity
 67
1
  8
0
100
AcDbViewport
 62
3
 10
1.485E+002
 20
1.05E+002
 30
0.0
 40
2.97E+002
 41
2.1E+002
 68
2
 69
2
1001
ACAD
1000
MVIEW
1002
{
1070
16
1010
0.0
1020
0.0
1030
0.0
1010
0.0
1020
0.0
1030
1.0
1040
0.0
1040
2.1E+002
1040
1.485E+002
1040
1.05E+002
1040
5.0E+001
1040
0.0
1040
0.0
1070
0
1070
1000
1070
1
1070
0
1070
0
1070
0
1070
0
1070
0
1040
0.0
1040
0.0
1040
0.0
1040
5.0E-001
1040
5.0E-001
1040
5.0E-001
1040
5.0E-001
1070
0
1002
{
1002
}
1002
}
  0
ENDSEC
  0
SECTION
  2
OBJECTS
  0
DICTIONARY
  5
21a
100
AcDbDictionary
  3
ACAD_GROUP
350
21b
  3
ACAD_MLINESTYLE
350
21c
  0
DICTIONARY
  5
21b
102
{ACAD_REACTORS
330
21a
102
}
100
AcDbDictionary
  0
DICTIONARY
  5
21c
102
{ACAD_REACTORS
330
21a
102
}
100
AcDbDictionary
  3
STANDARD
350
21d
  0
MLINESTYLE
  5
21d
102
{ACAD_REACTORS
330
21c
102
}
100
AcDbMlineStyle
  2
STANDARD
 70
0
  3

 62
256
 51
9.0E+001
 52
9.0E+001
 71
2
 49
5.0E-001
 62
256
  6
BYLAYER
 49
-5.0E-001
 62
256
  6
BYLAYER
  0
ENDSEC
  0
EOF
