  0
SECTION
  2
HEADER
  9
$ACADVER
  1
AC1014
999
I-DEAS 13 NX Not Encoded
  9
$EXTMIN
 10
0.0
 20
0.0
  9
$EXTMAX
 10
2.97E+002
 20
2.1E+002
  9
$TEXTSIZE
 40
1.25E-001
  9
$LTSCALE
 40
1.0
  9
$CLAYER
  8
1
  9
$CECOLOR
 62
1
  9
$DIMASZ
 40
1.25E-001
  9
$DIMEXO
 40
6.25E-002
  9
$DIMDLI
 40
2.5E-001
  9
$DIMEXE
 40
1.25E-001
  9
$DIMTP
 40
5.0E-003
  9
$DIMTM
 40
-5.0E-003
  9
$DIMTXT
 40
3.0
  9
$DIMLIM
 70
0
  9
$DIMTIH
 70
1
  9
$DIMTOH
 70
1
  9
$DIMSE1
 70
0
  9
$DIMSE2
 70
0
  9
$DIMTAD
 70
0
  9
$DIMASO
 70
1
  9
$DIMALT
 70
0
  9
$DIMALTD
 70
0
  9
$DIMTOFL
 70
1
  9
$DIMTIX
 70
0
  9
$DIMSAH
 70
0
  9
$DIMSTYLE
  2
DSTYLE1
  9
$DIMTFAC
 40
1.0
  9
$DIMGAP
 40
6.25E-002
  9
$LUNITS
 70
2
  9
$LUPREC
 70
3
  9
$FILLETRAD
 40
7.0E-001
  9
$AUNITS
 70
0
  9
$AUPREC
 70
1
  9
$CHAMFERA
 40
1.0
  9
$CHAMFERB
 40
1.0
  9
$ANGBASE
 50
0.0
  9
$ANGDIR
 70
0
  9
$PEXTMIN
 10
0.0
 20
0.0
 30
0.0
  9
$PEXTMAX
 10
2.97E+002
 20
2.1E+002
 30
0.0
  9
$PLIMMIN
 10
0.0
 20
0.0
  9
$PLIMMAX
 10
2.97E+002
 20
2.1E+002
  9
$PDMODE
 70
2
  9
$PDSIZE
 40
-1.0E-002
  9
$SPLINETYPE
 70
6
  9
$TILEMODE
 70
0
  9
$HANDLING
 70
1
  9
$HANDSEED
  5
f4240
  0
ENDSEC
  0
SECTION
  2
TABLES
  0
TABLE
  2
VPORT
  5
64
100
AcDbSymbolTable
 70
2
  0
VPORT
  5
65
100
AcDbSymbolTableRecord
100
AcDbViewportTableRecord
  2
*Active
 70
0
 10
0.0
 20
0.0
 11
2.97E+002
 21
2.1E+002
 12
1.485E+002
 22
1.05E+002
 13
0.0
 23
0.0
 14
1.0
 24
1.0
 15
0.0
 25
0.0
 16
0.0
 26
0.0
 36
1.0
 17
0.0
 27
0.0
 37
0.0
 40
2.1E+002
 41
1.4142857
 42
5.0E+001
 43
0.0
 44
0.0
 50
0.0
 51
0.0
 71
0
 72
1000
 73
1
 74
3
 75
0
 76
0
 77
0
 78
0
  0
ENDTAB
  0
TABLE
  2
LTYPE
  5
66
100
AcDbSymbolTable
 70
7
  0
LTYPE
  5
67
100
AcDbSymbolTableRecord
100
AcDbLinetypeTableRecord
  2
BYBLOCK
 70
0
  3

 72
65
 73
0
 40
0.0
  0
LTYPE
  5
68
100
AcDbSymbolTableRecord
100
AcDbLinetypeTableRecord
  2
BYLAYER
 70
0
  3

 72
65
 73
0
 40
0.0
  0
LTYPE
  5
69
100
AcDbSymbolTableRecord
100
AcDbLinetypeTableRecord
  2
CONTINUOUS
 70
0
  3

 72
65
 73
0
 40
0.0
  0
LTYPE
  5
6a
100
AcDbSymbolTableRecord
100
AcDbLinetypeTableRecord
  2
HIDDENNEW0
  3
_ 
 70
64
 72
65
 73
3
 40
4.5
 49
1.5
 74
0
 49
-1.5
 74
0
 49
1.5
 74
0
  0
LTYPE
  5
6b
100
AcDbSymbolTableRecord
100
AcDbLinetypeTableRecord
  2
HIDDENNEW1
  3
_ 
 70
64
 72
65
 73
3
 40
4.5
 49
1.5
 74
0
 49
-1.5
 74
0
 49
1.5
 74
0
  0
LTYPE
  5
6c
100
AcDbSymbolTableRecord
100
AcDbLinetypeTableRecord
  2
HIDDEN
  3
_ 
 70
64
 72
65
 73
3
 40
4.5
 49
1.5
 74
0
 49
-1.5
 74
0
 49
1.5
 74
0
  0
LTYPE
  5
6d
100
AcDbSymbolTableRecord
100
AcDbLinetypeTableRecord
  2
CENTERLINE
  3
_ 
 70
64
 72
65
 73
5
 40
3.0E+001
 49
1.2E+001
 74
0
 49
-1.5
 74
0
 49
3.0
 74
0
 49
-1.5
 74
0
 49
1.2E+001
 74
0
  0
LTYPE
  5
6e
100
AcDbSymbolTableRecord
100
AcDbLinetypeTableRecord
  2
PHANTOM
  3
_ 
 70
64
 72
65
 73
7
 40
2.95E+001
 49
9.5
 74
0
 49
-1.5
 74
0
 49
3.0
 74
0
 49
-1.5
 74
0
 49
3.0
 74
0
 49
-1.5
 74
0
 49
9.5
 74
0
  0
LTYPE
  5
6f
100
AcDbSymbolTableRecord
100
AcDbLinetypeTableRecord
  2
SHORT_DASH
  3
_ 
 70
64
 72
65
 73
3
 40
3.0
 49
7.5E-001
 74
0
 49
-1.5
 74
0
 49
7.5E-001
 74
0
  0
LTYPE
  5
70
100
AcDbSymbolTableRecord
100
AcDbLinetypeTableRecord
  2
LONG_DASH
  3
_ 
 70
64
 72
65
 73
3
 40
9.0
 49
2.25
 74
0
 49
-4.5
 74
0
 49
2.25
 74
0
  0
ENDTAB
  0
TABLE
  2
LAYER
  5
71
100
AcDbSymbolTable
 70
258
  0
LAYER
  5
72
100
AcDbSymbolTableRecord
100
AcDbLayerTableRecord
  2
0
 70
0
 62
7
  6
CONTINUOUS
  0
LAYER
  5
73
100
AcDbSymbolTableRecord
100
AcDbLayerTableRecord
  2
1
 70
0
 62
7
  6
CONTINUOUS
  0
LAYER
  5
74
100
AcDbSymbolTableRecord
100
AcDbLayerTableRecord
  2
AM_VIEWS
 70
0
 62
3
  6
CONTINUOUS
  0
LAYER
  5
75
100
AcDbSymbolTableRecord
100
AcDbLayerTableRecord
  2
Drafting_Hidden_Entities
 70
1
 62
7
  6
CONTINUOUS
  0
ENDTAB
  0
TABLE
  2
STYLE
  5
76
100
AcDbSymbolTable
 70
1
  0
STYLE
  5
77
100
AcDbSymbolTableRecord
100
AcDbTextStyleTableRecord
  2
STANDARD
 70
64
 40
0.0
 41
1.0
 50
0.0
 71
0
 42
1.0
  3
monotxt.shx
  4
bigfont.shx
  0
ENDTAB
  0
TABLE
  2
VIEW
  5
78
100
AcDbSymbolTable
 70
0
  0
ENDTAB
  0
TABLE
  2
UCS
  5
79
100
AcDbSymbolTable
 70
0
  0
ENDTAB
  0
TABLE
  2
APPID
  5
7a
100
AcDbSymbolTable
 70
1
  0
APPID
  5
7b
100
AcDbSymbolTableRecord
100
AcDbRegAppTableRecord
  2
ACAD
 70
1
  0
ENDTAB
  0
TABLE
  2
DIMSTYLE
  5
7c
100
AcDbSymbolTable
 70
8
  0
DIMSTYLE
105
7d
100
AcDbSymbolTableRecord
100
AcDbDimStyleTableRecord
  2
DSTYLE1
 70
0
  3

  4

  5

  6

  7

 40
1.0
 41
1.5
 42
5.0E-001
 43
3.8E-001
 44
6.0E-001
 45
1.0E-001
 46
0.0
 47
1.0
 48
1.0
 71
0
 72
0
 73
0
 74
0
 75
0
 76
0
 77
1
 78
3
140
3.0
141
9.0E-002
142
0.0
143
3.9370079E-002
144
1.0
145
0.0
146
1.0
147
5.0E-001
170
0
171
2
172
0
173
0
174
0
175
0
176
0
177
0
178
0
270
2
271
1
272
4
273
2
274
2
275
0
280
0
281
0
282
0
283
1
284
0
285
0
286
0
287
3
288
0
  0
DIMSTYLE
105
7e
100
AcDbSymbolTableRecord
100
AcDbDimStyleTableRecord
  2
DSTYLE2
 70
0
  3

  4

  5

  6

  7

 40
1.0
 41
1.5
 42
5.0E-001
 43
3.8E-001
 44
6.0E-001
 45
0.0
 46
0.0
 47
1.0
 48
1.0
 71
0
 72
0
 73
0
 74
0
 75
0
 76
0
 77
1
 78
3
140
3.0
141
9.0E-002
142
0.0
143
3.9370079E-002
144
1.0
145
0.0
146
1.0
147
5.0E-001
170
0
171
2
172
0
173
0
174
0
175
0
176
0
177
0
178
0
270
2
271
0
272
4
273
2
274
2
275
0
280
0
281
0
282
0
283
1
284
0
285
0
286
0
287
3
288
0
  0
DIMSTYLE
105
7f
100
AcDbSymbolTableRecord
100
AcDbDimStyleTableRecord
  2
DSTYLE3
 70
0
  3

  4

  5

  6

  7

 40
1.0
 41
1.5
 42
5.0E-001
 43
3.8E-001
 44
5.0E-001
 45
0.0
 46
0.0
 47
1.0
 48
1.0
 71
0
 72
0
 73
0
 74
0
 75
0
 76
0
 77
1
 78
3
140
3.0
141
9.0E-002
142
0.0
143
3.9370079E-002
144
1.0
145
0.0
146
1.0
147
5.0E-001
170
0
171
2
172
0
173
0
174
0
175
0
176
0
177
0
178
0
270
2
271
0
272
4
273
2
274
2
275
0
280
0
281
0
282
0
283
1
284
0
285
0
286
0
287
3
288
0
  0
DIMSTYLE
105
80
100
AcDbSymbolTableRecord
100
AcDbDimStyleTableRecord
  2
DSTYLE4
 70
0
  3

  4

  5

  6

  7

 40
1.0
 41
1.5
 42
5.0E-001
 43
3.8E-001
 44
5.0E-001
 45
1.0E-001
 46
0.0
 47
1.0
 48
1.0
 71
0
 72
0
 73
0
 74
0
 75
0
 76
0
 77
1
 78
3
140
3.0
141
9.0E-002
142
0.0
143
3.9370079E-002
144
1.0
145
0.0
146
1.0
147
5.0E-001
170
0
171
2
172
0
173
0
174
0
175
0
176
0
177
0
178
0
270
2
271
1
272
4
273
2
274
2
275
0
280
0
281
0
282
0
283
1
284
0
285
0
286
0
287
3
288
0
  0
DIMSTYLE
105
81
100
AcDbSymbolTableRecord
100
AcDbDimStyleTableRecord
  2
DSTYLE5
 70
0
  3

  4

  5

  6

  7

 40
1.0
 41
1.125
 42
3.75E-001
 43
3.8E-001
 44
4.5E-001
 45
0.0
 46
0.0
 47
1.0
 48
1.0
 71
0
 72
0
 73
0
 74
0
 75
0
 76
0
 77
1
 78
3
140
3.0
141
9.0E-002
142
0.0
143
3.9370079E-002
144
1.0
145
0.0
146
1.0
147
3.75E-001
170
0
171
2
172
0
173
0
174
0
175
0
176
0
177
0
178
0
270
2
271
0
272
4
273
2
274
2
275
0
280
0
281
0
282
0
283
1
284
0
285
0
286
0
287
3
288
0
  0
DIMSTYLE
105
82
100
AcDbSymbolTableRecord
100
AcDbDimStyleTableRecord
  2
DSTYLE6
 70
0
  3

  4

  5

  6

  7

 40
1.0
 41
1.5
 42
5.0E-001
 43
3.8E-001
 44
6.0E-001
 45
0.0
 46
0.0
 47
1.0
 48
1.0
 71
0
 72
0
 73
0
 74
0
 75
1
 76
0
 77
1
 78
3
140
3.0
141
9.0E-002
142
0.0
143
3.9370079E-002
144
1.0
145
0.0
146
1.0
147
5.0E-001
170
0
171
2
172
0
173
0
174
0
175
0
176
0
177
0
178
0
270
2
271
0
272
4
273
2
274
2
275
0
280
0
281
0
282
0
283
1
284
0
285
0
286
0
287
3
288
0
  0
DIMSTYLE
105
83
100
AcDbSymbolTableRecord
100
AcDbDimStyleTableRecord
  2
DSTYLE7
 70
0
  3

  4

  5

  6

  7

 40
1.0
 41
1.125
 42
3.75E-001
 43
3.8E-001
 44
3.75E-001
 45
0.0
 46
0.0
 47
1.0
 48
1.0
 71
0
 72
0
 73
0
 74
0
 75
1
 76
0
 77
1
 78
3
140
3.0
141
9.0E-002
142
0.0
143
3.9370079E-002
144
1.0
145
0.0
146
1.0
147
3.75E-001
170
0
171
2
172
0
173
0
174
0
175
0
176
0
177
0
178
0
270
2
271
0
272
4
273
2
274
2
275
0
280
0
281
0
282
0
283
1
284
0
285
0
286
0
287
3
288
0
  0
DIMSTYLE
105
84
100
AcDbSymbolTableRecord
100
AcDbDimStyleTableRecord
  2
DSTYLE8
 70
0
  3

  4

  5

  6

  7

 40
1.0
 41
1.125
 42
1.125
 43
3.8E-001
 44
2.25
 45
0.0
 46
0.0
 47
1.0
 48
1.0
 71
0
 72
0
 73
1
 74
1
 75
0
 76
0
 77
1
 78
3
140
3.0
141
9.0E-002
142
0.0
143
3.9370079E-002
144
1.0
145
0.0
146
1.0
147
1.125
170
0
171
2
172
1
173
0
174
0
175
0
176
0
177
0
178
0
270
2
271
0
272
4
273
2
274
2
275
0
280
0
281
0
282
0
283
1
284
0
285
0
286
0
287
3
288
0
  0
ENDTAB
  0
TABLE
  2
BLOCK_RECORD
  5
85
100
AcDbSymbolTable
 70
0
  0
BLOCK_RECORD
  5
86
100
AcDbSymbolTableRecord
100
AcDbBlockTableRecord
  2
*MODEL_SPACE
  0
BLOCK_RECORD
  5
87
100
AcDbSymbolTableRecord
100
AcDbBlockTableRecord
  2
*PAPER_SPACE
  0
BLOCK_RECORD
  5
88
100
AcDbSymbolTableRecord
100
AcDbBlockTableRecord
  2
*D976
  0
BLOCK_RECORD
  5
89
100
AcDbSymbolTableRecord
100
AcDbBlockTableRecord
  2
*D977
  0
BLOCK_RECORD
  5
8a
100
AcDbSymbolTableRecord
100
AcDbBlockTableRecord
  2
*D1300
  0
BLOCK_RECORD
  5
8b
100
AcDbSymbolTableRecord
100
AcDbBlockTableRecord
  2
*D1301
  0
BLOCK_RECORD
  5
8c
100
AcDbSymbolTableRecord
100
AcDbBlockTableRecord
  2
*D1302
  0
BLOCK_RECORD
  5
8d
100
AcDbSymbolTableRecord
100
AcDbBlockTableRecord
  2
*D1312
  0
BLOCK_RECORD
  5
8e
100
AcDbSymbolTableRecord
100
AcDbBlockTableRecord
  2
*D1313
  0
BLOCK_RECORD
  5
8f
100
AcDbSymbolTableRecord
100
AcDbBlockTableRecord
  2
*D1314
  0
BLOCK_RECORD
  5
90
100
AcDbSymbolTableRecord
100
AcDbBlockTableRecord
  2
*D1407
  0
BLOCK_RECORD
  5
91
100
AcDbSymbolTableRecord
100
AcDbBlockTableRecord
  2
*D1409
  0
BLOCK_RECORD
  5
92
100
AcDbSymbolTableRecord
100
AcDbBlockTableRecord
  2
*D1410
  0
BLOCK_RECORD
  5
93
100
AcDbSymbolTableRecord
100
AcDbBlockTableRecord
  2
*D1411
  0
BLOCK_RECORD
  5
94
100
AcDbSymbolTableRecord
100
AcDbBlockTableRecord
  2
*D1412
  0
BLOCK_RECORD
  5
95
100
AcDbSymbolTableRecord
100
AcDbBlockTableRecord
  2
*D1440
  0
BLOCK_RECORD
  5
96
100
AcDbSymbolTableRecord
100
AcDbBlockTableRecord
  2
*D1441
  0
BLOCK_RECORD
  5
97
100
AcDbSymbolTableRecord
100
AcDbBlockTableRecord
  2
_AH1
  0
BLOCK_RECORD
  5
98
100
AcDbSymbolTableRecord
100
AcDbBlockTableRecord
  2
_AH2
  0
BLOCK_RECORD
  5
99
100
AcDbSymbolTableRecord
100
AcDbBlockTableRecord
  2
_AH12
  3
_AH
  0
BLOCK_RECORD
  5
9a
100
AcDbSymbolTableRecord
100
AcDbBlockTableRecord
  2
_AH13
  3
_AH
  0
BLOCK_RECORD
  5
9b
100
AcDbSymbolTableRecord
100
AcDbBlockTableRecord
  2
_AH14
  3
_AH
  0
BLOCK_RECORD
  5
9c
100
AcDbSymbolTableRecord
100
AcDbBlockTableRecord
  2
_AH15
  3
_AH
  0
BLOCK_RECORD
  5
9d
100
AcDbSymbolTableRecord
100
AcDbBlockTableRecord
  2
_AH16
  3
_AH
  0
BLOCK_RECORD
  5
9e
100
AcDbSymbolTableRecord
100
AcDbBlockTableRecord
  2
_AH17
  3
_AH
  0
BLOCK_RECORD
  5
9f
100
AcDbSymbolTableRecord
100
AcDbBlockTableRecord
  2
_AH18
  3
_AH
  0
BLOCK_RECORD
  5
a0
100
AcDbSymbolTableRecord
100
AcDbBlockTableRecord
  2
_AH19
  3
_AH
  0
BLOCK_RECORD
  5
a1
100
AcDbSymbolTableRecord
100
AcDbBlockTableRecord
  2
_AH20
  3
_AH
  0
BLOCK_RECORD
  5
a2
100
AcDbSymbolTableRecord
100
AcDbBlockTableRecord
  2
_AH21
  3
_AH
  0
BLOCK_RECORD
  5
a3
100
AcDbSymbolTableRecord
100
AcDbBlockTableRecord
  2
HANKO_OTA
  0
BLOCK_RECORD
  5
a4
100
AcDbSymbolTableRecord
100
AcDbBlockTableRecord
  2
HANKO_SIBA
  0
BLOCK_RECORD
  5
a5
100
AcDbSymbolTableRecord
100
AcDbBlockTableRecord
  2
HANKO_OZAKI
  0
BLOCK_RECORD
  5
a6
100
AcDbSymbolTableRecord
100
AcDbBlockTableRecord
  2
*XH48
  3
*XH
  0
BLOCK_RECORD
  5
a7
100
AcDbSymbolTableRecord
100
AcDbBlockTableRecord
  2
*XH50
  3
*XH
  0
BLOCK_RECORD
  5
a8
100
AcDbSymbolTableRecord
100
AcDbBlockTableRecord
  2
HANKO_MARINA
  0
BLOCK_RECORD
  5
a9
100
AcDbSymbolTableRecord
100
AcDbBlockTableRecord
  2
*TX377
  3
*TX
  0
BLOCK_RECORD
  5
aa
100
AcDbSymbolTableRecord
100
AcDbBlockTableRecord
  2
*TX378
  3
*TX
  0
BLOCK_RECORD
  5
ab
100
AcDbSymbolTableRecord
100
AcDbBlockTableRecord
  2
*TX379
  3
*TX
  0
BLOCK_RECORD
  5
ac
100
AcDbSymbolTableRecord
100
AcDbBlockTableRecord
  2
*TX380
  3
*TX
  0
ENDTAB
  0
ENDSEC
  0
SECTION
  2
BLOCKS
  0
BLOCK
  5
ad
100
AcDbEntity
100
AcDbBlockBegin
  2
*MODEL_SPACE
 70
0
 10
0.0
 20
0.0
 30
0.0
  3
*MODEL_SPACE
  1

  0
ENDBLK
  5
ae
100
AcDbEntity
100
AcDbBlockEnd
  0
BLOCK
  5
af
100
AcDbEntity
100
AcDbBlockBegin
  2
*PAPER_SPACE
 70
0
 10
0.0
 20
0.0
 30
0.0
  3
*PAPER_SPACE
  1

  0
ENDBLK
  5
b0
100
AcDbEntity
100
AcDbBlockEnd
  0
BLOCK
  5
b1
100
AcDbEntity
100
AcDbBlockBegin
  2
_AH12
  3
_AH
 10
0.0
 20
0.0
 70
64
  0
LINE
  5
b2
100
AcDbEntity
  8
0
100
AcDbLine
  6
CONTINUOUS
 62
0
 10
0.0
 20
0.0
 11
1.0
 21
0.0
  0
LINE
  5
b3
100
AcDbEntity
  8
0
100
AcDbLine
  6
CONTINUOUS
 62
0
 10
0.0
 20
0.0
 11
-1.0
 21
0.0
  0
ENDBLK
  5
b4
100
AcDbEntity
100
AcDbBlockEnd
  0
BLOCK
  5
b5
100
AcDbEntity
100
AcDbBlockBegin
  2
_AH13
  3
_AH
 10
0.0
 20
0.0
 70
64
  0
SOLID
  5
b6
100
AcDbEntity
  8
0
100
AcDbTrace
  6
CONTINUOUS
 62
0
 10
0.0
 20
0.0
 11
1.0
 21
-1.66667E-001
 12
1.0
 22
1.66667E-001
 13
0.0
 23
0.0
  0
ENDBLK
  5
b7
100
AcDbEntity
100
AcDbBlockEnd
  0
BLOCK
  5
b8
100
AcDbEntity
100
AcDbBlockBegin
  2
_AH14
  3
_AH
 10
0.0
 20
0.0
 70
64
  0
ENDBLK
  5
b9
100
AcDbEntity
100
AcDbBlockEnd
  0
BLOCK
  5
ba
100
AcDbEntity
100
AcDbBlockBegin
  2
_AH15
  3
_AH
 10
0.0
 20
0.0
 70
64
  0
CIRCLE
  5
bb
100
AcDbEntity
  8
0
100
AcDbCircle
  6
CONTINUOUS
 62
0
 10
0.0
 20
0.0
 40
1.66667E-001
  0
LINE
  5
bc
100
AcDbEntity
  8
0
100
AcDbLine
  6
CONTINUOUS
 62
0
 10
0.0
 20
0.0
 11
-1.0
 21
0.0
  0
ENDBLK
  5
bd
100
AcDbEntity
100
AcDbBlockEnd
  0
BLOCK
  5
be
100
AcDbEntity
100
AcDbBlockBegin
  2
_AH16
  3
_AH
 10
0.0
 20
0.0
 70
64
  0
POLYLINE
  5
bf
100
AcDbEntity
  8
0
100
AcDb2dPolyline
  6
CONTINUOUS
 62
0
 66
1
 40
1.66667E-001
 41
1.66667E-001
 70
0
  0
VERTEX
  5
c0
100
AcDbEntity
  8
0
100
AcDbVertex
100
AcDb2dVertex
 42
1.0
 10
8.3335E-002
 20
0.0
 70
0
  0
VERTEX
  5
c1
100
AcDbEntity
  8
0
100
AcDbVertex
100
AcDb2dVertex
 42
1.0
 10
-8.3335E-002
 20
0.0
 70
0
  0
VERTEX
  5
c2
100
AcDbEntity
  8
0
100
AcDbVertex
100
AcDb2dVertex
 42
0.0
 10
8.3335E-002
 20
0.0
 70
0
  0
SEQEND
  5
c3
100
AcDbEntity
  0
LINE
  5
c4
100
AcDbEntity
  8
0
100
AcDbLine
  6
CONTINUOUS
 62
0
 10
0.0
 20
0.0
 11
-1.0
 21
0.0
  0
ENDBLK
  5
c5
100
AcDbEntity
100
AcDbBlockEnd
  0
BLOCK
  5
c6
100
AcDbEntity
100
AcDbBlockBegin
  2
_AH17
  3
_AH
 10
0.0
 20
0.0
 70
64
  0
LINE
  5
c7
100
AcDbEntity
  8
0
100
AcDbLine
  6
CONTINUOUS
 62
0
 10
-1.66667E-001
 20
-1.66667E-001
 11
1.66667E-001
 21
-1.66667E-001
  0
LINE
  5
c8
100
AcDbEntity
  8
0
100
AcDbLine
  6
CONTINUOUS
 62
0
 10
1.66667E-001
 20
-1.66667E-001
 11
1.66667E-001
 21
1.66667E-001
  0
LINE
  5
c9
100
AcDbEntity
  8
0
100
AcDbLine
  6
CONTINUOUS
 62
0
 10
1.66667E-001
 20
1.66667E-001
 11
-1.66667E-001
 21
1.66667E-001
  0
LINE
  5
ca
100
AcDbEntity
  8
0
100
AcDbLine
  6
CONTINUOUS
 62
0
 10
-1.66667E-001
 20
1.66667E-001
 11
-1.66667E-001
 21
-1.66667E-001
  0
LINE
  5
cb
100
AcDbEntity
  8
0
100
AcDbLine
  6
CONTINUOUS
 62
0
 10
0.0
 20
0.0
 11
-1.0
 21
0.0
  0
ENDBLK
  5
cc
100
AcDbEntity
100
AcDbBlockEnd
  0
BLOCK
  5
cd
100
AcDbEntity
100
AcDbBlockBegin
  2
_AH18
  3
_AH
 10
0.0
 20
0.0
 70
64
  0
SOLID
  5
ce
100
AcDbEntity
  8
0
100
AcDbTrace
  6
CONTINUOUS
 62
0
 10
-1.66667E-001
 20
-1.66667E-001
 11
1.66667E-001
 21
-1.66667E-001
 12
-1.66667E-001
 22
1.66667E-001
 13
1.66667E-001
 23
1.66667E-001
  0
LINE
  5
cf
100
AcDbEntity
  8
0
100
AcDbLine
  6
CONTINUOUS
 62
0
 10
0.0
 20
0.0
 11
-1.0
 21
0.0
  0
ENDBLK
  5
d0
100
AcDbEntity
100
AcDbBlockEnd
  0
BLOCK
  5
d1
100
AcDbEntity
100
AcDbBlockBegin
  2
_AH19
  3
_AH
 10
0.0
 20
0.0
 70
64
  0
LINE
  5
d2
100
AcDbEntity
  8
0
100
AcDbLine
  6
CONTINUOUS
 62
0
 10
-5.0E-001
 20
-5.0E-001
 11
5.0E-001
 21
5.0E-001
  0
LINE
  5
d3
100
AcDbEntity
  8
0
100
AcDbLine
  6
CONTINUOUS
 62
0
 10
0.0
 20
0.0
 11
-1.0
 21
0.0
  0
ENDBLK
  5
d4
100
AcDbEntity
100
AcDbBlockEnd
  0
BLOCK
  5
d5
100
AcDbEntity
100
AcDbBlockBegin
  2
_AH20
  3
_AH
 10
0.0
 20
0.0
 70
64
  0
POLYLINE
  5
d6
100
AcDbEntity
  8
0
100
AcDb2dPolyline
  6
CONTINUOUS
 62
0
 66
1
 40
5.0E-001
 41
5.0E-001
 70
0
  0
VERTEX
  5
d7
100
AcDbEntity
  8
0
100
AcDbVertex
100
AcDb2dVertex
 42
4.1421356E-001
 10
-1.66667E-001
 20
-1.66667E-001
 70
0
  0
VERTEX
  5
d8
100
AcDbEntity
  8
0
100
AcDbVertex
100
AcDb2dVertex
 42
0.0
 10
0.0
 20
0.0
 70
0
  0
SEQEND
  5
d9
100
AcDbEntity
  0
POLYLINE
  5
da
100
AcDbEntity
  8
0
100
AcDb2dPolyline
  6
CONTINUOUS
 62
0
 66
1
 40
5.0E-001
 41
5.0E-001
 70
0
  0
VERTEX
  5
db
100
AcDbEntity
  8
0
100
AcDbVertex
100
AcDb2dVertex
 42
4.1421356E-001
 10
1.66667E-001
 20
1.66667E-001
 70
0
  0
VERTEX
  5
dc
100
AcDbEntity
  8
0
100
AcDbVertex
100
AcDb2dVertex
 42
0.0
 10
0.0
 20
0.0
 70
0
  0
SEQEND
  5
dd
100
AcDbEntity
  0
LINE
  5
de
100
AcDbEntity
  8
0
100
AcDbLine
  6
CONTINUOUS
 62
0
 10
0.0
 20
0.0
 11
-1.0
 21
0.0
  0
ENDBLK
  5
df
100
AcDbEntity
100
AcDbBlockEnd
  0
BLOCK
  5
e0
100
AcDbEntity
100
AcDbBlockBegin
  2
_AH21
  3
_AH
 10
0.0
 20
0.0
 70
64
  0
LINE
  5
e1
100
AcDbEntity
  8
0
100
AcDbLine
  6
CONTINUOUS
 62
0
 10
0.0
 20
0.0
 11
-1.0
 21
-1.66667E-001
  0
LINE
  5
e2
100
AcDbEntity
  8
0
100
AcDbLine
  6
CONTINUOUS
 62
0
 10
-1.0
 20
-1.66667E-001
 11
-1.0
 21
1.66667E-001
  0
LINE
  5
e3
100
AcDbEntity
  8
0
100
AcDbLine
  6
CONTINUOUS
 62
0
 10
-1.0
 20
1.66667E-001
 11
0.0
 21
0.0
  0
ENDBLK
  5
e4
100
AcDbEntity
100
AcDbBlockEnd
  0
BLOCK
  5
e5
100
AcDbEntity
100
AcDbBlockBegin
  2
HANKO_OTA
 10
0.0
 20
0.0
 70
0
  0
CIRCLE
  5
e6
100
AcDbEntity
  8
1
100
AcDbCircle
  6
CONTINUOUS
 62
4
 10
0.0
 20
0.0
 40
4.438906
  0
INSERT
  5
e7
100
AcDbEntity
100
AcDbBlockReference
  2
*TX377
  8
1
 10
-2.137271
 20
1.126737
  0
POINT
  5
e8
100
AcDbEntity
  8
Drafting_Hidden_Entities
100
AcDbPoint
  6
CONTINUOUS
 62
1
 10
0.0
 20
0.0
  0
ENDBLK
  5
e9
100
AcDbEntity
100
AcDbBlockEnd
  0
BLOCK
  5
ea
100
AcDbEntity
100
AcDbBlockBegin
  2
HANKO_SIBA
 10
0.0
 20
0.0
 70
0
  0
CIRCLE
  5
eb
100
AcDbEntity
  8
1
100
AcDbCircle
  6
CONTINUOUS
 62
4
 10
0.0
 20
0.0
 40
4.438906
  0
INSERT
  5
ec
100
AcDbEntity
100
AcDbBlockReference
  2
*TX378
  8
1
 10
-2.09209
 20
1.126737
  0
POINT
  5
ed
100
AcDbEntity
  8
Drafting_Hidden_Entities
100
AcDbPoint
  6
CONTINUOUS
 62
1
 10
0.0
 20
0.0
  0
ENDBLK
  5
ee
100
AcDbEntity
100
AcDbBlockEnd
  0
BLOCK
  5
ef
100
AcDbEntity
100
AcDbBlockBegin
  2
HANKO_OZAKI
 10
0.0
 20
0.0
 70
0
  0
CIRCLE
  5
f0
100
AcDbEntity
  8
1
100
AcDbCircle
  6
CONTINUOUS
 62
4
 10
0.0
 20
0.0
 40
4.438906
  0
INSERT
  5
f1
100
AcDbEntity
100
AcDbBlockReference
  2
*TX379
  8
1
 10
-2.137271
 20
1.126737
  0
POINT
  5
f2
100
AcDbEntity
  8
Drafting_Hidden_Entities
100
AcDbPoint
  6
CONTINUOUS
 62
1
 10
0.0
 20
0.0
  0
ENDBLK
  5
f3
100
AcDbEntity
100
AcDbBlockEnd
  0
BLOCK
  5
f4
100
AcDbEntity
100
AcDbBlockBegin
  2
*XH48
  3
*XH
 10
0.0
 20
0.0
 70
65
  0
LINE
  5
f5
100
AcDbEntity
  8
1
100
AcDbLine
  6
CONTINUOUS
 62
7
 10
-8.1736857E-001
 20
-8.1736857E-001
 11
8.1736857E-001
 21
8.1736857E-001
  0
LINE
  5
f6
100
AcDbEntity
  8
1
100
AcDbLine
  6
CONTINUOUS
 62
7
 10
-5.0600093
 20
-8.1736857E-001
 11
-2.0600093
 21
2.1826314
  0
LINE
  5
f7
100
AcDbEntity
  8
1
100
AcDbLine
  6
CONTINUOUS
 62
7
 10
-9.3026499
 20
-8.1736857E-001
 11
-6.3026499
 21
2.1826314
  0
LINE
  5
f8
100
AcDbEntity
  8
1
100
AcDbLine
  6
CONTINUOUS
 62
7
 10
-1.3545291E+001
 20
-8.1736857E-001
 11
-1.0545291E+001
 21
2.1826314
  0
LINE
  5
f9
100
AcDbEntity
  8
1
100
AcDbLine
  6
CONTINUOUS
 62
7
 10
-1.522169E+001
 20
1.7488725
 11
-1.4787931E+001
 21
2.1826314
  0
ENDBLK
  5
fa
100
AcDbEntity
100
AcDbBlockEnd
  0
BLOCK
  5
fb
100
AcDbEntity
100
AcDbBlockBegin
  2
*XH50
  3
*XH
 10
0.0
 20
0.0
 70
65
  0
LINE
  5
fc
100
AcDbEntity
  8
1
100
AcDbLine
  6
CONTINUOUS
 62
7
 10
-1.6619558
 20
-1.6619558
 11
1.6619558
 21
1.6619558
  0
LINE
  5
fd
100
AcDbEntity
  8
1
100
AcDbLine
  6
CONTINUOUS
 62
7
 10
-9.6047797
 20
-5.362139
 11
1.2500962
 21
5.4927368
  0
LINE
  5
fe
100
AcDbEntity
  8
1
100
AcDbLine
  6
CONTINUOUS
 62
7
 10
-1.3556036E+001
 20
-5.0707546
 11
1.9126048
 21
1.0397886E+001
  0
LINE
  5
ff
100
AcDbEntity
  8
1
100
AcDbLine
  6
CONTINUOUS
 62
7
 10
-1.3556036E+001
 20
-8.2811386E-001
 11
-2.3300359
 21
1.0397886E+001
  0
LINE
  5
100
100
AcDbEntity
  8
1
100
AcDbLine
  6
CONTINUOUS
 62
7
 10
-1.3556036E+001
 20
3.4145268
 11
-6.5726766
 21
1.0397886E+001
  0
LINE
  5
101
100
AcDbEntity
  8
1
100
AcDbLine
  6
CONTINUOUS
 62
7
 10
-1.3556036E+001
 20
7.6571675
 11
-1.0815317E+001
 21
1.0397886E+001
  0
ENDBLK
  5
102
100
AcDbEntity
100
AcDbBlockEnd
  0
BLOCK
  5
103
100
AcDbEntity
100
AcDbBlockBegin
  2
HANKO_MARINA
 10
0.0
 20
0.0
 70
0
  0
CIRCLE
  5
104
100
AcDbEntity
  8
1
100
AcDbCircle
  6
CONTINUOUS
 62
4
 10
0.0
 20
0.0
 40
4.438906
  0
INSERT
  5
105
100
AcDbEntity
100
AcDbBlockReference
  2
*TX380
  8
1
 10
-2.096619
 20
1.126737
  0
POINT
  5
106
100
AcDbEntity
  8
Drafting_Hidden_Entities
100
AcDbPoint
  6
CONTINUOUS
 62
1
 10
0.0
 20
0.0
  0
ENDBLK
  5
107
100
AcDbEntity
100
AcDbBlockEnd
  0
BLOCK
  5
108
100
AcDbEntity
100
AcDbBlockBegin
  2
*TX377
  3
*TX
 10
0.0
 20
0.0
 70
65
  0
TEXT
  5
109
100
AcDbEntity
  8
1
100
AcDbText
  6
CONTINUOUS
 62
4
 10
0.0
 20
0.0
 40
2.5
  1
æ¥
 41
1.6666667
100
AcDbText
  0
TEXT
  5
10a
100
AcDbEntity
  8
1
100
AcDbText
  6
CONTINUOUS
 62
4
 10
0.0
 20
-4.5
 40
2.5
  1
ôc
 41
1.6666667
100
AcDbText
  0
ENDBLK
  5
10b
100
AcDbEntity
100
AcDbBlockEnd
  0
BLOCK
  5
10c
100
AcDbEntity
100
AcDbBlockBegin
  2
*TX378
  3
*TX
 10
0.0
 20
0.0
 70
65
  0
TEXT
  5
10d
100
AcDbEntity
  8
1
100
AcDbText
  6
CONTINUOUS
 62
4
 10
0.0
 20
0.0
 40
2.5
  1
Ä┼
 41
1.6666667
100
AcDbText
  0
TEXT
  5
10e
100
AcDbEntity
  8
1
100
AcDbText
  6
CONTINUOUS
 62
4
 10
0.0
 20
-4.5
 40
2.5
  1
ÄR
 41
1.6666667
100
AcDbText
  0
ENDBLK
  5
10f
100
AcDbEntity
100
AcDbBlockEnd
  0
BLOCK
  5
110
100
AcDbEntity
100
AcDbBlockBegin
  2
*TX379
  3
*TX
 10
0.0
 20
0.0
 70
65
  0
TEXT
  5
111
100
AcDbEntity
  8
1
100
AcDbText
  6
CONTINUOUS
 62
4
 10
0.0
 20
0.0
 40
2.5
  1
ö÷
 41
1.6666667
100
AcDbText
  0
TEXT
  5
112
100
AcDbEntity
  8
1
100
AcDbText
  6
CONTINUOUS
 62
4
 10
0.0
 20
-4.5
 40
2.5
  1
ìÞ
 41
1.6666667
100
AcDbText
  0
ENDBLK
  5
113
100
AcDbEntity
100
AcDbBlockEnd
  0
BLOCK
  5
114
100
AcDbEntity
100
AcDbBlockBegin
  2
*TX380
  3
*TX
 10
0.0
 20
0.0
 70
65
  0
TEXT
  5
115
100
AcDbEntity
  8
1
100
AcDbText
  6
CONTINUOUS
 62
4
 10
0.0
 20
0.0
 40
2.5
  1
æ║
 41
1.6666667
100
AcDbText
  0
TEXT
  5
116
100
AcDbEntity
  8
1
100
AcDbText
  6
CONTINUOUS
 62
4
 10
0.0
 20
-4.5
 40
2.5
  1
ÅÒ
 41
1.6666667
100
AcDbText
  0
ENDBLK
  5
117
100
AcDbEntity
100
AcDbBlockEnd
  0
BLOCK
  5
118
100
AcDbEntity
100
AcDbBlockBegin
  2
_AH1
 70
0
 10
0.0
 20
0.0
  3
_AH1
  0
LINE
  5
119
100
AcDbEntity
  8
0
100
AcDbLine
  6
CONTINUOUS
 62
0
 10
-1.0
 20
1.66667E-001
 11
0.0
 21
0.0
  0
LINE
  5
11a
100
AcDbEntity
  8
0
100
AcDbLine
  6
CONTINUOUS
 62
0
 10
0.0
 20
0.0
 11
-1.0
 21
-1.66667E-001
  0
LINE
  5
11b
100
AcDbEntity
  8
0
100
AcDbLine
  6
CONTINUOUS
 62
0
 10
-1.0
 20
1.66667E-001
 11
-1.0
 21
-1.66667E-001
  0
LINE
  5
11c
100
AcDbEntity
  8
0
100
AcDbLine
  6
CONTINUOUS
 62
0
 10
0.0
 20
0.0
 11
-1.0
 21
0.0
  0
ENDBLK
  5
11d
100
AcDbEntity
100
AcDbBlockEnd
  0
BLOCK
  5
11e
100
AcDbEntity
100
AcDbBlockBegin
  2
_AH2
 70
0
 10
0.0
 20
0.0
  3
_AH2
  0
LINE
  5
11f
100
AcDbEntity
  8
0
100
AcDbLine
  6
CONTINUOUS
 62
0
 10
-1.0
 20
1.66667E-001
 11
0.0
 21
0.0
  0
LINE
  5
120
100
AcDbEntity
  8
0
100
AcDbLine
  6
CONTINUOUS
 62
0
 10
0.0
 20
0.0
 11
-1.0
 21
-1.66667E-001
  0
LINE
  5
121
100
AcDbEntity
  8
0
100
AcDbLine
  6
CONTINUOUS
 62
0
 10
0.0
 20
0.0
 11
-1.0
 21
0.0
  0
ENDBLK
  5
122
100
AcDbEntity
100
AcDbBlockEnd
  0
BLOCK
  5
123
100
AcDbEntity
100
AcDbBlockBegin
  2
*D976
  3
*D
 10
0.0
 20
0.0
 70
65
  0
LINE
  5
124
100
AcDbEntity
  8
1
100
AcDbLine
  6
CONTINUOUS
 62
1
 10
2.1503809E+002
 20
4.1042573E+001
 11
2.1503809E+002
 21
1.7631261E+001
  0
LINE
  5
125
100
AcDbEntity
  8
1
100
AcDbLine
  6
CONTINUOUS
 62
1
 10
2.7053809E+002
 20
5.5342573E+001
 11
2.7053809E+002
 21
1.7631261E+001
  0
LINE
  5
126
100
AcDbEntity
  8
1
100
AcDbLine
  6
CONTINUOUS
 62
1
 10
2.1503809E+002
 20
1.8231261E+001
 11
2.4278809E+002
 21
1.8231261E+001
  0
LINE
  5
127
100
AcDbEntity
  8
1
100
AcDbLine
  6
CONTINUOUS
 62
1
 10
2.7053809E+002
 20
1.8231261E+001
 11
2.4278809E+002
 21
1.8231261E+001
  0
TEXT
  5
128
100
AcDbEntity
  8
1
100
AcDbText
  6
CONTINUOUS
 62
1
 10
2.3798809E+002
 20
1.8732261E+001
 40
3.0
  1
55.5
 41
8.0E-001
100
AcDbText
  0
INSERT
  5
129
100
AcDbEntity
100
AcDbBlockReference
  2
_AH2
  8
1
 62
1
 10
2.1503809E+002
 20
1.8231261E+001
 41
1.5
 42
1.5
 43
1.5
 50
1.8E+002
  0
INSERT
  5
12a
100
AcDbEntity
100
AcDbBlockReference
  2
_AH2
  8
1
 62
1
 10
2.7053809E+002
 20
1.8231261E+001
 41
1.5
 42
1.5
 43
1.5
 50
0.0
  0
ENDBLK
  5
12b
100
AcDbEntity
100
AcDbBlockEnd
  0
BLOCK
  5
12c
100
AcDbEntity
100
AcDbBlockBegin
  2
*D977
  3
*D
 10
0.0
 20
0.0
 70
65
  0
LINE
  5
12d
100
AcDbEntity
  8
1
100
AcDbLine
  6
CONTINUOUS
 62
1
 10
5.9735548E+001
 20
1.6669702E+002
 11
5.9735548E+001
 21
1.7304413E+002
  0
LINE
  5
12e
100
AcDbEntity
  8
1
100
AcDbLine
  6
CONTINUOUS
 62
1
 10
6.4735548E+001
 20
1.6669702E+002
 11
6.4735548E+001
 21
1.7304413E+002
  0
LINE
  5
12f
100
AcDbEntity
  8
1
100
AcDbLine
  6
CONTINUOUS
 62
1
 10
5.9735548E+001
 20
1.7244413E+002
 11
6.2235548E+001
 21
1.7244413E+002
  0
LINE
  5
130
100
AcDbEntity
  8
1
100
AcDbLine
  6
CONTINUOUS
 62
1
 10
6.4735548E+001
 20
1.7244413E+002
 11
6.2235548E+001
 21
1.7244413E+002
  0
TEXT
  5
131
100
AcDbEntity
  8
1
100
AcDbText
  6
CONTINUOUS
 62
1
 10
6.1035548E+001
 20
1.7294513E+002
 40
3.0
  1
5
 41
8.0E-001
100
AcDbText
  0
INSERT
  5
132
100
AcDbEntity
100
AcDbBlockReference
  2
_AH2
  8
1
 62
1
 10
5.9735548E+001
 20
1.7244413E+002
 41
1.5
 42
1.5
 43
1.5
 50
1.8E+002
  0
INSERT
  5
133
100
AcDbEntity
100
AcDbBlockReference
  2
_AH2
  8
1
 62
1
 10
6.4735548E+001
 20
1.7244413E+002
 41
1.5
 42
1.5
 43
1.5
 50
0.0
  0
ENDBLK
  5
134
100
AcDbEntity
100
AcDbBlockEnd
  0
BLOCK
  5
135
100
AcDbEntity
100
AcDbBlockBegin
  2
*D1300
  3
*D
 10
0.0
 20
0.0
 70
65
  0
LINE
  5
136
100
AcDbEntity
  8
1
100
AcDbLine
  6
CONTINUOUS
 62
1
 10
6.2840548E+001
 20
6.5042573E+001
 11
6.2840548E+001
 21
7.4467041E+001
  0
LINE
  5
137
100
AcDbEntity
  8
1
100
AcDbLine
  6
CONTINUOUS
 62
1
 10
8.1840548E+001
 20
6.5042573E+001
 11
8.1840548E+001
 21
7.4467041E+001
  0
LINE
  5
138
100
AcDbEntity
  8
1
100
AcDbLine
  6
CONTINUOUS
 62
1
 10
6.2840548E+001
 20
7.3967041E+001
 11
7.2340548E+001
 21
7.3967041E+001
  0
LINE
  5
139
100
AcDbEntity
  8
1
100
AcDbLine
  6
CONTINUOUS
 62
1
 10
8.1840548E+001
 20
7.3967041E+001
 11
7.2340548E+001
 21
7.3967041E+001
  0
TEXT
  5
13a
100
AcDbEntity
  8
1
100
AcDbText
  6
CONTINUOUS
 62
1
 10
6.8740548E+001
 20
7.4468041E+001
 40
3.0
  1
%%c19
 41
8.0E-001
100
AcDbText
  0
INSERT
  5
13b
100
AcDbEntity
100
AcDbBlockReference
  2
_AH2
  8
1
 62
1
 10
6.2840548E+001
 20
7.3967041E+001
 41
1.5
 42
1.5
 43
1.5
 50
1.8E+002
  0
INSERT
  5
13c
100
AcDbEntity
100
AcDbBlockReference
  2
_AH2
  8
1
 62
1
 10
8.1840548E+001
 20
7.3967041E+001
 41
1.5
 42
1.5
 43
1.5
 50
0.0
  0
ENDBLK
  5
13d
100
AcDbEntity
100
AcDbBlockEnd
  0
BLOCK
  5
13e
100
AcDbEntity
100
AcDbBlockBegin
  2
*D1301
  3
*D
 10
0.0
 20
0.0
 70
65
  0
LINE
  5
13f
100
AcDbEntity
  8
1
100
AcDbLine
  6
CONTINUOUS
 62
1
 10
3.1840548E+001
 20
6.5542573E+001
 11
2.2713523E+001
 21
6.5542573E+001
  0
LINE
  5
140
100
AcDbEntity
  8
1
100
AcDbLine
  6
CONTINUOUS
 62
1
 10
6.2340548E+001
 20
5.4042573E+001
 11
2.2713523E+001
 21
5.4042573E+001
  0
LINE
  5
141
100
AcDbEntity
  8
1
100
AcDbLine
  6
CONTINUOUS
 62
1
 10
2.3213523E+001
 20
6.5542573E+001
 11
2.3213523E+001
 21
5.9792573E+001
  0
LINE
  5
142
100
AcDbEntity
  8
1
100
AcDbLine
  6
CONTINUOUS
 62
1
 10
2.3213523E+001
 20
5.4042573E+001
 11
2.3213523E+001
 21
5.9792573E+001
  0
TEXT
  5
143
100
AcDbEntity
  8
1
100
AcDbText
  6
CONTINUOUS
 62
1
 10
2.2712523E+001
 20
5.4992573E+001
 40
3.0
  1
11.5
 41
8.0E-001
 50
9.0E+001
100
AcDbText
  0
INSERT
  5
144
100
AcDbEntity
100
AcDbBlockReference
  2
_AH2
  8
1
 62
1
 10
2.3213523E+001
 20
6.5542573E+001
 41
1.5
 42
1.5
 43
1.5
 50
9.0E+001
  0
INSERT
  5
145
100
AcDbEntity
100
AcDbBlockReference
  2
_AH2
  8
1
 62
1
 10
2.3213523E+001
 20
5.4042573E+001
 41
1.5
 42
1.5
 43
1.5
 50
2.7E+002
  0
ENDBLK
  5
146
100
AcDbEntity
100
AcDbBlockEnd
  0
BLOCK
  5
147
100
AcDbEntity
100
AcDbBlockBegin
  2
*D1302
  3
*D
 10
0.0
 20
0.0
 70
65
  0
LINE
  5
148
100
AcDbEntity
  8
1
100
AcDbLine
  6
CONTINUOUS
 62
1
 10
6.7840548E+001
 20
4.1042573E+001
 11
6.7840548E+001
 21
2.6524293E+001
  0
LINE
  5
149
100
AcDbEntity
  8
1
100
AcDbLine
  6
CONTINUOUS
 62
1
 10
7.6840548E+001
 20
4.1042573E+001
 11
7.6840548E+001
 21
2.6524293E+001
  0
LINE
  5
14a
100
AcDbEntity
  8
1
100
AcDbLine
  6
CONTINUOUS
 62
1
 10
7.6840548E+001
 20
2.7024293E+001
 11
6.7840548E+001
 21
2.7024293E+001
  0
LINE
  5
14b
100
AcDbEntity
  8
1
100
AcDbLine
  6
CONTINUOUS
 62
1
 10
7.6840548E+001
 20
2.7024293E+001
 11
8.7214622E+001
 21
2.7024293E+001
  0
TEXT
  5
14c
100
AcDbEntity
  8
1
100
AcDbText
  6
CONTINUOUS
 62
1
 10
8.0914622E+001
 20
2.7525293E+001
 40
3.0
  1
%%c9
 41
8.0E-001
100
AcDbText
  0
INSERT
  5
14d
100
AcDbEntity
100
AcDbBlockReference
  2
_AH2
  8
1
 62
1
 10
6.7840548E+001
 20
2.7024293E+001
 41
1.5
 42
1.5
 43
1.5
 50
1.8E+002
  0
INSERT
  5
14e
100
AcDbEntity
100
AcDbBlockReference
  2
_AH2
  8
1
 62
1
 10
7.6840548E+001
 20
2.7024293E+001
 41
1.5
 42
1.5
 43
1.5
 50
0.0
  0
ENDBLK
  5
14f
100
AcDbEntity
100
AcDbBlockEnd
  0
BLOCK
  5
150
100
AcDbEntity
100
AcDbBlockBegin
  2
*D1312
  3
*D
 10
0.0
 20
0.0
 70
65
  0
LINE
  5
151
100
AcDbEntity
  8
1
100
AcDbLine
  6
CONTINUOUS
 62
1
 10
2.1466309E+002
 20
4.1542573E+001
 11
2.0634343E+002
 21
4.1542573E+001
  0
LINE
  5
152
100
AcDbEntity
  8
1
100
AcDbLine
  6
CONTINUOUS
 62
1
 10
2.4466309E+002
 20
3.5542573E+001
 11
2.0634343E+002
 21
3.5542573E+001
  0
LINE
  5
153
100
AcDbEntity
  8
1
100
AcDbLine
  6
CONTINUOUS
 62
1
 10
2.0679343E+002
 20
4.1542573E+001
 11
2.0679343E+002
 21
3.8542573E+001
  0
LINE
  5
154
100
AcDbEntity
  8
1
100
AcDbLine
  6
CONTINUOUS
 62
1
 10
2.0679343E+002
 20
3.5542573E+001
 11
2.0679343E+002
 21
3.8542573E+001
  0
TEXT
  5
155
100
AcDbEntity
  8
1
100
AcDbText
  6
CONTINUOUS
 62
1
 10
2.0641743E+002
 20
3.7342573E+001
 40
3.0
  1
6
 41
8.0E-001
 50
9.0E+001
100
AcDbText
  0
INSERT
  5
156
100
AcDbEntity
100
AcDbBlockReference
  2
_AH2
  8
1
 62
1
 10
2.0679343E+002
 20
4.1542573E+001
 41
1.125
 42
1.125
 43
1.125
 50
9.0E+001
  0
INSERT
  5
157
100
AcDbEntity
100
AcDbBlockReference
  2
_AH2
  8
1
 62
1
 10
2.0679343E+002
 20
3.5542573E+001
 41
1.125
 42
1.125
 43
1.125
 50
2.7E+002
  0
ENDBLK
  5
158
100
AcDbEntity
100
AcDbBlockEnd
  0
BLOCK
  5
159
100
AcDbEntity
100
AcDbBlockBegin
  2
*D1313
  3
*D
 10
0.0
 20
0.0
 70
65
  0
LINE
  5
15a
100
AcDbEntity
  8
1
100
AcDbLine
  6
CONTINUOUS
 62
1
 10
2.1466309E+002
 20
6.5542573E+001
 11
1.9857134E+002
 21
6.5542573E+001
  0
LINE
  5
15b
100
AcDbEntity
  8
1
100
AcDbLine
  6
CONTINUOUS
 62
1
 10
2.4466309E+002
 20
3.5542573E+001
 11
1.9857134E+002
 21
3.5542573E+001
  0
LINE
  5
15c
100
AcDbEntity
  8
1
100
AcDbLine
  6
CONTINUOUS
 62
1
 10
1.9902134E+002
 20
6.5542573E+001
 11
1.9902134E+002
 21
5.0542573E+001
  0
LINE
  5
15d
100
AcDbEntity
  8
1
100
AcDbLine
  6
CONTINUOUS
 62
1
 10
1.9902134E+002
 20
3.5542573E+001
 11
1.9902134E+002
 21
5.0542573E+001
  0
TEXT
  5
15e
100
AcDbEntity
  8
1
100
AcDbText
  6
CONTINUOUS
 62
1
 10
1.9864534E+002
 20
4.8142573E+001
 40
3.0
  1
30
 41
8.0E-001
 50
9.0E+001
100
AcDbText
  0
INSERT
  5
15f
100
AcDbEntity
100
AcDbBlockReference
  2
_AH2
  8
1
 62
1
 10
1.9902134E+002
 20
6.5542573E+001
 41
1.125
 42
1.125
 43
1.125
 50
9.0E+001
  0
INSERT
  5
160
100
AcDbEntity
100
AcDbBlockReference
  2
_AH2
  8
1
 62
1
 10
1.9902134E+002
 20
3.5542573E+001
 41
1.125
 42
1.125
 43
1.125
 50
2.7E+002
  0
ENDBLK
  5
161
100
AcDbEntity
100
AcDbBlockEnd
  0
BLOCK
  5
162
100
AcDbEntity
100
AcDbBlockBegin
  2
*D1314
  3
*D
 10
0.0
 20
0.0
 70
65
  0
LINE
  5
163
100
AcDbEntity
  8
1
100
AcDbLine
  6
CONTINUOUS
 62
1
 10
2.1503809E+002
 20
4.1167573E+001
 11
2.1503809E+002
 21
2.6265055E+001
  0
LINE
  5
164
100
AcDbEntity
  8
1
100
AcDbLine
  6
CONTINUOUS
 62
1
 10
2.4503809E+002
 20
3.5167573E+001
 11
2.4503809E+002
 21
2.6265055E+001
  0
LINE
  5
165
100
AcDbEntity
  8
1
100
AcDbLine
  6
CONTINUOUS
 62
1
 10
2.1503809E+002
 20
2.6715055E+001
 11
2.3003809E+002
 21
2.6715055E+001
  0
LINE
  5
166
100
AcDbEntity
  8
1
100
AcDbLine
  6
CONTINUOUS
 62
1
 10
2.4503809E+002
 20
2.6715055E+001
 11
2.3003809E+002
 21
2.6715055E+001
  0
TEXT
  5
167
100
AcDbEntity
  8
1
100
AcDbText
  6
CONTINUOUS
 62
1
 10
2.2763809E+002
 20
2.7091055E+001
 40
3.0
  1
30
 41
8.0E-001
100
AcDbText
  0
INSERT
  5
168
100
AcDbEntity
100
AcDbBlockReference
  2
_AH2
  8
1
 62
1
 10
2.1503809E+002
 20
2.6715055E+001
 41
1.125
 42
1.125
 43
1.125
 50
1.8E+002
  0
INSERT
  5
169
100
AcDbEntity
100
AcDbBlockReference
  2
_AH2
  8
1
 62
1
 10
2.4503809E+002
 20
2.6715055E+001
 41
1.125
 42
1.125
 43
1.125
 50
0.0
  0
ENDBLK
  5
16a
100
AcDbEntity
100
AcDbBlockEnd
  0
BLOCK
  5
16b
100
AcDbEntity
100
AcDbBlockBegin
  2
*D1407
  3
*D
 10
0.0
 20
0.0
 70
65
  0
LINE
  5
16c
100
AcDbEntity
  8
1
100
AcDbLine
  6
CONTINUOUS
 62
1
 10
1.8334055E+002
 20
1.6619702E+002
 11
1.8334055E+002
 21
1.8148503E+002
  0
LINE
  5
16d
100
AcDbEntity
  8
1
100
AcDbLine
  6
CONTINUOUS
 62
1
 10
3.2340548E+001
 20
1.6619702E+002
 11
3.2340548E+001
 21
1.8148503E+002
  0
LINE
  5
16e
100
AcDbEntity
  8
1
100
AcDbLine
  6
CONTINUOUS
 62
1
 10
1.8334055E+002
 20
1.8088503E+002
 11
1.0784055E+002
 21
1.8088503E+002
  0
LINE
  5
16f
100
AcDbEntity
  8
1
100
AcDbLine
  6
CONTINUOUS
 62
1
 10
3.2340548E+001
 20
1.8088503E+002
 11
1.0784055E+002
 21
1.8088503E+002
  0
TEXT
  5
170
100
AcDbEntity
  8
1
100
AcDbText
  6
CONTINUOUS
 62
1
 10
1.0424055E+002
 20
1.8138602E+002
 40
3.0
  1
151
 41
8.0E-001
 50
3.6E+002
100
AcDbText
  0
INSERT
  5
171
100
AcDbEntity
100
AcDbBlockReference
  2
_AH2
  8
1
 62
1
 10
1.8334055E+002
 20
1.8088503E+002
 41
1.5
 42
1.5
 43
1.5
 50
0.0
  0
INSERT
  5
172
100
AcDbEntity
100
AcDbBlockReference
  2
_AH2
  8
1
 62
1
 10
3.2340548E+001
 20
1.8088503E+002
 41
1.5
 42
1.5
 43
1.5
 50
1.8E+002
  0
ENDBLK
  5
173
100
AcDbEntity
100
AcDbBlockEnd
  0
BLOCK
  5
174
100
AcDbEntity
100
AcDbBlockBegin
  2
*D1409
  3
*D
 10
0.0
 20
0.0
 70
65
  0
LINE
  5
175
100
AcDbEntity
  8
1
100
AcDbLine
  6
CONTINUOUS
 62
1
 10
1.8384055E+002
 20
1.6569702E+002
 11
1.9546263E+002
 21
1.6569702E+002
  0
LINE
  5
176
100
AcDbEntity
  8
1
100
AcDbLine
  6
CONTINUOUS
 62
1
 10
1.8384055E+002
 20
1.1119702E+002
 11
1.9546263E+002
 21
1.1119702E+002
  0
LINE
  5
177
100
AcDbEntity
  8
1
100
AcDbLine
  6
CONTINUOUS
 62
1
 10
1.9486263E+002
 20
1.6569702E+002
 11
1.9486263E+002
 21
1.3844702E+002
  0
LINE
  5
178
100
AcDbEntity
  8
1
100
AcDbLine
  6
CONTINUOUS
 62
1
 10
1.9486263E+002
 20
1.1119702E+002
 11
1.9486263E+002
 21
1.3844702E+002
  0
TEXT
  5
179
100
AcDbEntity
  8
1
100
AcDbText
  6
CONTINUOUS
 62
1
 10
1.9436163E+002
 20
1.3364702E+002
 40
3.0
  1
54.5
 41
8.0E-001
 50
9.0E+001
100
AcDbText
  0
INSERT
  5
17a
100
AcDbEntity
100
AcDbBlockReference
  2
_AH2
  8
1
 62
1
 10
1.9486263E+002
 20
1.6569702E+002
 41
1.5
 42
1.5
 43
1.5
 50
9.0E+001
  0
INSERT
  5
17b
100
AcDbEntity
100
AcDbBlockReference
  2
_AH2
  8
1
 62
1
 10
1.9486263E+002
 20
1.1119702E+002
 41
1.5
 42
1.5
 43
1.5
 50
2.7E+002
  0
ENDBLK
  5
17c
100
AcDbEntity
100
AcDbBlockEnd
  0
BLOCK
  5
17d
100
AcDbEntity
100
AcDbBlockBegin
  2
*D1410
  3
*D
 10
0.0
 20
0.0
 70
65
  0
LINE
  5
17e
100
AcDbEntity
  8
1
100
AcDbLine
  6
CONTINUOUS
 62
1
 10
1.8334055E+002
 20
1.1069702E+002
 11
1.8334055E+002
 21
9.6643444E+001
  0
LINE
  5
17f
100
AcDbEntity
  8
1
100
AcDbLine
  6
CONTINUOUS
 62
1
 10
1.4334055E+002
 20
1.1782217E+002
 11
1.4334055E+002
 21
9.6643444E+001
  0
LINE
  5
180
100
AcDbEntity
  8
1
100
AcDbLine
  6
CONTINUOUS
 62
1
 10
1.8334055E+002
 20
9.7243444E+001
 11
1.6334055E+002
 21
9.7243444E+001
  0
LINE
  5
181
100
AcDbEntity
  8
1
100
AcDbLine
  6
CONTINUOUS
 62
1
 10
1.4334055E+002
 20
9.7243444E+001
 11
1.6334055E+002
 21
9.7243444E+001
  0
TEXT
  5
182
100
AcDbEntity
  8
1
100
AcDbText
  6
CONTINUOUS
 62
1
 10
1.6094055E+002
 20
9.7744444E+001
 40
3.0
  1
40
 41
8.0E-001
 50
3.6E+002
100
AcDbText
  0
INSERT
  5
183
100
AcDbEntity
100
AcDbBlockReference
  2
_AH2
  8
1
 62
1
 10
1.8334055E+002
 20
9.7243444E+001
 41
1.5
 42
1.5
 43
1.5
 50
0.0
  0
INSERT
  5
184
100
AcDbEntity
100
AcDbBlockReference
  2
_AH2
  8
1
 62
1
 10
1.4334055E+002
 20
9.7243444E+001
 41
1.5
 42
1.5
 43
1.5
 50
1.8E+002
  0
ENDBLK
  5
185
100
AcDbEntity
100
AcDbBlockEnd
  0
BLOCK
  5
186
100
AcDbEntity
100
AcDbBlockBegin
  2
*D1411
  3
*D
 10
0.0
 20
0.0
 70
65
  0
LINE
  5
187
100
AcDbEntity
  8
1
100
AcDbLine
  6
CONTINUOUS
 62
1
 10
7.2340548E+001
 20
1.1762163E+002
 11
7.2340548E+001
 21
9.6643444E+001
  0
LINE
  5
188
100
AcDbEntity
  8
1
100
AcDbLine
  6
CONTINUOUS
 62
1
 10
1.4334055E+002
 20
9.7243444E+001
 11
1.0784055E+002
 21
9.7243444E+001
  0
LINE
  5
189
100
AcDbEntity
  8
1
100
AcDbLine
  6
CONTINUOUS
 62
1
 10
7.2340548E+001
 20
9.7243444E+001
 11
1.0784055E+002
 21
9.7243444E+001
  0
TEXT
  5
18a
100
AcDbEntity
  8
1
100
AcDbText
  6
CONTINUOUS
 62
1
 10
1.0544055E+002
 20
9.7744444E+001
 40
3.0
  1
71
 41
8.0E-001
 50
3.6E+002
100
AcDbText
  0
INSERT
  5
18b
100
AcDbEntity
100
AcDbBlockReference
  2
_AH2
  8
1
 62
1
 10
1.4334055E+002
 20
9.7243444E+001
 41
1.5
 42
1.5
 43
1.5
 50
0.0
  0
INSERT
  5
18c
100
AcDbEntity
100
AcDbBlockReference
  2
_AH2
  8
1
 62
1
 10
7.2340548E+001
 20
9.7243444E+001
 41
1.5
 42
1.5
 43
1.5
 50
1.8E+002
  0
ENDBLK
  5
18d
100
AcDbEntity
100
AcDbBlockEnd
  0
BLOCK
  5
18e
100
AcDbEntity
100
AcDbBlockBegin
  2
*D1412
  3
*D
 10
0.0
 20
0.0
 70
65
  0
LINE
  5
18f
100
AcDbEntity
  8
1
100
AcDbLine
  6
CONTINUOUS
 62
1
 10
3.2340548E+001
 20
1.1069702E+002
 11
3.2340548E+001
 21
9.6643444E+001
  0
LINE
  5
190
100
AcDbEntity
  8
1
100
AcDbLine
  6
CONTINUOUS
 62
1
 10
7.2340548E+001
 20
9.7243444E+001
 11
5.2340548E+001
 21
9.7243444E+001
  0
LINE
  5
191
100
AcDbEntity
  8
1
100
AcDbLine
  6
CONTINUOUS
 62
1
 10
3.2340548E+001
 20
9.7243444E+001
 11
5.2340548E+001
 21
9.7243444E+001
  0
TEXT
  5
192
100
AcDbEntity
  8
1
100
AcDbText
  6
CONTINUOUS
 62
1
 10
4.9940548E+001
 20
9.7744444E+001
 40
3.0
  1
40
 41
8.0E-001
 50
3.6E+002
100
AcDbText
  0
INSERT
  5
193
100
AcDbEntity
100
AcDbBlockReference
  2
_AH2
  8
1
 62
1
 10
7.2340548E+001
 20
9.7243444E+001
 41
1.5
 42
1.5
 43
1.5
 50
0.0
  0
INSERT
  5
194
100
AcDbEntity
100
AcDbBlockReference
  2
_AH2
  8
1
 62
1
 10
3.2340548E+001
 20
9.7243444E+001
 41
1.5
 42
1.5
 43
1.5
 50
1.8E+002
  0
ENDBLK
  5
195
100
AcDbEntity
100
AcDbBlockEnd
  0
BLOCK
  5
196
100
AcDbEntity
100
AcDbBlockBegin
  2
*D1440
  3
*D
 10
0.0
 20
0.0
 70
65
  0
LINE
  5
197
100
AcDbEntity
  8
1
100
AcDbLine
  6
CONTINUOUS
 62
1
 10
2.1466309E+002
 20
4.1542573E+001
 11
2.0641843E+002
 21
4.1542573E+001
  0
LINE
  5
198
100
AcDbEntity
  8
1
100
AcDbLine
  6
CONTINUOUS
 62
1
 10
2.0679343E+002
 20
6.5542573E+001
 11
2.0679343E+002
 21
5.3542573E+001
  0
LINE
  5
199
100
AcDbEntity
  8
1
100
AcDbLine
  6
CONTINUOUS
 62
1
 10
2.0679343E+002
 20
4.1542573E+001
 11
2.0679343E+002
 21
5.3542573E+001
  0
TEXT
  5
19a
100
AcDbEntity
  8
1
100
AcDbText
  6
CONTINUOUS
 62
1
 10
2.0641743E+002
 20
5.1142573E+001
 40
3.0
  1
24
 41
8.0E-001
 50
9.0E+001
100
AcDbText
  0
INSERT
  5
19b
100
AcDbEntity
100
AcDbBlockReference
  2
_AH2
  8
1
 62
1
 10
2.0679343E+002
 20
6.5542573E+001
 41
1.125
 42
1.125
 43
1.125
 50
9.0E+001
  0
INSERT
  5
19c
100
AcDbEntity
100
AcDbBlockReference
  2
_AH2
  8
1
 62
1
 10
2.0679343E+002
 20
4.1542573E+001
 41
1.125
 42
1.125
 43
1.125
 50
2.7E+002
  0
ENDBLK
  5
19d
100
AcDbEntity
100
AcDbBlockEnd
  0
BLOCK
  5
19e
100
AcDbEntity
100
AcDbBlockBegin
  2
*D1441
  3
*D
 10
0.0
 20
0.0
 70
65
  0
LINE
  5
19f
100
AcDbEntity
  8
1
100
AcDbLine
  6
CONTINUOUS
 62
1
 10
2.530606E+002
 20
5.1755127E+001
 11
2.7001558E+002
 21
6.0330019E+001
  0
LINE
  5
1a0
100
AcDbEntity
  8
1
100
AcDbLine
  6
CONTINUOUS
 62
1
 10
2.7001558E+002
 20
6.0330019E+001
 11
2.764013E+002
 21
6.3559566E+001
  0
LINE
  5
1a1
100
AcDbEntity
  8
1
100
AcDbLine
  6
CONTINUOUS
 62
1
 10
2.530606E+002
 20
5.1755127E+001
 11
2.5397989E+002
 21
5.2430169E+001
  0
LINE
  5
1a2
100
AcDbEntity
  8
1
100
AcDbLine
  6
CONTINUOUS
 62
1
 10
2.530606E+002
 20
5.1755127E+001
 11
2.5414914E+002
 21
5.2095532E+001
  0
LINE
  5
1a3
100
AcDbEntity
  8
1
100
AcDbLine
  6
CONTINUOUS
 62
1
 10
2.858513E+002
 20
6.3559566E+001
 11
2.764013E+002
 21
6.3559566E+001
  0
TEXT
  5
1a4
100
AcDbEntity
  8
1
100
AcDbText
  6
CONTINUOUS
 62
1
 10
2.775263E+002
 20
6.4684566E+001
 40
3.0
  1
%%c19
 41
8.0E-001
100
AcDbText
  0
INSERT
  5
1a5
100
AcDbEntity
100
AcDbBlockReference
  2
_AH2
  8
1
 62
1
 10
2.7001558E+002
 20
6.0330019E+001
 41
1.125
 42
1.125
 43
1.125
 50
2.6827772E+001
  0
INSERT
  5
1a6
100
AcDbEntity
100
AcDbBlockReference
  2
_AH2
  8
1
 62
1
 10
2.530606E+002
 20
5.1755127E+001
 41
1.125
 42
1.125
 43
1.125
 50
2.0682777E+002
  0
ENDBLK
  5
1a7
100
AcDbEntity
100
AcDbBlockEnd
  0
ENDSEC
  0
SECTION
  2
ENTITIES
  0
DIMENSION
  5
1a8
100
AcDbEntity
  8
1
100
AcDbDimension
  6
CONTINUOUS
 62
1
  2
*D976
  3
DSTYLE1
 10
2.7053809E+002
 20
1.8231261E+001
 11
2.4278809E+002
 21
2.0232261E+001
 70
128
100
AcDbAlignedDimension
 13
2.1503809E+002
 23
4.1542573E+001
 14
2.7053809E+002
 24
5.5842573E+001
 40
3.0
 50
0.0
100
AcDbRotatedDimension
1001
ACAD
1000
DSTYLE
1002
{
1070
173
1070
0
1070
5
1000
_AH2
1002
}
  0
DIMENSION
  5
1a9
100
AcDbEntity
  8
1
100
AcDbDimension
  6
CONTINUOUS
 62
1
  2
*D977
  3
DSTYLE2
 10
6.4735548E+001
 20
1.7244413E+002
 11
6.2235548E+001
 21
1.7444513E+002
 70
128
100
AcDbAlignedDimension
 13
5.9735548E+001
 23
1.6619702E+002
 14
6.4735548E+001
 24
1.6619702E+002
 40
3.0
 50
0.0
100
AcDbRotatedDimension
1001
ACAD
1000
DSTYLE
1002
{
1070
173
1070
0
1070
5
1000
_AH2
1002
}
  0
LINE
  5
1aa
100
AcDbEntity
  8
1
100
AcDbLine
  6
HIDDEN
 62
7
 10
8.1840548E+001
 20
6.4542573E+001
 11
8.2840548E+001
 21
6.5542573E+001
  0
LINE
  5
1ab
100
AcDbEntity
  8
1
100
AcDbLine
  6
HIDDEN
 62
7
 10
6.2840548E+001
 20
6.4542573E+001
 11
6.1840548E+001
 21
6.5542573E+001
  0
LINE
  5
1ac
100
AcDbEntity
  8
1
100
AcDbLine
  6
HIDDEN
 62
7
 10
6.2840548E+001
 20
6.4542573E+001
 11
8.1840548E+001
 21
6.4542573E+001
  0
LINE
  5
1ad
100
AcDbEntity
  8
1
100
AcDbLine
  6
HIDDEN
 62
7
 10
1.5284055E+002
 20
6.4542573E+001
 11
1.5384055E+002
 21
6.5542573E+001
  0
LINE
  5
1ae
100
AcDbEntity
  8
1
100
AcDbLine
  6
HIDDEN
 62
7
 10
1.3384055E+002
 20
6.4542573E+001
 11
1.3284055E+002
 21
6.5542573E+001
  0
LINE
  5
1af
100
AcDbEntity
  8
1
100
AcDbLine
  6
HIDDEN
 62
7
 10
1.3384055E+002
 20
6.4542573E+001
 11
1.5284055E+002
 21
6.4542573E+001
  0
LINE
  5
1b0
100
AcDbEntity
  8
1
100
AcDbLine
  6
CONTINUOUS
 62
7
 10
1.8334055E+002
 20
3.5542573E+001
 11
3.2340548E+001
 21
3.5542573E+001
  0
LINE
  5
1b1
100
AcDbEntity
  8
1
100
AcDbLine
  6
CONTINUOUS
 62
7
 10
3.2340548E+001
 20
6.5542573E+001
 11
3.2340548E+001
 21
3.5542573E+001
  0
LINE
  5
1b2
100
AcDbEntity
  8
1
100
AcDbLine
  6
CONTINUOUS
 62
7
 10
1.8334055E+002
 20
6.5542573E+001
 11
3.2340548E+001
 21
6.5542573E+001
  0
LINE
  5
1b3
100
AcDbEntity
  8
1
100
AcDbLine
  6
CONTINUOUS
 62
7
 10
1.8334055E+002
 20
6.5542573E+001
 11
1.8334055E+002
 21
3.5542573E+001
  0
LINE
  5
1b4
100
AcDbEntity
  8
1
100
AcDbLine
  6
CENTERLINE
 62
6
 10
7.2340548E+001
 20
6.7488507E+001
 11
7.2340548E+001
 21
3.9699969E+001
  0
LINE
  5
1b5
100
AcDbEntity
  8
1
100
AcDbLine
  6
HIDDEN
 62
7
 10
6.7840548E+001
 20
5.4042573E+001
 11
6.7840548E+001
 21
4.1542573E+001
  0
LINE
  5
1b6
100
AcDbEntity
  8
1
100
AcDbLine
  6
HIDDEN
 62
7
 10
6.2840548E+001
 20
6.4542573E+001
 11
6.2840548E+001
 21
5.4042573E+001
  0
LINE
  5
1b7
100
AcDbEntity
  8
1
100
AcDbLine
  6
CONTINUOUS
 62
7
 10
1.8334055E+002
 20
4.1542573E+001
 11
3.2340548E+001
 21
4.1542573E+001
  0
LINE
  5
1b8
100
AcDbEntity
  8
1
100
AcDbLine
  6
HIDDEN
 62
7
 10
8.1840548E+001
 20
5.4042573E+001
 11
6.2840548E+001
 21
5.4042573E+001
  0
LINE
  5
1b9
100
AcDbEntity
  8
1
100
AcDbLine
  6
HIDDEN
 62
7
 10
7.6840548E+001
 20
5.4042573E+001
 11
7.6840548E+001
 21
4.1542573E+001
  0
LINE
  5
1ba
100
AcDbEntity
  8
1
100
AcDbLine
  6
HIDDEN
 62
7
 10
8.1840548E+001
 20
6.4542573E+001
 11
8.1840548E+001
 21
5.4042573E+001
  0
LINE
  5
1bb
100
AcDbEntity
  8
1
100
AcDbLine
  6
CENTERLINE
 62
6
 10
1.4334055E+002
 20
6.7488507E+001
 11
1.4334055E+002
 21
3.9699969E+001
  0
LINE
  5
1bc
100
AcDbEntity
  8
1
100
AcDbLine
  6
HIDDEN
 62
7
 10
1.3884055E+002
 20
5.4042573E+001
 11
1.3884055E+002
 21
4.1542573E+001
  0
LINE
  5
1bd
100
AcDbEntity
  8
1
100
AcDbLine
  6
HIDDEN
 62
7
 10
1.3384055E+002
 20
6.4542573E+001
 11
1.3384055E+002
 21
5.4042573E+001
  0
LINE
  5
1be
100
AcDbEntity
  8
1
100
AcDbLine
  6
HIDDEN
 62
7
 10
1.5284055E+002
 20
5.4042573E+001
 11
1.3384055E+002
 21
5.4042573E+001
  0
LINE
  5
1bf
100
AcDbEntity
  8
1
100
AcDbLine
  6
HIDDEN
 62
7
 10
1.4784055E+002
 20
5.4042573E+001
 11
1.4784055E+002
 21
4.1542573E+001
  0
LINE
  5
1c0
100
AcDbEntity
  8
1
100
AcDbLine
  6
HIDDEN
 62
7
 10
1.5284055E+002
 20
6.4542573E+001
 11
1.5284055E+002
 21
5.4042573E+001
  0
DIMENSION
  5
1c1
100
AcDbEntity
  8
1
100
AcDbDimension
  6
CONTINUOUS
 62
1
  2
*D1300
  3
DSTYLE3
 10
8.1840548E+001
 20
7.3967041E+001
 11
7.2340548E+001
 21
7.5968041E+001
 70
128
100
AcDbAlignedDimension
 13
6.2840548E+001
 23
6.4542573E+001
 14
8.1840548E+001
 24
6.4542573E+001
 40
1.0
 50
0.0
100
AcDbRotatedDimension
1001
ACAD
1000
DSTYLE
1002
{
1070
173
1070
0
1070
5
1000
_AH2
1002
}
  0
DIMENSION
  5
1c2
100
AcDbEntity
  8
1
100
AcDbDimension
  6
CONTINUOUS
 62
1
  2
*D1301
  3
DSTYLE4
 10
2.3213523E+001
 20
5.4042573E+001
 11
2.1212523E+001
 21
5.9792573E+001
 70
128
100
AcDbAlignedDimension
 13
3.2340548E+001
 23
6.5542573E+001
 14
6.2840548E+001
 24
5.4042573E+001
 40
1.0
 50
9.0E+001
100
AcDbRotatedDimension
1001
ACAD
1000
DSTYLE
1002
{
1070
173
1070
0
1070
5
1000
_AH2
1002
}
  0
DIMENSION
  5
1c3
100
AcDbEntity
  8
1
100
AcDbDimension
  6
CONTINUOUS
 62
1
  2
*D1302
  3
DSTYLE3
 10
7.6840548E+001
 20
2.7024293E+001
 11
8.3314622E+001
 21
2.9025293E+001
 70
128
100
AcDbAlignedDimension
 13
6.7840548E+001
 23
4.1542573E+001
 14
7.6840548E+001
 24
4.1542573E+001
 40
1.0
 50
0.0
100
AcDbRotatedDimension
1001
ACAD
1000
DSTYLE
1002
{
1070
173
1070
0
1070
5
1000
_AH2
1002
}
  0
CIRCLE
  5
1c4
100
AcDbEntity
  8
1
100
AcDbCircle
  6
CONTINUOUS
 62
7
 10
2.6103809E+002
 20
5.5842573E+001
 40
4.975
  0
INSERT
  5
1c5
100
AcDbEntity
100
AcDbBlockReference
  2
*XH48
  8
1
 10
4.7562238E+001
 20
1.6351439E+002
  0
LINE
  5
1c6
100
AcDbEntity
  8
1
100
AcDbLine
  6
CONTINUOUS
 62
7
 10
2.4503809E+002
 20
3.5542573E+001
 11
2.6143809E+002
 21
3.5542573E+001
  0
LINE
  5
1c7
100
AcDbEntity
  8
1
100
AcDbLine
  6
CONTINUOUS
 62
7
 10
2.6143809E+002
 20
3.5542573E+001
 11
2.6874146E+002
 21
5.2234511E+001
  0
DIMENSION
  5
1c8
100
AcDbEntity
  8
1
100
AcDbDimension
  6
CONTINUOUS
 62
1
  2
*D1312
  3
DSTYLE5
 10
2.0679343E+002
 20
3.5542573E+001
 11
2.0491743E+002
 21
3.8542573E+001
 70
128
100
AcDbAlignedDimension
 13
2.1503809E+002
 23
4.1542573E+001
 14
2.4503809E+002
 24
3.5542573E+001
 40
2.25
 50
9.0E+001
100
AcDbRotatedDimension
1001
ACAD
1000
DSTYLE
1002
{
1070
173
1070
0
1070
5
1000
_AH2
1002
}
  0
DIMENSION
  5
1c9
100
AcDbEntity
  8
1
100
AcDbDimension
  6
CONTINUOUS
 62
1
  2
*D1313
  3
DSTYLE5
 10
1.9902134E+002
 20
3.5542573E+001
 11
1.9714534E+002
 21
5.0542573E+001
 70
128
100
AcDbAlignedDimension
 13
2.1503809E+002
 23
6.5542573E+001
 14
2.4503809E+002
 24
3.5542573E+001
 40
2.25
 50
9.0E+001
100
AcDbRotatedDimension
1001
ACAD
1000
DSTYLE
1002
{
1070
173
1070
0
1070
5
1000
_AH2
1002
}
  0
DIMENSION
  5
1ca
100
AcDbEntity
  8
1
100
AcDbDimension
  6
CONTINUOUS
 62
1
  2
*D1314
  3
DSTYLE5
 10
2.4503809E+002
 20
2.6715055E+001
 11
2.3003809E+002
 21
2.8591055E+001
 70
128
100
AcDbAlignedDimension
 13
2.1503809E+002
 23
4.1542573E+001
 14
2.4503809E+002
 24
3.5542573E+001
 40
2.25
 50
0.0
100
AcDbRotatedDimension
1001
ACAD
1000
DSTYLE
1002
{
1070
173
1070
0
1070
5
1000
_AH2
1002
}
  0
LINE
  5
1cb
100
AcDbEntity
  8
1
100
AcDbLine
  6
HIDDEN
 62
7
 10
2.2353809E+002
 20
6.4542573E+001
 11
2.2253809E+002
 21
6.5542573E+001
  0
LINE
  5
1cc
100
AcDbEntity
  8
1
100
AcDbLine
  6
HIDDEN
 62
7
 10
2.4253809E+002
 20
6.4542573E+001
 11
2.4353809E+002
 21
6.5542573E+001
  0
LINE
  5
1cd
100
AcDbEntity
  8
1
100
AcDbLine
  6
HIDDEN
 62
7
 10
2.2353809E+002
 20
6.4542573E+001
 11
2.4253809E+002
 21
6.4542573E+001
  0
LINE
  5
1ce
100
AcDbEntity
  8
1
100
AcDbLine
  6
CENTERLINE
 62
6
 10
2.6103809E+002
 20
5.0162972E+001
 11
2.6103809E+002
 21
6.1463218E+001
  0
CIRCLE
  5
1cf
100
AcDbEntity
  8
1
100
AcDbCircle
  6
CONTINUOUS
 62
7
 10
2.6103809E+002
 20
5.5842573E+001
 40
5.0
  0
LINE
  5
1d0
100
AcDbEntity
  8
1
100
AcDbLine
  6
CONTINUOUS
 62
7
 10
2.1503809E+002
 20
6.5542573E+001
 11
2.6003809E+002
 21
6.5542573E+001
  0
LINE
  5
1d1
100
AcDbEntity
  8
1
100
AcDbLine
  6
CONTINUOUS
 62
7
 10
2.1503809E+002
 20
4.1542573E+001
 11
2.1503809E+002
 21
6.5542573E+001
  0
LINE
  5
1d2
100
AcDbEntity
  8
1
100
AcDbLine
  6
CONTINUOUS
 62
7
 10
2.1503809E+002
 20
4.1542573E+001
 11
2.4503809E+002
 21
4.1542573E+001
  0
LINE
  5
1d3
100
AcDbEntity
  8
1
100
AcDbLine
  6
CONTINUOUS
 62
7
 10
2.4503809E+002
 20
3.5542573E+001
 11
2.4503809E+002
 21
4.1542573E+001
  0
LINE
  5
1d4
100
AcDbEntity
  8
1
100
AcDbLine
  6
CONTINUOUS
 62
7
 10
1.2549055E+002
 20
1.6569702E+002
 11
9.0190548E+001
 21
1.6569702E+002
  0
LINE
  5
1d5
100
AcDbEntity
  8
1
100
AcDbLine
  6
CONTINUOUS
 62
7
 10
3.2340548E+001
 20
1.6569702E+002
 11
4.9490548E+001
 21
1.6569702E+002
  0
LINE
  5
1d6
100
AcDbEntity
  8
1
100
AcDbLine
  6
CONTINUOUS
 62
7
 10
3.2340548E+001
 20
1.6569702E+002
 11
3.2340548E+001
 21
1.1119702E+002
  0
LINE
  5
1d7
100
AcDbEntity
  8
1
100
AcDbLine
  6
CONTINUOUS
 62
7
 10
7.4875548E+001
 20
1.4969702E+002
 11
7.4875548E+001
 21
1.6469702E+002
  0
LINE
  5
1d8
100
AcDbEntity
  8
1
100
AcDbLine
  6
CONTINUOUS
 62
7
 10
8.5085548E+001
 20
1.4965693E+002
 11
8.5085548E+001
 21
1.6465693E+002
  0
LINE
  5
1d9
100
AcDbEntity
  8
1
100
AcDbLine
  6
CONTINUOUS
 62
7
 10
9.0085548E+001
 20
1.4965693E+002
 11
9.0085548E+001
 21
1.6465693E+002
  0
LINE
  5
1da
100
AcDbEntity
  8
1
100
AcDbLine
  6
CONTINUOUS
 62
7
 10
6.9875548E+001
 20
1.6469702E+002
 11
7.4875548E+001
 21
1.6469702E+002
  0
LINE
  5
1db
100
AcDbEntity
  8
1
100
AcDbLine
  6
CONTINUOUS
 62
7
 10
6.9875548E+001
 20
1.4969702E+002
 11
7.4875548E+001
 21
1.4969702E+002
  0
LINE
  5
1dc
100
AcDbEntity
  8
1
100
AcDbLine
  6
CONTINUOUS
 62
7
 10
8.5085548E+001
 20
1.6465693E+002
 11
9.0085548E+001
 21
1.6465693E+002
  0
LINE
  5
1dd
100
AcDbEntity
  8
1
100
AcDbLine
  6
CONTINUOUS
 62
7
 10
8.5085548E+001
 20
1.4965693E+002
 11
9.0085548E+001
 21
1.4965693E+002
  0
LINE
  5
1de
100
AcDbEntity
  8
1
100
AcDbLine
  6
CONTINUOUS
 62
7
 10
6.4805548E+001
 20
1.4969702E+002
 11
6.4805548E+001
 21
1.6469702E+002
  0
LINE
  5
1df
100
AcDbEntity
  8
1
100
AcDbLine
  6
CONTINUOUS
 62
7
 10
5.4595548E+001
 20
1.4965693E+002
 11
5.4595548E+001
 21
1.6465693E+002
  0
LINE
  5
1e0
100
AcDbEntity
  8
1
100
AcDbLine
  6
CONTINUOUS
 62
7
 10
4.9595548E+001
 20
1.4965693E+002
 11
4.9595548E+001
 21
1.6465693E+002
  0
LINE
  5
1e1
100
AcDbEntity
  8
1
100
AcDbLine
  6
CONTINUOUS
 62
7
 10
6.9805548E+001
 20
1.6469702E+002
 11
6.4805548E+001
 21
1.6469702E+002
  0
LINE
  5
1e2
100
AcDbEntity
  8
1
100
AcDbLine
  6
CONTINUOUS
 62
7
 10
6.9805548E+001
 20
1.4969702E+002
 11
6.4805548E+001
 21
1.4969702E+002
  0
LINE
  5
1e3
100
AcDbEntity
  8
1
100
AcDbLine
  6
CONTINUOUS
 62
7
 10
5.4595548E+001
 20
1.6465693E+002
 11
4.9595548E+001
 21
1.6465693E+002
  0
LINE
  5
1e4
100
AcDbEntity
  8
1
100
AcDbLine
  6
CONTINUOUS
 62
7
 10
5.4595548E+001
 20
1.4965693E+002
 11
4.9595548E+001
 21
1.4965693E+002
  0
LINE
  5
1e5
100
AcDbEntity
  8
1
100
AcDbLine
  6
CONTINUOUS
 62
7
 10
6.9875548E+001
 20
1.6469702E+002
 11
6.9875548E+001
 21
1.4969702E+002
  0
LINE
  5
1e6
100
AcDbEntity
  8
1
100
AcDbLine
  6
CONTINUOUS
 62
7
 10
6.9805548E+001
 20
1.4969702E+002
 11
6.9805548E+001
 21
1.6469702E+002
  0
LINE
  5
1e7
100
AcDbEntity
  8
1
100
AcDbLine
  6
CONTINUOUS
 62
7
 10
7.4945548E+001
 20
1.4819702E+002
 11
7.4945548E+001
 21
1.6619702E+002
  0
LINE
  5
1e8
100
AcDbEntity
  8
1
100
AcDbLine
  6
CONTINUOUS
 62
7
 10
7.9945548E+001
 20
1.4819702E+002
 11
7.9945548E+001
 21
1.6619702E+002
  0
LINE
  5
1e9
100
AcDbEntity
  8
1
100
AcDbLine
  6
CONTINUOUS
 62
7
 10
8.0015548E+001
 20
1.4819702E+002
 11
8.0015548E+001
 21
1.6619702E+002
  0
LINE
  5
1ea
100
AcDbEntity
  8
1
100
AcDbLine
  6
CONTINUOUS
 62
7
 10
8.5015548E+001
 20
1.4819702E+002
 11
8.5015548E+001
 21
1.6619702E+002
  0
ARC
  5
1eb
100
AcDbEntity
  8
1
100
AcDbCircle
  6
CONTINUOUS
 62
7
 10
8.4515548E+001
 20
1.4819702E+002
 40
5.0E-001
100
AcDbArc
 50
2.7E+002
 51
3.6E+002
  0
LINE
  5
1ec
100
AcDbEntity
  8
1
100
AcDbLine
  6
CONTINUOUS
 62
7
 10
8.0515548E+001
 20
1.4769702E+002
 11
8.4515548E+001
 21
1.4769702E+002
  0
LINE
  5
1ed
100
AcDbEntity
  8
1
100
AcDbLine
  6
CONTINUOUS
 62
7
 10
7.5445548E+001
 20
1.4769702E+002
 11
7.9445548E+001
 21
1.4769702E+002
  0
ARC
  5
1ee
100
AcDbEntity
  8
1
100
AcDbCircle
  6
CONTINUOUS
 62
7
 10
7.5445548E+001
 20
1.4819702E+002
 40
5.0E-001
100
AcDbArc
 50
1.8E+002
 51
2.7E+002
  0
ARC
  5
1ef
100
AcDbEntity
  8
1
100
AcDbCircle
  6
CONTINUOUS
 62
7
 10
7.9445548E+001
 20
1.4819702E+002
 40
5.0E-001
100
AcDbArc
 50
2.7E+002
 51
3.6E+002
  0
ARC
  5
1f0
100
AcDbEntity
  8
1
100
AcDbCircle
  6
CONTINUOUS
 62
7
 10
8.0515548E+001
 20
1.4819702E+002
 40
5.0E-001
100
AcDbArc
 50
1.8E+002
 51
2.7E+002
  0
LINE
  5
1f1
100
AcDbEntity
  8
1
100
AcDbLine
  6
CONTINUOUS
 62
7
 10
8.0515548E+001
 20
1.6669702E+002
 11
8.4515548E+001
 21
1.6669702E+002
  0
ARC
  5
1f2
100
AcDbEntity
  8
1
100
AcDbCircle
  6
CONTINUOUS
 62
7
 10
8.0515548E+001
 20
1.6619702E+002
 40
5.0E-001
100
AcDbArc
 50
9.0E+001
 51
1.8E+002
  0
ARC
  5
1f3
100
AcDbEntity
  8
1
100
AcDbCircle
  6
CONTINUOUS
 62
7
 10
8.4515548E+001
 20
1.6619702E+002
 40
5.0E-001
100
AcDbArc
 50
0.0
 51
9.0E+001
  0
LINE
  5
1f4
100
AcDbEntity
  8
1
100
AcDbLine
  6
CENTERLINE
 62
6
 10
6.1173878E+001
 20
1.2919702E+002
 11
8.3333793E+001
 21
1.2919702E+002
  0
LINE
  5
1f5
100
AcDbEntity
  8
1
100
AcDbLine
  6
CENTERLINE
 62
6
 10
7.2340548E+001
 20
1.4018127E+002
 11
7.2340548E+001
 21
1.1812163E+002
  0
LINE
  5
1f6
100
AcDbEntity
  8
1
100
AcDbLine
  6
CENTERLINE
 62
6
 10
1.4334055E+002
 20
1.1832217E+002
 11
1.4334055E+002
 21
1.4028154E+002
  0
CIRCLE
  5
1f7
100
AcDbEntity
  8
1
100
AcDbCircle
  6
CONTINUOUS
 62
7
 10
1.4334055E+002
 20
1.2919702E+002
 40
4.5
  0
CIRCLE
  5
1f8
100
AcDbEntity
  8
1
100
AcDbCircle
  6
CONTINUOUS
 62
7
 10
1.4334055E+002
 20
1.2919702E+002
 40
9.5
  0
CIRCLE
  5
1f9
100
AcDbEntity
  8
1
100
AcDbCircle
  6
CONTINUOUS
 62
7
 10
7.2340548E+001
 20
1.2919702E+002
 40
4.5
  0
CIRCLE
  5
1fa
100
AcDbEntity
  8
1
100
AcDbCircle
  6
CONTINUOUS
 62
7
 10
7.2340548E+001
 20
1.2919702E+002
 40
9.5
  0
LINE
  5
1fb
100
AcDbEntity
  8
1
100
AcDbLine
  6
CENTERLINE
 62
6
 10
1.3246664E+002
 20
1.2919702E+002
 11
1.5422547E+002
 21
1.2919702E+002
  0
LINE
  5
1fc
100
AcDbEntity
  8
1
100
AcDbLine
  6
CENTERLINE
 62
6
 10
2.8739324E+001
 20
1.5719702E+002
 11
1.8717192E+002
 21
1.5719702E+002
  0
LINE
  5
1fd
100
AcDbEntity
  8
1
100
AcDbLine
  6
HIDDEN
 62
7
 10
1.8334055E+002
 20
1.4119702E+002
 11
3.2340548E+001
 21
1.4119702E+002
  0
LINE
  5
1fe
100
AcDbEntity
  8
1
100
AcDbLine
  6
CONTINUOUS
 62
7
 10
7.5445548E+001
 20
1.6669702E+002
 11
7.9445548E+001
 21
1.6669702E+002
  0
ARC
  5
1ff
100
AcDbEntity
  8
1
100
AcDbCircle
  6
CONTINUOUS
 62
7
 10
7.9445548E+001
 20
1.6619702E+002
 40
5.0E-001
100
AcDbArc
 50
0.0
 51
9.0E+001
  0
ARC
  5
200
100
AcDbEntity
  8
1
100
AcDbCircle
  6
CONTINUOUS
 62
7
 10
7.5445548E+001
 20
1.6619702E+002
 40
5.0E-001
100
AcDbArc
 50
9.0E+001
 51
1.8E+002
  0
LINE
  5
201
100
AcDbEntity
  8
1
100
AcDbLine
  6
CONTINUOUS
 62
7
 10
6.4735548E+001
 20
1.4819702E+002
 11
6.4735548E+001
 21
1.6619702E+002
  0
LINE
  5
202
100
AcDbEntity
  8
1
100
AcDbLine
  6
CONTINUOUS
 62
7
 10
5.9735548E+001
 20
1.4819702E+002
 11
5.9735548E+001
 21
1.6619702E+002
  0
LINE
  5
203
100
AcDbEntity
  8
1
100
AcDbLine
  6
CONTINUOUS
 62
7
 10
5.9665548E+001
 20
1.4819702E+002
 11
5.9665548E+001
 21
1.6619702E+002
  0
LINE
  5
204
100
AcDbEntity
  8
1
100
AcDbLine
  6
CONTINUOUS
 62
7
 10
5.4665548E+001
 20
1.4819702E+002
 11
5.4665548E+001
 21
1.6619702E+002
  0
ARC
  5
205
100
AcDbEntity
  8
1
100
AcDbCircle
  6
CONTINUOUS
 62
7
 10
5.5165548E+001
 20
1.4819702E+002
 40
5.0E-001
100
AcDbArc
 50
1.8E+002
 51
2.7E+002
  0
LINE
  5
206
100
AcDbEntity
  8
1
100
AcDbLine
  6
CONTINUOUS
 62
7
 10
5.9165548E+001
 20
1.4769702E+002
 11
5.5165548E+001
 21
1.4769702E+002
  0
LINE
  5
207
100
AcDbEntity
  8
1
100
AcDbLine
  6
CONTINUOUS
 62
7
 10
6.4235548E+001
 20
1.4769702E+002
 11
6.0235548E+001
 21
1.4769702E+002
  0
ARC
  5
208
100
AcDbEntity
  8
1
100
AcDbCircle
  6
CONTINUOUS
 62
7
 10
6.4235548E+001
 20
1.4819702E+002
 40
5.0E-001
100
AcDbArc
 50
2.7E+002
 51
3.6E+002
  0
ARC
  5
209
100
AcDbEntity
  8
1
100
AcDbCircle
  6
CONTINUOUS
 62
7
 10
6.0235548E+001
 20
1.4819702E+002
 40
5.0E-001
100
AcDbArc
 50
1.8E+002
 51
2.7E+002
  0
ARC
  5
20a
100
AcDbEntity
  8
1
100
AcDbCircle
  6
CONTINUOUS
 62
7
 10
5.9165548E+001
 20
1.4819702E+002
 40
5.0E-001
100
AcDbArc
 50
2.7E+002
 51
3.6E+002
  0
LINE
  5
20b
100
AcDbEntity
  8
1
100
AcDbLine
  6
CONTINUOUS
 62
7
 10
5.9165548E+001
 20
1.6669702E+002
 11
5.5165548E+001
 21
1.6669702E+002
  0
ARC
  5
20c
100
AcDbEntity
  8
1
100
AcDbCircle
  6
CONTINUOUS
 62
7
 10
5.9165548E+001
 20
1.6619702E+002
 40
5.0E-001
100
AcDbArc
 50
0.0
 51
9.0E+001
  0
ARC
  5
20d
100
AcDbEntity
  8
1
100
AcDbCircle
  6
CONTINUOUS
 62
7
 10
5.5165548E+001
 20
1.6619702E+002
 40
5.0E-001
100
AcDbArc
 50
9.0E+001
 51
1.8E+002
  0
LINE
  5
20e
100
AcDbEntity
  8
1
100
AcDbLine
  6
CONTINUOUS
 62
7
 10
6.4235548E+001
 20
1.6669702E+002
 11
6.0235548E+001
 21
1.6669702E+002
  0
ARC
  5
20f
100
AcDbEntity
  8
1
100
AcDbCircle
  6
CONTINUOUS
 62
7
 10
6.0235548E+001
 20
1.6619702E+002
 40
5.0E-001
100
AcDbArc
 50
9.0E+001
 51
1.8E+002
  0
ARC
  5
210
100
AcDbEntity
  8
1
100
AcDbCircle
  6
CONTINUOUS
 62
7
 10
6.4235548E+001
 20
1.6619702E+002
 40
5.0E-001
100
AcDbArc
 50
0.0
 51
9.0E+001
  0
LINE
  5
211
100
AcDbEntity
  8
1
100
AcDbLine
  6
CONTINUOUS
 62
7
 10
9.0190548E+001
 20
1.4669702E+002
 11
9.0190548E+001
 21
1.6569702E+002
  0
LINE
  5
212
100
AcDbEntity
  8
1
100
AcDbLine
  6
CONTINUOUS
 62
7
 10
4.9490548E+001
 20
1.4669702E+002
 11
9.0190548E+001
 21
1.4669702E+002
  0
LINE
  5
213
100
AcDbEntity
  8
1
100
AcDbLine
  6
CONTINUOUS
 62
7
 10
4.9490548E+001
 20
1.4669702E+002
 11
4.9490548E+001
 21
1.6569702E+002
  0
LINE
  5
214
100
AcDbEntity
  8
1
100
AcDbLine
  6
CONTINUOUS
 62
7
 10
1.5087555E+002
 20
1.4969702E+002
 11
1.5087555E+002
 21
1.6469702E+002
  0
LINE
  5
215
100
AcDbEntity
  8
1
100
AcDbLine
  6
CONTINUOUS
 62
7
 10
1.6108555E+002
 20
1.4965693E+002
 11
1.6108555E+002
 21
1.6465693E+002
  0
LINE
  5
216
100
AcDbEntity
  8
1
100
AcDbLine
  6
CONTINUOUS
 62
7
 10
1.8334055E+002
 20
1.1119702E+002
 11
3.2340548E+001
 21
1.1119702E+002
  0
LINE
  5
217
100
AcDbEntity
  8
1
100
AcDbLine
  6
CONTINUOUS
 62
7
 10
1.8334055E+002
 20
1.6569702E+002
 11
1.8334055E+002
 21
1.1119702E+002
  0
LINE
  5
218
100
AcDbEntity
  8
1
100
AcDbLine
  6
CONTINUOUS
 62
7
 10
1.8334055E+002
 20
1.6569702E+002
 11
1.6619055E+002
 21
1.6569702E+002
  0
ARC
  5
219
100
AcDbEntity
  8
1
100
AcDbCircle
  6
CONTINUOUS
 62
7
 10
2.6003809E+002
 20
5.6042573E+001
 40
9.5
100
AcDbArc
 50
3.3636876E+002
 51
4.5E+002
  0
LINE
  5
21a
100
AcDbEntity
  8
1
100
AcDbLine
  6
CENTERLINE
 62
6
 10
2.5073137E+002
 20
5.5842573E+001
 11
2.7143716E+002
 21
5.5842573E+001
  0
DIMENSION
  5
21b
100
AcDbEntity
  8
1
100
AcDbDimension
  6
CONTINUOUS
 62
1
  2
*D1407
  3
DSTYLE2
 10
3.2340548E+001
 20
1.8088503E+002
 11
1.0784055E+002
 21
1.8288602E+002
 70
128
100
AcDbAlignedDimension
 13
1.8334055E+002
 23
1.6569702E+002
 14
3.2340548E+001
 24
1.6569702E+002
 40
3.0
 50
0.0
100
AcDbRotatedDimension
1001
ACAD
1000
DSTYLE
1002
{
1070
173
1070
0
1070
5
1000
_AH2
1002
}
  0
LINE
  5
21c
100
AcDbEntity
  8
1
100
AcDbLine
  6
CENTERLINE
 62
6
 10
2.3303809E+002
 20
6.7488507E+001
 11
2.3303809E+002
 21
3.9699969E+001
  0
DIMENSION
  5
21d
100
AcDbEntity
  8
1
100
AcDbDimension
  6
CONTINUOUS
 62
1
  2
*D1409
  3
DSTYLE1
 10
1.9486263E+002
 20
1.1119702E+002
 11
1.9286163E+002
 21
1.3844702E+002
 70
128
100
AcDbAlignedDimension
 13
1.8334055E+002
 23
1.6569702E+002
 14
1.8334055E+002
 24
1.1119702E+002
 40
3.0
 50
9.0E+001
100
AcDbRotatedDimension
1001
ACAD
1000
DSTYLE
1002
{
1070
173
1070
0
1070
5
1000
_AH2
1002
}
  0
DIMENSION
  5
21e
100
AcDbEntity
  8
1
100
AcDbDimension
  6
CONTINUOUS
 62
1
  2
*D1410
  3
DSTYLE2
 10
1.4334055E+002
 20
9.7243444E+001
 11
1.6334055E+002
 21
9.9244444E+001
 70
128
100
AcDbAlignedDimension
 13
1.8334055E+002
 23
1.1119702E+002
 14
1.4334055E+002
 24
1.1832217E+002
 40
3.0
 50
0.0
100
AcDbRotatedDimension
1001
ACAD
1000
DSTYLE
1002
{
1070
173
1070
0
1070
5
1000
_AH2
1002
}
  0
DIMENSION
  5
21f
100
AcDbEntity
  8
1
100
AcDbDimension
  6
CONTINUOUS
 62
1
  2
*D1411
  3
DSTYLE6
 10
7.2340548E+001
 20
9.7243444E+001
 11
1.0784055E+002
 21
9.9244444E+001
 70
128
100
AcDbAlignedDimension
 13
1.4334055E+002
 23
1.1832217E+002
 14
7.2340548E+001
 24
1.1812163E+002
 40
3.0
 50
0.0
100
AcDbRotatedDimension
1001
ACAD
1000
DSTYLE
1002
{
1070
173
1070
0
1070
5
1000
_AH2
1002
}
  0
DIMENSION
  5
220
100
AcDbEntity
  8
1
100
AcDbDimension
  6
CONTINUOUS
 62
1
  2
*D1412
  3
DSTYLE6
 10
3.2340548E+001
 20
9.7243444E+001
 11
5.2340548E+001
 21
9.9244444E+001
 70
128
100
AcDbAlignedDimension
 13
7.2340548E+001
 23
1.1812163E+002
 14
3.2340548E+001
 24
1.1119702E+002
 40
3.0
 50
0.0
100
AcDbRotatedDimension
1001
ACAD
1000
DSTYLE
1002
{
1070
173
1070
0
1070
5
1000
_AH2
1002
}
  0
LINE
  5
221
100
AcDbEntity
  8
1
100
AcDbLine
  6
HIDDEN
 62
7
 10
2.2853809E+002
 20
5.4042573E+001
 11
2.2853809E+002
 21
4.1542573E+001
  0
LINE
  5
222
100
AcDbEntity
  8
1
100
AcDbLine
  6
CONTINUOUS
 62
7
 10
4.8927668E+001
 20
1.6269702E+002
 11
3.2340548E+001
 21
1.6269702E+002
  0
LINE
  5
223
100
AcDbEntity
  8
1
100
AcDbLine
  6
CONTINUOUS
 62
7
 10
4.8828856E+001
 20
1.5269702E+002
 11
3.2340548E+001
 21
1.5269702E+002
  0
LINE
  5
224
100
AcDbEntity
  8
1
100
AcDbLine
  6
CONTINUOUS
 62
7
 10
3.2840548E+001
 20
1.6219702E+002
 11
3.2840548E+001
 21
1.5319702E+002
  0
LINE
  5
225
100
AcDbEntity
  8
1
100
AcDbLine
  6
CONTINUOUS
 62
7
 10
3.2840548E+001
 20
1.6219702E+002
 11
3.3340548E+001
 21
1.6269702E+002
  0
LINE
  5
226
100
AcDbEntity
  8
1
100
AcDbLine
  6
CONTINUOUS
 62
7
 10
3.2840548E+001
 20
1.5319702E+002
 11
3.3340548E+001
 21
1.5269702E+002
  0
LINE
  5
227
100
AcDbEntity
  8
1
100
AcDbLine
  6
CONTINUOUS
 62
7
 10
3.3340548E+001
 20
1.6269702E+002
 11
3.3340548E+001
 21
1.5269702E+002
  0
LINE
  5
228
100
AcDbEntity
  8
1
100
AcDbLine
  6
CONTINUOUS
 62
7
 10
1.6608555E+002
 20
1.4965693E+002
 11
1.6608555E+002
 21
1.6465693E+002
  0
LINE
  5
229
100
AcDbEntity
  8
1
100
AcDbLine
  6
CONTINUOUS
 62
7
 10
1.4587555E+002
 20
1.6469702E+002
 11
1.5087555E+002
 21
1.6469702E+002
  0
LINE
  5
22a
100
AcDbEntity
  8
1
100
AcDbLine
  6
CONTINUOUS
 62
7
 10
4.7844571E+001
 20
1.6569702E+002
 11
4.8976872E+001
 21
1.628077E+002
  0
LINE
  5
22b
100
AcDbEntity
  8
1
100
AcDbLine
  6
CONTINUOUS
 62
7
 10
4.8976872E+001
 20
1.628077E+002
 11
4.6615986E+001
 21
1.5749702E+002
  0
LINE
  5
22c
100
AcDbEntity
  8
1
100
AcDbLine
  6
CONTINUOUS
 62
7
 10
4.6615986E+001
 20
1.5749702E+002
 11
4.8915573E+001
 21
1.5250892E+002
  0
LINE
  5
22d
100
AcDbEntity
  8
1
100
AcDbLine
  6
CONTINUOUS
 62
7
 10
4.8915573E+001
 20
1.5250892E+002
 11
4.6561324E+001
 21
1.4623092E+002
  0
LINE
  5
22e
100
AcDbEntity
  8
1
100
AcDbLine
  6
CONTINUOUS
 62
7
 10
4.6561324E+001
 20
1.4623092E+002
 11
4.820604E+001
 21
1.4248727E+002
  0
LINE
  5
22f
100
AcDbEntity
  8
1
100
AcDbLine
  6
CONTINUOUS
 62
7
 10
1.4587555E+002
 20
1.4969702E+002
 11
1.5087555E+002
 21
1.4969702E+002
  0
LINE
  5
230
100
AcDbEntity
  8
1
100
AcDbLine
  6
CONTINUOUS
 62
7
 10
1.6108555E+002
 20
1.6465693E+002
 11
1.6608555E+002
 21
1.6465693E+002
  0
LINE
  5
231
100
AcDbEntity
  8
1
100
AcDbLine
  6
CONTINUOUS
 62
7
 10
1.6108555E+002
 20
1.4965693E+002
 11
1.6608555E+002
 21
1.4965693E+002
  0
LINE
  5
232
100
AcDbEntity
  8
1
100
AcDbLine
  6
CONTINUOUS
 62
7
 10
1.4080555E+002
 20
1.4969702E+002
 11
1.4080555E+002
 21
1.6469702E+002
  0
LINE
  5
233
100
AcDbEntity
  8
1
100
AcDbLine
  6
CONTINUOUS
 62
7
 10
1.3059555E+002
 20
1.4965693E+002
 11
1.3059555E+002
 21
1.6465693E+002
  0
LINE
  5
234
100
AcDbEntity
  8
1
100
AcDbLine
  6
CONTINUOUS
 62
7
 10
1.2559555E+002
 20
1.4965693E+002
 11
1.2559555E+002
 21
1.6465693E+002
  0
LINE
  5
235
100
AcDbEntity
  8
1
100
AcDbLine
  6
HIDDEN
 62
7
 10
2.2353809E+002
 20
6.4542573E+001
 11
2.2353809E+002
 21
5.4042573E+001
  0
LINE
  5
236
100
AcDbEntity
  8
1
100
AcDbLine
  6
HIDDEN
 62
7
 10
2.4253809E+002
 20
5.4042573E+001
 11
2.2353809E+002
 21
5.4042573E+001
  0
LINE
  5
237
100
AcDbEntity
  8
1
100
AcDbLine
  6
HIDDEN
 62
7
 10
2.3753809E+002
 20
5.4042573E+001
 11
2.3753809E+002
 21
4.1542573E+001
  0
LINE
  5
238
100
AcDbEntity
  8
1
100
AcDbLine
  6
HIDDEN
 62
7
 10
2.4253809E+002
 20
6.4542573E+001
 11
2.4253809E+002
 21
5.4042573E+001
  0
ARC
  5
239
100
AcDbEntity
  8
1
100
AcDbCircle
  6
CONTINUOUS
 62
7
 10
2.6103809E+002
 20
5.5842573E+001
 40
9.5
100
AcDbArc
 50
3.0989323E+002
 51
4.4176683E+002
  0
ARC
  5
23a
100
AcDbEntity
  8
1
100
AcDbCircle
  6
HIDDEN
 62
7
 10
2.6103809E+002
 20
5.5842573E+001
 40
9.5
100
AcDbArc
 50
8.1766833E+001
 51
3.0989323E+002
  0
DIMENSION
  5
23b
100
AcDbEntity
  8
1
100
AcDbDimension
  6
CONTINUOUS
 62
1
  2
*D1440
  3
DSTYLE7
 10
2.0679343E+002
 20
4.1542573E+001
 11
2.0491743E+002
 21
5.3542573E+001
 70
128
100
AcDbAlignedDimension
 13
2.1503809E+002
 23
6.5542573E+001
 14
2.1503809E+002
 24
4.1542573E+001
 40
7.5E-001
 50
9.0E+001
100
AcDbRotatedDimension
1001
ACAD
1000
DSTYLE
1002
{
1070
173
1070
0
1070
5
1000
_AH2
1002
}
  0
DIMENSION
  5
23c
100
AcDbEntity
  8
1
100
AcDbDimension
  6
CONTINUOUS
 62
1
  2
*D1441
  3
DSTYLE8
 10
2.530606E+002
 20
5.1755127E+001
 11
2.811263E+002
 21
6.3558566E+001
 70
3
100
AcDbDiametricDimension
 15
2.7001558E+002
 25
6.0330019E+001
 40
0.0
1001
ACAD
1000
DSTYLE
1002
{
1070
173
1070
1
1070
7
1000
_AH2
1070
6
1000
_AH2
1002
}
  0
CIRCLE
  5
23d
100
AcDbEntity
  8
1
100
AcDbCircle
  6
CONTINUOUS
 62
7
 10
2.6103809E+002
 20
5.6042573E+001
 40
1.975
  0
LINE
  5
23e
100
AcDbEntity
  8
1
100
AcDbLine
  6
CONTINUOUS
 62
7
 10
1.4580555E+002
 20
1.6469702E+002
 11
1.4080555E+002
 21
1.6469702E+002
  0
LINE
  5
23f
100
AcDbEntity
  8
1
100
AcDbLine
  6
CONTINUOUS
 62
7
 10
1.4580555E+002
 20
1.4969702E+002
 11
1.4080555E+002
 21
1.4969702E+002
  0
LINE
  5
240
100
AcDbEntity
  8
1
100
AcDbLine
  6
CONTINUOUS
 62
7
 10
1.3059555E+002
 20
1.6465693E+002
 11
1.2559555E+002
 21
1.6465693E+002
  0
LINE
  5
241
100
AcDbEntity
  8
1
100
AcDbLine
  6
CONTINUOUS
 62
7
 10
1.3059555E+002
 20
1.4965693E+002
 11
1.2559555E+002
 21
1.4965693E+002
  0
LINE
  5
242
100
AcDbEntity
  8
1
100
AcDbLine
  6
CONTINUOUS
 62
7
 10
1.4587555E+002
 20
1.6469702E+002
 11
1.4587555E+002
 21
1.4969702E+002
  0
LINE
  5
243
100
AcDbEntity
  8
1
100
AcDbLine
  6
CONTINUOUS
 62
7
 10
1.4580555E+002
 20
1.4969702E+002
 11
1.4580555E+002
 21
1.6469702E+002
  0
LINE
  5
244
100
AcDbEntity
  8
1
100
AcDbLine
  6
CONTINUOUS
 62
7
 10
1.5094555E+002
 20
1.4819702E+002
 11
1.5094555E+002
 21
1.6619702E+002
  0
LINE
  5
245
100
AcDbEntity
  8
1
100
AcDbLine
  6
CONTINUOUS
 62
7
 10
1.5594555E+002
 20
1.4819702E+002
 11
1.5594555E+002
 21
1.6619702E+002
  0
LINE
  5
246
100
AcDbEntity
  8
1
100
AcDbLine
  6
CONTINUOUS
 62
7
 10
1.5601555E+002
 20
1.4819702E+002
 11
1.5601555E+002
 21
1.6619702E+002
  0
LINE
  5
247
100
AcDbEntity
  8
1
100
AcDbLine
  6
CONTINUOUS
 62
7
 10
1.6101555E+002
 20
1.4819702E+002
 11
1.6101555E+002
 21
1.6619702E+002
  0
ARC
  5
248
100
AcDbEntity
  8
1
100
AcDbCircle
  6
CONTINUOUS
 62
7
 10
1.6051555E+002
 20
1.4819702E+002
 40
5.0E-001
100
AcDbArc
 50
2.7E+002
 51
3.6E+002
  0
LINE
  5
249
100
AcDbEntity
  8
1
100
AcDbLine
  6
CONTINUOUS
 62
7
 10
1.5651555E+002
 20
1.4769702E+002
 11
1.6051555E+002
 21
1.4769702E+002
  0
LINE
  5
24a
100
AcDbEntity
  8
1
100
AcDbLine
  6
CONTINUOUS
 62
7
 10
1.5144555E+002
 20
1.4769702E+002
 11
1.5544555E+002
 21
1.4769702E+002
  0
ARC
  5
24b
100
AcDbEntity
  8
1
100
AcDbCircle
  6
CONTINUOUS
 62
7
 10
1.5144555E+002
 20
1.4819702E+002
 40
5.0E-001
100
AcDbArc
 50
1.8E+002
 51
2.7E+002
  0
ARC
  5
24c
100
AcDbEntity
  8
1
100
AcDbCircle
  6
CONTINUOUS
 62
7
 10
1.5544555E+002
 20
1.4819702E+002
 40
5.0E-001
100
AcDbArc
 50
2.7E+002
 51
3.6E+002
  0
ARC
  5
24d
100
AcDbEntity
  8
1
100
AcDbCircle
  6
CONTINUOUS
 62
7
 10
1.5651555E+002
 20
1.4819702E+002
 40
5.0E-001
100
AcDbArc
 50
1.8E+002
 51
2.7E+002
  0
LINE
  5
24e
100
AcDbEntity
  8
1
100
AcDbLine
  6
CONTINUOUS
 62
7
 10
1.5651555E+002
 20
1.6669702E+002
 11
1.6051555E+002
 21
1.6669702E+002
  0
ARC
  5
24f
100
AcDbEntity
  8
1
100
AcDbCircle
  6
CONTINUOUS
 62
7
 10
1.5651555E+002
 20
1.6619702E+002
 40
5.0E-001
100
AcDbArc
 50
9.0E+001
 51
1.8E+002
  0
ARC
  5
250
100
AcDbEntity
  8
1
100
AcDbCircle
  6
CONTINUOUS
 62
7
 10
1.6051555E+002
 20
1.6619702E+002
 40
5.0E-001
100
AcDbArc
 50
0.0
 51
9.0E+001
  0
LINE
  5
251
100
AcDbEntity
  8
1
100
AcDbLine
  6
CONTINUOUS
 62
7
 10
1.5144555E+002
 20
1.6669702E+002
 11
1.5544555E+002
 21
1.6669702E+002
  0
ARC
  5
252
100
AcDbEntity
  8
1
100
AcDbCircle
  6
CONTINUOUS
 62
7
 10
1.5544555E+002
 20
1.6619702E+002
 40
5.0E-001
100
AcDbArc
 50
0.0
 51
9.0E+001
  0
ARC
  5
253
100
AcDbEntity
  8
1
100
AcDbCircle
  6
CONTINUOUS
 62
7
 10
1.5144555E+002
 20
1.6619702E+002
 40
5.0E-001
100
AcDbArc
 50
9.0E+001
 51
1.8E+002
  0
LINE
  5
254
100
AcDbEntity
  8
1
100
AcDbLine
  6
CONTINUOUS
 62
7
 10
1.4073555E+002
 20
1.4819702E+002
 11
1.4073555E+002
 21
1.6619702E+002
  0
LINE
  5
255
100
AcDbEntity
  8
1
100
AcDbLine
  6
CONTINUOUS
 62
7
 10
1.3573555E+002
 20
1.4819702E+002
 11
1.3573555E+002
 21
1.6619702E+002
  0
LINE
  5
256
100
AcDbEntity
  8
1
100
AcDbLine
  6
CONTINUOUS
 62
7
 10
1.3566555E+002
 20
1.4819702E+002
 11
1.3566555E+002
 21
1.6619702E+002
  0
LINE
  5
257
100
AcDbEntity
  8
1
100
AcDbLine
  6
CONTINUOUS
 62
7
 10
1.3066555E+002
 20
1.4819702E+002
 11
1.3066555E+002
 21
1.6619702E+002
  0
ARC
  5
258
100
AcDbEntity
  8
1
100
AcDbCircle
  6
CONTINUOUS
 62
7
 10
1.3116555E+002
 20
1.4819702E+002
 40
5.0E-001
100
AcDbArc
 50
1.8E+002
 51
2.7E+002
  0
LINE
  5
259
100
AcDbEntity
  8
1
100
AcDbLine
  6
CONTINUOUS
 62
7
 10
1.3516555E+002
 20
1.4769702E+002
 11
1.3116555E+002
 21
1.4769702E+002
  0
LINE
  5
25a
100
AcDbEntity
  8
1
100
AcDbLine
  6
CONTINUOUS
 62
7
 10
1.4023555E+002
 20
1.4769702E+002
 11
1.3623555E+002
 21
1.4769702E+002
  0
ARC
  5
25b
100
AcDbEntity
  8
1
100
AcDbCircle
  6
CONTINUOUS
 62
7
 10
1.4023555E+002
 20
1.4819702E+002
 40
5.0E-001
100
AcDbArc
 50
2.7E+002
 51
3.6E+002
  0
ARC
  5
25c
100
AcDbEntity
  8
1
100
AcDbCircle
  6
CONTINUOUS
 62
7
 10
1.3623555E+002
 20
1.4819702E+002
 40
5.0E-001
100
AcDbArc
 50
1.8E+002
 51
2.7E+002
  0
ARC
  5
25d
100
AcDbEntity
  8
1
100
AcDbCircle
  6
CONTINUOUS
 62
7
 10
1.3516555E+002
 20
1.4819702E+002
 40
5.0E-001
100
AcDbArc
 50
2.7E+002
 51
3.6E+002
  0
LINE
  5
25e
100
AcDbEntity
  8
1
100
AcDbLine
  6
CONTINUOUS
 62
7
 10
1.3516555E+002
 20
1.6669702E+002
 11
1.3116555E+002
 21
1.6669702E+002
  0
ARC
  5
25f
100
AcDbEntity
  8
1
100
AcDbCircle
  6
CONTINUOUS
 62
7
 10
1.3516555E+002
 20
1.6619702E+002
 40
5.0E-001
100
AcDbArc
 50
0.0
 51
9.0E+001
  0
ARC
  5
260
100
AcDbEntity
  8
1
100
AcDbCircle
  6
CONTINUOUS
 62
7
 10
1.3116555E+002
 20
1.6619702E+002
 40
5.0E-001
100
AcDbArc
 50
9.0E+001
 51
1.8E+002
  0
LINE
  5
261
100
AcDbEntity
  8
1
100
AcDbLine
  6
CONTINUOUS
 62
7
 10
1.4023555E+002
 20
1.6669702E+002
 11
1.3623555E+002
 21
1.6669702E+002
  0
ARC
  5
262
100
AcDbEntity
  8
1
100
AcDbCircle
  6
CONTINUOUS
 62
7
 10
1.3623555E+002
 20
1.6619702E+002
 40
5.0E-001
100
AcDbArc
 50
9.0E+001
 51
1.8E+002
  0
ARC
  5
263
100
AcDbEntity
  8
1
100
AcDbCircle
  6
CONTINUOUS
 62
7
 10
1.4023555E+002
 20
1.6619702E+002
 40
5.0E-001
100
AcDbArc
 50
0.0
 51
9.0E+001
  0
LINE
  5
264
100
AcDbEntity
  8
1
100
AcDbLine
  6
CONTINUOUS
 62
7
 10
1.6619055E+002
 20
1.4669702E+002
 11
1.6619055E+002
 21
1.6569702E+002
  0
LINE
  5
265
100
AcDbEntity
  8
1
100
AcDbLine
  6
CONTINUOUS
 62
7
 10
1.2549055E+002
 20
1.4669702E+002
 11
1.6619055E+002
 21
1.4669702E+002
  0
LINE
  5
266
100
AcDbEntity
  8
1
100
AcDbLine
  6
CONTINUOUS
 62
7
 10
1.2549055E+002
 20
1.4669702E+002
 11
1.2549055E+002
 21
1.6569702E+002
  0
LINE
  5
267
100
AcDbEntity
  8
1
100
AcDbLine
  6
CONTINUOUS
 62
7
 10
4.820604E+001
 20
1.4248727E+002
 11
3.2340548E+001
 21
1.3509629E+002
  0
INSERT
  5
268
100
AcDbEntity
100
AcDbBlockReference
  2
*XH50
  8
1
 10
4.5896584E+001
 20
1.4229913E+002
  0
LINE
  5
269
100
AcDbEntity
  8
1
100
AcDbLine
  6
CONTINUOUS
 62
7
 10
2.0
 20
2.0
 11
2.95E+002
 21
2.0
  0
LINE
  5
26a
100
AcDbEntity
  8
1
100
AcDbLine
  6
CONTINUOUS
 62
7
 10
2.95E+002
 20
2.0
 11
2.95E+002
 21
2.08E+002
  0
LINE
  5
26b
100
AcDbEntity
  8
1
100
AcDbLine
  6
CONTINUOUS
 62
7
 10
2.95E+002
 20
2.08E+002
 11
2.0
 21
2.08E+002
  0
LINE
  5
26c
100
AcDbEntity
  8
1
100
AcDbLine
  6
CONTINUOUS
 62
7
 10
2.0
 20
2.08E+002
 11
2.0
 21
2.0
  0
TEXT
  5
26d
100
AcDbEntity
  8
1
100
AcDbText
  6
CONTINUOUS
 62
7
 10
2.618E+002
 20
4.0
 40
3.0
  1
DATE2020.5.1
 41
8.0E-001
 72
2
 11
2.93E+002
 21
4.0
100
AcDbText
  0
TEXT
  5
26e
100
AcDbEntity
  8
1
100
AcDbText
  6
CONTINUOUS
 62
7
 10
1.2346254E+002
 20
1.9388476E+002
 40
4.0
  1

 41
8.0E-001
 72
1
 11
1.4426254E+002
 21
1.9388476E+002
100
AcDbText
  0
VIEWPORT
  5
26f
100
AcDbEntity
 67
1
  8
0
  6
CONTINUOUS
 62
3
100
AcDbViewport
 10
1.485E+002
 20
1.05E+002
 30
0.0
 40
2.1E+002
 41
2.1E+002
 68
1
 69
1
1001
ACAD
1000
MVIEW
1002
{
1070
16
1010
0.0
1020
0.0
1030
0.0
1010
0.0
1020
0.0
1030
1.0
1040
0.0
1040
2.1E+002
1040
8.1675E+001
1040
1.05E+002
1040
5.0E+001
1040
0.0
1040
0.0
1070
0
1070
1000
1070
1
1070
0
1070
0
1070
0
1070
0
1070
0
1040
0.0
1040
0.0
1040
0.0
1040
5.0E-001
1040
5.0E-001
1040
5.0E-001
1040
5.0E-001
1070
0
1002
{
1002
}
1002
}
  0
VIEWPORT
  5
270
100
AcDbEntity
 67
1
  8
0
100
AcDbViewport
 62
3
 10
1.485E+002
 20
1.05E+002
 30
0.0
 40
2.97E+002
 41
2.1E+002
 68
2
 69
2
1001
ACAD
1000
MVIEW
1002
{
1070
16
1010
0.0
1020
0.0
1030
0.0
1010
0.0
1020
0.0
1030
1.0
1040
0.0
1040
2.1E+002
1040
1.485E+002
1040
1.05E+002
1040
5.0E+001
1040
0.0
1040
0.0
1070
0
1070
1000
1070
1
1070
0
1070
0
1070
0
1070
0
1070
0
1040
0.0
1040
0.0
1040
0.0
1040
5.0E-001
1040
5.0E-001
1040
5.0E-001
1040
5.0E-001
1070
0
1002
{
1002
}
1002
}
  0
ENDSEC
  0
SECTION
  2
OBJECTS
  0
DICTIONARY
  5
271
100
AcDbDictionary
  3
ACAD_GROUP
350
272
  3
ACAD_MLINESTYLE
350
273
  0
DICTIONARY
  5
272
102
{ACAD_REACTORS
330
271
102
}
100
AcDbDictionary
  0
DICTIONARY
  5
273
102
{ACAD_REACTORS
330
271
102
}
100
AcDbDictionary
  3
STANDARD
350
274
  0
MLINESTYLE
  5
274
102
{ACAD_REACTORS
330
273
102
}
100
AcDbMlineStyle
  2
STANDARD
 70
0
  3

 62
256
 51
9.0E+001
 52
9.0E+001
 71
2
 49
5.0E-001
 62
256
  6
BYLAYER
 49
-5.0E-001
 62
256
  6
BYLAYER
  0
ENDSEC
  0
EOF
