  0
SECTION
  2
HEADER
  9
$ACADVER
  1
AC1014
  9
$ACADMAINTVER
 70
     9
  9
$DWGCODEPAGE
  3
ANSI_932
  9
$INSBASE
 10
0.0
 20
0.0
 30
0.0
  9
$EXTMIN
 10
-67.36709424052719
 20
-86.02808925412421
 30
0.0
  9
$EXTMAX
 10
76.68141338238753
 20
78.50364620000014
 30
0.0
  9
$LIMMIN
 10
0.0
 20
0.0
  9
$LIMMAX
 10
420.0
 20
297.0
  9
$ORTHOMODE
 70
     1
  9
$REGENMODE
 70
     1
  9
$FILLMODE
 70
     1
  9
$QTEXTMODE
 70
     0
  9
$MIRRTEXT
 70
     1
  9
$DRAGMODE
 70
     2
  9
$LTSCALE
 40
1.0
  9
$OSMODE
 70
    37
  9
$ATTMODE
 70
     1
  9
$TEXTSIZE
 40
2.5
  9
$TRACEWID
 40
1.0
  9
$TEXTSTYLE
  7
STANDARD
  9
$CLAYER
  8
0
  9
$CELTYPE
  6
BYLAYER
  9
$CECOLOR
 62
   256
  9
$CELTSCALE
 40
1.0
  9
$DELOBJ
 70
     1
  9
$DISPSILH
 70
     0
  9
$DIMSCALE
 40
1.0
  9
$DIMASZ
 40
4.5
  9
$DIMEXO
 40
0.0
  9
$DIMDLI
 40
3.75
  9
$DIMRND
 40
0.0
  9
$DIMDLE
 40
0.0
  9
$DIMEXE
 40
1.5
  9
$DIMTP
 40
0.0
  9
$DIMTM
 40
0.0
  9
$DIMTXT
 40
4.5
  9
$DIMCEN
 40
2.5
  9
$DIMTSZ
 40
0.0
  9
$DIMTOL
 70
     0
  9
$DIMLIM
 70
     0
  9
$DIMTIH
 70
     0
  9
$DIMTOH
 70
     0
  9
$DIMSE1
 70
     0
  9
$DIMSE2
 70
     0
  9
$DIMTAD
 70
     1
  9
$DIMZIN
 70
     8
  9
$DIMBLK
  1

  9
$DIMASO
 70
     1
  9
$DIMSHO
 70
     1
  9
$DIMPOST
  1

  9
$DIMAPOST
  1

  9
$DIMALT
 70
     0
  9
$DIMALTD
 70
     3
  9
$DIMALTF
 40
0.03937007874016
  9
$DIMLFAC
 40
1.0
  9
$DIMTOFL
 70
     1
  9
$DIMTVP
 40
0.0
  9
$DIMTIX
 70
     0
  9
$DIMSOXD
 70
     0
  9
$DIMSAH
 70
     0
  9
$DIMBLK1
  1

  9
$DIMBLK2
  1

  9
$DIMSTYLE
  2
ISO-25
  9
$DIMCLRD
 70
     1
  9
$DIMCLRE
 70
     1
  9
$DIMCLRT
 70
     1
  9
$DIMTFAC
 40
1.0
  9
$DIMGAP
 40
1.0
  9
$DIMJUST
 70
     0
  9
$DIMSD1
 70
     0
  9
$DIMSD2
 70
     0
  9
$DIMTOLJ
 70
     0
  9
$DIMTZIN
 70
     8
  9
$DIMALTZ
 70
     0
  9
$DIMALTTZ
 70
     0
  9
$DIMFIT
 70
     3
  9
$DIMUPT
 70
     0
  9
$DIMUNIT
 70
     2
  9
$DIMDEC
 70
     2
  9
$DIMTDEC
 70
     2
  9
$DIMALTU
 70
     2
  9
$DIMALTTD
 70
     3
  9
$DIMTXSTY
  7
STANDARD
  9
$DIMAUNIT
 70
     0
  9
$LUNITS
 70
     2
  9
$LUPREC
 70
     4
  9
$SKETCHINC
 40
1.0
  9
$FILLETRAD
 40
10.0
  9
$AUNITS
 70
     0
  9
$AUPREC
 70
     0
  9
$MENU
  1
.
  9
$ELEVATION
 40
0.0
  9
$PELEVATION
 40
0.0
  9
$THICKNESS
 40
0.0
  9
$LIMCHECK
 70
     0
  9
$BLIPMODE
 70
     0
  9
$CHAMFERA
 40
10.0
  9
$CHAMFERB
 40
10.0
  9
$CHAMFERC
 40
20.0
  9
$CHAMFERD
 40
0.0
  9
$SKPOLY
 70
     0
  9
$TDCREATE
 40
2453755.379305208
  9
$TDUPDATE
 40
2454530.592678668
  9
$TDINDWG
 40
0.0162219444
  9
$TDUSRTIMER
 40
0.0162216435
  9
$USRTIMER
 70
     1
  9
$ANGBASE
 50
0.0
  9
$ANGDIR
 70
     0
  9
$PDMODE
 70
     0
  9
$PDSIZE
 40
0.0
  9
$PLINEWID
 40
0.0
  9
$COORDS
 70
     1
  9
$SPLFRAME
 70
     0
  9
$SPLINETYPE
 70
     6
  9
$SPLINESEGS
 70
     8
  9
$ATTDIA
 70
     0
  9
$ATTREQ
 70
     1
  9
$HANDLING
 70
     1
  9
$HANDSEED
  5
AB1
  9
$SURFTAB1
 70
     6
  9
$SURFTAB2
 70
     6
  9
$SURFTYPE
 70
     6
  9
$SURFU
 70
     6
  9
$SURFV
 70
     6
  9
$UCSNAME
  2

  9
$UCSORG
 10
0.0
 20
0.0
 30
0.0
  9
$UCSXDIR
 10
1.0
 20
0.0
 30
0.0
  9
$UCSYDIR
 10
0.0
 20
1.0
 30
0.0
  9
$PUCSNAME
  2

  9
$PUCSORG
 10
0.0
 20
0.0
 30
0.0
  9
$PUCSXDIR
 10
1.0
 20
0.0
 30
0.0
  9
$PUCSYDIR
 10
0.0
 20
1.0
 30
0.0
  9
$USERI1
 70
     0
  9
$USERI2
 70
     0
  9
$USERI3
 70
     0
  9
$USERI4
 70
     0
  9
$USERI5
 70
     0
  9
$USERR1
 40
0.0
  9
$USERR2
 40
0.0
  9
$USERR3
 40
0.0
  9
$USERR4
 40
0.0
  9
$USERR5
 40
0.0
  9
$WORLDVIEW
 70
     1
  9
$SHADEDGE
 70
     3
  9
$SHADEDIF
 70
    70
  9
$TILEMODE
 70
     1
  9
$MAXACTVP
 70
    64
  9
$PINSBASE
 10
0.0
 20
0.0
 30
0.0
  9
$PLIMCHECK
 70
     0
  9
$PEXTMIN
 10
1.000000000000000E+20
 20
1.000000000000000E+20
 30
1.000000000000000E+20
  9
$PEXTMAX
 10
-1.000000000000000E+20
 20
-1.000000000000000E+20
 30
-1.000000000000000E+20
  9
$PLIMMIN
 10
0.0
 20
0.0
  9
$PLIMMAX
 10
420.0
 20
297.0
  9
$UNITMODE
 70
     0
  9
$VISRETAIN
 70
     1
  9
$PLINEGEN
 70
     0
  9
$PSLTSCALE
 70
     1
  9
$TREEDEPTH
 70
  3020
  9
$PICKSTYLE
 70
     1
  9
$CMLSTYLE
  2
STANDARD
  9
$CMLJUST
 70
     0
  9
$CMLSCALE
 40
20.0
  9
$PROXYGRAPHICS
 70
     1
  9
$MEASUREMENT
 70
     1
  0
ENDSEC
  0
SECTION
  2
CLASSES
  0
CLASS
  1
ACDBDICTIONARYWDFLT
  2
AcDbDictionaryWithDefault
  3
AutoCAD 2000
 90
        0
280
     0
281
     0
  0
CLASS
  1
ACDBPLACEHOLDER
  2
AcDbPlaceHolder
  3
AutoCAD 2000
 90
        0
280
     0
281
     0
  0
CLASS
  1
LAYOUT
  2
AcDbLayout
  3
AutoCAD 2000
 90
        0
280
     0
281
     0
  0
CLASS
  1
DICTIONARYVAR
  2
AcDbDictionaryVar
  3
AutoCAD 2000
 90
        0
280
     0
281
     0
  0
CLASS
  1
DIMASSOC
  2
AcDbDimAssoc
  3
"AcDbDimAssoc|Product Desc:     AcDim ARX App For Dimension|Company:          Autodesk, Inc.|WEB Address:      www.autodesk.com"
 90
        0
280
     0
281
     0
  0
CLASS
  1
LONG_TRANSACTION
  2
AcDbLongTransaction
  3
AutoCAD 2000
 90
        0
280
     0
281
     0
  0
CLASS
  1
LWPOLYLINE
  2
AcDbPolyline
  3
AutoCAD 2000
 90
        0
280
     0
281
     1
  0
CLASS
  1
HATCH
  2
AcDbHatch
  3
AutoCAD 2000
 90
        0
280
     0
281
     1
  0
CLASS
  1
XRECORD
  2
AcDbXrecord
  3
AutoCAD 2000
 90
        0
280
     0
281
     0
  0
CLASS
  1
LONG_TRANSACTION
  2
AcDbLongTransaction
  3
AutoCAD 2000
 90
        0
280
     0
281
     0
  0
CLASS
  1
LWPOLYLINE
  2
AcDbPolyline
  3
AutoCAD 2000
 90
        0
280
     0
281
     1
  0
CLASS
  1
HATCH
  2
AcDbHatch
  3
AutoCAD 2000
 90
        0
280
     0
281
     1
  0
CLASS
  1
XRECORD
  2
AcDbXrecord
  3
AutoCAD 2000
 90
        0
280
     0
281
     0
  0
CLASS
  1
LONG_TRANSACTION
  2
AcDbLongTransaction
  3
AutoCAD 2000
 90
        0
280
     0
281
     0
  0
CLASS
  1
LWPOLYLINE
  2
AcDbPolyline
  3
AutoCAD 2000
 90
        0
280
     0
281
     1
  0
CLASS
  1
HATCH
  2
AcDbHatch
  3
AutoCAD 2000
 90
        0
280
     0
281
     1
  0
CLASS
  1
XRECORD
  2
AcDbXrecord
  3
AutoCAD 2000
 90
        0
280
     0
281
     0
  0
CLASS
  1
LONG_TRANSACTION
  2
AcDbLongTransaction
  3
AutoCAD 2000
 90
        0
280
     0
281
     0
  0
CLASS
  1
LWPOLYLINE
  2
AcDbPolyline
  3
AutoCAD 2000
 90
        0
280
     0
281
     1
  0
CLASS
  1
HATCH
  2
AcDbHatch
  3
AutoCAD 2000
 90
        0
280
     0
281
     1
  0
CLASS
  1
XRECORD
  2
AcDbXrecord
  3
AutoCAD 2000
 90
        0
280
     0
281
     0
  0
CLASS
  1
LONG_TRANSACTION
  2
AcDbLongTransaction
  3
AutoCAD 2000
 90
        0
280
     0
281
     0
  0
CLASS
  1
LWPOLYLINE
  2
AcDbPolyline
  3
AutoCAD 2000
 90
        0
280
     0
281
     1
  0
CLASS
  1
HATCH
  2
AcDbHatch
  3
AutoCAD 2000
 90
        0
280
     0
281
     1
  0
CLASS
  1
XRECORD
  2
AcDbXrecord
  3
AutoCAD 2000
 90
        0
280
     0
281
     0
  0
CLASS
  1
LONG_TRANSACTION
  2
AcDbLongTransaction
  3
AutoCAD 2000
 90
        0
280
     0
281
     0
  0
CLASS
  1
LWPOLYLINE
  2
AcDbPolyline
  3
AutoCAD 2000
 90
        0
280
     0
281
     1
  0
CLASS
  1
HATCH
  2
AcDbHatch
  3
AutoCAD 2000
 90
        0
280
     0
281
     1
  0
CLASS
  1
XRECORD
  2
AcDbXrecord
  3
AutoCAD 2000
 90
        0
280
     0
281
     0
  0
CLASS
  1
LONG_TRANSACTION
  2
AcDbLongTransaction
  3
AutoCAD 2000
 90
        0
280
     0
281
     0
  0
CLASS
  1
LWPOLYLINE
  2
AcDbPolyline
  3
AutoCAD 2000
 90
        0
280
     0
281
     1
  0
CLASS
  1
HATCH
  2
AcDbHatch
  3
AutoCAD 2000
 90
        0
280
     0
281
     1
  0
CLASS
  1
XRECORD
  2
AcDbXrecord
  3
AutoCAD 2000
 90
        0
280
     0
281
     0
  0
CLASS
  1
LONG_TRANSACTION
  2
AcDbLongTransaction
  3
AutoCAD 2000
 90
        0
280
     0
281
     0
  0
CLASS
  1
LWPOLYLINE
  2
AcDbPolyline
  3
AutoCAD 2000
 90
        0
280
     0
281
     1
  0
CLASS
  1
HATCH
  2
AcDbHatch
  3
AutoCAD 2000
 90
        0
280
     0
281
     1
  0
CLASS
  1
XRECORD
  2
AcDbXrecord
  3
AutoCAD 2000
 90
        0
280
     0
281
     0
  0
ENDSEC
  0
SECTION
  2
TABLES
  0
TABLE
  2
VPORT
  5
8
330
0
100
AcDbSymbolTable
 70
     2
  0
VPORT
  5
A8E
330
8
100
AcDbSymbolTableRecord
100
AcDbViewportTableRecord
  2
*ACTIVE
 70
     0
 10
0.0
 20
0.0
 11
1.0
 21
1.0
 12
4.654643075317125
 22
2.956063190760943
 13
0.0
 23
0.0
 14
10.0
 24
10.0
 15
10.0
 25
10.0
 16
0.0
 26
0.0
 36
1.0
 17
0.0
 27
0.0
 37
0.0
 40
179.937688031834
 41
1.662983425414364
 42
50.0
 43
0.0
 44
0.0
 50
0.0
 51
0.0
 71
     0
 72
   100
 73
     1
 74
     3
 75
     0
 76
     0
 77
     0
 78
     0
  0
ENDTAB
  0
TABLE
  2
LTYPE
  5
5
330
0
100
AcDbSymbolTable
 70
     2
  0
LTYPE
  5
14
330
5
100
AcDbSymbolTableRecord
100
AcDbLinetypeTableRecord
  2
BYBLOCK
 70
     0
  3

 72
    65
 73
     0
 40
0.0
  0
LTYPE
  5
15
330
5
100
AcDbSymbolTableRecord
100
AcDbLinetypeTableRecord
  2
BYLAYER
 70
     0
  3

 72
    65
 73
     0
 40
0.0
  0
LTYPE
  5
16
330
5
100
AcDbSymbolTableRecord
100
AcDbLinetypeTableRecord
  2
CONTINUOUS
 70
     0
  3
Solid line
 72
    65
 73
     0
 40
0.0
  0
LTYPE
  5
F4
330
5
100
AcDbSymbolTableRecord
100
AcDbLinetypeTableRecord
  2
CENTER
 70
     0
  3
____ _ ____ _ ____ _ ____ _ ____ _ ____ _ ____
 72
    65
 73
     4
 40
17.5
 49
13.0
 74
     0
 49
-1.5
 74
     0
 49
1.5
 74
     0
 49
-1.5
 74
     0
  0
ENDTAB
  0
TABLE
  2
LAYER
  5
2
330
0
100
AcDbSymbolTable
 70
     2
  0
LAYER
  5
10
330
2
100
AcDbSymbolTableRecord
100
AcDbLayerTableRecord
  2
0
 70
     0
 62
     7
  6
CONTINUOUS
  0
LAYER
  5
F5
330
2
100
AcDbSymbolTableRecord
100
AcDbLayerTableRecord
  2
DEFPOINTS
 70
     0
 62
     7
  6
CONTINUOUS
  0
ENDTAB
  0
TABLE
  2
STYLE
  5
3
330
0
100
AcDbSymbolTable
 70
     1
  0
STYLE
  5
11
330
3
100
AcDbSymbolTableRecord
100
AcDbTextStyleTableRecord
  2
STANDARD
 70
     0
 40
0.0
 41
1.0
 50
0.0
 71
     0
 42
2.5
  3
txt.shx
  4
bigfont.shx
  0
ENDTAB
  0
TABLE
  2
VIEW
  5
6
330
0
100
AcDbSymbolTable
 70
     0
  0
ENDTAB
  0
TABLE
  2
UCS
  5
7
330
0
100
AcDbSymbolTable
 70
     0
  0
ENDTAB
  0
TABLE
  2
APPID
  5
9
330
0
100
AcDbSymbolTable
 70
     1
  0
APPID
  5
12
330
9
100
AcDbSymbolTableRecord
100
AcDbRegAppTableRecord
  2
ACAD
 70
     0
  0
ENDTAB
  0
TABLE
  2
DIMSTYLE
  5
A
330
0
100
AcDbSymbolTable
 70
     2
  0
DIMSTYLE
105
27
102
{ACAD_REACTORS
330
89C
330
8D0
330
8E8
330
928
330
940
330
95C
330
974
102
}
330
A
100
AcDbSymbolTableRecord
100
AcDbDimStyleTableRecord
  2
ISO-25
 70
     0
  3

  4

  5

  6

  7

 40
1.0
 41
4.5
 42
0.0
 43
3.75
 44
1.5
 45
0.0
 46
0.0
 47
0.0
 48
0.0
140
4.5
141
2.5
142
0.0
143
0.03937007874016
144
1.0
145
0.0
146
1.0
147
1.0
 71
     0
 72
     0
 73
     0
 74
     0
 75
     0
 76
     0
 77
     1
 78
     8
170
     0
171
     3
172
     1
173
     0
174
     0
175
     0
176
     1
177
     1
178
     1
270
     2
271
     2
272
     2
273
     2
274
     3
340
11
275
     0
280
     0
281
     0
282
     0
283
     0
284
     8
285
     0
286
     0
287
     3
288
     0
  0
DIMSTYLE
105
749
330
A
100
AcDbSymbolTableRecord
100
AcDbDimStyleTableRecord
  2
STANDARD
 70
     0
  3

  4

  5

  6

  7

 40
1.0
 41
0.18
 42
0.0625
 43
0.38
 44
0.18
 45
0.0
 46
0.0
 47
0.0
 48
0.0
140
0.18
141
0.09
142
0.0
143
25.4
144
1.0
145
0.0
146
1.0
147
0.09
 71
     0
 72
     0
 73
     1
 74
     1
 75
     0
 76
     0
 77
     0
 78
     0
170
     0
171
     2
172
     0
173
     0
174
     0
175
     0
176
     0
177
     0
178
     0
270
     2
271
     4
272
     4
273
     2
274
     2
340
11
275
     0
280
     0
281
     0
282
     0
283
     1
284
     0
285
     0
286
     0
287
     3
288
     0
  0
ENDTAB
  0
TABLE
  2
BLOCK_RECORD
  5
1
330
0
100
AcDbSymbolTable
 70
     7
  0
BLOCK_RECORD
  5
1F
102
{ACAD_XDICTIONARY
360
690
102
}
330
1
100
AcDbSymbolTableRecord
100
AcDbBlockTableRecord
  2
*MODEL_SPACE
  0
BLOCK_RECORD
  5
1B
102
{ACAD_XDICTIONARY
360
68E
102
}
330
1
100
AcDbSymbolTableRecord
100
AcDbBlockTableRecord
  2
*PAPER_SPACE
  0
BLOCK_RECORD
  5
89D
330
1
100
AcDbSymbolTableRecord
100
AcDbBlockTableRecord
  2
*D0
  0
BLOCK_RECORD
  5
8D1
330
1
100
AcDbSymbolTableRecord
100
AcDbBlockTableRecord
  2
*D1
  0
BLOCK_RECORD
  5
8E9
330
1
100
AcDbSymbolTableRecord
100
AcDbBlockTableRecord
  2
*D2
  0
BLOCK_RECORD
  5
929
330
1
100
AcDbSymbolTableRecord
100
AcDbBlockTableRecord
  2
*D3
  0
BLOCK_RECORD
  5
941
330
1
100
AcDbSymbolTableRecord
100
AcDbBlockTableRecord
  2
*D4
  0
BLOCK_RECORD
  5
95D
330
1
100
AcDbSymbolTableRecord
100
AcDbBlockTableRecord
  2
*D5
  0
BLOCK_RECORD
  5
975
330
1
100
AcDbSymbolTableRecord
100
AcDbBlockTableRecord
  2
*D6
  0
ENDTAB
  0
ENDSEC
  0
SECTION
  2
BLOCKS
  0
BLOCK
  5
20
330
1F
100
AcDbEntity
  8
0
100
AcDbBlockBegin
  2
*MODEL_SPACE
 70
     0
 10
0.0
 20
0.0
 30
0.0
  3
*MODEL_SPACE
  1

  0
ENDBLK
  5
21
330
1F
100
AcDbEntity
  8
0
100
AcDbBlockEnd
  0
BLOCK
  5
1C
330
1B
100
AcDbEntity
 67
     1
  8
0
100
AcDbBlockBegin
  2
*PAPER_SPACE
 70
     0
 10
0.0
 20
0.0
 30
0.0
  3
*PAPER_SPACE
  1

  0
ENDBLK
  5
1D
330
1B
100
AcDbEntity
 67
     1
  8
0
100
AcDbBlockEnd
  0
BLOCK
  5
8A9
330
89D
100
AcDbEntity
  8
0
100
AcDbBlockBegin
  2
*D0
 70
     1
 10
0.0
 20
0.0
 30
0.0
  3
*D0
  1

  0
LINE
  5
9D3
330
89D
100
AcDbEntity
  8
0
 62
     1
100
AcDbLine
 10
-23.68525899999999
 20
10.339508
 30
0.0
 11
-23.68525899999999
 21
17.83084434198023
 31
0.0
  0
LINE
  5
9D4
330
89D
100
AcDbEntity
  8
0
 62
     1
100
AcDbLine
 10
-33.225258
 20
10.339508
 30
0.0
 11
-33.225258
 21
17.83084434198023
 31
0.0
  0
LINE
  5
9D5
330
89D
100
AcDbEntity
  8
0
 62
     1
100
AcDbLine
 10
-37.725258
 20
16.33084434198025
 30
0.0
 11
-42.225258
 21
16.33084434198025
 31
0.0
  0
LINE
  5
9D6
330
89D
100
AcDbEntity
  8
0
 62
     1
100
AcDbLine
 10
-19.18525899999998
 20
16.33084434198025
 30
0.0
 11
5.314741000000005
 21
16.33084434198025
 31
0.0
  0
LINE
  5
9D7
330
89D
100
AcDbEntity
  8
0
 62
     1
100
AcDbLine
 10
-33.225258
 20
16.33084434198025
 30
0.0
 11
-23.68525899999999
 21
16.33084434198025
 31
0.0
  0
SOLID
  5
9D8
330
89D
100
AcDbEntity
  8
0
 62
     1
100
AcDbTrace
 10
-37.725258
 20
17.08084434198025
 30
0.0
 11
-37.725258
 21
15.58084434198025
 31
0.0
 12
-33.225258
 22
16.33084434198025
 32
0.0
 13
-33.225258
 23
16.33084434198025
 33
0.0
  0
SOLID
  5
9D9
330
89D
100
AcDbEntity
  8
0
 62
     1
100
AcDbTrace
 10
-19.18525899999998
 20
17.08084434198025
 30
0.0
 11
-19.18525899999998
 21
15.58084434198025
 31
0.0
 12
-23.68525899999999
 22
16.33084434198025
 32
0.0
 13
-23.68525899999999
 23
16.33084434198025
 33
0.0
  0
MTEXT
  5
9DA
330
89D
100
AcDbEntity
  8
0
 62
     1
100
AcDbMText
 10
-4.685258999999991
 20
19.58084434198023
 30
0.0
 40
4.5
 41
0.0
 71
     5
 72
     1
  1
φ9.54
1001
ACAD
1000
MTEXTBEGIN
1070
    73
1070
     1
1070
    44
1040
1.0
1070
    74
1070
     0
1000
MTEXTEND
1000
MTEXTBEGIN
1070
    73
1070
     1
1070
    44
1040
1.0
1070
    74
1070
     0
1000
MTEXTEND
1000
MTEXTBEGIN
1070
    73
1070
     1
1070
    44
1040
1.0
1070
    74
1070
     0
1000
MTEXTEND
1000
MTEXTBEGIN
1070
    73
1070
     1
1070
    44
1040
1.0
1070
    74
1070
     0
1000
MTEXTEND
  0
POINT
  5
9DB
330
89D
100
AcDbEntity
  8
DEFPOINTS
 62
     0
100
AcDbPoint
 10
-23.68525899999999
 20
10.339508
 30
0.0
  0
POINT
  5
9DC
330
89D
100
AcDbEntity
  8
DEFPOINTS
 62
     0
100
AcDbPoint
 10
-33.225258
 20
10.339508
 30
0.0
  0
POINT
  5
9DD
330
89D
100
AcDbEntity
  8
DEFPOINTS
 62
     0
100
AcDbPoint
 10
-33.225258
 20
16.33084434198025
 30
0.0
  0
ENDBLK
  5
8AA
330
89D
100
AcDbEntity
  8
0
100
AcDbBlockEnd
  0
BLOCK
  5
8DB
330
8D1
100
AcDbEntity
  8
0
100
AcDbBlockBegin
  2
*D1
 70
     1
 10
0.0
 20
0.0
 30
0.0
  3
*D1
  1

  0
LINE
  5
9DE
330
8D1
100
AcDbEntity
  8
0
 62
     1
100
AcDbLine
 10
-33.225258
 20
-0.11549193
 30
0.0
 11
-63.3670942405272
 21
-0.1154919299999915
 31
0.0
  0
LINE
  5
9DF
330
8D1
100
AcDbEntity
  8
0
 62
     1
100
AcDbLine
 10
-32.15525814135941
 20
47.38450693178989
 30
0.0
 11
-63.36709424052719
 21
47.38450693178989
 31
0.0
  0
LINE
  5
9E0
330
8D1
100
AcDbEntity
  8
0
 62
     1
100
AcDbLine
 10
-61.8670942405272
 20
4.384508070000006
 30
0.0
 11
-61.86709424052719
 21
42.88450693178988
 31
0.0
  0
SOLID
  5
9E1
330
8D1
100
AcDbEntity
  8
0
 62
     1
100
AcDbTrace
 10
-62.6170942405272
 20
4.384508070000008
 30
0.0
 11
-61.1170942405272
 21
4.384508070000006
 31
0.0
 12
-61.8670942405272
 22
-0.1154919299999919
 32
0.0
 13
-61.8670942405272
 23
-0.1154919299999919
 33
0.0
  0
SOLID
  5
9E2
330
8D1
100
AcDbEntity
  8
0
 62
     1
100
AcDbTrace
 10
-62.61709424052719
 20
42.88450693178988
 30
0.0
 11
-61.11709424052719
 21
42.88450693178988
 31
0.0
 12
-61.86709424052719
 22
47.38450693178989
 32
0.0
 13
-61.86709424052719
 23
47.38450693178989
 33
0.0
  0
MTEXT
  5
9E3
330
8D1
100
AcDbEntity
  8
0
 62
     1
100
AcDbMText
 10
-65.11709424052719
 20
23.63450750089494
 30
0.0
 40
4.5
 41
0.0
 71
     5
 72
     1
  1
47.5
 11
0.0000000000000001
 21
1.0
 31
0.0
1001
ACAD
1000
MTEXTBEGIN
1070
    73
1070
     1
1070
    44
1040
1.0
1070
    74
1070
     0
1000
MTEXTEND
1000
MTEXTBEGIN
1070
    73
1070
     1
1070
    44
1040
1.0
1070
    74
1070
     0
1000
MTEXTEND
1000
MTEXTBEGIN
1070
    73
1070
     1
1070
    44
1040
1.0
1070
    74
1070
     0
1000
MTEXTEND
1000
MTEXTBEGIN
1070
    73
1070
     1
1070
    44
1040
1.0
1070
    74
1070
     0
1000
MTEXTEND
  0
POINT
  5
9E4
330
8D1
100
AcDbEntity
  8
DEFPOINTS
 62
     0
100
AcDbPoint
 10
-33.225258
 20
-0.11549193
 30
0.0
  0
POINT
  5
9E5
330
8D1
100
AcDbEntity
  8
DEFPOINTS
 62
     0
100
AcDbPoint
 10
-32.15525814135941
 20
47.38450693178989
 30
0.0
  0
POINT
  5
9E6
330
8D1
100
AcDbEntity
  8
DEFPOINTS
 62
     0
100
AcDbPoint
 10
-61.86709424052719
 20
47.38450693178989
 30
0.0
  0
ENDBLK
  5
8DC
330
8D1
100
AcDbEntity
  8
0
100
AcDbBlockEnd
  0
BLOCK
  5
8F3
330
8E9
100
AcDbEntity
  8
0
100
AcDbBlockBegin
  2
*D2
 70
     1
 10
0.0
 20
0.0
 30
0.0
  3
*D2
  1

  0
LINE
  5
91F
330
8E9
100
AcDbEntity
  8
0
 62
     1
100
AcDbLine
 10
15.199742
 20
16.55950899999999
 30
0.0
 11
15.199742
 21
-12.11737488777385
 31
0.0
  0
LINE
  5
920
330
8E9
100
AcDbEntity
  8
0
 62
     1
100
AcDbLine
 10
54.889744
 20
16.55950899999999
 30
0.0
 11
54.889744
 21
-12.11737488777385
 31
0.0
  0
LINE
  5
921
330
8E9
100
AcDbEntity
  8
0
 62
     1
100
AcDbLine
 10
19.699742
 20
-10.61737488777384
 30
0.0
 11
50.38974399999999
 21
-10.61737488777384
 31
0.0
  0
SOLID
  5
922
330
8E9
100
AcDbEntity
  8
0
 62
     1
100
AcDbTrace
 10
19.699742
 20
-9.867374887773847
 30
0.0
 11
19.699742
 21
-11.36737488777384
 31
0.0
 12
15.199742
 22
-10.61737488777384
 32
0.0
 13
15.199742
 23
-10.61737488777384
 33
0.0
  0
SOLID
  5
923
330
8E9
100
AcDbEntity
  8
0
 62
     1
100
AcDbTrace
 10
50.38974399999999
 20
-9.867374887773847
 30
0.0
 11
50.38974399999999
 21
-11.36737488777384
 31
0.0
 12
54.889744
 22
-10.61737488777384
 32
0.0
 13
54.889744
 23
-10.61737488777384
 33
0.0
  0
MTEXT
  5
924
330
8E9
100
AcDbEntity
  8
0
 62
     1
100
AcDbMText
 10
33.92399873764157
 20
-7.367374887773847
 30
0.0
 40
4.5
 41
0.0
 71
     5
 72
     1
  1
φ39.69
1001
ACAD
1000
MTEXTBEGIN
1070
    73
1070
     1
1070
    44
1040
1.0
1070
    74
1070
     0
1000
MTEXTEND
1000
MTEXTBEGIN
1070
    73
1070
     1
1070
    44
1040
1.0
1070
    74
1070
     0
1000
MTEXTEND
1000
MTEXTBEGIN
1070
    73
1070
     1
1070
    44
1040
1.0
1070
    74
1070
     0
1000
MTEXTEND
1000
MTEXTBEGIN
1070
    73
1070
     1
1070
    44
1040
1.0
1070
    74
1070
     0
1000
MTEXTEND
1000
MTEXTBEGIN
1070
    73
1070
     1
1070
    44
1040
1.0
1070
    74
1070
     0
1000
MTEXTEND
  0
POINT
  5
925
330
8E9
100
AcDbEntity
  8
DEFPOINTS
 62
     0
100
AcDbPoint
 10
15.199742
 20
16.55950899999999
 30
0.0
  0
POINT
  5
926
330
8E9
100
AcDbEntity
  8
DEFPOINTS
 62
     0
100
AcDbPoint
 10
54.889744
 20
16.55950899999999
 30
0.0
  0
POINT
  5
927
330
8E9
100
AcDbEntity
  8
DEFPOINTS
 62
     0
100
AcDbPoint
 10
54.889744
 20
-10.61737488777384
 30
0.0
  0
ENDBLK
  5
8F4
330
8E9
100
AcDbEntity
  8
0
100
AcDbBlockEnd
  0
BLOCK
  5
933
330
929
100
AcDbEntity
  8
0
100
AcDbBlockBegin
  2
*D3
 70
     1
 10
0.0
 20
0.0
 30
0.0
  3
*D3
  1

  0
LINE
  5
936
330
929
100
AcDbEntity
  8
0
 62
     1
100
AcDbLine
 10
53.88974399999999
 20
15.55950799999999
 30
0.0
 11
76.68141338238751
 21
15.55950799999998
 31
0.0
  0
LINE
  5
937
330
929
100
AcDbEntity
  8
0
 62
     1
100
AcDbLine
 10
53.88974394764011
 20
34.609509
 30
0.0
 11
76.68141338238753
 21
34.609509
 31
0.0
  0
LINE
  5
938
330
929
100
AcDbEntity
  8
0
 62
     1
100
AcDbLine
 10
75.18141338238752
 20
20.05950799999998
 30
0.0
 11
75.18141338238752
 21
30.109509
 31
0.0
  0
SOLID
  5
939
330
929
100
AcDbEntity
  8
0
 62
     1
100
AcDbTrace
 10
74.43141338238752
 20
20.05950799999998
 30
0.0
 11
75.93141338238751
 21
20.05950799999998
 31
0.0
 12
75.18141338238752
 22
15.55950799999998
 32
0.0
 13
75.18141338238752
 23
15.55950799999998
 33
0.0
  0
SOLID
  5
93A
330
929
100
AcDbEntity
  8
0
 62
     1
100
AcDbTrace
 10
74.43141338238752
 20
30.109509
 30
0.0
 11
75.93141338238751
 21
30.109509
 31
0.0
 12
75.18141338238753
 22
34.609509
 32
0.0
 13
75.18141338238753
 23
34.609509
 33
0.0
  0
MTEXT
  5
93B
330
929
100
AcDbEntity
  8
0
 62
     1
100
AcDbMText
 10
71.93141338238752
 20
25.0845085
 30
0.0
 40
4.5
 41
0.0
 71
     5
 72
     1
  1
19.05
 11
0.0000000000000001
 21
1.0
 31
0.0
1001
ACAD
1000
MTEXTBEGIN
1070
    73
1070
     1
1070
    44
1040
1.0
1070
    74
1070
     0
1000
MTEXTEND
1000
MTEXTBEGIN
1070
    73
1070
     1
1070
    44
1040
1.0
1070
    74
1070
     0
1000
MTEXTEND
1000
MTEXTBEGIN
1070
    73
1070
     1
1070
    44
1040
1.0
1070
    74
1070
     0
1000
MTEXTEND
1000
MTEXTBEGIN
1070
    73
1070
     1
1070
    44
1040
1.0
1070
    74
1070
     0
1000
MTEXTEND
1000
MTEXTBEGIN
1070
    73
1070
     1
1070
    44
1040
1.0
1070
    74
1070
     0
1000
MTEXTEND
  0
POINT
  5
93C
330
929
100
AcDbEntity
  8
DEFPOINTS
 62
     0
100
AcDbPoint
 10
53.88974399999999
 20
15.55950799999999
 30
0.0
  0
POINT
  5
93D
330
929
100
AcDbEntity
  8
DEFPOINTS
 62
     0
100
AcDbPoint
 10
53.88974394764011
 20
34.609509
 30
0.0
  0
POINT
  5
93E
330
929
100
AcDbEntity
  8
DEFPOINTS
 62
     0
100
AcDbPoint
 10
75.18141338238753
 20
34.609509
 30
0.0
  0
ENDBLK
  5
934
330
929
100
AcDbEntity
  8
0
100
AcDbBlockEnd
  0
BLOCK
  5
94D
330
941
100
AcDbEntity
  8
0
100
AcDbBlockBegin
  2
*D4
 70
     1
 10
0.0
 20
0.0
 30
0.0
  3
*D4
  1

  0
LINE
  5
950
330
941
100
AcDbEntity
  8
0
 62
     1
100
AcDbLine
 10
53.88974394764011
 20
34.609509
 30
0.0
 11
76.68141338238753
 21
34.609509
 31
0.0
  0
LINE
  5
951
330
941
100
AcDbEntity
  8
0
 62
     1
100
AcDbLine
 10
49.344742
 20
39.409508
 30
0.0
 11
76.68141338238753
 21
39.409508
 31
0.0
  0
LINE
  5
952
330
941
100
AcDbEntity
  8
0
 62
     1
100
AcDbLine
 10
75.18141338238752
 20
30.109509
 30
0.0
 11
75.18141338238752
 21
25.60950899999999
 31
0.0
  0
LINE
  5
953
330
941
100
AcDbEntity
  8
0
 62
     1
100
AcDbLine
 10
75.18141338238753
 20
43.909508
 30
0.0
 11
75.18141338238753
 21
59.40950799999999
 31
0.0
  0
LINE
  5
954
330
941
100
AcDbEntity
  8
0
 62
     1
100
AcDbLine
 10
75.18141338238753
 20
34.609509
 30
0.0
 11
75.18141338238753
 21
39.409508
 31
0.0
  0
SOLID
  5
955
330
941
100
AcDbEntity
  8
0
 62
     1
100
AcDbTrace
 10
74.43141338238752
 20
30.109509
 30
0.0
 11
75.93141338238751
 21
30.109509
 31
0.0
 12
75.18141338238753
 22
34.609509
 32
0.0
 13
75.18141338238753
 23
34.609509
 33
0.0
  0
SOLID
  5
956
330
941
100
AcDbEntity
  8
0
 62
     1
100
AcDbTrace
 10
74.43141338238753
 20
43.909508
 30
0.0
 11
75.93141338238753
 21
43.909508
 31
0.0
 12
75.18141338238753
 22
39.409508
 32
0.0
 13
75.18141338238753
 23
39.409508
 33
0.0
  0
MTEXT
  5
957
330
941
100
AcDbEntity
  8
0
 62
     1
100
AcDbMText
 10
71.93141338238752
 20
53.90950800000001
 30
0.0
 40
4.5
 41
0.0
 71
     5
 72
     1
  1
4.8
 11
0.0000000000000001
 21
1.0
 31
0.0
1001
ACAD
1000
MTEXTBEGIN
1070
    73
1070
     1
1070
    44
1040
1.0
1070
    74
1070
     0
1000
MTEXTEND
1000
MTEXTBEGIN
1070
    73
1070
     1
1070
    44
1040
1.0
1070
    74
1070
     0
1000
MTEXTEND
1000
MTEXTBEGIN
1070
    73
1070
     1
1070
    44
1040
1.0
1070
    74
1070
     0
1000
MTEXTEND
1000
MTEXTBEGIN
1070
    73
1070
     1
1070
    44
1040
1.0
1070
    74
1070
     0
1000
MTEXTEND
1000
MTEXTBEGIN
1070
    73
1070
     1
1070
    44
1040
1.0
1070
    74
1070
     0
1000
MTEXTEND
  0
POINT
  5
958
330
941
100
AcDbEntity
  8
DEFPOINTS
 62
     0
100
AcDbPoint
 10
53.88974394764011
 20
34.609509
 30
0.0
  0
POINT
  5
959
330
941
100
AcDbEntity
  8
DEFPOINTS
 62
     0
100
AcDbPoint
 10
49.344742
 20
39.409508
 30
0.0
  0
POINT
  5
95A
330
941
100
AcDbEntity
  8
DEFPOINTS
 62
     0
100
AcDbPoint
 10
75.18141338238753
 20
39.409508
 30
0.0
  0
ENDBLK
  5
94E
330
941
100
AcDbEntity
  8
0
100
AcDbBlockEnd
  0
BLOCK
  5
967
330
95D
100
AcDbEntity
  8
0
100
AcDbBlockBegin
  2
*D5
 70
     1
 10
0.0
 20
0.0
 30
0.0
  3
*D5
  1

  0
LINE
  5
96A
330
95D
100
AcDbEntity
  8
0
 62
     1
100
AcDbLine
 10
-28.45525699999999
 20
-27.54019899999999
 30
0.0
 11
-63.36709424052719
 21
-27.54019899999998
 31
0.0
  0
LINE
  5
96B
330
95D
100
AcDbEntity
  8
0
 62
     1
100
AcDbLine
 10
-28.45525699999999
 20
-56.140198
 30
0.0
 11
-63.3670942405272
 21
-56.14019799999999
 31
0.0
  0
LINE
  5
96C
330
95D
100
AcDbEntity
  8
0
 62
     1
100
AcDbLine
 10
-61.86709424052719
 20
-32.04019899999998
 30
0.0
 11
-61.8670942405272
 21
-51.64019799999999
 31
0.0
  0
SOLID
  5
96D
330
95D
100
AcDbEntity
  8
0
 62
     1
100
AcDbTrace
 10
-62.61709424052719
 20
-32.04019899999998
 30
0.0
 11
-61.11709424052719
 21
-32.04019899999998
 31
0.0
 12
-61.86709424052719
 22
-27.54019899999998
 32
0.0
 13
-61.86709424052719
 23
-27.54019899999998
 33
0.0
  0
SOLID
  5
96E
330
95D
100
AcDbEntity
  8
0
 62
     1
100
AcDbTrace
 10
-62.6170942405272
 20
-51.64019799999999
 30
0.0
 11
-61.1170942405272
 21
-51.64019799999999
 31
0.0
 12
-61.8670942405272
 22
-56.14019799999999
 32
0.0
 13
-61.8670942405272
 23
-56.14019799999999
 33
0.0
  0
MTEXT
  5
96F
330
95D
100
AcDbEntity
  8
0
 62
     1
100
AcDbMText
 10
-65.11709424052719
 20
-41.84019849999999
 30
0.0
 40
4.5
 41
0.0
 71
     5
 72
     1
  1
28.6
 11
0.0000000000000001
 21
1.0
 31
0.0
1001
ACAD
1000
MTEXTBEGIN
1070
    73
1070
     1
1070
    44
1040
1.0
1070
    74
1070
     0
1000
MTEXTEND
1000
MTEXTBEGIN
1070
    73
1070
     1
1070
    44
1040
1.0
1070
    74
1070
     0
1000
MTEXTEND
1000
MTEXTBEGIN
1070
    73
1070
     1
1070
    44
1040
1.0
1070
    74
1070
     0
1000
MTEXTEND
1000
MTEXTBEGIN
1070
    73
1070
     1
1070
    44
1040
1.0
1070
    74
1070
     0
1000
MTEXTEND
1000
MTEXTBEGIN
1070
    73
1070
     1
1070
    44
1040
1.0
1070
    74
1070
     0
1000
MTEXTEND
  0
POINT
  5
970
330
95D
100
AcDbEntity
  8
DEFPOINTS
 62
     0
100
AcDbPoint
 10
-28.45525699999999
 20
-27.54019899999999
 30
0.0
  0
POINT
  5
971
330
95D
100
AcDbEntity
  8
DEFPOINTS
 62
     0
100
AcDbPoint
 10
-28.45525699999999
 20
-56.140198
 30
0.0
  0
POINT
  5
972
330
95D
100
AcDbEntity
  8
DEFPOINTS
 62
     0
100
AcDbPoint
 10
-61.8670942405272
 20
-56.14019799999999
 30
0.0
  0
ENDBLK
  5
968
330
95D
100
AcDbEntity
  8
0
100
AcDbBlockEnd
  0
BLOCK
  5
97F
330
975
100
AcDbEntity
  8
0
100
AcDbBlockBegin
  2
*D6
 70
     1
 10
0.0
 20
0.0
 30
0.0
  3
*D6
  1

  0
LINE
  5
98C
330
975
100
AcDbEntity
  8
0
 62
     1
100
AcDbLine
 10
-28.45525699999999
 20
-60.940201
 30
0.0
 11
-28.45525699999999
 21
-79.31640279109456
 31
0.0
  0
LINE
  5
98D
330
975
100
AcDbEntity
  8
0
 62
     1
100
AcDbLine
 10
35.044743
 20
-64.18519599999999
 30
0.0
 11
35.044743
 21
-79.31640279109456
 31
0.0
  0
LINE
  5
98E
330
975
100
AcDbEntity
  8
0
 62
     1
100
AcDbLine
 10
-23.95525699999998
 20
-77.81640279109456
 30
0.0
 11
30.54474299999998
 21
-77.81640279109456
 31
0.0
  0
SOLID
  5
98F
330
975
100
AcDbEntity
  8
0
 62
     1
100
AcDbTrace
 10
-23.95525699999998
 20
-77.06640279109456
 30
0.0
 11
-23.95525699999998
 21
-78.56640279109456
 31
0.0
 12
-28.45525699999999
 22
-77.81640279109456
 32
0.0
 13
-28.45525699999999
 23
-77.81640279109456
 33
0.0
  0
SOLID
  5
990
330
975
100
AcDbEntity
  8
0
 62
     1
100
AcDbTrace
 10
30.54474299999998
 20
-77.06640279109456
 30
0.0
 11
30.54474299999998
 21
-78.56640279109456
 31
0.0
 12
35.044743
 22
-77.81640279109456
 32
0.0
 13
35.044743
 23
-77.81640279109456
 33
0.0
  0
MTEXT
  5
991
330
975
100
AcDbEntity
  8
0
 62
     1
100
AcDbMText
 10
3.294743000000003
 20
-74.56640279109456
 30
0.0
 40
4.5
 41
0.0
 71
     5
 72
     1
  1
63.50
1001
ACAD
1000
MTEXTBEGIN
1070
    73
1070
     1
1070
    44
1040
1.0
1070
    74
1070
     0
1000
MTEXTEND
1000
MTEXTBEGIN
1070
    73
1070
     1
1070
    44
1040
1.0
1070
    74
1070
     0
1000
MTEXTEND
1000
MTEXTBEGIN
1070
    73
1070
     1
1070
    44
1040
1.0
1070
    74
1070
     0
1000
MTEXTEND
1000
MTEXTBEGIN
1070
    73
1070
     1
1070
    44
1040
1.0
1070
    74
1070
     0
1000
MTEXTEND
1000
MTEXTBEGIN
1070
    73
1070
     1
1070
    44
1040
1.0
1070
    74
1070
     0
1000
MTEXTEND
  0
POINT
  5
992
330
975
100
AcDbEntity
  8
DEFPOINTS
 62
     0
100
AcDbPoint
 10
-28.45525699999999
 20
-60.940201
 30
0.0
  0
POINT
  5
993
330
975
100
AcDbEntity
  8
DEFPOINTS
 62
     0
100
AcDbPoint
 10
35.044743
 20
-64.18519599999999
 30
0.0
  0
POINT
  5
994
330
975
100
AcDbEntity
  8
DEFPOINTS
 62
     0
100
AcDbPoint
 10
35.044743
 20
-77.81640279109456
 30
0.0
  0
ENDBLK
  5
980
330
975
100
AcDbEntity
  8
0
100
AcDbBlockEnd
  0
ENDSEC
  0
SECTION
  2
ENTITIES
  0
TEXT
  5
7AB
330
1F
100
AcDbEntity
  8
0
  6
CONTINUOUS
 62
     7
100
AcDbText
 10
-28.114496
 20
73.70364599999998
 30
0.0
 40
4.8000002
  1

 41
0.8444833199999999
100
AcDbText
  0
ARC
  5
7AE
102
{ACAD_REACTORS
330
8E7
102
}
330
1F
100
AcDbEntity
  8
0
  6
CONTINUOUS
 62
     7
100
AcDbCircle
 10
-28.45525699999999
 20
54.540066
 30
0.0
 40
8.055559200000001
100
AcDbArc
 50
242.65739
 51
297.34261
  0
ARC
  5
7AF
330
1F
100
AcDbEntity
  8
0
  6
CONTINUOUS
 62
     7
100
AcDbCircle
 10
53.88974399999999
 20
16.55950899999999
 30
0.0
 40
1.0
100
AcDbArc
 50
270.0
 51
0.0
  0
ARC
  5
7B0
102
{ACAD_REACTORS
330
93F
102
}
330
1F
100
AcDbEntity
  8
0
  6
CONTINUOUS
 62
     7
100
AcDbCircle
 10
53.88974399999999
 20
33.609509
 30
0.0
 40
1.0
100
AcDbArc
 50
0.0
 51
90.00000300000001
  0
ARC
  5
7B1
330
1F
100
AcDbEntity
  8
0
  6
CONTINUOUS
 62
     7
100
AcDbCircle
 10
16.19974299999999
 20
16.55950899999999
 30
0.0
 40
1.0
100
AcDbArc
 50
179.9999899999999
 51
270.0
  0
ARC
  5
7B2
330
1F
100
AcDbEntity
  8
0
  6
CONTINUOUS
 62
     7
100
AcDbCircle
 10
16.19974299999999
 20
33.609509
 30
0.0
 40
1.0
100
AcDbArc
 50
90.00000300000001
 51
180.00001
  0
ARC
  5
7B3
330
1F
100
AcDbEntity
  8
0
  6
CONTINUOUS
 62
     7
100
AcDbCircle
 10
35.044743
 20
-41.840199
 30
0.0
 40
19.84499899999998
100
AcDbArc
 50
226.10276
 51
133.8972399999996
  0
ARC
  5
7B4
330
1F
100
AcDbEntity
  8
0
  6
CONTINUOUS
 62
     7
100
AcDbCircle
 10
-36.369335
 20
4.035097199999999
 30
0.0
 40
1.4994106
100
AcDbArc
 50
90.00000300000001
 51
270.0
  0
ARC
  5
7B5
330
1F
100
AcDbEntity
  8
0
  6
CONTINUOUS
 62
     7
100
AcDbCircle
 10
-24.355106
 20
-44.916203
 30
0.0
 40
1.4994106
100
AcDbArc
 50
59.999988
 51
90.00000300000001
  0
ARC
  5
7B6
330
1F
100
AcDbEntity
  8
0
  6
CONTINUOUS
 62
     7
100
AcDbCircle
 10
-24.087025
 20
-43.33961099999998
 30
0.0
 40
1.4994106
100
AcDbArc
 50
60.000002
 51
90.00000300000001
  0
ARC
  5
7B7
330
1F
100
AcDbEntity
  8
0
  6
CONTINUOUS
 62
     7
100
AcDbCircle
 10
-35.343029
 20
-41.840199
 30
0.0
 40
1.1242673
100
AcDbArc
 50
34.85432199999999
 51
325.14566
  0
ARC
  5
7B8
330
1F
100
AcDbEntity
  8
0
  6
CONTINUOUS
 62
     7
100
AcDbCircle
 10
-33.190018
 20
-40.34079000000001
 30
0.0
 40
1.4994106
100
AcDbArc
 50
214.85433
 51
270.0
  0
ARC
  5
7B9
330
1F
100
AcDbEntity
  8
0
  6
CONTINUOUS
 62
     7
100
AcDbCircle
 10
-35.343029
 20
-41.840199
 30
0.0
 40
2.623968599999999
100
AcDbArc
 50
46.658241
 51
313.34176
  0
ARC
  5
7BA
330
1F
100
AcDbEntity
  8
0
  6
CONTINUOUS
 62
     7
100
AcDbCircle
 10
-32.512951
 20
-38.841377
 30
0.0
 40
1.4994106
100
AcDbArc
 50
226.65825
 51
252.64224
  0
ARC
  5
7BB
330
1F
100
AcDbEntity
  8
0
  6
CONTINUOUS
 62
     7
100
AcDbCircle
 10
-32.512951
 20
-44.83901999999999
 30
0.0
 40
1.4994106
100
AcDbArc
 50
107.3577599999999
 51
133.3417499999999
  0
ARC
  5
7BC
330
1F
100
AcDbEntity
  8
0
  6
CONTINUOUS
 62
     7
100
AcDbCircle
 10
-33.190018
 20
-43.33961099999998
 30
0.0
 40
1.4994106
100
AcDbArc
 50
90.00000300000001
 51
145.14567
  0
ARC
  5
7BD
330
1F
100
AcDbEntity
  8
0
  6
CONTINUOUS
 62
     7
100
AcDbCircle
 10
-24.355106
 20
-38.764198
 30
0.0
 40
1.4994106
100
AcDbArc
 50
270.0
 51
300.0
  0
ARC
  5
7BE
330
1F
100
AcDbEntity
  8
0
  6
CONTINUOUS
 62
     7
100
AcDbCircle
 10
-24.087025
 20
-40.34079000000001
 30
0.0
 40
1.4994106
100
AcDbArc
 50
270.0
 51
300.0
  0
ARC
  5
7BF
330
1F
100
AcDbEntity
  8
0
  6
CONTINUOUS
 62
     7
100
AcDbCircle
 10
-28.45525699999999
 20
-41.840199
 30
0.0
 40
4.769999999999996
100
AcDbArc
 50
44.38099499999998
 51
315.619
  0
CIRCLE
  5
7C0
330
1F
100
AcDbEntity
  8
0
  6
CONTINUOUS
 62
     7
100
AcDbCircle
 10
35.044743
 20
-41.840199
 30
0.0
 40
4.769999999999996
  0
CIRCLE
  5
7C1
330
1F
100
AcDbEntity
  8
0
  6
CONTINUOUS
 62
     7
100
AcDbCircle
 10
35.044743
 20
-41.840199
 30
0.0
 40
6.75
  0
ARC
  5
7C2
330
1F
100
AcDbEntity
  8
0
  6
CONTINUOUS
 62
     7
100
AcDbCircle
 10
35.044743
 20
-41.840199
 30
0.0
 40
14.3
100
AcDbArc
 50
270.0
 51
90.00000300000001
  0
ARC
  5
7C3
330
1F
100
AcDbEntity
  8
0
  6
CONTINUOUS
 62
     7
100
AcDbCircle
 10
-28.45525699999999
 20
-41.840199
 30
0.0
 40
14.3
100
AcDbArc
 50
90.00000300000001
 51
270.0
  0
LINE
  5
7C5
330
1F
100
AcDbEntity
  8
0
  6
CONTINUOUS
 62
     7
100
AcDbLine
 10
-21.055258
 20
46.13450900000001
 30
0.0
 11
-21.055258
 21
44.634509
 31
0.0
  0
LINE
  5
7C6
330
1F
100
AcDbEntity
  8
0
  6
CONTINUOUS
 62
     7
100
AcDbLine
 10
-35.855259
 20
46.13450900000001
 30
0.0
 11
-35.855259
 21
44.634509
 31
0.0
  0
LINE
  5
7C7
330
1F
100
AcDbEntity
  8
0
  6
CONTINUOUS
 62
     7
100
AcDbLine
 10
-32.155258
 20
47.384506
 30
0.0
 11
-24.755257
 21
47.384506
 31
0.0
  0
LINE
  5
7C8
330
1F
100
AcDbEntity
  8
0
  6
CONTINUOUS
 62
     7
100
AcDbLine
 10
-24.755257
 20
47.384506
 30
0.0
 11
-24.755257
 21
46.129509
 31
0.0
  0
LINE
  5
7C9
330
1F
100
AcDbEntity
  8
0
  6
CONTINUOUS
 62
     7
100
AcDbLine
 10
-32.155258
 20
47.384506
 30
0.0
 11
-32.155258
 21
46.129509
 31
0.0
  0
LINE
  5
7CA
330
1F
100
AcDbEntity
  8
0
  6
CONTINUOUS
 62
     7
100
AcDbLine
 10
-35.855259
 20
46.13450900000001
 30
0.0
 11
-21.055258
 21
46.13450900000001
 31
0.0
  0
LINE
  5
7CB
102
{ACAD_REACTORS
330
8FF
102
}
330
1F
100
AcDbEntity
  8
0
  6
CONTINUOUS
 62
     7
100
AcDbLine
 10
54.889744
 20
33.609509
 30
0.0
 11
54.889744
 21
16.55950899999999
 31
0.0
  0
LINE
  5
7CC
102
{ACAD_REACTORS
330
8FF
102
}
330
1F
100
AcDbEntity
  8
0
  6
CONTINUOUS
 62
     7
100
AcDbLine
 10
15.199742
 20
33.609509
 30
0.0
 11
15.199742
 21
16.55950899999999
 31
0.0
  0
LINE
  5
7CD
102
{ACAD_REACTORS
330
8E7
102
}
330
1F
100
AcDbEntity
  8
0
  6
CONTINUOUS
 62
     7
100
AcDbLine
 10
-33.225258
 20
-0.11549193
 30
0.0
 11
-25.046116
 21
-0.11549193
 31
0.0
  0
LINE
  5
7CE
330
1F
100
AcDbEntity
  8
0
  6
CONTINUOUS
 62
     7
100
AcDbLine
 10
18.387909
 20
-30.40019899999998
 30
0.0
 11
18.387909
 21
-53.28019799999999
 31
0.0
  0
LINE
  5
7CF
330
1F
100
AcDbEntity
  8
0
  6
CONTINUOUS
 62
     7
100
AcDbLine
 10
-13.768192
 20
44.634509
 30
0.0
 11
18.387909
 21
39.409508
 31
0.0
  0
LINE
  5
7D0
330
1F
100
AcDbEntity
  8
0
  6
CONTINUOUS
 62
     7
100
AcDbLine
 10
-14.15525799999999
 20
39.83450999999996
 30
0.0
 11
18.00084299999999
 21
34.609509
 31
0.0
  0
LINE
  5
7D1
330
1F
100
AcDbEntity
  8
0
  6
CONTINUOUS
 62
     7
100
AcDbLine
 10
-13.768192
 20
5.5345079
 30
0.0
 11
18.387909
 21
10.75950799999999
 31
0.0
  0
LINE
  5
7D2
330
1F
100
AcDbEntity
  8
0
  6
CONTINUOUS
 62
     7
100
AcDbLine
 10
-14.15525799999999
 20
10.334508
 30
0.0
 11
18.000845
 21
15.55950799999999
 31
0.0
  0
LINE
  5
7D3
330
1F
100
AcDbEntity
  8
0
  6
CONTINUOUS
 62
     7
100
AcDbLine
 10
-25.046116
 20
-43.416794
 30
0.0
 11
-24.355106
 21
-43.416794
 31
0.0
  0
LINE
  5
7D4
330
1F
100
AcDbEntity
  8
0
  6
CONTINUOUS
 62
     7
100
AcDbLine
 10
-25.046116
 20
-40.263607
 30
0.0
 11
-24.355106
 21
-40.263607
 31
0.0
  0
LINE
  5
7D5
330
1F
100
AcDbEntity
  8
0
  6
CENTER
 62
     6
100
AcDbLine
 10
-23.250296
 20
-41.840199
 30
0.0
 11
57.38974
 21
-41.840199
 31
0.0
  0
LINE
  5
7D6
330
1F
100
AcDbEntity
  8
0
  6
CONTINUOUS
 62
     7
100
AcDbLine
 10
-25.046116
 20
-41.840199
 30
0.0
 11
-24.087025
 21
-41.840199
 31
0.0
  0
LINE
  5
7D7
330
1F
100
AcDbEntity
  8
0
  6
CONTINUOUS
 62
     7
100
AcDbLine
 10
-25.046116
 20
-38.503937
 30
0.0
 11
-25.046116
 21
-45.176464
 31
0.0
  0
LINE
  5
7D8
330
1F
100
AcDbEntity
  8
0
  6
CONTINUOUS
 62
     7
100
AcDbLine
 10
-25.046116
 20
5.5395079
 30
0.0
 11
-25.046116
 21
-0.11549193
 31
0.0
  0
LINE
  5
7D9
330
1F
100
AcDbEntity
  8
0
  6
CONTINUOUS
 62
     7
100
AcDbLine
 10
-18.66691799999999
 20
2.535686799999999
 30
0.0
 11
-17.167507
 21
4.035097699999997
 31
0.0
  0
LINE
  5
7DA
330
1F
100
AcDbEntity
  8
0
  6
CONTINUOUS
 62
     7
100
AcDbLine
 10
-36.369335
 20
2.535686799999999
 30
0.0
 11
-33.225258
 21
2.535686799999999
 31
0.0
  0
LINE
  5
7DB
330
1F
100
AcDbEntity
  8
0
  6
CONTINUOUS
 62
     7
100
AcDbLine
 10
-17.167507
 20
4.035097699999997
 30
0.0
 11
-18.66691799999999
 21
5.5345079
 31
0.0
  0
LINE
  5
7DC
330
1F
100
AcDbEntity
  8
0
  6
CONTINUOUS
 62
     7
100
AcDbLine
 10
-25.046116
 20
2.535686799999999
 30
0.0
 11
-18.66691799999999
 21
2.535686799999999
 31
0.0
  0
LINE
  5
7DD
330
1F
100
AcDbEntity
  8
0
  6
CONTINUOUS
 62
     7
100
AcDbLine
 10
49.344742
 20
15.55950799999999
 30
0.0
 11
49.344742
 21
10.75950799999999
 31
0.0
  0
LINE
  5
7DE
330
1F
100
AcDbEntity
  8
0
  6
CONTINUOUS
 62
     7
100
AcDbLine
 10
49.344742
 20
39.409508
 30
0.0
 11
49.344742
 21
34.609509
 31
0.0
  0
LINE
  5
7DF
330
1F
100
AcDbEntity
  8
0
  6
CONTINUOUS
 62
     7
100
AcDbLine
 10
18.387909
 20
10.75950799999999
 30
0.0
 11
49.344742
 21
10.75950799999999
 31
0.0
  0
LINE
  5
7E0
102
{ACAD_REACTORS
330
95B
102
}
330
1F
100
AcDbEntity
  8
0
  6
CONTINUOUS
 62
     7
100
AcDbLine
 10
18.387909
 20
39.409508
 30
0.0
 11
49.344742
 21
39.409508
 31
0.0
  0
LINE
  5
7E1
330
1F
100
AcDbEntity
  8
0
  6
CONTINUOUS
 62
     7
100
AcDbLine
 10
-42.755257
 20
44.634509
 30
0.0
 11
-13.768192
 21
44.634509
 31
0.0
  0
LINE
  5
7E2
330
1F
100
AcDbEntity
  8
0
  6
CENTER
 62
     6
100
AcDbLine
 10
-28.45525699999999
 20
54.229507
 30
0.0
 11
-28.45525699999999
 21
-4.060491999999999
 31
0.0
  0
LINE
  5
7E3
330
1F
100
AcDbEntity
  8
0
  6
CENTER
 62
     6
100
AcDbLine
 10
56.805779
 20
25.084509
 30
0.0
 11
-42.755257
 21
25.084509
 31
0.0
  0
LINE
  5
7E4
330
1F
100
AcDbEntity
  8
0
  6
CONTINUOUS
 62
     7
100
AcDbLine
 10
-42.755257
 20
10.334508
 30
0.0
 11
-14.15525799999999
 21
10.334508
 31
0.0
  0
LINE
  5
7E5
330
1F
100
AcDbEntity
  8
0
  6
CONTINUOUS
 62
     7
100
AcDbLine
 10
-42.755257
 20
5.5345079
 30
0.0
 11
-13.768192
 21
5.5345079
 31
0.0
  0
LINE
  5
7E6
102
{ACAD_REACTORS
330
93F
102
}
330
1F
100
AcDbEntity
  8
0
  6
CONTINUOUS
 62
     7
100
AcDbLine
 10
16.19974299999999
 20
15.55950799999999
 30
0.0
 11
53.88974399999999
 21
15.55950799999999
 31
0.0
  0
LINE
  5
7E7
330
1F
100
AcDbEntity
  8
0
  6
CONTINUOUS
 62
     7
100
AcDbLine
 10
-42.755257
 20
44.634509
 30
0.0
 11
-42.755257
 21
39.83450999999996
 31
0.0
  0
LINE
  5
7E8
330
1F
100
AcDbEntity
  8
0
  6
CONTINUOUS
 62
     7
100
AcDbLine
 10
-42.755257
 20
39.83450999999996
 30
0.0
 11
-14.15525799999999
 21
39.83450999999996
 31
0.0
  0
LINE
  5
7E9
330
1F
100
AcDbEntity
  8
0
  6
CONTINUOUS
 62
     7
100
AcDbLine
 10
-42.755257
 20
5.5345079
 30
0.0
 11
-42.755257
 21
10.334508
 31
0.0
  0
LINE
  5
7EA
330
1F
100
AcDbEntity
  8
0
  6
CONTINUOUS
 62
     7
100
AcDbLine
 10
16.19974299999999
 20
34.609509
 30
0.0
 11
53.88974399999999
 21
34.609509
 31
0.0
  0
LINE
  5
7EB
102
{ACAD_REACTORS
330
8B7
102
}
330
1F
100
AcDbEntity
  8
0
  6
CONTINUOUS
 62
     7
100
AcDbLine
 10
-33.225258
 20
39.82950999999999
 30
0.0
 11
-33.225258
 21
10.339508
 31
0.0
  0
LINE
  5
7EC
102
{ACAD_REACTORS
330
8B7
102
}
330
1F
100
AcDbEntity
  8
0
  6
CONTINUOUS
 62
     7
100
AcDbLine
 10
-23.68525899999999
 20
39.82950999999999
 30
0.0
 11
-23.68525899999999
 21
10.339508
 31
0.0
  0
LINE
  5
7ED
330
1F
100
AcDbEntity
  8
0
  6
CONTINUOUS
 62
     7
100
AcDbLine
 10
-33.225258
 20
5.5395079
 30
0.0
 11
-33.225258
 21
-0.11549193
 31
0.0
  0
LINE
  5
7EE
330
1F
100
AcDbEntity
  8
0
  6
CENTER
 62
     6
100
AcDbLine
 10
35.044743
 20
44.96984099999997
 30
0.0
 11
35.044743
 21
6.357191803706883
 31
0.0
  0
LINE
  5
7EF
330
1F
100
AcDbEntity
  8
0
  6
CONTINUOUS
 62
     7
100
AcDbLine
 10
-17.16764099999998
 20
-45.603149
 30
0.0
 11
-17.917345
 21
-46.901672
 31
0.0
  0
LINE
  5
7F0
330
1F
100
AcDbEntity
  8
0
  6
CONTINUOUS
 62
     7
100
AcDbLine
 10
-23.337318
 20
-42.041084
 30
0.0
 11
-17.16764099999998
 21
-45.603149
 31
0.0
  0
LINE
  5
7F1
330
1F
100
AcDbEntity
  8
0
  6
CONTINUOUS
 62
     7
100
AcDbLine
 10
-17.16764099999998
 20
-38.077251
 30
0.0
 11
-17.917345
 21
-36.778725
 31
0.0
  0
LINE
  5
7F2
330
1F
100
AcDbEntity
  8
0
  6
CONTINUOUS
 62
     7
100
AcDbLine
 10
-23.337318
 20
-41.639317
 30
0.0
 11
-17.16764099999998
 21
-38.077251
 31
0.0
  0
LINE
  5
7F3
330
1F
100
AcDbEntity
  8
0
  6
CONTINUOUS
 62
     7
100
AcDbLine
 10
-23.60540199999999
 20
-43.617672
 30
0.0
 11
-17.917345
 21
-46.901672
 31
0.0
  0
LINE
  5
7F4
330
1F
100
AcDbEntity
  8
0
  6
CONTINUOUS
 62
     7
100
AcDbLine
 10
-23.60540199999999
 20
-40.062725
 30
0.0
 11
-17.917345
 21
-36.778725
 31
0.0
  0
LINE
  5
7F5
102
{ACAD_REACTORS
330
973
102
}
330
1F
100
AcDbEntity
  8
0
  6
CONTINUOUS
 62
     7
100
AcDbLine
 10
-28.45525699999999
 20
-27.54019899999999
 30
0.0
 11
35.044743
 21
-27.54019899999999
 31
0.0
  0
LINE
  5
7F6
330
1F
100
AcDbEntity
  8
0
  6
CENTER
 62
     6
100
AcDbLine
 10
-47.55525999999998
 20
-41.840199
 30
0.0
 11
-25.457151
 21
-41.840199
 31
0.0
  0
LINE
  5
7F7
102
{ACAD_REACTORS
330
98B
102
}
330
1F
100
AcDbEntity
  8
0
  6
CENTER
 62
     6
100
AcDbLine
 10
35.044743
 20
-19.495199
 30
0.0
 11
35.044743
 21
-64.18519599999999
 31
0.0
  0
LINE
  5
7F8
102
{ACAD_REACTORS
330
98B
102
}
330
1F
100
AcDbEntity
  8
0
  6
CENTER
 62
     6
100
AcDbLine
 10
-28.45525699999999
 20
-22.7402
 30
0.0
 11
-28.45525699999999
 21
-60.940201
 31
0.0
  0
LINE
  5
7F9
102
{ACAD_REACTORS
330
973
102
}
330
1F
100
AcDbEntity
  8
0
  6
CONTINUOUS
 62
     7
100
AcDbLine
 10
-28.45525699999999
 20
-56.140198
 30
0.0
 11
35.044743
 21
-56.140198
 31
0.0
  0
DIMENSION
  5
89C
102
{ACAD_XDICTIONARY
360
8AB
102
}
102
{ACAD_REACTORS
330
8B7
102
}
330
1F
100
AcDbEntity
  8
0
100
AcDbDimension
  2
*D0
 10
-33.225258
 20
16.33084434198025
 30
0.0
 11
-4.685258999999991
 21
16.33084434198025
 31
0.0
 70
   160
  1
φ<>
  3
ISO-25
100
AcDbAlignedDimension
 13
-23.68525899999999
 23
10.339508
 33
0.0
 14
-33.225258
 24
10.339508
 34
0.0
100
AcDbRotatedDimension
  0
DIMENSION
  5
8D0
102
{ACAD_XDICTIONARY
360
8DD
102
}
102
{ACAD_REACTORS
330
8E7
102
}
330
1F
100
AcDbEntity
  8
0
100
AcDbDimension
  2
*D1
 10
-61.86709424052719
 20
47.38450693178989
 30
0.0
 11
-65.11709424052719
 21
23.63450750089494
 31
0.0
 70
    32
  3
ISO-25
100
AcDbAlignedDimension
 13
-33.225258
 23
-0.11549193
 33
0.0
 14
-32.15525814135941
 24
47.38450693178989
 34
0.0
 50
90.0
100
AcDbRotatedDimension
  0
DIMENSION
  5
8E8
102
{ACAD_XDICTIONARY
360
8F5
102
}
102
{ACAD_REACTORS
330
8FF
102
}
330
1F
100
AcDbEntity
  8
0
100
AcDbDimension
  2
*D2
 10
54.889744
 20
-10.61737488777384
 30
0.0
 11
33.92399873764157
 21
-10.61737488777384
 31
0.0
 70
   160
  1
φ<>
  3
ISO-25
100
AcDbAlignedDimension
 13
15.199742
 23
16.55950899999999
 33
0.0
 14
54.889744
 24
16.55950899999999
 34
0.0
100
AcDbRotatedDimension
  0
DIMENSION
  5
928
102
{ACAD_XDICTIONARY
360
935
102
}
102
{ACAD_REACTORS
330
93F
102
}
330
1F
100
AcDbEntity
  8
0
100
AcDbDimension
  2
*D3
 10
75.18141338238753
 20
34.609509
 30
0.0
 11
71.93141338238752
 21
25.0845085
 31
0.0
 70
    32
  3
ISO-25
100
AcDbAlignedDimension
 13
53.88974399999999
 23
15.55950799999999
 33
0.0
 14
53.88974394764011
 24
34.609509
 34
0.0
 50
90.0
100
AcDbRotatedDimension
  0
DIMENSION
  5
940
102
{ACAD_XDICTIONARY
360
94F
102
}
102
{ACAD_REACTORS
330
95B
102
}
330
1F
100
AcDbEntity
  8
0
100
AcDbDimension
  2
*D4
 10
75.18141338238753
 20
39.409508
 30
0.0
 11
71.93141338238752
 21
53.90950800000001
 31
0.0
 70
    32
  3
ISO-25
100
AcDbAlignedDimension
 13
53.88974394764011
 23
34.609509
 33
0.0
 14
49.344742
 24
39.409508
 34
0.0
 50
90.0
100
AcDbRotatedDimension
  0
DIMENSION
  5
95C
102
{ACAD_XDICTIONARY
360
969
102
}
102
{ACAD_REACTORS
330
973
102
}
330
1F
100
AcDbEntity
  8
0
100
AcDbDimension
  2
*D5
 10
-61.8670942405272
 20
-56.14019799999999
 30
0.0
 11
-65.11709424052719
 21
-41.84019849999999
 31
0.0
 70
    32
  3
ISO-25
100
AcDbAlignedDimension
 13
-28.45525699999999
 23
-27.54019899999999
 33
0.0
 14
-28.45525699999999
 24
-56.140198
 34
0.0
 50
90.0
100
AcDbRotatedDimension
  0
DIMENSION
  5
974
102
{ACAD_XDICTIONARY
360
981
102
}
102
{ACAD_REACTORS
330
98B
102
}
330
1F
100
AcDbEntity
  8
0
100
AcDbDimension
  2
*D6
 10
35.044743
 20
-77.81640279109456
 30
0.0
 11
3.294743000000003
 21
-74.56640279109456
 31
0.0
 70
    32
  3
ISO-25
100
AcDbAlignedDimension
 13
-28.45525699999999
 23
-60.940201
 33
0.0
 14
35.044743
 24
-64.18519599999999
 34
0.0
100
AcDbRotatedDimension
1001
ACAD
1000
DSTYLE
1002
{
1070
    78
1070
     0
1002
}
  0
TEXT
  5
A40
330
1F
100
AcDbEntity
  8
0
100
AcDbText
 10
51.98733550162707
 20
-86.02808925412409
 30
0.0
 40
1.35
  1
DATE2020.5.1
100
AcDbText
  0
ENDSEC
  0
SECTION
  2
OBJECTS
  0
DICTIONARY
  5
C
330
0
100
AcDbDictionary
  3
ACAD_GROUP
350
D
  3
ACAD_LAYOUT
350
1A
  3
ACAD_MLINESTYLE
350
17
  3
ACAD_PLOTSETTINGS
350
19
  3
ACAD_PLOTSTYLENAME
350
E
  3
ACDBHEADERROUNDTRIPXREC
350
A8F
  3
ACDBVARIABLEDICTIONARY
350
2C
  0
DICTIONARY
  5
690
330
1F
100
AcDbDictionary
280
     1
  3
ACAD_LAYOUTSELFREF
360
AB0
  0
DICTIONARY
  5
68E
330
1B
100
AcDbDictionary
280
     1
  3
ACAD_LAYOUTSELFREF
360
AAF
  0
DICTIONARY
  5
8AB
330
89C
100
AcDbDictionary
280
     1
  3
ACAD_DIMASSOC
360
8B7
  0
DICTIONARY
  5
8DD
330
8D0
100
AcDbDictionary
280
     1
  3
ACAD_DIMASSOC
360
8E7
  0
DICTIONARY
  5
8F5
330
8E8
100
AcDbDictionary
280
     1
  3
ACAD_DIMASSOC
360
8FF
  0
DICTIONARY
  5
935
330
928
100
AcDbDictionary
280
     1
  3
ACAD_DIMASSOC
360
93F
  0
DICTIONARY
  5
94F
330
940
100
AcDbDictionary
280
     1
  3
ACAD_DIMASSOC
360
95B
  0
DICTIONARY
  5
969
330
95C
100
AcDbDictionary
280
     1
  3
ACAD_DIMASSOC
360
973
  0
DICTIONARY
  5
981
330
974
100
AcDbDictionary
280
     1
  3
ACAD_DIMASSOC
360
98B
  0
DICTIONARY
  5
D
102
{ACAD_REACTORS
330
C
102
}
330
C
100
AcDbDictionary
  0
DICTIONARY
  5
1A
102
{ACAD_REACTORS
330
C
102
}
330
C
100
AcDbDictionary
  0
DICTIONARY
  5
17
102
{ACAD_REACTORS
330
C
102
}
330
C
100
AcDbDictionary
  3
STANDARD
350
18
  0
DICTIONARY
  5
19
102
{ACAD_REACTORS
330
C
102
}
330
C
100
AcDbDictionary
  0
ACDBDICTIONARYWDFLT
  5
E
102
{ACAD_REACTORS
330
C
102
}
330
C
100
AcDbDictionary
281
     1
  3
Normal
350
F
100
AcDbDictionaryWithDefault
340
F
  0
DICTIONARY
  5
A8F
102
{ACAD_REACTORS
330
C
102
}
330
C
100
AcDbDictionary
  3
CEPSNTYPE
350
A99
  3
FINGERPRINTGUID
350
A9A
  3
HYPERLINKBASE
350
A92
  3
INSUNITS
350
A98
  3
LAYOUTDICT
350
A94
  3
LWETCUNION
350
A97
  3
PLOTSETDICT
350
A95
  3
PLOTSTYLNAMDICT
350
A96
  3
PSVPSCALE
350
A9C
  3
PUCSBASE
350
A9F
  3
PUCSORGBACK
350
AA5
  3
PUCSORGBOTTOM
350
AA1
  3
PUCSORGFRONT
350
AA4
  3
PUCSORGLEFT
350
AA2
  3
PUCSORGRIGHT
350
AA3
  3
PUCSORGTOP
350
AA0
  3
PUCSORTHOREF
350
A9D
  3
PUCSORTHOVIEW
350
A9E
  3
STYLESHEET
350
A93
  3
TSTACKALIGN
350
A90
  3
TSTACKSIZE
350
A91
  3
UCSBASE
350
AA8
  3
UCSORGBACK
350
AAE
  3
UCSORGBOTTOM
350
AAA
  3
UCSORGFRONT
350
AAD
  3
UCSORGLEFT
350
AAB
  3
UCSORGRIGHT
350
AAC
  3
UCSORGTOP
350
AA9
  3
UCSORTHOREF
350
AA6
  3
UCSORTHOVIEW
350
AA7
  3
VERSIONGUID
350
A9B
  0
DICTIONARY
  5
2C
102
{ACAD_REACTORS
330
C
102
}
330
C
100
AcDbDictionary
  3
DIMASSOC
350
2E
  3
HIDETEXT
350
2D
  0
XRECORD
  5
AB0
102
{ACAD_REACTORS
330
690
102
}
330
690
100
AcDbXrecord
340
1F
  0
XRECORD
  5
AAF
102
{ACAD_REACTORS
330
68E
102
}
330
68E
100
AcDbXrecord
340
1B
  0
DIMASSOC
  5
8B7
102
{ACAD_REACTORS
330
8AB
102
}
330
8AB
100
AcDbDimAssoc
330
89C
 90
        3
 70
     0
 71
     0
  1
AcDbOsnapPointRef
 72
     1
331
7EC
 73
     2
 91
        0
 40
1.0
 10
-23.68525899999999
 20
10.339508
 30
0.0
 75
     0
  1
AcDbOsnapPointRef
 72
     1
331
7EB
 73
     2
 91
        0
 40
1.0
 10
-33.225258
 20
10.339508
 30
0.0
 75
     0
  0
DIMASSOC
  5
8E7
102
{ACAD_REACTORS
330
8DD
102
}
330
8DD
100
AcDbDimAssoc
330
8D0
 90
        3
 70
     0
 71
     0
  1
AcDbOsnapPointRef
 72
    13
331
7CD
 73
     2
 91
        0
 40
0.0
 10
-33.225258
 20
-0.11549193
 30
0.0
 75
     0
  1
AcDbOsnapPointRef
 72
    13
331
7AE
 73
     2
 91
        0
 40
4.235170409795961
 10
-32.15525814135941
 20
47.38450693178989
 30
0.0
 75
     0
  0
DIMASSOC
  5
8FF
102
{ACAD_REACTORS
330
8F5
102
}
330
8F5
100
AcDbDimAssoc
330
8E8
 90
        3
 70
     0
 71
     0
  1
AcDbOsnapPointRef
 72
     1
331
7CC
 73
     2
 91
        0
 40
1.0
 10
15.199742
 20
16.55950899999999
 30
0.0
 75
     0
  1
AcDbOsnapPointRef
 72
     1
331
7CB
 73
     2
 91
        0
 40
1.0
 10
54.889744
 20
16.55950899999999
 30
0.0
 75
     0
  0
DIMASSOC
  5
93F
102
{ACAD_REACTORS
330
935
102
}
330
935
100
AcDbDimAssoc
330
928
 90
        3
 70
     0
 71
     0
  1
AcDbOsnapPointRef
 72
     1
331
7E6
 73
     2
 91
        0
 40
1.0
 10
53.88974399999999
 20
15.55950799999999
 30
0.0
 75
     0
  1
AcDbOsnapPointRef
 72
     1
331
7B0
 73
     2
 91
        0
 40
1.570796379154774
 10
53.88974394764011
 20
34.609509
 30
0.0
 75
     0
  0
DIMASSOC
  5
95B
102
{ACAD_REACTORS
330
94F
102
}
330
94F
100
AcDbDimAssoc
330
940
 90
        2
 70
     0
 71
     0
  1
AcDbOsnapPointRef
 72
     1
331
7E0
 73
     2
 91
        0
 40
1.0
 10
49.344742
 20
39.409508
 30
0.0
 75
     0
  0
DIMASSOC
  5
973
102
{ACAD_REACTORS
330
969
102
}
330
969
100
AcDbDimAssoc
330
95C
 90
        3
 70
     0
 71
     0
  1
AcDbOsnapPointRef
 72
    13
331
7F5
 73
     2
 91
        0
 40
0.0
 10
-28.45525699999999
 20
-27.54019899999999
 30
0.0
 75
     0
  1
AcDbOsnapPointRef
 72
    13
331
7F9
 73
     2
 91
        0
 40
0.0
 10
-28.45525699999999
 20
-56.140198
 30
0.0
 75
     0
  0
DIMASSOC
  5
98B
102
{ACAD_REACTORS
330
981
102
}
330
981
100
AcDbDimAssoc
330
974
 90
        3
 70
     0
 71
     0
  1
AcDbOsnapPointRef
 72
     1
331
7F8
 73
     2
 91
        0
 40
1.0
 10
-28.45525699999999
 20
-60.940201
 30
0.0
 75
     0
  1
AcDbOsnapPointRef
 72
     1
331
7F7
 73
     2
 91
        0
 40
1.0
 10
35.044743
 20
-64.18519599999999
 30
0.0
 75
     0
  0
MLINESTYLE
  5
18
102
{ACAD_REACTORS
330
17
102
}
330
17
100
AcDbMlineStyle
  2
STANDARD
 70
     0
  3

 62
   256
 51
90.0
 52
90.0
 71
     2
 49
0.5
 62
   256
  6
BYLAYER
 49
-0.5
 62
   256
  6
BYLAYER
  0
ACDBPLACEHOLDER
  5
F
102
{ACAD_REACTORS
330
E
102
}
330
E
100
AcDbPlaceHolder
280
     0
  0
XRECORD
  5
A99
102
{ACAD_REACTORS
330
A8F
102
}
330
A8F
100
AcDbXrecord
 90
        0
  0
XRECORD
  5
A9A
102
{ACAD_REACTORS
330
A8F
102
}
330
A8F
100
AcDbXrecord
  1
{5B0931FC-56BC-4C5C-811F-96A4ED1ECC1B}
  0
XRECORD
  5
A92
102
{ACAD_REACTORS
330
A8F
102
}
330
A8F
100
AcDbXrecord
  1

  0
XRECORD
  5
A98
102
{ACAD_REACTORS
330
A8F
102
}
330
A8F
100
AcDbXrecord
 90
        4
  0
XRECORD
  5
A94
102
{ACAD_REACTORS
330
A8F
102
}
330
A8F
100
AcDbXrecord
340
1A
  0
XRECORD
  5
A97
102
{ACAD_REACTORS
330
A8F
102
}
330
A8F
100
AcDbXrecord
 90
    10781
  0
XRECORD
  5
A95
102
{ACAD_REACTORS
330
A8F
102
}
330
A8F
100
AcDbXrecord
340
19
  0
XRECORD
  5
A96
102
{ACAD_REACTORS
330
A8F
102
}
330
A8F
100
AcDbXrecord
340
E
  0
XRECORD
  5
A9C
102
{ACAD_REACTORS
330
A8F
102
}
330
A8F
100
AcDbXrecord
 40
0.0
  0
XRECORD
  5
A9F
102
{ACAD_REACTORS
330
A8F
102
}
330
A8F
100
AcDbXrecord
340
0
  0
XRECORD
  5
AA5
102
{ACAD_REACTORS
330
A8F
102
}
330
A8F
100
AcDbXrecord
 10
0.0
 20
0.0
 30
0.0
  0
XRECORD
  5
AA1
102
{ACAD_REACTORS
330
A8F
102
}
330
A8F
100
AcDbXrecord
 10
0.0
 20
0.0
 30
0.0
  0
XRECORD
  5
AA4
102
{ACAD_REACTORS
330
A8F
102
}
330
A8F
100
AcDbXrecord
 10
0.0
 20
0.0
 30
0.0
  0
XRECORD
  5
AA2
102
{ACAD_REACTORS
330
A8F
102
}
330
A8F
100
AcDbXrecord
 10
0.0
 20
0.0
 30
0.0
  0
XRECORD
  5
AA3
102
{ACAD_REACTORS
330
A8F
102
}
330
A8F
100
AcDbXrecord
 10
0.0
 20
0.0
 30
0.0
  0
XRECORD
  5
AA0
102
{ACAD_REACTORS
330
A8F
102
}
330
A8F
100
AcDbXrecord
 10
0.0
 20
0.0
 30
0.0
  0
XRECORD
  5
A9D
102
{ACAD_REACTORS
330
A8F
102
}
330
A8F
100
AcDbXrecord
340
0
  0
XRECORD
  5
A9E
102
{ACAD_REACTORS
330
A8F
102
}
330
A8F
100
AcDbXrecord
 70
     0
  0
XRECORD
  5
A93
102
{ACAD_REACTORS
330
A8F
102
}
330
A8F
100
AcDbXrecord
  1
monochrome.ctb
  0
XRECORD
  5
A90
102
{ACAD_REACTORS
330
A8F
102
}
330
A8F
100
AcDbXrecord
 90
        1
  0
XRECORD
  5
A91
102
{ACAD_REACTORS
330
A8F
102
}
330
A8F
100
AcDbXrecord
 90
       70
  0
XRECORD
  5
AA8
102
{ACAD_REACTORS
330
A8F
102
}
330
A8F
100
AcDbXrecord
340
0
  0
XRECORD
  5
AAE
102
{ACAD_REACTORS
330
A8F
102
}
330
A8F
100
AcDbXrecord
 10
0.0
 20
0.0
 30
0.0
  0
XRECORD
  5
AAA
102
{ACAD_REACTORS
330
A8F
102
}
330
A8F
100
AcDbXrecord
 10
0.0
 20
0.0
 30
0.0
  0
XRECORD
  5
AAD
102
{ACAD_REACTORS
330
A8F
102
}
330
A8F
100
AcDbXrecord
 10
0.0
 20
0.0
 30
0.0
  0
XRECORD
  5
AAB
102
{ACAD_REACTORS
330
A8F
102
}
330
A8F
100
AcDbXrecord
 10
0.0
 20
0.0
 30
0.0
  0
XRECORD
  5
AAC
102
{ACAD_REACTORS
330
A8F
102
}
330
A8F
100
AcDbXrecord
 10
0.0
 20
0.0
 30
0.0
  0
XRECORD
  5
AA9
102
{ACAD_REACTORS
330
A8F
102
}
330
A8F
100
AcDbXrecord
 10
0.0
 20
0.0
 30
0.0
  0
XRECORD
  5
AA6
102
{ACAD_REACTORS
330
A8F
102
}
330
A8F
100
AcDbXrecord
340
0
  0
XRECORD
  5
AA7
102
{ACAD_REACTORS
330
A8F
102
}
330
A8F
100
AcDbXrecord
 70
     0
  0
XRECORD
  5
A9B
102
{ACAD_REACTORS
330
A8F
102
}
330
A8F
100
AcDbXrecord
  1
{468F16B7-2A1F-40C3-B2F9-AFE74103B0DF}
  0
DICTIONARYVAR
  5
2E
102
{ACAD_REACTORS
330
2C
102
}
330
2C
100
DictionaryVariables
280
     0
  1
2
  0
DICTIONARYVAR
  5
2D
102
{ACAD_REACTORS
330
2C
102
}
330
2C
100
DictionaryVariables
280
     0
  1
1
  0
ENDSEC
  0
EOF
