  0
SECTION
  2
HEADER
  9
$ACADVER
  1
AC1014
  9
$ACADMAINTVER
 70
     9
  9
$DWGCODEPAGE
  3
ANSI_932
  9
$INSBASE
 10
0.0
 20
0.0
 30
0.0
  9
$EXTMIN
 10
-53.30949649611534
 20
-77.88750911914519
 30
0.0
  9
$EXTMAX
 10
72.53988000784693
 20
78.50364620000011
 30
0.0
  9
$LIMMIN
 10
0.0
 20
0.0
  9
$LIMMAX
 10
420.0
 20
297.0
  9
$ORTHOMODE
 70
     1
  9
$REGENMODE
 70
     1
  9
$FILLMODE
 70
     1
  9
$QTEXTMODE
 70
     0
  9
$MIRRTEXT
 70
     1
  9
$DRAGMODE
 70
     2
  9
$LTSCALE
 40
1.0
  9
$OSMODE
 70
    37
  9
$ATTMODE
 70
     1
  9
$TEXTSIZE
 40
2.5
  9
$TRACEWID
 40
1.0
  9
$TEXTSTYLE
  7
STANDARD
  9
$CLAYER
  8
0
  9
$CELTYPE
  6
BYLAYER
  9
$CECOLOR
 62
   256
  9
$CELTSCALE
 40
1.0
  9
$DELOBJ
 70
     1
  9
$DISPSILH
 70
     0
  9
$DIMSCALE
 40
1.0
  9
$DIMASZ
 40
3.5
  9
$DIMEXO
 40
0.0
  9
$DIMDLI
 40
3.75
  9
$DIMRND
 40
0.0
  9
$DIMDLE
 40
0.0
  9
$DIMEXE
 40
1.5
  9
$DIMTP
 40
0.0
  9
$DIMTM
 40
0.0
  9
$DIMTXT
 40
3.5
  9
$DIMCEN
 40
2.5
  9
$DIMTSZ
 40
0.0
  9
$DIMTOL
 70
     0
  9
$DIMLIM
 70
     0
  9
$DIMTIH
 70
     0
  9
$DIMTOH
 70
     0
  9
$DIMSE1
 70
     0
  9
$DIMSE2
 70
     0
  9
$DIMTAD
 70
     1
  9
$DIMZIN
 70
     8
  9
$DIMBLK
  1

  9
$DIMASO
 70
     1
  9
$DIMSHO
 70
     1
  9
$DIMPOST
  1

  9
$DIMAPOST
  1

  9
$DIMALT
 70
     0
  9
$DIMALTD
 70
     3
  9
$DIMALTF
 40
0.03937007874016
  9
$DIMLFAC
 40
1.0
  9
$DIMTOFL
 70
     1
  9
$DIMTVP
 40
0.0
  9
$DIMTIX
 70
     0
  9
$DIMSOXD
 70
     0
  9
$DIMSAH
 70
     0
  9
$DIMBLK1
  1

  9
$DIMBLK2
  1

  9
$DIMSTYLE
  2
ISO-25
  9
$DIMCLRD
 70
     1
  9
$DIMCLRE
 70
     1
  9
$DIMCLRT
 70
     1
  9
$DIMTFAC
 40
1.0
  9
$DIMGAP
 40
1.0
  9
$DIMJUST
 70
     0
  9
$DIMSD1
 70
     0
  9
$DIMSD2
 70
     0
  9
$DIMTOLJ
 70
     0
  9
$DIMTZIN
 70
     8
  9
$DIMALTZ
 70
     0
  9
$DIMALTTZ
 70
     0
  9
$DIMFIT
 70
     3
  9
$DIMUPT
 70
     0
  9
$DIMUNIT
 70
     2
  9
$DIMDEC
 70
     2
  9
$DIMTDEC
 70
     2
  9
$DIMALTU
 70
     2
  9
$DIMALTTD
 70
     3
  9
$DIMTXSTY
  7
STANDARD
  9
$DIMAUNIT
 70
     0
  9
$LUNITS
 70
     2
  9
$LUPREC
 70
     4
  9
$SKETCHINC
 40
1.0
  9
$FILLETRAD
 40
10.0
  9
$AUNITS
 70
     0
  9
$AUPREC
 70
     0
  9
$MENU
  1
.
  9
$ELEVATION
 40
0.0
  9
$PELEVATION
 40
0.0
  9
$THICKNESS
 40
0.0
  9
$LIMCHECK
 70
     0
  9
$BLIPMODE
 70
     0
  9
$CHAMFERA
 40
10.0
  9
$CHAMFERB
 40
10.0
  9
$CHAMFERC
 40
20.0
  9
$CHAMFERD
 40
0.0
  9
$SKPOLY
 70
     0
  9
$TDCREATE
 40
2453755.379305208
  9
$TDUPDATE
 40
2454530.590743634
  9
$TDINDWG
 40
0.0202927083
  9
$TDUSRTIMER
 40
0.0202921181
  9
$USRTIMER
 70
     1
  9
$ANGBASE
 50
0.0
  9
$ANGDIR
 70
     0
  9
$PDMODE
 70
     0
  9
$PDSIZE
 40
0.0
  9
$PLINEWID
 40
0.0
  9
$COORDS
 70
     1
  9
$SPLFRAME
 70
     0
  9
$SPLINETYPE
 70
     6
  9
$SPLINESEGS
 70
     8
  9
$ATTDIA
 70
     0
  9
$ATTREQ
 70
     1
  9
$HANDLING
 70
     1
  9
$HANDSEED
  5
C07
  9
$SURFTAB1
 70
     6
  9
$SURFTAB2
 70
     6
  9
$SURFTYPE
 70
     6
  9
$SURFU
 70
     6
  9
$SURFV
 70
     6
  9
$UCSNAME
  2

  9
$UCSORG
 10
0.0
 20
0.0
 30
0.0
  9
$UCSXDIR
 10
1.0
 20
0.0
 30
0.0
  9
$UCSYDIR
 10
0.0
 20
1.0
 30
0.0
  9
$PUCSNAME
  2

  9
$PUCSORG
 10
0.0
 20
0.0
 30
0.0
  9
$PUCSXDIR
 10
1.0
 20
0.0
 30
0.0
  9
$PUCSYDIR
 10
0.0
 20
1.0
 30
0.0
  9
$USERI1
 70
     0
  9
$USERI2
 70
     0
  9
$USERI3
 70
     0
  9
$USERI4
 70
     0
  9
$USERI5
 70
     0
  9
$USERR1
 40
0.0
  9
$USERR2
 40
0.0
  9
$USERR3
 40
0.0
  9
$USERR4
 40
0.0
  9
$USERR5
 40
0.0
  9
$WORLDVIEW
 70
     1
  9
$SHADEDGE
 70
     3
  9
$SHADEDIF
 70
    70
  9
$TILEMODE
 70
     1
  9
$MAXACTVP
 70
    64
  9
$PINSBASE
 10
0.0
 20
0.0
 30
0.0
  9
$PLIMCHECK
 70
     0
  9
$PEXTMIN
 10
1.000000000000000E+20
 20
1.000000000000000E+20
 30
1.000000000000000E+20
  9
$PEXTMAX
 10
-1.000000000000000E+20
 20
-1.000000000000000E+20
 30
-1.000000000000000E+20
  9
$PLIMMIN
 10
0.0
 20
0.0
  9
$PLIMMAX
 10
420.0
 20
297.0
  9
$UNITMODE
 70
     0
  9
$VISRETAIN
 70
     1
  9
$PLINEGEN
 70
     0
  9
$PSLTSCALE
 70
     1
  9
$TREEDEPTH
 70
  3020
  9
$PICKSTYLE
 70
     1
  9
$CMLSTYLE
  2
STANDARD
  9
$CMLJUST
 70
     0
  9
$CMLSCALE
 40
20.0
  9
$PROXYGRAPHICS
 70
     1
  9
$MEASUREMENT
 70
     1
  0
ENDSEC
  0
SECTION
  2
CLASSES
  0
CLASS
  1
ACDBDICTIONARYWDFLT
  2
AcDbDictionaryWithDefault
  3
AutoCAD 2000
 90
        0
280
     0
281
     0
  0
CLASS
  1
ACDBPLACEHOLDER
  2
AcDbPlaceHolder
  3
AutoCAD 2000
 90
        0
280
     0
281
     0
  0
CLASS
  1
LAYOUT
  2
AcDbLayout
  3
AutoCAD 2000
 90
        0
280
     0
281
     0
  0
CLASS
  1
DICTIONARYVAR
  2
AcDbDictionaryVar
  3
AutoCAD 2000
 90
        0
280
     0
281
     0
  0
CLASS
  1
DIMASSOC
  2
AcDbDimAssoc
  3
"AcDbDimAssoc|Product Desc:     AcDim ARX App For Dimension|Company:          Autodesk, Inc.|WEB Address:      www.autodesk.com"
 90
        0
280
     0
281
     0
  0
CLASS
  1
LONG_TRANSACTION
  2
AcDbLongTransaction
  3
AutoCAD 2000
 90
        0
280
     0
281
     0
  0
CLASS
  1
LWPOLYLINE
  2
AcDbPolyline
  3
AutoCAD 2000
 90
        0
280
     0
281
     1
  0
CLASS
  1
HATCH
  2
AcDbHatch
  3
AutoCAD 2000
 90
        0
280
     0
281
     1
  0
CLASS
  1
XRECORD
  2
AcDbXrecord
  3
AutoCAD 2000
 90
        0
280
     0
281
     0
  0
CLASS
  1
LONG_TRANSACTION
  2
AcDbLongTransaction
  3
AutoCAD 2000
 90
        0
280
     0
281
     0
  0
CLASS
  1
LWPOLYLINE
  2
AcDbPolyline
  3
AutoCAD 2000
 90
        0
280
     0
281
     1
  0
CLASS
  1
HATCH
  2
AcDbHatch
  3
AutoCAD 2000
 90
        0
280
     0
281
     1
  0
CLASS
  1
XRECORD
  2
AcDbXrecord
  3
AutoCAD 2000
 90
        0
280
     0
281
     0
  0
CLASS
  1
LONG_TRANSACTION
  2
AcDbLongTransaction
  3
AutoCAD 2000
 90
        0
280
     0
281
     0
  0
CLASS
  1
LWPOLYLINE
  2
AcDbPolyline
  3
AutoCAD 2000
 90
        0
280
     0
281
     1
  0
CLASS
  1
HATCH
  2
AcDbHatch
  3
AutoCAD 2000
 90
        0
280
     0
281
     1
  0
CLASS
  1
XRECORD
  2
AcDbXrecord
  3
AutoCAD 2000
 90
        0
280
     0
281
     0
  0
CLASS
  1
LONG_TRANSACTION
  2
AcDbLongTransaction
  3
AutoCAD 2000
 90
        0
280
     0
281
     0
  0
CLASS
  1
LWPOLYLINE
  2
AcDbPolyline
  3
AutoCAD 2000
 90
        0
280
     0
281
     1
  0
CLASS
  1
HATCH
  2
AcDbHatch
  3
AutoCAD 2000
 90
        0
280
     0
281
     1
  0
CLASS
  1
XRECORD
  2
AcDbXrecord
  3
AutoCAD 2000
 90
        0
280
     0
281
     0
  0
CLASS
  1
LONG_TRANSACTION
  2
AcDbLongTransaction
  3
AutoCAD 2000
 90
        0
280
     0
281
     0
  0
CLASS
  1
LWPOLYLINE
  2
AcDbPolyline
  3
AutoCAD 2000
 90
        0
280
     0
281
     1
  0
CLASS
  1
HATCH
  2
AcDbHatch
  3
AutoCAD 2000
 90
        0
280
     0
281
     1
  0
CLASS
  1
XRECORD
  2
AcDbXrecord
  3
AutoCAD 2000
 90
        0
280
     0
281
     0
  0
CLASS
  1
LONG_TRANSACTION
  2
AcDbLongTransaction
  3
AutoCAD 2000
 90
        0
280
     0
281
     0
  0
CLASS
  1
LWPOLYLINE
  2
AcDbPolyline
  3
AutoCAD 2000
 90
        0
280
     0
281
     1
  0
CLASS
  1
HATCH
  2
AcDbHatch
  3
AutoCAD 2000
 90
        0
280
     0
281
     1
  0
CLASS
  1
XRECORD
  2
AcDbXrecord
  3
AutoCAD 2000
 90
        0
280
     0
281
     0
  0
CLASS
  1
LONG_TRANSACTION
  2
AcDbLongTransaction
  3
AutoCAD 2000
 90
        0
280
     0
281
     0
  0
CLASS
  1
LWPOLYLINE
  2
AcDbPolyline
  3
AutoCAD 2000
 90
        0
280
     0
281
     1
  0
CLASS
  1
HATCH
  2
AcDbHatch
  3
AutoCAD 2000
 90
        0
280
     0
281
     1
  0
CLASS
  1
XRECORD
  2
AcDbXrecord
  3
AutoCAD 2000
 90
        0
280
     0
281
     0
  0
CLASS
  1
LONG_TRANSACTION
  2
AcDbLongTransaction
  3
AutoCAD 2000
 90
        0
280
     0
281
     0
  0
CLASS
  1
LWPOLYLINE
  2
AcDbPolyline
  3
AutoCAD 2000
 90
        0
280
     0
281
     1
  0
CLASS
  1
HATCH
  2
AcDbHatch
  3
AutoCAD 2000
 90
        0
280
     0
281
     1
  0
CLASS
  1
XRECORD
  2
AcDbXrecord
  3
AutoCAD 2000
 90
        0
280
     0
281
     0
  0
CLASS
  1
LONG_TRANSACTION
  2
AcDbLongTransaction
  3
AutoCAD 2000
 90
        0
280
     0
281
     0
  0
CLASS
  1
LWPOLYLINE
  2
AcDbPolyline
  3
AutoCAD 2000
 90
        0
280
     0
281
     1
  0
CLASS
  1
HATCH
  2
AcDbHatch
  3
AutoCAD 2000
 90
        0
280
     0
281
     1
  0
CLASS
  1
XRECORD
  2
AcDbXrecord
  3
AutoCAD 2000
 90
        0
280
     0
281
     0
  0
CLASS
  1
LONG_TRANSACTION
  2
AcDbLongTransaction
  3
AutoCAD 2000
 90
        0
280
     0
281
     0
  0
CLASS
  1
LWPOLYLINE
  2
AcDbPolyline
  3
AutoCAD 2000
 90
        0
280
     0
281
     1
  0
CLASS
  1
HATCH
  2
AcDbHatch
  3
AutoCAD 2000
 90
        0
280
     0
281
     1
  0
CLASS
  1
XRECORD
  2
AcDbXrecord
  3
AutoCAD 2000
 90
        0
280
     0
281
     0
  0
CLASS
  1
LONG_TRANSACTION
  2
AcDbLongTransaction
  3
AutoCAD 2000
 90
        0
280
     0
281
     0
  0
CLASS
  1
LWPOLYLINE
  2
AcDbPolyline
  3
AutoCAD 2000
 90
        0
280
     0
281
     1
  0
CLASS
  1
HATCH
  2
AcDbHatch
  3
AutoCAD 2000
 90
        0
280
     0
281
     1
  0
CLASS
  1
XRECORD
  2
AcDbXrecord
  3
AutoCAD 2000
 90
        0
280
     0
281
     0
  0
ENDSEC
  0
SECTION
  2
TABLES
  0
TABLE
  2
VPORT
  5
8
330
0
100
AcDbSymbolTable
 70
     2
  0
VPORT
  5
BE4
330
8
100
AcDbSymbolTableRecord
100
AcDbViewportTableRecord
  2
*ACTIVE
 70
     0
 10
0.0
 20
0.0
 11
1.0
 21
1.0
 12
9.614492973803123
 22
6.698161779560095
 13
0.0
 23
0.0
 14
10.0
 24
10.0
 15
10.0
 25
10.0
 16
0.0
 26
0.0
 36
1.0
 17
0.0
 27
0.0
 37
0.0
 40
171.0055531077651
 41
1.662983425414364
 42
50.0
 43
0.0
 44
0.0
 50
0.0
 51
0.0
 71
     0
 72
   100
 73
     1
 74
     3
 75
     0
 76
     0
 77
     0
 78
     0
  0
ENDTAB
  0
TABLE
  2
LTYPE
  5
5
330
0
100
AcDbSymbolTable
 70
     2
  0
LTYPE
  5
14
330
5
100
AcDbSymbolTableRecord
100
AcDbLinetypeTableRecord
  2
BYBLOCK
 70
     0
  3

 72
    65
 73
     0
 40
0.0
  0
LTYPE
  5
15
330
5
100
AcDbSymbolTableRecord
100
AcDbLinetypeTableRecord
  2
BYLAYER
 70
     0
  3

 72
    65
 73
     0
 40
0.0
  0
LTYPE
  5
16
330
5
100
AcDbSymbolTableRecord
100
AcDbLinetypeTableRecord
  2
CONTINUOUS
 70
     0
  3
Solid line
 72
    65
 73
     0
 40
0.0
  0
LTYPE
  5
F4
330
5
100
AcDbSymbolTableRecord
100
AcDbLinetypeTableRecord
  2
CENTER
 70
     0
  3
____ _ ____ _ ____ _ ____ _ ____ _ ____ _ ____
 72
    65
 73
     4
 40
17.5
 49
13.0
 74
     0
 49
-1.5
 74
     0
 49
1.5
 74
     0
 49
-1.5
 74
     0
  0
ENDTAB
  0
TABLE
  2
LAYER
  5
2
330
0
100
AcDbSymbolTable
 70
     2
  0
LAYER
  5
10
330
2
100
AcDbSymbolTableRecord
100
AcDbLayerTableRecord
  2
0
 70
     0
 62
     7
  6
CONTINUOUS
  0
LAYER
  5
F5
330
2
100
AcDbSymbolTableRecord
100
AcDbLayerTableRecord
  2
DEFPOINTS
 70
     0
 62
     7
  6
CONTINUOUS
  0
ENDTAB
  0
TABLE
  2
STYLE
  5
3
330
0
100
AcDbSymbolTable
 70
     1
  0
STYLE
  5
11
330
3
100
AcDbSymbolTableRecord
100
AcDbTextStyleTableRecord
  2
STANDARD
 70
     0
 40
0.0
 41
1.0
 50
0.0
 71
     0
 42
2.5
  3
txt.shx
  4
bigfont.shx
  0
ENDTAB
  0
TABLE
  2
VIEW
  5
6
330
0
100
AcDbSymbolTable
 70
     0
  0
ENDTAB
  0
TABLE
  2
UCS
  5
7
330
0
100
AcDbSymbolTable
 70
     0
  0
ENDTAB
  0
TABLE
  2
APPID
  5
9
330
0
100
AcDbSymbolTable
 70
     1
  0
APPID
  5
12
330
9
100
AcDbSymbolTableRecord
100
AcDbRegAppTableRecord
  2
ACAD
 70
     0
  0
ENDTAB
  0
TABLE
  2
DIMSTYLE
  5
A
330
0
100
AcDbSymbolTable
 70
     1
  0
DIMSTYLE
105
27
102
{ACAD_REACTORS
330
8E8
330
938
330
954
330
96C
330
988
330
A9F
330
BA2
102
}
330
A
100
AcDbSymbolTableRecord
100
AcDbDimStyleTableRecord
  2
ISO-25
 70
     0
  3

  4

  5

  6

  7

 40
1.0
 41
3.5
 42
0.0
 43
3.75
 44
1.5
 45
0.0
 46
0.0
 47
0.0
 48
0.0
140
3.5
141
2.5
142
0.0
143
0.03937007874016
144
1.0
145
0.0
146
1.0
147
1.0
 71
     0
 72
     0
 73
     0
 74
     0
 75
     0
 76
     0
 77
     1
 78
     8
170
     0
171
     3
172
     1
173
     0
174
     0
175
     0
176
     1
177
     1
178
     1
270
     2
271
     2
272
     2
273
     2
274
     3
340
11
275
     0
280
     0
281
     0
282
     0
283
     0
284
     8
285
     0
286
     0
287
     3
288
     0
  0
ENDTAB
  0
TABLE
  2
BLOCK_RECORD
  5
1
330
0
100
AcDbSymbolTable
 70
     9
  0
BLOCK_RECORD
  5
1F
102
{ACAD_XDICTIONARY
360
697
102
}
330
1
100
AcDbSymbolTableRecord
100
AcDbBlockTableRecord
  2
*MODEL_SPACE
  0
BLOCK_RECORD
  5
1B
102
{ACAD_XDICTIONARY
360
695
102
}
330
1
100
AcDbSymbolTableRecord
100
AcDbBlockTableRecord
  2
*PAPER_SPACE
  0
BLOCK_RECORD
  5
8E9
330
1
100
AcDbSymbolTableRecord
100
AcDbBlockTableRecord
  2
*D0
  0
BLOCK_RECORD
  5
905
330
1
100
AcDbSymbolTableRecord
100
AcDbBlockTableRecord
  2
*D1
  0
BLOCK_RECORD
  5
921
330
1
100
AcDbSymbolTableRecord
100
AcDbBlockTableRecord
  2
*D2
  0
BLOCK_RECORD
  5
939
330
1
100
AcDbSymbolTableRecord
100
AcDbBlockTableRecord
  2
*D3
  0
BLOCK_RECORD
  5
955
330
1
100
AcDbSymbolTableRecord
100
AcDbBlockTableRecord
  2
*D4
  0
BLOCK_RECORD
  5
96D
330
1
100
AcDbSymbolTableRecord
100
AcDbBlockTableRecord
  2
*D5
  0
BLOCK_RECORD
  5
989
330
1
100
AcDbSymbolTableRecord
100
AcDbBlockTableRecord
  2
*D6
  0
BLOCK_RECORD
  5
AA0
330
1
100
AcDbSymbolTableRecord
100
AcDbBlockTableRecord
  2
*D7
  0
BLOCK_RECORD
  5
BA3
330
1
100
AcDbSymbolTableRecord
100
AcDbBlockTableRecord
  2
*D8
  0
ENDTAB
  0
ENDSEC
  0
SECTION
  2
BLOCKS
  0
BLOCK
  5
20
330
1F
100
AcDbEntity
  8
0
100
AcDbBlockBegin
  2
*MODEL_SPACE
 70
     0
 10
0.0
 20
0.0
 30
0.0
  3
*MODEL_SPACE
  1

  0
ENDBLK
  5
21
330
1F
100
AcDbEntity
  8
0
100
AcDbBlockEnd
  0
BLOCK
  5
1C
330
1B
100
AcDbEntity
 67
     1
  8
0
100
AcDbBlockBegin
  2
*PAPER_SPACE
 70
     0
 10
0.0
 20
0.0
 30
0.0
  3
*PAPER_SPACE
  1

  0
ENDBLK
  5
1D
330
1B
100
AcDbEntity
 67
     1
  8
0
100
AcDbBlockEnd
  0
BLOCK
  5
8F5
330
8E9
100
AcDbEntity
  8
0
100
AcDbBlockBegin
  2
*D0
 70
     1
 10
0.0
 20
0.0
 30
0.0
  3
*D0
  1

  0
LINE
  5
B13
330
8E9
100
AcDbEntity
  8
0
 62
     1
100
AcDbLine
 10
-9.719062799999999
 20
6.0265627
 30
0.0
 11
-9.719062799999999
 21
12.62771887888982
 31
0.0
  0
LINE
  5
B14
330
8E9
100
AcDbEntity
  8
0
 62
     1
100
AcDbLine
 10
-17.65906099999996
 20
6.0265627
 30
0.0
 11
-17.65906099999996
 21
12.62771887888982
 31
0.0
  0
LINE
  5
B15
330
8E9
100
AcDbEntity
  8
0
 62
     1
100
AcDbLine
 10
-21.15906099999996
 20
11.12771887888982
 30
0.0
 11
-24.65906099999996
 21
11.12771887888982
 31
0.0
  0
LINE
  5
B16
330
8E9
100
AcDbEntity
  8
0
 62
     1
100
AcDbLine
 10
-6.219062799999997
 20
11.12771887888982
 30
0.0
 11
13.2809372
 21
11.12771887888982
 31
0.0
  0
LINE
  5
B17
330
8E9
100
AcDbEntity
  8
0
 62
     1
100
AcDbLine
 10
-17.65906099999996
 20
11.12771887888982
 30
0.0
 11
-9.719062799999999
 21
11.12771887888982
 31
0.0
  0
SOLID
  5
B18
330
8E9
100
AcDbEntity
  8
0
 62
     1
100
AcDbTrace
 10
-21.15906099999996
 20
11.71105221222315
 30
0.0
 11
-21.15906099999996
 21
10.54438554555648
 31
0.0
 12
-17.65906099999996
 22
11.12771887888982
 32
0.0
 13
-17.65906099999996
 23
11.12771887888982
 33
0.0
  0
SOLID
  5
B19
330
8E9
100
AcDbEntity
  8
0
 62
     1
100
AcDbTrace
 10
-6.219062799999997
 20
11.71105221222315
 30
0.0
 11
-6.219062799999997
 21
10.54438554555648
 31
0.0
 12
-9.719062799999999
 22
11.12771887888982
 32
0.0
 13
-9.719062799999999
 23
11.12771887888982
 33
0.0
  0
MTEXT
  5
B1A
330
8E9
100
AcDbEntity
  8
0
 62
     1
100
AcDbMText
 10
5.2809372
 20
13.87771887888982
 30
0.0
 40
3.5
 41
0.0
 71
     5
 72
     1
  1
φ7.94
1001
ACAD
1000
MTEXTBEGIN
1070
    73
1070
     1
1070
    44
1040
1.0
1070
    74
1070
     0
1000
MTEXTEND
1000
MTEXTBEGIN
1070
    73
1070
     1
1070
    44
1040
1.0
1070
    74
1070
     0
1000
MTEXTEND
1000
MTEXTBEGIN
1070
    73
1070
     1
1070
    44
1040
1.0
1070
    74
1070
     0
1000
MTEXTEND
1000
MTEXTBEGIN
1070
    73
1070
     1
1070
    44
1040
1.0
1070
    74
1070
     0
1000
MTEXTEND
1000
MTEXTBEGIN
1070
    73
1070
     1
1070
    44
1040
1.0
1070
    74
1070
     0
1000
MTEXTEND
  0
POINT
  5
B1B
330
8E9
100
AcDbEntity
  8
DEFPOINTS
 62
     0
100
AcDbPoint
 10
-9.719062799999999
 20
6.0265627
 30
0.0
  0
POINT
  5
B1C
330
8E9
100
AcDbEntity
  8
DEFPOINTS
 62
     0
100
AcDbPoint
 10
-17.65906099999996
 20
6.0265627
 30
0.0
  0
POINT
  5
B1D
330
8E9
100
AcDbEntity
  8
DEFPOINTS
 62
     0
100
AcDbPoint
 10
-17.65906099999996
 20
11.12771887888982
 30
0.0
  0
ENDBLK
  5
8F6
330
8E9
100
AcDbEntity
  8
0
100
AcDbBlockEnd
  0
BLOCK
  5
911
330
905
100
AcDbEntity
  8
0
100
AcDbBlockBegin
  2
*D1
 70
     1
 10
0.0
 20
0.0
 30
0.0
  3
*D1
  1

  0
LINE
  5
A4F
330
905
100
AcDbEntity
  8
0
 62
     1
100
AcDbLine
 10
-25.189064
 20
30.621564
 30
0.0
 11
-40.59250456325218
 21
30.621564
 31
0.0
  0
LINE
  5
A50
330
905
100
AcDbEntity
  8
0
 62
     1
100
AcDbLine
 10
-25.189064
 20
34.62156599999998
 30
0.0
 11
-40.59250456325218
 21
34.62156599999998
 31
0.0
  0
LINE
  5
A51
330
905
100
AcDbEntity
  8
0
 62
     1
100
AcDbLine
 10
-39.09250456325218
 20
27.121564
 30
0.0
 11
-39.09250456325218
 21
23.621564
 31
0.0
  0
LINE
  5
A52
330
905
100
AcDbEntity
  8
0
 62
     1
100
AcDbLine
 10
-39.09250456325218
 20
38.12156599999996
 30
0.0
 11
-39.09250456325217
 21
50.03823266666664
 31
0.0
  0
LINE
  5
A53
330
905
100
AcDbEntity
  8
0
 62
     1
100
AcDbLine
 10
-39.09250456325218
 20
30.621564
 30
0.0
 11
-39.09250456325218
 21
34.62156599999998
 31
0.0
  0
SOLID
  5
A54
330
905
100
AcDbEntity
  8
0
 62
     1
100
AcDbTrace
 10
-39.67583789658552
 20
27.121564
 30
0.0
 11
-38.50917122991885
 21
27.121564
 31
0.0
 12
-39.09250456325218
 22
30.621564
 32
0.0
 13
-39.09250456325218
 23
30.621564
 33
0.0
  0
SOLID
  5
A55
330
905
100
AcDbEntity
  8
0
 62
     1
100
AcDbTrace
 10
-39.67583789658552
 20
38.12156599999996
 30
0.0
 11
-38.50917122991885
 21
38.12156599999996
 31
0.0
 12
-39.09250456325218
 22
34.62156599999998
 32
0.0
 13
-39.09250456325218
 23
34.62156599999998
 33
0.0
  0
MTEXT
  5
A56
330
905
100
AcDbEntity
  8
0
 62
     1
100
AcDbMText
 10
-41.84250456325218
 20
45.8298993333333
 30
0.0
 40
3.5
 41
0.0
 71
     5
 72
     1
  1
4.0
 11
0.0000000000000001
 21
1.0
 31
0.0
1001
ACAD
1000
MTEXTBEGIN
1070
    73
1070
     1
1070
    44
1040
1.0
1070
    74
1070
     0
1000
MTEXTEND
1000
MTEXTBEGIN
1070
    73
1070
     1
1070
    44
1040
1.0
1070
    74
1070
     0
1000
MTEXTEND
1000
MTEXTBEGIN
1070
    73
1070
     1
1070
    44
1040
1.0
1070
    74
1070
     0
1000
MTEXTEND
1000
MTEXTBEGIN
1070
    73
1070
     1
1070
    44
1040
1.0
1070
    74
1070
     0
1000
MTEXTEND
1000
MTEXTBEGIN
1070
    73
1070
     1
1070
    44
1040
1.0
1070
    74
1070
     0
1000
MTEXTEND
1000
MTEXTBEGIN
1070
    73
1070
     1
1070
    44
1040
1.0
1070
    74
1070
     0
1000
MTEXTEND
  0
POINT
  5
A57
330
905
100
AcDbEntity
  8
DEFPOINTS
 62
     0
100
AcDbPoint
 10
-25.189064
 20
30.621564
 30
0.0
  0
POINT
  5
A58
330
905
100
AcDbEntity
  8
DEFPOINTS
 62
     0
100
AcDbPoint
 10
-25.189064
 20
34.62156599999998
 30
0.0
  0
POINT
  5
A59
330
905
100
AcDbEntity
  8
DEFPOINTS
 62
     0
100
AcDbPoint
 10
-39.09250456325218
 20
34.62156599999998
 30
0.0
  0
ENDBLK
  5
912
330
905
100
AcDbEntity
  8
0
100
AcDbBlockEnd
  0
BLOCK
  5
92B
330
921
100
AcDbEntity
  8
0
100
AcDbBlockBegin
  2
*D2
 70
     1
 10
0.0
 20
0.0
 30
0.0
  3
*D2
  1

  0
LINE
  5
A5A
330
921
100
AcDbEntity
  8
0
 62
     1
100
AcDbLine
 10
-25.189064
 20
34.62156599999998
 30
0.0
 11
-50.30949649611534
 21
34.62156599999998
 31
0.0
  0
LINE
  5
A5B
330
921
100
AcDbEntity
  8
0
 62
     1
100
AcDbLine
 10
-25.189064
 20
2.0215629
 30
0.0
 11
-50.30949649611534
 21
2.021562900000004
 31
0.0
  0
LINE
  5
A5C
330
921
100
AcDbEntity
  8
0
 62
     1
100
AcDbLine
 10
-48.80949649611533
 20
31.12156599999998
 30
0.0
 11
-48.80949649611534
 21
5.521562900000006
 31
0.0
  0
SOLID
  5
A5D
330
921
100
AcDbEntity
  8
0
 62
     1
100
AcDbTrace
 10
-49.39282982944867
 20
31.12156599999998
 30
0.0
 11
-48.226163162782
 21
31.12156599999998
 31
0.0
 12
-48.80949649611533
 22
34.62156599999998
 32
0.0
 13
-48.80949649611533
 23
34.62156599999998
 33
0.0
  0
SOLID
  5
A5E
330
921
100
AcDbEntity
  8
0
 62
     1
100
AcDbTrace
 10
-49.39282982944868
 20
5.521562900000006
 30
0.0
 11
-48.226163162782
 21
5.521562900000006
 31
0.0
 12
-48.80949649611534
 22
2.021562900000004
 32
0.0
 13
-48.80949649611534
 23
2.021562900000004
 33
0.0
  0
MTEXT
  5
A5F
330
921
100
AcDbEntity
  8
0
 62
     1
100
AcDbMText
 10
-51.55949649611534
 20
18.32156444999998
 30
0.0
 40
3.5
 41
0.0
 71
     5
 72
     1
  1
32.6
 11
0.0000000000000001
 21
1.0
 31
0.0
1001
ACAD
1000
MTEXTBEGIN
1070
    73
1070
     1
1070
    44
1040
1.0
1070
    74
1070
     0
1000
MTEXTEND
1000
MTEXTBEGIN
1070
    73
1070
     1
1070
    44
1040
1.0
1070
    74
1070
     0
1000
MTEXTEND
1000
MTEXTBEGIN
1070
    73
1070
     1
1070
    44
1040
1.0
1070
    74
1070
     0
1000
MTEXTEND
1000
MTEXTBEGIN
1070
    73
1070
     1
1070
    44
1040
1.0
1070
    74
1070
     0
1000
MTEXTEND
1000
MTEXTBEGIN
1070
    73
1070
     1
1070
    44
1040
1.0
1070
    74
1070
     0
1000
MTEXTEND
1000
MTEXTBEGIN
1070
    73
1070
     1
1070
    44
1040
1.0
1070
    74
1070
     0
1000
MTEXTEND
  0
POINT
  5
A60
330
921
100
AcDbEntity
  8
DEFPOINTS
 62
     0
100
AcDbPoint
 10
-25.189064
 20
34.62156599999998
 30
0.0
  0
POINT
  5
A61
330
921
100
AcDbEntity
  8
DEFPOINTS
 62
     0
100
AcDbPoint
 10
-25.189064
 20
2.0215629
 30
0.0
  0
POINT
  5
A62
330
921
100
AcDbEntity
  8
DEFPOINTS
 62
     0
100
AcDbPoint
 10
-48.80949649611534
 20
2.021562900000004
 30
0.0
  0
ENDBLK
  5
92C
330
921
100
AcDbEntity
  8
0
100
AcDbBlockEnd
  0
BLOCK
  5
945
330
939
100
AcDbEntity
  8
0
100
AcDbBlockBegin
  2
*D3
 70
     1
 10
0.0
 20
0.0
 30
0.0
  3
*D3
  1

  0
LINE
  5
A94
330
939
100
AcDbEntity
  8
0
 62
     1
100
AcDbLine
 10
29.170937
 20
11.181563
 30
0.0
 11
29.170937
 21
-8.701035868556008
 31
0.0
  0
LINE
  5
A95
330
939
100
AcDbEntity
  8
0
 62
     1
100
AcDbLine
 10
45.050938
 20
11.181563
 30
0.0
 11
45.050938
 21
-8.701035868556008
 31
0.0
  0
LINE
  5
A96
330
939
100
AcDbEntity
  8
0
 62
     1
100
AcDbLine
 10
25.670937
 20
-7.201035868556002
 30
0.0
 11
22.17093699999999
 21
-7.201035868556002
 31
0.0
  0
LINE
  5
A97
330
939
100
AcDbEntity
  8
0
 62
     1
100
AcDbLine
 10
48.550938
 20
-7.201035868556002
 30
0.0
 11
70.38427133333333
 21
-7.201035868556002
 31
0.0
  0
LINE
  5
A98
330
939
100
AcDbEntity
  8
0
 62
     1
100
AcDbLine
 10
29.170937
 20
-7.201035868556002
 30
0.0
 11
45.050938
 21
-7.201035868556002
 31
0.0
  0
SOLID
  5
A99
330
939
100
AcDbEntity
  8
0
 62
     1
100
AcDbTrace
 10
25.670937
 20
-6.617702535222673
 30
0.0
 11
25.670937
 21
-7.784369201889337
 31
0.0
 12
29.170937
 22
-7.201035868556002
 32
0.0
 13
29.170937
 23
-7.201035868556002
 33
0.0
  0
SOLID
  5
A9A
330
939
100
AcDbEntity
  8
0
 62
     1
100
AcDbTrace
 10
48.550938
 20
-6.617702535222673
 30
0.0
 11
48.550938
 21
-7.784369201889337
 31
0.0
 12
45.050938
 22
-7.201035868556002
 32
0.0
 13
45.050938
 23
-7.201035868556002
 33
0.0
  0
MTEXT
  5
A9B
330
939
100
AcDbEntity
  8
0
 62
     1
100
AcDbMText
 10
61.21760466666667
 20
-4.451035868556004
 30
0.0
 40
3.5
 41
0.0
 71
     5
 72
     1
  1
φ15.88
1001
ACAD
1000
MTEXTBEGIN
1070
    73
1070
     1
1070
    44
1040
1.0
1070
    74
1070
     0
1000
MTEXTEND
1000
MTEXTBEGIN
1070
    73
1070
     1
1070
    44
1040
1.0
1070
    74
1070
     0
1000
MTEXTEND
1000
MTEXTBEGIN
1070
    73
1070
     1
1070
    44
1040
1.0
1070
    74
1070
     0
1000
MTEXTEND
1000
MTEXTBEGIN
1070
    73
1070
     1
1070
    44
1040
1.0
1070
    74
1070
     0
1000
MTEXTEND
1000
MTEXTBEGIN
1070
    73
1070
     1
1070
    44
1040
1.0
1070
    74
1070
     0
1000
MTEXTEND
1000
MTEXTBEGIN
1070
    73
1070
     1
1070
    44
1040
1.0
1070
    74
1070
     0
1000
MTEXTEND
  0
POINT
  5
A9C
330
939
100
AcDbEntity
  8
DEFPOINTS
 62
     0
100
AcDbPoint
 10
29.170937
 20
11.181563
 30
0.0
  0
POINT
  5
A9D
330
939
100
AcDbEntity
  8
DEFPOINTS
 62
     0
100
AcDbPoint
 10
45.050938
 20
11.181563
 30
0.0
  0
POINT
  5
A9E
330
939
100
AcDbEntity
  8
DEFPOINTS
 62
     0
100
AcDbPoint
 10
45.050938
 20
-7.201035868556002
 30
0.0
  0
ENDBLK
  5
946
330
939
100
AcDbEntity
  8
0
100
AcDbBlockEnd
  0
BLOCK
  5
95F
330
955
100
AcDbEntity
  8
0
100
AcDbBlockBegin
  2
*D4
 70
     1
 10
0.0
 20
0.0
 30
0.0
  3
*D4
  1

  0
LINE
  5
AB7
330
955
100
AcDbEntity
  8
0
 62
     1
100
AcDbLine
 10
48.610939
 20
10.381563
 30
0.0
 11
72.53988000784693
 21
10.38156299999999
 31
0.0
  0
LINE
  5
AB8
330
955
100
AcDbEntity
  8
0
 62
     1
100
AcDbLine
 10
48.610939
 20
26.261562
 30
0.0
 11
72.53988000784693
 21
26.26156199999999
 31
0.0
  0
LINE
  5
AB9
330
955
100
AcDbEntity
  8
0
 62
     1
100
AcDbLine
 10
71.03988000784693
 20
13.88156299999999
 30
0.0
 11
71.03988000784693
 21
22.76156199999999
 31
0.0
  0
SOLID
  5
ABA
330
955
100
AcDbEntity
  8
0
 62
     1
100
AcDbTrace
 10
70.4565466745136
 20
13.88156299999999
 30
0.0
 11
71.62321334118026
 21
13.88156299999999
 31
0.0
 12
71.03988000784693
 22
10.38156299999999
 32
0.0
 13
71.03988000784693
 23
10.38156299999999
 33
0.0
  0
SOLID
  5
ABB
330
955
100
AcDbEntity
  8
0
 62
     1
100
AcDbTrace
 10
70.4565466745136
 20
22.76156199999999
 30
0.0
 11
71.62321334118026
 21
22.76156199999999
 31
0.0
 12
71.03988000784693
 22
26.26156199999999
 32
0.0
 13
71.03988000784693
 23
26.26156199999999
 33
0.0
  0
MTEXT
  5
ABC
330
955
100
AcDbEntity
  8
0
 62
     1
100
AcDbMText
 10
68.28988000784693
 20
18.32156249999998
 30
0.0
 40
3.5
 41
0.0
 71
     5
 72
     1
  1
15.88
 11
0.0000000000000001
 21
1.0
 31
0.0
1001
ACAD
1000
MTEXTBEGIN
1070
    73
1070
     1
1070
    44
1040
1.0
1070
    74
1070
     0
1000
MTEXTEND
1000
MTEXTBEGIN
1070
    73
1070
     1
1070
    44
1040
1.0
1070
    74
1070
     0
1000
MTEXTEND
1000
MTEXTBEGIN
1070
    73
1070
     1
1070
    44
1040
1.0
1070
    74
1070
     0
1000
MTEXTEND
1000
MTEXTBEGIN
1070
    73
1070
     1
1070
    44
1040
1.0
1070
    74
1070
     0
1000
MTEXTEND
1000
MTEXTBEGIN
1070
    73
1070
     1
1070
    44
1040
1.0
1070
    74
1070
     0
1000
MTEXTEND
1000
MTEXTBEGIN
1070
    73
1070
     1
1070
    44
1040
1.0
1070
    74
1070
     0
1000
MTEXTEND
  0
POINT
  5
ABD
330
955
100
AcDbEntity
  8
DEFPOINTS
 62
     0
100
AcDbPoint
 10
48.610939
 20
10.381563
 30
0.0
  0
POINT
  5
ABE
330
955
100
AcDbEntity
  8
DEFPOINTS
 62
     0
100
AcDbPoint
 10
48.610939
 20
26.261562
 30
0.0
  0
POINT
  5
ABF
330
955
100
AcDbEntity
  8
DEFPOINTS
 62
     0
100
AcDbPoint
 10
71.03988000784693
 20
26.26156199999999
 30
0.0
  0
ENDBLK
  5
960
330
955
100
AcDbEntity
  8
0
100
AcDbBlockEnd
  0
BLOCK
  5
979
330
96D
100
AcDbEntity
  8
0
100
AcDbBlockBegin
  2
*D5
 70
     1
 10
0.0
 20
0.0
 30
0.0
  3
*D5
  1

  0
LINE
  5
AC0
330
96D
100
AcDbEntity
  8
0
 62
     1
100
AcDbLine
 10
48.610939
 20
26.261562
 30
0.0
 11
72.53988000784693
 21
26.26156199999999
 31
0.0
  0
LINE
  5
AC1
330
96D
100
AcDbEntity
  8
0
 62
     1
100
AcDbLine
 10
48.610939
 20
30.26156
 30
0.0
 11
72.53988000784693
 21
30.26155999999998
 31
0.0
  0
LINE
  5
AC2
330
96D
100
AcDbEntity
  8
0
 62
     1
100
AcDbLine
 10
71.03988000784693
 20
22.76156199999999
 30
0.0
 11
71.03988000784693
 21
19.26156199999998
 31
0.0
  0
LINE
  5
AC3
330
96D
100
AcDbEntity
  8
0
 62
     1
100
AcDbLine
 10
71.03988000784696
 20
33.76155999999999
 30
0.0
 11
71.03988000784696
 21
45.67822666666666
 31
0.0
  0
LINE
  5
AC4
330
96D
100
AcDbEntity
  8
0
 62
     1
100
AcDbLine
 10
71.03988000784693
 20
26.26156199999999
 30
0.0
 11
71.03988000784693
 21
30.26155999999998
 31
0.0
  0
SOLID
  5
AC5
330
96D
100
AcDbEntity
  8
0
 62
     1
100
AcDbTrace
 10
70.4565466745136
 20
22.76156199999999
 30
0.0
 11
71.62321334118026
 21
22.76156199999999
 31
0.0
 12
71.03988000784693
 22
26.26156199999999
 32
0.0
 13
71.03988000784693
 23
26.26156199999999
 33
0.0
  0
SOLID
  5
AC6
330
96D
100
AcDbEntity
  8
0
 62
     1
100
AcDbTrace
 10
70.45654667451363
 20
33.76155999999999
 30
0.0
 11
71.62321334118026
 21
33.76155999999999
 31
0.0
 12
71.03988000784693
 22
30.26155999999998
 32
0.0
 13
71.03988000784693
 23
30.26155999999998
 33
0.0
  0
MTEXT
  5
AC7
330
96D
100
AcDbEntity
  8
0
 62
     1
100
AcDbMText
 10
68.28988000784693
 20
41.46989333333332
 30
0.0
 40
3.5
 41
0.0
 71
     5
 72
     1
  1
4.0
 11
0.0000000000000001
 21
1.0
 31
0.0
1001
ACAD
1000
MTEXTBEGIN
1070
    73
1070
     1
1070
    44
1040
1.0
1070
    74
1070
     0
1000
MTEXTEND
1000
MTEXTBEGIN
1070
    73
1070
     1
1070
    44
1040
1.0
1070
    74
1070
     0
1000
MTEXTEND
1000
MTEXTBEGIN
1070
    73
1070
     1
1070
    44
1040
1.0
1070
    74
1070
     0
1000
MTEXTEND
1000
MTEXTBEGIN
1070
    73
1070
     1
1070
    44
1040
1.0
1070
    74
1070
     0
1000
MTEXTEND
1000
MTEXTBEGIN
1070
    73
1070
     1
1070
    44
1040
1.0
1070
    74
1070
     0
1000
MTEXTEND
1000
MTEXTBEGIN
1070
    73
1070
     1
1070
    44
1040
1.0
1070
    74
1070
     0
1000
MTEXTEND
  0
POINT
  5
AC8
330
96D
100
AcDbEntity
  8
DEFPOINTS
 62
     0
100
AcDbPoint
 10
48.610939
 20
26.261562
 30
0.0
  0
POINT
  5
AC9
330
96D
100
AcDbEntity
  8
DEFPOINTS
 62
     0
100
AcDbPoint
 10
48.610939
 20
30.26156
 30
0.0
  0
POINT
  5
ACA
330
96D
100
AcDbEntity
  8
DEFPOINTS
 62
     0
100
AcDbPoint
 10
71.03988000784693
 20
30.26155999999998
 30
0.0
  0
ENDBLK
  5
97A
330
96D
100
AcDbEntity
  8
0
100
AcDbBlockEnd
  0
BLOCK
  5
993
330
989
100
AcDbEntity
  8
0
100
AcDbBlockBegin
  2
*D6
 70
     1
 10
0.0
 20
0.0
 30
0.0
  3
*D6
  1

  0
LINE
  5
A82
330
989
100
AcDbEntity
  8
0
 62
     1
100
AcDbLine
 10
-13.689064
 20
-57.178436
 30
0.0
 11
-13.689064
 21
-70.46544959770989
 31
0.0
  0
LINE
  5
A83
330
989
100
AcDbEntity
  8
0
 62
     1
100
AcDbLine
 10
37.110939
 20
-57.178436
 30
0.0
 11
37.110939
 21
-70.46544959770989
 31
0.0
  0
LINE
  5
A84
330
989
100
AcDbEntity
  8
0
 62
     1
100
AcDbLine
 10
-10.189064
 20
-68.96544959770989
 30
0.0
 11
33.610939
 21
-68.96544959770989
 31
0.0
  0
SOLID
  5
A85
330
989
100
AcDbEntity
  8
0
 62
     1
100
AcDbTrace
 10
-10.189064
 20
-68.38211626437656
 30
0.0
 11
-10.189064
 21
-69.54878293104322
 31
0.0
 12
-13.689064
 22
-68.96544959770989
 32
0.0
 13
-13.689064
 23
-68.96544959770989
 33
0.0
  0
SOLID
  5
A86
330
989
100
AcDbEntity
  8
0
 62
     1
100
AcDbTrace
 10
33.610939
 20
-68.38211626437656
 30
0.0
 11
33.610939
 21
-69.54878293104322
 31
0.0
 12
37.110939
 22
-68.96544959770989
 32
0.0
 13
37.110939
 23
-68.96544959770989
 33
0.0
  0
MTEXT
  5
A87
330
989
100
AcDbEntity
  8
0
 62
     1
100
AcDbMText
 10
11.7109375
 20
-66.21544959770989
 30
0.0
 40
3.5
 41
0.0
 71
     5
 72
     1
  1
50.80
1001
ACAD
1000
MTEXTBEGIN
1070
    73
1070
     1
1070
    44
1040
1.0
1070
    74
1070
     0
1000
MTEXTEND
1000
MTEXTBEGIN
1070
    73
1070
     1
1070
    44
1040
1.0
1070
    74
1070
     0
1000
MTEXTEND
1000
MTEXTBEGIN
1070
    73
1070
     1
1070
    44
1040
1.0
1070
    74
1070
     0
1000
MTEXTEND
1000
MTEXTBEGIN
1070
    73
1070
     1
1070
    44
1040
1.0
1070
    74
1070
     0
1000
MTEXTEND
1000
MTEXTBEGIN
1070
    73
1070
     1
1070
    44
1040
1.0
1070
    74
1070
     0
1000
MTEXTEND
1000
MTEXTBEGIN
1070
    73
1070
     1
1070
    44
1040
1.0
1070
    74
1070
     0
1000
MTEXTEND
  0
POINT
  5
A88
330
989
100
AcDbEntity
  8
DEFPOINTS
 62
     0
100
AcDbPoint
 10
-13.689064
 20
-57.178436
 30
0.0
  0
POINT
  5
A89
330
989
100
AcDbEntity
  8
DEFPOINTS
 62
     0
100
AcDbPoint
 10
37.110939
 20
-57.178436
 30
0.0
  0
POINT
  5
A8A
330
989
100
AcDbEntity
  8
DEFPOINTS
 62
     0
100
AcDbPoint
 10
37.110939
 20
-68.96544959770989
 30
0.0
  0
ENDBLK
  5
994
330
989
100
AcDbEntity
  8
0
100
AcDbBlockEnd
  0
BLOCK
  5
AAA
330
AA0
100
AcDbEntity
  8
0
100
AcDbBlockBegin
  2
*D7
 70
     1
 10
0.0
 20
0.0
 30
0.0
  3
*D7
  1

  0
LINE
  5
AD4
330
AA0
100
AcDbEntity
  8
0
 62
     1
100
AcDbLine
 10
-13.689064
 20
-53.17843599999999
 30
0.0
 11
-50.30949649611535
 21
-53.17843599999998
 31
0.0
  0
LINE
  5
AD5
330
AA0
100
AcDbEntity
  8
0
 62
     1
100
AcDbLine
 10
-13.689064
 20
-30.178438
 30
0.0
 11
-50.30949649611535
 21
-30.17843799999999
 31
0.0
  0
LINE
  5
AD6
330
AA0
100
AcDbEntity
  8
0
 62
     1
100
AcDbLine
 10
-48.80949649611536
 20
-49.67843599999998
 30
0.0
 11
-48.80949649611535
 21
-33.67843799999996
 31
0.0
  0
SOLID
  5
AD7
330
AA0
100
AcDbEntity
  8
0
 62
     1
100
AcDbTrace
 10
-49.39282982944869
 20
-49.67843599999998
 30
0.0
 11
-48.22616316278202
 21
-49.67843599999998
 31
0.0
 12
-48.80949649611536
 22
-53.17843599999998
 32
0.0
 13
-48.80949649611536
 23
-53.17843599999998
 33
0.0
  0
SOLID
  5
AD8
330
AA0
100
AcDbEntity
  8
0
 62
     1
100
AcDbTrace
 10
-49.39282982944869
 20
-33.67843799999996
 30
0.0
 11
-48.226163162782
 21
-33.67843799999996
 31
0.0
 12
-48.80949649611535
 22
-30.17843799999999
 32
0.0
 13
-48.80949649611535
 23
-30.17843799999999
 33
0.0
  0
MTEXT
  5
AD9
330
AA0
100
AcDbEntity
  8
0
 62
     1
100
AcDbMText
 10
-51.55949649611534
 20
-41.67843699999997
 30
0.0
 40
3.5
 41
0.0
 71
     5
 72
     1
  1
23.0
 11
0.0000000000000001
 21
1.0
 31
0.0
1001
ACAD
1000
MTEXTBEGIN
1070
    73
1070
     1
1070
    44
1040
1.0
1070
    74
1070
     0
1000
MTEXTEND
1000
MTEXTBEGIN
1070
    73
1070
     1
1070
    44
1040
1.0
1070
    74
1070
     0
1000
MTEXTEND
1000
MTEXTBEGIN
1070
    73
1070
     1
1070
    44
1040
1.0
1070
    74
1070
     0
1000
MTEXTEND
1000
MTEXTBEGIN
1070
    73
1070
     1
1070
    44
1040
1.0
1070
    74
1070
     0
1000
MTEXTEND
1000
MTEXTBEGIN
1070
    73
1070
     1
1070
    44
1040
1.0
1070
    74
1070
     0
1000
MTEXTEND
1000
MTEXTBEGIN
1070
    73
1070
     1
1070
    44
1040
1.0
1070
    74
1070
     0
1000
MTEXTEND
  0
POINT
  5
ADA
330
AA0
100
AcDbEntity
  8
DEFPOINTS
 62
     0
100
AcDbPoint
 10
-13.689064
 20
-53.17843599999999
 30
0.0
  0
POINT
  5
ADB
330
AA0
100
AcDbEntity
  8
DEFPOINTS
 62
     0
100
AcDbPoint
 10
-13.689064
 20
-30.178438
 30
0.0
  0
POINT
  5
ADC
330
AA0
100
AcDbEntity
  8
DEFPOINTS
 62
     0
100
AcDbPoint
 10
-48.80949649611535
 20
-30.17843799999999
 30
0.0
  0
ENDBLK
  5
AAB
330
AA0
100
AcDbEntity
  8
0
100
AcDbBlockEnd
  0
BLOCK
  5
BAD
330
BA3
100
AcDbEntity
  8
0
100
AcDbBlockBegin
  2
*D8
 70
     1
 10
0.0
 20
0.0
 30
0.0
  3
*D8
  1

  0
LINE
  5
BB0
330
BA3
100
AcDbEntity
  8
0
 62
     1
100
AcDbLine
 10
-17.65906099999996
 20
-2.578437099999999
 30
0.0
 11
-50.30949649611534
 21
-2.578437099999989
 31
0.0
  0
LINE
  5
BB1
330
BA3
100
AcDbEntity
  8
0
 62
     1
100
AcDbLine
 10
-13.689064
 20
36.621561
 30
0.0
 11
-50.30949649611534
 21
36.621561
 31
0.0
  0
LINE
  5
BB2
330
BA3
100
AcDbEntity
  8
0
 62
     1
100
AcDbLine
 10
-48.80949649611534
 20
0.9215629000000095
 30
0.0
 11
-48.80949649611533
 21
33.12156100000001
 31
0.0
  0
SOLID
  5
BB3
330
BA3
100
AcDbEntity
  8
0
 62
     1
100
AcDbTrace
 10
-49.39282982944868
 20
0.9215629000000095
 30
0.0
 11
-48.226163162782
 21
0.9215629000000092
 31
0.0
 12
-48.80949649611534
 22
-2.57843709999999
 32
0.0
 13
-48.80949649611534
 23
-2.57843709999999
 33
0.0
  0
SOLID
  5
BB4
330
BA3
100
AcDbEntity
  8
0
 62
     1
100
AcDbTrace
 10
-49.39282982944867
 20
33.12156100000001
 30
0.0
 11
-48.226163162782
 21
33.12156100000001
 31
0.0
 12
-48.80949649611533
 22
36.621561
 32
0.0
 13
-48.80949649611533
 23
36.621561
 33
0.0
  0
MTEXT
  5
BB5
330
BA3
100
AcDbEntity
  8
0
 62
     1
100
AcDbMText
 10
-51.55949649611534
 20
17.02156194999999
 30
0.0
 40
3.5
 41
0.0
 71
     5
 72
     1
  1
39.2
 11
0.0000000000000001
 21
1.0
 31
0.0
1001
ACAD
1000
MTEXTBEGIN
1070
    73
1070
     1
1070
    44
1040
1.0
1070
    74
1070
     0
1000
MTEXTEND
1000
MTEXTBEGIN
1070
    73
1070
     1
1070
    44
1040
1.0
1070
    74
1070
     0
1000
MTEXTEND
  0
POINT
  5
BB6
330
BA3
100
AcDbEntity
  8
DEFPOINTS
 62
     0
100
AcDbPoint
 10
-17.65906099999996
 20
-2.578437099999999
 30
0.0
  0
POINT
  5
BB7
330
BA3
100
AcDbEntity
  8
DEFPOINTS
 62
     0
100
AcDbPoint
 10
-13.689064
 20
36.621561
 30
0.0
  0
POINT
  5
BB8
330
BA3
100
AcDbEntity
  8
DEFPOINTS
 62
     0
100
AcDbPoint
 10
-48.80949649611533
 20
36.621561
 30
0.0
  0
ENDBLK
  5
BAE
330
BA3
100
AcDbEntity
  8
0
100
AcDbBlockEnd
  0
ENDSEC
  0
SECTION
  2
ENTITIES
  0
TEXT
  5
7E9
330
1F
100
AcDbEntity
  8
0
  6
CONTINUOUS
 62
     7
100
AcDbText
 10
-28.114496
 20
73.70364599999998
 30
0.0
 40
4.8000002
  1

 41
0.8444833199999999
100
AcDbText
  0
ARC
  5
7EC
102
{ACAD_REACTORS
330
BB9
102
}
330
1F
100
AcDbEntity
  8
0
  6
CONTINUOUS
 62
     7
100
AcDbCircle
 10
-13.689064
 20
29.217525
 30
0.0
 40
7.404035999999997
100
AcDbArc
 50
46.81954700000001
 51
133.18045
  0
ARC
  5
7ED
330
1F
100
AcDbEntity
  8
0
  6
CONTINUOUS
 62
     7
100
AcDbCircle
 10
-10.27656899999999
 20
-44.23854799999999
 30
0.0
 40
1.2479371
100
AcDbArc
 50
60.000002
 51
90.00000300000001
  0
ARC
  5
7EE
330
1F
100
AcDbEntity
  8
0
  6
CONTINUOUS
 62
     7
100
AcDbCircle
 10
-10.053448
 20
-42.92637299999999
 30
0.0
 40
1.2479371
100
AcDbArc
 50
60.000002
 51
89.93374300000002
  0
ARC
  5
7EF
330
1F
100
AcDbEntity
  8
0
  6
CONTINUOUS
 62
     7
100
AcDbCircle
 10
-19.42165
 20
-41.678436
 30
0.0
 40
0.93571097
100
AcDbArc
 50
34.85432199999999
 51
325.14566
  0
ARC
  5
7F0
330
1F
100
AcDbEntity
  8
0
  6
CONTINUOUS
 62
     7
100
AcDbCircle
 10
-17.62973399999999
 20
-40.4305
 30
0.0
 40
1.2479371
100
AcDbArc
 50
214.85433
 51
270.0
  0
ARC
  5
7F1
330
1F
100
AcDbEntity
  8
0
  6
CONTINUOUS
 62
     7
100
AcDbCircle
 10
-19.42165
 20
-41.678436
 30
0.0
 40
2.183889899999999
100
AcDbArc
 50
46.658241
 51
313.34176
  0
ARC
  5
7F2
330
1F
100
AcDbEntity
  8
0
  6
CONTINUOUS
 62
     7
100
AcDbCircle
 10
-17.066223
 20
-39.18255999999999
 30
0.0
 40
1.2479371
100
AcDbArc
 50
226.65825
 51
252.64224
  0
ARC
  5
7F3
330
1F
100
AcDbEntity
  8
0
  6
CONTINUOUS
 62
     7
100
AcDbCircle
 10
-17.066223
 20
-44.174309
 30
0.0
 40
1.2479371
100
AcDbArc
 50
107.3577599999999
 51
133.3417499999999
  0
ARC
  5
7F4
330
1F
100
AcDbEntity
  8
0
  6
CONTINUOUS
 62
     7
100
AcDbCircle
 10
-17.62973399999999
 20
-42.92637299999999
 30
0.0
 40
1.2479371
100
AcDbArc
 50
90.00000300000001
 51
145.14567
  0
ARC
  5
7F5
330
1F
100
AcDbEntity
  8
0
  6
CONTINUOUS
 62
     7
100
AcDbCircle
 10
-10.27656899999999
 20
-39.118324
 30
0.0
 40
1.2479371
100
AcDbArc
 50
270.0
 51
300.0
  0
ARC
  5
7F6
330
1F
100
AcDbEntity
  8
0
  6
CONTINUOUS
 62
     7
100
AcDbCircle
 10
-10.053448
 20
-40.4305
 30
0.0
 40
1.2479371
100
AcDbArc
 50
269.93374
 51
300.0
  0
ARC
  5
7F7
330
1F
100
AcDbEntity
  8
0
  6
CONTINUOUS
 62
     7
100
AcDbCircle
 10
-13.689064
 20
-41.678436
 30
0.0
 40
3.97
100
AcDbArc
 50
42.622675
 51
317.3773299999997
  0
CIRCLE
  5
7F8
330
1F
100
AcDbEntity
  8
0
  6
CONTINUOUS
 62
     7
100
AcDbCircle
 10
37.110939
 20
-41.678436
 30
0.0
 40
5.5999999
  0
CIRCLE
  5
7F9
330
1F
100
AcDbEntity
  8
0
  6
CONTINUOUS
 62
     7
100
AcDbCircle
 10
37.110939
 20
-41.678436
 30
0.0
 40
3.97
  0
ARC
  5
7FA
330
1F
100
AcDbEntity
  8
0
  6
CONTINUOUS
 62
     7
100
AcDbCircle
 10
37.110939
 20
-41.678436
 30
0.0
 40
11.5
100
AcDbArc
 50
270.0
 51
90.00000300000001
  0
ARC
  5
7FB
330
1F
100
AcDbEntity
  8
0
  6
CONTINUOUS
 62
     7
100
AcDbCircle
 10
-13.689064
 20
-41.678436
 30
0.0
 40
11.5
100
AcDbArc
 50
90.00000300000001
 51
270.0
  0
ARC
  5
7FC
330
1F
100
AcDbEntity
  8
0
  6
CONTINUOUS
 62
     7
100
AcDbCircle
 10
-20.27583299999998
 20
0.7736257300000001
 30
0.0
 40
1.2479371
100
AcDbArc
 50
90.00000300000001
 51
270.0
  0
ARC
  5
7FD
330
1F
100
AcDbEntity
  8
0
  6
CONTINUOUS
 62
     7
100
AcDbCircle
 10
29.970938
 20
25.461561
 30
0.0
 40
0.8000000099999999
100
AcDbArc
 50
90.00000300000001
 51
180.00001
  0
ARC
  5
7FE
330
1F
100
AcDbEntity
  8
0
  6
CONTINUOUS
 62
     7
100
AcDbCircle
 10
44.25093799999999
 20
11.181563
 30
0.0
 40
0.8000000099999999
100
AcDbArc
 50
270.0
 51
0.0
  0
ARC
  5
7FF
330
1F
100
AcDbEntity
  8
0
  6
CONTINUOUS
 62
     7
100
AcDbCircle
 10
29.970938
 20
11.181563
 30
0.0
 40
0.8000000099999999
100
AcDbArc
 50
179.9999899999999
 51
270.0
  0
ARC
  5
800
330
1F
100
AcDbEntity
  8
0
  6
CONTINUOUS
 62
     7
100
AcDbCircle
 10
44.25093799999999
 20
25.461561
 30
0.0
 40
0.8000000099999999
100
AcDbArc
 50
0.0
 51
90.00000300000001
  0
LINE
  5
801
330
1F
100
AcDbEntity
  8
0
  6
CONTINUOUS
 62
     7
100
AcDbLine
 10
-10.767822
 20
-41.678436
 30
0.0
 11
-10.052004
 21
-41.678436
 31
0.0
  0
LINE
  5
802
330
1F
100
AcDbEntity
  8
0
  6
CONTINUOUS
 62
     7
100
AcDbLine
 10
-10.767822
 20
-42.99061199999999
 30
0.0
 11
-10.27656899999999
 21
-42.99061199999999
 31
0.0
  0
LINE
  5
803
330
1F
100
AcDbEntity
  8
0
  6
CONTINUOUS
 62
     7
100
AcDbLine
 10
-10.767822
 20
-40.366264
 30
0.0
 11
-10.27656899999999
 21
-40.366264
 31
0.0
  0
LINE
  5
804
330
1F
100
AcDbEntity
  8
0
  6
CENTER
 62
     6
 48
1.3
100
AcDbLine
 10
-9.509136199999996
 20
-41.678436
 30
0.0
 11
54.564156
 21
-41.678436
 31
0.0
  0
LINE
  5
805
330
1F
100
AcDbEntity
  8
0
  6
CONTINUOUS
 62
     7
100
AcDbLine
 10
-10.767822
 20
-38.990082
 30
0.0
 11
-10.767822
 21
-44.366791
 31
0.0
  0
LINE
  5
806
330
1F
100
AcDbEntity
  8
0
  6
CONTINUOUS
 62
     7
100
AcDbLine
 10
-10.767822
 20
-2.578437099999999
 30
0.0
 11
-10.767822
 21
2.0265629
 31
0.0
  0
LINE
  5
807
330
1F
100
AcDbEntity
  8
0
  6
CONTINUOUS
 62
     7
100
AcDbLine
 10
23.993109
 20
-32.478438
 30
0.0
 11
23.993109
 21
-50.87843599999999
 31
0.0
  0
LINE
  5
808
330
1F
100
AcDbEntity
  8
0
  6
CONTINUOUS
 62
     7
100
AcDbLine
 10
1.380608
 20
2.0215629
 30
0.0
 11
23.993109
 21
6.381562699999999
 31
0.0
  0
LINE
  5
809
330
1F
100
AcDbEntity
  8
0
  6
CONTINUOUS
 62
     7
100
AcDbLine
 10
0.99893034
 20
6.021562699999997
 30
0.0
 11
23.611429
 21
10.381563
 31
0.0
  0
LINE
  5
80A
330
1F
100
AcDbEntity
  8
0
  6
CONTINUOUS
 62
     7
100
AcDbLine
 10
1.380608
 20
34.62156599999998
 30
0.0
 11
23.993109
 21
30.26156199999999
 31
0.0
  0
LINE
  5
80B
330
1F
100
AcDbEntity
  8
0
  6
CONTINUOUS
 62
     7
100
AcDbLine
 10
0.99893034
 20
30.621564
 30
0.0
 11
23.611429
 21
26.261562
 31
0.0
  0
LINE
  5
80C
330
1F
100
AcDbEntity
  8
0
  6
CONTINUOUS
 62
     7
100
AcDbLine
 10
-4.294547099999999
 20
-44.810284
 30
0.0
 11
-4.918515199999998
 21
-45.89102899999999
 31
0.0
  0
LINE
  5
80D
330
1F
100
AcDbEntity
  8
0
  6
CONTINUOUS
 62
     7
100
AcDbLine
 10
-9.429478599999999
 20
-41.845631
 30
0.0
 11
-4.294547099999999
 21
-44.810284
 31
0.0
  0
LINE
  5
80E
330
1F
100
AcDbEntity
  8
0
  6
CONTINUOUS
 62
     7
100
AcDbLine
 10
-4.294547099999999
 20
-38.546593
 30
0.0
 11
-4.918515199999998
 21
-37.46584699999999
 31
0.0
  0
LINE
  5
80F
330
1F
100
AcDbEntity
  8
0
  6
CONTINUOUS
 62
     7
100
AcDbLine
 10
-9.429480599999999
 20
-41.511246
 30
0.0
 11
-4.294547099999999
 21
-38.546593
 31
0.0
  0
LINE
  5
810
330
1F
100
AcDbEntity
  8
0
  6
CONTINUOUS
 62
     7
100
AcDbLine
 10
-9.6525993
 20
-43.157803
 30
0.0
 11
-4.918515199999998
 21
-45.89102899999999
 31
0.0
  0
LINE
  5
811
330
1F
100
AcDbEntity
  8
0
  6
CONTINUOUS
 62
     7
100
AcDbLine
 10
-9.6525993
 20
-40.199074
 30
0.0
 11
-4.918515199999998
 21
-37.46584699999999
 31
0.0
  0
LINE
  5
812
102
{ACAD_REACTORS
330
AB6
102
}
330
1F
100
AcDbEntity
  8
0
  6
CONTINUOUS
 62
     7
100
AcDbLine
 10
-13.689064
 20
-30.178438
 30
0.0
 11
37.110939
 21
-30.178438
 31
0.0
  0
LINE
  5
813
102
{ACAD_REACTORS
330
AB6
102
}
330
1F
100
AcDbEntity
  8
0
  6
CONTINUOUS
 62
     7
100
AcDbLine
 10
-13.689064
 20
-53.17843599999999
 30
0.0
 11
37.110939
 21
-53.17843599999999
 31
0.0
  0
LINE
  5
814
102
{ACAD_REACTORS
330
99F
102
}
330
1F
100
AcDbEntity
  8
0
  6
CENTER
 62
     6
 48
1.3
100
AcDbLine
 10
37.110939
 20
-26.178438
 30
0.0
 11
37.110939
 21
-57.178436
 31
0.0
  0
LINE
  5
815
102
{ACAD_REACTORS
330
99F
102
}
330
1F
100
AcDbEntity
  8
0
  6
CENTER
 62
     6
 48
1.3
100
AcDbLine
 10
-13.689064
 20
-26.178438
 30
0.0
 11
-13.689064
 21
-57.178436
 31
0.0
  0
LINE
  5
816
330
1F
100
AcDbEntity
  8
0
  6
CENTER
 62
     6
100
AcDbLine
 10
-29.189064
 20
-41.678436
 30
0.0
 11
-10.767822
 21
-41.678436
 31
0.0
  0
LINE
  5
817
102
{ACAD_REACTORS
330
96B
102
}
330
1F
100
AcDbEntity
  8
0
  6
CONTINUOUS
 62
     7
100
AcDbLine
 10
48.610939
 20
10.381563
 30
0.0
 11
48.610939
 21
6.381562699999999
 31
0.0
  0
LINE
  5
818
330
1F
100
AcDbEntity
  8
0
  6
CONTINUOUS
 62
     7
100
AcDbLine
 10
48.610939
 20
30.26156
 30
0.0
 11
48.610939
 21
26.261562
 31
0.0
  0
LINE
  5
819
330
1F
100
AcDbEntity
  8
0
  6
CONTINUOUS
 62
     7
100
AcDbLine
 10
-5.542373699999997
 20
-0.4743112400000002
 30
0.0
 11
-4.294436499999997
 21
0.7736259700000005
 31
0.0
  0
LINE
  5
81A
330
1F
100
AcDbEntity
  8
0
  6
CONTINUOUS
 62
     7
100
AcDbLine
 10
-20.27583299999998
 20
-0.4743113900000001
 30
0.0
 11
-17.65906099999996
 21
-0.4743113900000001
 31
0.0
  0
LINE
  5
81B
330
1F
100
AcDbEntity
  8
0
  6
CONTINUOUS
 62
     7
100
AcDbLine
 10
-4.294436499999997
 20
0.7736259700000005
 30
0.0
 11
-5.5423732
 21
2.021562499999995
 31
0.0
  0
LINE
  5
81C
330
1F
100
AcDbEntity
  8
0
  6
CONTINUOUS
 62
     7
100
AcDbLine
 10
-10.767822
 20
-0.4743113900000001
 30
0.0
 11
-5.5423732
 21
-0.4743113900000001
 31
0.0
  0
LINE
  5
81D
330
1F
100
AcDbEntity
  8
0
  6
CONTINUOUS
 62
     7
100
AcDbLine
 10
23.993109
 20
6.381562699999999
 30
0.0
 11
48.610939
 21
6.381562699999999
 31
0.0
  0
LINE
  5
81E
102
{ACAD_REACTORS
330
96B
102
}
330
1F
100
AcDbEntity
  8
0
  6
CONTINUOUS
 62
     7
100
AcDbLine
 10
23.611429
 20
26.261562
 30
0.0
 11
48.610939
 21
26.261562
 31
0.0
  0
LINE
  5
81F
102
{ACAD_REACTORS
330
987
102
}
330
1F
100
AcDbEntity
  8
0
  6
CONTINUOUS
 62
     7
100
AcDbLine
 10
23.993109
 20
30.26156
 30
0.0
 11
48.610939
 21
30.26156
 31
0.0
  0
LINE
  5
820
330
1F
100
AcDbEntity
  8
0
  6
CONTINUOUS
 62
     7
100
AcDbLine
 10
23.611429
 20
10.381563
 30
0.0
 11
48.610939
 21
10.381563
 31
0.0
  0
LINE
  5
821
102
{ACAD_REACTORS
330
953
102
}
330
1F
100
AcDbEntity
  8
0
  6
CONTINUOUS
 62
     7
100
AcDbLine
 10
29.170937
 20
25.461561
 30
0.0
 11
29.170937
 21
11.181563
 31
0.0
  0
LINE
  5
822
102
{ACAD_REACTORS
330
953
102
}
330
1F
100
AcDbEntity
  8
0
  6
CONTINUOUS
 62
     7
100
AcDbLine
 10
45.050938
 20
25.461561
 30
0.0
 11
45.050938
 21
11.181563
 31
0.0
  0
LINE
  5
823
330
1F
100
AcDbEntity
  8
0
  6
CONTINUOUS
 62
     7
100
AcDbLine
 10
-25.189064
 20
6.021562699999997
 30
0.0
 11
0.99893034
 21
6.021562699999997
 31
0.0
  0
LINE
  5
824
330
1F
100
AcDbEntity
  8
0
  6
CONTINUOUS
 62
     7
100
AcDbLine
 10
-25.189064
 20
2.0215629
 30
0.0
 11
1.380608
 21
2.0215629
 31
0.0
  0
LINE
  5
825
330
1F
100
AcDbEntity
  8
0
  6
CONTINUOUS
 62
     7
100
AcDbLine
 10
-25.189064
 20
2.0215629
 30
0.0
 11
-25.189064
 21
6.021562699999997
 31
0.0
  0
LINE
  5
826
330
1F
100
AcDbEntity
  8
0
  6
CENTER
 62
     6
 48
1.3
100
AcDbLine
 10
-25.189064
 20
18.321562
 30
0.0
 11
53.203236
 21
18.321562
 31
0.0
  0
LINE
  5
827
330
1F
100
AcDbEntity
  8
0
  6
CENTER
 62
     6
 48
1.3
100
AcDbLine
 10
37.110939
 20
-0.2459158
 30
0.0
 11
37.110939
 21
35.238632
 31
0.0
  0
LINE
  5
828
102
{ACAD_REACTORS
330
903
102
}
330
1F
100
AcDbEntity
  8
0
  6
CONTINUOUS
 62
     7
100
AcDbLine
 10
-9.719062799999999
 20
30.616564
 30
0.0
 11
-9.719062799999999
 21
6.0265627
 31
0.0
  0
LINE
  5
829
102
{ACAD_REACTORS
330
903
102
}
330
1F
100
AcDbEntity
  8
0
  6
CONTINUOUS
 62
     7
100
AcDbLine
 10
-17.65906099999996
 20
30.616564
 30
0.0
 11
-17.65906099999996
 21
6.0265627
 31
0.0
  0
LINE
  5
82A
330
1F
100
AcDbEntity
  8
0
  6
CONTINUOUS
 62
     7
100
AcDbLine
 10
-25.189064
 20
30.621564
 30
0.0
 11
0.99893034
 21
30.621564
 31
0.0
  0
LINE
  5
82B
330
1F
100
AcDbEntity
  8
0
  6
CONTINUOUS
 62
     7
100
AcDbLine
 10
-25.189064
 20
30.621564
 30
0.0
 11
-25.189064
 21
34.62156599999998
 31
0.0
  0
LINE
  5
82C
330
1F
100
AcDbEntity
  8
0
  6
CONTINUOUS
 62
     7
100
AcDbLine
 10
-25.189064
 20
34.62156599999998
 30
0.0
 11
1.380608
 21
34.62156599999998
 31
0.0
  0
LINE
  5
82D
102
{ACAD_REACTORS
330
BB9
102
}
330
1F
100
AcDbEntity
  8
0
  6
CENTER
 62
     6
 48
1.3
100
AcDbLine
 10
-13.689064
 20
-5.973437299999997
 30
0.0
 11
-13.689064
 21
42.616566
 31
0.0
  0
LINE
  5
82E
330
1F
100
AcDbEntity
  8
0
  6
CONTINUOUS
 62
     7
100
AcDbLine
 10
-17.65906099999996
 20
-2.578437099999999
 30
0.0
 11
-17.65906099999996
 21
2.0265629
 31
0.0
  0
LINE
  5
82F
102
{ACAD_REACTORS
330
BB9
102
}
330
1F
100
AcDbEntity
  8
0
  6
CONTINUOUS
 62
     7
100
AcDbLine
 10
-17.65906099999996
 20
-2.578437099999999
 30
0.0
 11
-10.767822
 21
-2.578437099999999
 31
0.0
  0
DIMENSION
  5
8E8
102
{ACAD_XDICTIONARY
360
8F7
102
}
102
{ACAD_REACTORS
330
903
102
}
330
1F
100
AcDbEntity
  8
0
100
AcDbDimension
  2
*D0
 10
-17.65906099999996
 20
11.12771887888982
 30
0.0
 11
5.2809372
 21
11.12771887888982
 31
0.0
 70
   160
  1
φ<>
  3
ISO-25
100
AcDbAlignedDimension
 13
-9.719062799999999
 23
6.0265627
 33
0.0
 14
-17.65906099999996
 24
6.0265627
 34
0.0
100
AcDbRotatedDimension
  0
DIMENSION
  5
938
102
{ACAD_XDICTIONARY
360
947
102
}
102
{ACAD_REACTORS
330
953
102
}
330
1F
100
AcDbEntity
  8
0
100
AcDbDimension
  2
*D3
 10
45.050938
 20
-7.201035868556002
 30
0.0
 11
61.21760466666667
 21
-7.201035868556002
 31
0.0
 70
   160
  1
φ<>
  3
ISO-25
100
AcDbAlignedDimension
 13
29.170937
 23
11.181563
 33
0.0
 14
45.050938
 24
11.181563
 34
0.0
100
AcDbRotatedDimension
  0
DIMENSION
  5
954
102
{ACAD_XDICTIONARY
360
961
102
}
102
{ACAD_REACTORS
330
96B
102
}
330
1F
100
AcDbEntity
  8
0
100
AcDbDimension
  2
*D4
 10
71.03988000784693
 20
26.26156199999999
 30
0.0
 11
68.28988000784693
 21
18.32156249999998
 31
0.0
 70
    32
  3
ISO-25
100
AcDbAlignedDimension
 13
48.610939
 23
10.381563
 33
0.0
 14
48.610939
 24
26.261562
 34
0.0
 50
90.0
100
AcDbRotatedDimension
  0
DIMENSION
  5
96C
102
{ACAD_XDICTIONARY
360
97B
102
}
102
{ACAD_REACTORS
330
987
102
}
330
1F
100
AcDbEntity
  8
0
100
AcDbDimension
  2
*D5
 10
71.03988000784693
 20
30.26155999999998
 30
0.0
 11
68.28988000784693
 21
41.46989333333332
 31
0.0
 70
    32
  3
ISO-25
100
AcDbAlignedDimension
 13
48.610939
 23
26.261562
 33
0.0
 14
48.610939
 24
30.26156
 34
0.0
 50
90.0
100
AcDbRotatedDimension
1001
ACAD
1000
DSTYLE
1002
{
1070
   271
1070
     1
1070
    78
1070
     0
1002
}
  0
DIMENSION
  5
988
102
{ACAD_XDICTIONARY
360
995
102
}
102
{ACAD_REACTORS
330
99F
102
}
330
1F
100
AcDbEntity
  8
0
100
AcDbDimension
  2
*D6
 10
37.110939
 20
-68.96544959770989
 30
0.0
 11
11.7109375
 21
-66.21544959770989
 31
0.0
 70
    32
  3
ISO-25
100
AcDbAlignedDimension
 13
-13.689064
 23
-57.178436
 33
0.0
 14
37.110939
 24
-57.178436
 34
0.0
100
AcDbRotatedDimension
1001
ACAD
1000
DSTYLE
1002
{
1070
    78
1070
     0
1002
}
  0
DIMENSION
  5
A9F
102
{ACAD_XDICTIONARY
360
AAC
102
}
102
{ACAD_REACTORS
330
AB6
102
}
330
1F
100
AcDbEntity
  8
0
100
AcDbDimension
  2
*D7
 10
-48.80949649611535
 20
-30.17843799999999
 30
0.0
 11
-51.55949649611534
 21
-41.67843699999997
 31
0.0
 70
    32
  3
ISO-25
100
AcDbAlignedDimension
 13
-13.689064
 23
-53.17843599999999
 33
0.0
 14
-13.689064
 24
-30.178438
 34
0.0
 50
90.0
100
AcDbRotatedDimension
1001
ACAD
1000
DSTYLE
1002
{
1070
   271
1070
     1
1070
    78
1070
     0
1002
}
  0
TEXT
  5
B77
330
1F
100
AcDbEntity
  8
0
100
AcDbText
 10
50.59612095630052
 20
-77.88750911914512
 30
0.0
 40
1.3
  1
DATE2020.5.1
100
AcDbText
  0
DIMENSION
  5
BA2
102
{ACAD_XDICTIONARY
360
BAF
102
}
102
{ACAD_REACTORS
330
BB9
102
}
330
1F
100
AcDbEntity
  8
0
100
AcDbDimension
  2
*D8
 10
-48.80949649611533
 20
36.621561
 30
0.0
 11
-51.55949649611534
 21
17.02156194999999
 31
0.0
 70
    32
  3
ISO-25
100
AcDbAlignedDimension
 13
-17.65906099999996
 23
-2.578437099999999
 33
0.0
 14
-13.689064
 24
36.621561
 34
0.0
 50
90.0
100
AcDbRotatedDimension
  0
ENDSEC
  0
SECTION
  2
OBJECTS
  0
DICTIONARY
  5
C
330
0
100
AcDbDictionary
  3
ACAD_GROUP
350
D
  3
ACAD_LAYOUT
350
1A
  3
ACAD_MLINESTYLE
350
17
  3
ACAD_PLOTSETTINGS
350
19
  3
ACAD_PLOTSTYLENAME
350
E
  3
ACDBHEADERROUNDTRIPXREC
350
BE5
  3
ACDBVARIABLEDICTIONARY
350
2C
  0
DICTIONARY
  5
697
330
1F
100
AcDbDictionary
280
     1
  3
ACAD_LAYOUTSELFREF
360
C06
  0
DICTIONARY
  5
695
330
1B
100
AcDbDictionary
280
     1
  3
ACAD_LAYOUTSELFREF
360
C05
  0
DICTIONARY
  5
8F7
330
8E8
100
AcDbDictionary
280
     1
  3
ACAD_DIMASSOC
360
903
  0
DICTIONARY
  5
947
330
938
100
AcDbDictionary
280
     1
  3
ACAD_DIMASSOC
360
953
  0
DICTIONARY
  5
961
330
954
100
AcDbDictionary
280
     1
  3
ACAD_DIMASSOC
360
96B
  0
DICTIONARY
  5
97B
330
96C
100
AcDbDictionary
280
     1
  3
ACAD_DIMASSOC
360
987
  0
DICTIONARY
  5
995
330
988
100
AcDbDictionary
280
     1
  3
ACAD_DIMASSOC
360
99F
  0
DICTIONARY
  5
AAC
330
A9F
100
AcDbDictionary
280
     1
  3
ACAD_DIMASSOC
360
AB6
  0
DICTIONARY
  5
BAF
330
BA2
100
AcDbDictionary
280
     1
  3
ACAD_DIMASSOC
360
BB9
  0
DICTIONARY
  5
D
102
{ACAD_REACTORS
330
C
102
}
330
C
100
AcDbDictionary
  0
DICTIONARY
  5
1A
102
{ACAD_REACTORS
330
C
102
}
330
C
100
AcDbDictionary
  0
DICTIONARY
  5
17
102
{ACAD_REACTORS
330
C
102
}
330
C
100
AcDbDictionary
  3
STANDARD
350
18
  0
DICTIONARY
  5
19
102
{ACAD_REACTORS
330
C
102
}
330
C
100
AcDbDictionary
  0
ACDBDICTIONARYWDFLT
  5
E
102
{ACAD_REACTORS
330
C
102
}
330
C
100
AcDbDictionary
281
     1
  3
Normal
350
F
100
AcDbDictionaryWithDefault
340
F
  0
DICTIONARY
  5
BE5
102
{ACAD_REACTORS
330
C
102
}
330
C
100
AcDbDictionary
  3
CEPSNTYPE
350
BEF
  3
FINGERPRINTGUID
350
BF0
  3
HYPERLINKBASE
350
BE8
  3
INSUNITS
350
BEE
  3
LAYOUTDICT
350
BEA
  3
LWETCUNION
350
BED
  3
PLOTSETDICT
350
BEB
  3
PLOTSTYLNAMDICT
350
BEC
  3
PSVPSCALE
350
BF2
  3
PUCSBASE
350
BF5
  3
PUCSORGBACK
350
BFB
  3
PUCSORGBOTTOM
350
BF7
  3
PUCSORGFRONT
350
BFA
  3
PUCSORGLEFT
350
BF8
  3
PUCSORGRIGHT
350
BF9
  3
PUCSORGTOP
350
BF6
  3
PUCSORTHOREF
350
BF3
  3
PUCSORTHOVIEW
350
BF4
  3
STYLESHEET
350
BE9
  3
TSTACKALIGN
350
BE6
  3
TSTACKSIZE
350
BE7
  3
UCSBASE
350
BFE
  3
UCSORGBACK
350
C04
  3
UCSORGBOTTOM
350
C00
  3
UCSORGFRONT
350
C03
  3
UCSORGLEFT
350
C01
  3
UCSORGRIGHT
350
C02
  3
UCSORGTOP
350
BFF
  3
UCSORTHOREF
350
BFC
  3
UCSORTHOVIEW
350
BFD
  3
VERSIONGUID
350
BF1
  0
DICTIONARY
  5
2C
102
{ACAD_REACTORS
330
C
102
}
330
C
100
AcDbDictionary
  3
DIMASSOC
350
2E
  3
HIDETEXT
350
2D
  0
XRECORD
  5
C06
102
{ACAD_REACTORS
330
697
102
}
330
697
100
AcDbXrecord
340
1F
  0
XRECORD
  5
C05
102
{ACAD_REACTORS
330
695
102
}
330
695
100
AcDbXrecord
340
1B
  0
DIMASSOC
  5
903
102
{ACAD_REACTORS
330
8F7
102
}
330
8F7
100
AcDbDimAssoc
330
8E8
 90
        3
 70
     0
 71
     0
  1
AcDbOsnapPointRef
 72
     1
331
828
 73
     2
 91
        0
 40
1.0
 10
-9.719062799999999
 20
6.0265627
 30
0.0
 75
     0
  1
AcDbOsnapPointRef
 72
     1
331
829
 73
     2
 91
        0
 40
1.0
 10
-17.65906099999996
 20
6.0265627
 30
0.0
 75
     0
  0
DIMASSOC
  5
953
102
{ACAD_REACTORS
330
947
102
}
330
947
100
AcDbDimAssoc
330
938
 90
        3
 70
     0
 71
     0
  1
AcDbOsnapPointRef
 72
     1
331
821
 73
     2
 91
        0
 40
1.0
 10
29.170937
 20
11.181563
 30
0.0
 75
     0
  1
AcDbOsnapPointRef
 72
     1
331
822
 73
     2
 91
        0
 40
1.0
 10
45.050938
 20
11.181563
 30
0.0
 75
     0
  0
DIMASSOC
  5
96B
102
{ACAD_REACTORS
330
961
102
}
330
961
100
AcDbDimAssoc
330
954
 90
        3
 70
     0
 71
     0
  1
AcDbOsnapPointRef
 72
    13
331
817
 73
     2
 91
        0
 40
0.0
 10
48.610939
 20
10.381563
 30
0.0
 75
     0
  1
AcDbOsnapPointRef
 72
     1
331
81E
 73
     2
 91
        0
 40
1.0
 10
48.610939
 20
26.261562
 30
0.0
 75
     0
  0
DIMASSOC
  5
987
102
{ACAD_REACTORS
330
97B
102
}
330
97B
100
AcDbDimAssoc
330
96C
 90
        2
 70
     0
 71
     0
  1
AcDbOsnapPointRef
 72
     1
331
81F
 73
     2
 91
        0
 40
1.0
 10
48.610939
 20
30.26156
 30
0.0
 75
     0
  0
DIMASSOC
  5
99F
102
{ACAD_REACTORS
330
995
102
}
330
995
100
AcDbDimAssoc
330
988
 90
        3
 70
     0
 71
     0
  1
AcDbOsnapPointRef
 72
     1
331
815
 73
     2
 91
        0
 40
1.0
 10
-13.689064
 20
-57.178436
 30
0.0
 75
     0
  1
AcDbOsnapPointRef
 72
     1
331
814
 73
     2
 91
        0
 40
1.0
 10
37.110939
 20
-57.178436
 30
0.0
 75
     0
  0
DIMASSOC
  5
AB6
102
{ACAD_REACTORS
330
AAC
102
}
330
AAC
100
AcDbDimAssoc
330
A9F
 90
        3
 70
     0
 71
     0
  1
AcDbOsnapPointRef
 72
    13
331
813
 73
     2
 91
        0
 40
0.0
 10
-13.689064
 20
-53.17843599999999
 30
0.0
 75
     0
  1
AcDbOsnapPointRef
 72
    13
331
812
 73
     2
 91
        0
 40
0.0
 10
-13.689064
 20
-30.178438
 30
0.0
 75
     0
  0
DIMASSOC
  5
BB9
102
{ACAD_REACTORS
330
BAF
102
}
330
BAF
100
AcDbDimAssoc
330
BA2
 90
        3
 70
     0
 71
     0
  1
AcDbOsnapPointRef
 72
    13
331
82F
 73
     2
 91
        0
 40
0.0
 10
-17.65906099999996
 20
-2.578437099999999
 30
0.0
 75
     0
  1
AcDbOsnapPointRef
 72
     6
331
82D
 73
     2
 91
        0
 40
0.8766206093260338
 10
-13.689064
 20
36.621561
 30
0.0
332
7EC
 74
     2
 92
        0
 75
     0
  0
MLINESTYLE
  5
18
102
{ACAD_REACTORS
330
17
102
}
330
17
100
AcDbMlineStyle
  2
STANDARD
 70
     0
  3

 62
   256
 51
90.0
 52
90.0
 71
     2
 49
0.5
 62
   256
  6
BYLAYER
 49
-0.5
 62
   256
  6
BYLAYER
  0
ACDBPLACEHOLDER
  5
F
102
{ACAD_REACTORS
330
E
102
}
330
E
100
AcDbPlaceHolder
280
     0
  0
XRECORD
  5
BEF
102
{ACAD_REACTORS
330
BE5
102
}
330
BE5
100
AcDbXrecord
 90
        0
  0
XRECORD
  5
BF0
102
{ACAD_REACTORS
330
BE5
102
}
330
BE5
100
AcDbXrecord
  1
{5B0931FC-56BC-4C5C-811F-96A4ED1ECC1B}
  0
XRECORD
  5
BE8
102
{ACAD_REACTORS
330
BE5
102
}
330
BE5
100
AcDbXrecord
  1

  0
XRECORD
  5
BEE
102
{ACAD_REACTORS
330
BE5
102
}
330
BE5
100
AcDbXrecord
 90
        4
  0
XRECORD
  5
BEA
102
{ACAD_REACTORS
330
BE5
102
}
330
BE5
100
AcDbXrecord
340
1A
  0
XRECORD
  5
BED
102
{ACAD_REACTORS
330
BE5
102
}
330
BE5
100
AcDbXrecord
 90
    10781
  0
XRECORD
  5
BEB
102
{ACAD_REACTORS
330
BE5
102
}
330
BE5
100
AcDbXrecord
340
19
  0
XRECORD
  5
BEC
102
{ACAD_REACTORS
330
BE5
102
}
330
BE5
100
AcDbXrecord
340
E
  0
XRECORD
  5
BF2
102
{ACAD_REACTORS
330
BE5
102
}
330
BE5
100
AcDbXrecord
 40
0.0
  0
XRECORD
  5
BF5
102
{ACAD_REACTORS
330
BE5
102
}
330
BE5
100
AcDbXrecord
340
0
  0
XRECORD
  5
BFB
102
{ACAD_REACTORS
330
BE5
102
}
330
BE5
100
AcDbXrecord
 10
0.0
 20
0.0
 30
0.0
  0
XRECORD
  5
BF7
102
{ACAD_REACTORS
330
BE5
102
}
330
BE5
100
AcDbXrecord
 10
0.0
 20
0.0
 30
0.0
  0
XRECORD
  5
BFA
102
{ACAD_REACTORS
330
BE5
102
}
330
BE5
100
AcDbXrecord
 10
0.0
 20
0.0
 30
0.0
  0
XRECORD
  5
BF8
102
{ACAD_REACTORS
330
BE5
102
}
330
BE5
100
AcDbXrecord
 10
0.0
 20
0.0
 30
0.0
  0
XRECORD
  5
BF9
102
{ACAD_REACTORS
330
BE5
102
}
330
BE5
100
AcDbXrecord
 10
0.0
 20
0.0
 30
0.0
  0
XRECORD
  5
BF6
102
{ACAD_REACTORS
330
BE5
102
}
330
BE5
100
AcDbXrecord
 10
0.0
 20
0.0
 30
0.0
  0
XRECORD
  5
BF3
102
{ACAD_REACTORS
330
BE5
102
}
330
BE5
100
AcDbXrecord
340
0
  0
XRECORD
  5
BF4
102
{ACAD_REACTORS
330
BE5
102
}
330
BE5
100
AcDbXrecord
 70
     0
  0
XRECORD
  5
BE9
102
{ACAD_REACTORS
330
BE5
102
}
330
BE5
100
AcDbXrecord
  1

  0
XRECORD
  5
BE6
102
{ACAD_REACTORS
330
BE5
102
}
330
BE5
100
AcDbXrecord
 90
        1
  0
XRECORD
  5
BE7
102
{ACAD_REACTORS
330
BE5
102
}
330
BE5
100
AcDbXrecord
 90
       70
  0
XRECORD
  5
BFE
102
{ACAD_REACTORS
330
BE5
102
}
330
BE5
100
AcDbXrecord
340
0
  0
XRECORD
  5
C04
102
{ACAD_REACTORS
330
BE5
102
}
330
BE5
100
AcDbXrecord
 10
0.0
 20
0.0
 30
0.0
  0
XRECORD
  5
C00
102
{ACAD_REACTORS
330
BE5
102
}
330
BE5
100
AcDbXrecord
 10
0.0
 20
0.0
 30
0.0
  0
XRECORD
  5
C03
102
{ACAD_REACTORS
330
BE5
102
}
330
BE5
100
AcDbXrecord
 10
0.0
 20
0.0
 30
0.0
  0
XRECORD
  5
C01
102
{ACAD_REACTORS
330
BE5
102
}
330
BE5
100
AcDbXrecord
 10
0.0
 20
0.0
 30
0.0
  0
XRECORD
  5
C02
102
{ACAD_REACTORS
330
BE5
102
}
330
BE5
100
AcDbXrecord
 10
0.0
 20
0.0
 30
0.0
  0
XRECORD
  5
BFF
102
{ACAD_REACTORS
330
BE5
102
}
330
BE5
100
AcDbXrecord
 10
0.0
 20
0.0
 30
0.0
  0
XRECORD
  5
BFC
102
{ACAD_REACTORS
330
BE5
102
}
330
BE5
100
AcDbXrecord
340
0
  0
XRECORD
  5
BFD
102
{ACAD_REACTORS
330
BE5
102
}
330
BE5
100
AcDbXrecord
 70
     0
  0
XRECORD
  5
BF1
102
{ACAD_REACTORS
330
BE5
102
}
330
BE5
100
AcDbXrecord
  1
{973E2310-064E-41F2-8ABF-48D330DDF805}
  0
DICTIONARYVAR
  5
2E
102
{ACAD_REACTORS
330
2C
102
}
330
2C
100
DictionaryVariables
280
     0
  1
2
  0
DICTIONARYVAR
  5
2D
102
{ACAD_REACTORS
330
2C
102
}
330
2C
100
DictionaryVariables
280
     0
  1
1
  0
ENDSEC
  0
EOF
