  0
SECTION
  2
HEADER
  9
$ACADVER
  1
AC1014
  9
$ACADMAINTVER
 70
     9
  9
$DWGCODEPAGE
  3
ANSI_932
  9
$INSBASE
 10
0.0
 20
0.0
 30
0.0
  9
$EXTMIN
 10
-52.69013352113325
 20
-77.85126001243702
 30
0.0
  9
$EXTMAX
 10
72.55411506486893
 20
78.50364620000009
 30
0.0
  9
$LIMMIN
 10
0.0
 20
0.0
  9
$LIMMAX
 10
420.0
 20
297.0
  9
$ORTHOMODE
 70
     1
  9
$REGENMODE
 70
     1
  9
$FILLMODE
 70
     1
  9
$QTEXTMODE
 70
     0
  9
$MIRRTEXT
 70
     1
  9
$DRAGMODE
 70
     2
  9
$LTSCALE
 40
1.0
  9
$OSMODE
 70
    37
  9
$ATTMODE
 70
     1
  9
$TEXTSIZE
 40
2.5
  9
$TRACEWID
 40
1.0
  9
$TEXTSTYLE
  7
STANDARD
  9
$CLAYER
  8
0
  9
$CELTYPE
  6
BYLAYER
  9
$CECOLOR
 62
   256
  9
$CELTSCALE
 40
1.0
  9
$DELOBJ
 70
     1
  9
$DISPSILH
 70
     0
  9
$DIMSCALE
 40
1.0
  9
$DIMASZ
 40
3.5
  9
$DIMEXO
 40
0.0
  9
$DIMDLI
 40
3.75
  9
$DIMRND
 40
0.0
  9
$DIMDLE
 40
0.0
  9
$DIMEXE
 40
1.5
  9
$DIMTP
 40
0.0
  9
$DIMTM
 40
0.0
  9
$DIMTXT
 40
3.5
  9
$DIMCEN
 40
2.5
  9
$DIMTSZ
 40
0.0
  9
$DIMTOL
 70
     0
  9
$DIMLIM
 70
     0
  9
$DIMTIH
 70
     0
  9
$DIMTOH
 70
     0
  9
$DIMSE1
 70
     0
  9
$DIMSE2
 70
     0
  9
$DIMTAD
 70
     1
  9
$DIMZIN
 70
     8
  9
$DIMBLK
  1

  9
$DIMASO
 70
     1
  9
$DIMSHO
 70
     1
  9
$DIMPOST
  1

  9
$DIMAPOST
  1

  9
$DIMALT
 70
     0
  9
$DIMALTD
 70
     3
  9
$DIMALTF
 40
0.03937007874016
  9
$DIMLFAC
 40
1.0
  9
$DIMTOFL
 70
     1
  9
$DIMTVP
 40
0.0
  9
$DIMTIX
 70
     0
  9
$DIMSOXD
 70
     0
  9
$DIMSAH
 70
     0
  9
$DIMBLK1
  1

  9
$DIMBLK2
  1

  9
$DIMSTYLE
  2
ISO-25
  9
$DIMCLRD
 70
     1
  9
$DIMCLRE
 70
     1
  9
$DIMCLRT
 70
     1
  9
$DIMTFAC
 40
1.0
  9
$DIMGAP
 40
1.0
  9
$DIMJUST
 70
     0
  9
$DIMSD1
 70
     0
  9
$DIMSD2
 70
     0
  9
$DIMTOLJ
 70
     0
  9
$DIMTZIN
 70
     8
  9
$DIMALTZ
 70
     0
  9
$DIMALTTZ
 70
     0
  9
$DIMFIT
 70
     3
  9
$DIMUPT
 70
     0
  9
$DIMUNIT
 70
     2
  9
$DIMDEC
 70
     2
  9
$DIMTDEC
 70
     2
  9
$DIMALTU
 70
     2
  9
$DIMALTTD
 70
     3
  9
$DIMTXSTY
  7
STANDARD
  9
$DIMAUNIT
 70
     0
  9
$LUNITS
 70
     2
  9
$LUPREC
 70
     4
  9
$SKETCHINC
 40
1.0
  9
$FILLETRAD
 40
10.0
  9
$AUNITS
 70
     0
  9
$AUPREC
 70
     0
  9
$MENU
  1
.
  9
$ELEVATION
 40
0.0
  9
$PELEVATION
 40
0.0
  9
$THICKNESS
 40
0.0
  9
$LIMCHECK
 70
     0
  9
$BLIPMODE
 70
     0
  9
$CHAMFERA
 40
10.0
  9
$CHAMFERB
 40
10.0
  9
$CHAMFERC
 40
20.0
  9
$CHAMFERD
 40
0.0
  9
$SKPOLY
 70
     0
  9
$TDCREATE
 40
2453755.379305208
  9
$TDUPDATE
 40
2454530.587328194
  9
$TDINDWG
 40
0.0149456250
  9
$TDUSRTIMER
 40
0.0149453241
  9
$USRTIMER
 70
     1
  9
$ANGBASE
 50
0.0
  9
$ANGDIR
 70
     0
  9
$PDMODE
 70
     0
  9
$PDSIZE
 40
0.0
  9
$PLINEWID
 40
0.0
  9
$COORDS
 70
     1
  9
$SPLFRAME
 70
     0
  9
$SPLINETYPE
 70
     6
  9
$SPLINESEGS
 70
     8
  9
$ATTDIA
 70
     0
  9
$ATTREQ
 70
     1
  9
$HANDLING
 70
     1
  9
$HANDSEED
  5
B44
  9
$SURFTAB1
 70
     6
  9
$SURFTAB2
 70
     6
  9
$SURFTYPE
 70
     6
  9
$SURFU
 70
     6
  9
$SURFV
 70
     6
  9
$UCSNAME
  2

  9
$UCSORG
 10
0.0
 20
0.0
 30
0.0
  9
$UCSXDIR
 10
1.0
 20
0.0
 30
0.0
  9
$UCSYDIR
 10
0.0
 20
1.0
 30
0.0
  9
$PUCSNAME
  2

  9
$PUCSORG
 10
0.0
 20
0.0
 30
0.0
  9
$PUCSXDIR
 10
1.0
 20
0.0
 30
0.0
  9
$PUCSYDIR
 10
0.0
 20
1.0
 30
0.0
  9
$USERI1
 70
     0
  9
$USERI2
 70
     0
  9
$USERI3
 70
     0
  9
$USERI4
 70
     0
  9
$USERI5
 70
     0
  9
$USERR1
 40
0.0
  9
$USERR2
 40
0.0
  9
$USERR3
 40
0.0
  9
$USERR4
 40
0.0
  9
$USERR5
 40
0.0
  9
$WORLDVIEW
 70
     1
  9
$SHADEDGE
 70
     3
  9
$SHADEDIF
 70
    70
  9
$TILEMODE
 70
     1
  9
$MAXACTVP
 70
    64
  9
$PINSBASE
 10
0.0
 20
0.0
 30
0.0
  9
$PLIMCHECK
 70
     0
  9
$PEXTMIN
 10
1.000000000000000E+20
 20
1.000000000000000E+20
 30
1.000000000000000E+20
  9
$PEXTMAX
 10
-1.000000000000000E+20
 20
-1.000000000000000E+20
 30
-1.000000000000000E+20
  9
$PLIMMIN
 10
0.0
 20
0.0
  9
$PLIMMAX
 10
420.0
 20
297.0
  9
$UNITMODE
 70
     0
  9
$VISRETAIN
 70
     1
  9
$PLINEGEN
 70
     0
  9
$PSLTSCALE
 70
     1
  9
$TREEDEPTH
 70
  3020
  9
$PICKSTYLE
 70
     1
  9
$CMLSTYLE
  2
STANDARD
  9
$CMLJUST
 70
     0
  9
$CMLSCALE
 40
20.0
  9
$PROXYGRAPHICS
 70
     1
  9
$MEASUREMENT
 70
     1
  0
ENDSEC
  0
SECTION
  2
CLASSES
  0
CLASS
  1
ACDBDICTIONARYWDFLT
  2
AcDbDictionaryWithDefault
  3
AutoCAD 2000
 90
        0
280
     0
281
     0
  0
CLASS
  1
ACDBPLACEHOLDER
  2
AcDbPlaceHolder
  3
AutoCAD 2000
 90
        0
280
     0
281
     0
  0
CLASS
  1
LAYOUT
  2
AcDbLayout
  3
AutoCAD 2000
 90
        0
280
     0
281
     0
  0
CLASS
  1
DICTIONARYVAR
  2
AcDbDictionaryVar
  3
AutoCAD 2000
 90
        0
280
     0
281
     0
  0
CLASS
  1
DIMASSOC
  2
AcDbDimAssoc
  3
"AcDbDimAssoc|Product Desc:     AcDim ARX App For Dimension|Company:          Autodesk, Inc.|WEB Address:      www.autodesk.com"
 90
        0
280
     0
281
     0
  0
CLASS
  1
LONG_TRANSACTION
  2
AcDbLongTransaction
  3
AutoCAD 2000
 90
        0
280
     0
281
     0
  0
CLASS
  1
LWPOLYLINE
  2
AcDbPolyline
  3
AutoCAD 2000
 90
        0
280
     0
281
     1
  0
CLASS
  1
HATCH
  2
AcDbHatch
  3
AutoCAD 2000
 90
        0
280
     0
281
     1
  0
CLASS
  1
XRECORD
  2
AcDbXrecord
  3
AutoCAD 2000
 90
        0
280
     0
281
     0
  0
CLASS
  1
LONG_TRANSACTION
  2
AcDbLongTransaction
  3
AutoCAD 2000
 90
        0
280
     0
281
     0
  0
CLASS
  1
LWPOLYLINE
  2
AcDbPolyline
  3
AutoCAD 2000
 90
        0
280
     0
281
     1
  0
CLASS
  1
HATCH
  2
AcDbHatch
  3
AutoCAD 2000
 90
        0
280
     0
281
     1
  0
CLASS
  1
XRECORD
  2
AcDbXrecord
  3
AutoCAD 2000
 90
        0
280
     0
281
     0
  0
CLASS
  1
LONG_TRANSACTION
  2
AcDbLongTransaction
  3
AutoCAD 2000
 90
        0
280
     0
281
     0
  0
CLASS
  1
LWPOLYLINE
  2
AcDbPolyline
  3
AutoCAD 2000
 90
        0
280
     0
281
     1
  0
CLASS
  1
HATCH
  2
AcDbHatch
  3
AutoCAD 2000
 90
        0
280
     0
281
     1
  0
CLASS
  1
XRECORD
  2
AcDbXrecord
  3
AutoCAD 2000
 90
        0
280
     0
281
     0
  0
CLASS
  1
LONG_TRANSACTION
  2
AcDbLongTransaction
  3
AutoCAD 2000
 90
        0
280
     0
281
     0
  0
CLASS
  1
LWPOLYLINE
  2
AcDbPolyline
  3
AutoCAD 2000
 90
        0
280
     0
281
     1
  0
CLASS
  1
HATCH
  2
AcDbHatch
  3
AutoCAD 2000
 90
        0
280
     0
281
     1
  0
CLASS
  1
XRECORD
  2
AcDbXrecord
  3
AutoCAD 2000
 90
        0
280
     0
281
     0
  0
CLASS
  1
LONG_TRANSACTION
  2
AcDbLongTransaction
  3
AutoCAD 2000
 90
        0
280
     0
281
     0
  0
CLASS
  1
LWPOLYLINE
  2
AcDbPolyline
  3
AutoCAD 2000
 90
        0
280
     0
281
     1
  0
CLASS
  1
HATCH
  2
AcDbHatch
  3
AutoCAD 2000
 90
        0
280
     0
281
     1
  0
CLASS
  1
XRECORD
  2
AcDbXrecord
  3
AutoCAD 2000
 90
        0
280
     0
281
     0
  0
CLASS
  1
LONG_TRANSACTION
  2
AcDbLongTransaction
  3
AutoCAD 2000
 90
        0
280
     0
281
     0
  0
CLASS
  1
LWPOLYLINE
  2
AcDbPolyline
  3
AutoCAD 2000
 90
        0
280
     0
281
     1
  0
CLASS
  1
HATCH
  2
AcDbHatch
  3
AutoCAD 2000
 90
        0
280
     0
281
     1
  0
CLASS
  1
XRECORD
  2
AcDbXrecord
  3
AutoCAD 2000
 90
        0
280
     0
281
     0
  0
ENDSEC
  0
SECTION
  2
TABLES
  0
TABLE
  2
VPORT
  5
8
330
0
100
AcDbSymbolTable
 70
     2
  0
VPORT
  5
B21
330
8
100
AcDbSymbolTableRecord
100
AcDbViewportTableRecord
  2
*ACTIVE
 70
     0
 10
0.0
 20
0.0
 11
1.0
 21
1.0
 12
9.934980632329313
 22
6.721072624997447
 13
0.0
 23
0.0
 14
10.0
 24
10.0
 15
10.0
 25
10.0
 16
0.0
 26
0.0
 36
1.0
 17
0.0
 27
0.0
 37
0.0
 40
170.9930978615492
 41
1.662983425414364
 42
50.0
 43
0.0
 44
0.0
 50
0.0
 51
0.0
 71
     0
 72
   100
 73
     1
 74
     3
 75
     0
 76
     0
 77
     0
 78
     0
  0
ENDTAB
  0
TABLE
  2
LTYPE
  5
5
330
0
100
AcDbSymbolTable
 70
     2
  0
LTYPE
  5
14
330
5
100
AcDbSymbolTableRecord
100
AcDbLinetypeTableRecord
  2
BYBLOCK
 70
     0
  3

 72
    65
 73
     0
 40
0.0
  0
LTYPE
  5
15
330
5
100
AcDbSymbolTableRecord
100
AcDbLinetypeTableRecord
  2
BYLAYER
 70
     0
  3

 72
    65
 73
     0
 40
0.0
  0
LTYPE
  5
16
330
5
100
AcDbSymbolTableRecord
100
AcDbLinetypeTableRecord
  2
CONTINUOUS
 70
     0
  3
Solid line
 72
    65
 73
     0
 40
0.0
  0
LTYPE
  5
F4
330
5
100
AcDbSymbolTableRecord
100
AcDbLinetypeTableRecord
  2
CENTER
 70
     0
  3
____ _ ____ _ ____ _ ____ _ ____ _ ____ _ ____
 72
    65
 73
     4
 40
17.5
 49
13.0
 74
     0
 49
-1.5
 74
     0
 49
1.5
 74
     0
 49
-1.5
 74
     0
  0
ENDTAB
  0
TABLE
  2
LAYER
  5
2
330
0
100
AcDbSymbolTable
 70
     2
  0
LAYER
  5
10
330
2
100
AcDbSymbolTableRecord
100
AcDbLayerTableRecord
  2
0
 70
     0
 62
     7
  6
CONTINUOUS
  0
LAYER
  5
F5
330
2
100
AcDbSymbolTableRecord
100
AcDbLayerTableRecord
  2
DEFPOINTS
 70
     0
 62
     7
  6
CONTINUOUS
  0
ENDTAB
  0
TABLE
  2
STYLE
  5
3
330
0
100
AcDbSymbolTable
 70
     1
  0
STYLE
  5
11
330
3
100
AcDbSymbolTableRecord
100
AcDbTextStyleTableRecord
  2
STANDARD
 70
     0
 40
0.0
 41
1.0
 50
0.0
 71
     0
 42
2.5
  3
txt.shx
  4
bigfont.shx
  0
ENDTAB
  0
TABLE
  2
VIEW
  5
6
330
0
100
AcDbSymbolTable
 70
     0
  0
ENDTAB
  0
TABLE
  2
UCS
  5
7
330
0
100
AcDbSymbolTable
 70
     0
  0
ENDTAB
  0
TABLE
  2
APPID
  5
9
330
0
100
AcDbSymbolTable
 70
     1
  0
APPID
  5
12
330
9
100
AcDbSymbolTableRecord
100
AcDbRegAppTableRecord
  2
ACAD
 70
     0
  0
ENDTAB
  0
TABLE
  2
DIMSTYLE
  5
A
330
0
100
AcDbSymbolTable
 70
     1
  0
DIMSTYLE
105
27
102
{ACAD_REACTORS
330
834
330
850
330
86C
330
88F
330
8BD
330
8D5
330
8F1
330
A29
102
}
330
A
100
AcDbSymbolTableRecord
100
AcDbDimStyleTableRecord
  2
ISO-25
 70
     0
  3

  4

  5

  6

  7

 40
1.0
 41
3.5
 42
0.0
 43
3.75
 44
1.5
 45
0.0
 46
0.0
 47
0.0
 48
0.0
140
3.5
141
2.5
142
0.0
143
0.03937007874016
144
1.0
145
0.0
146
1.0
147
1.0
 71
     0
 72
     0
 73
     0
 74
     0
 75
     0
 76
     0
 77
     1
 78
     8
170
     0
171
     3
172
     1
173
     0
174
     0
175
     0
176
     1
177
     1
178
     1
270
     2
271
     2
272
     2
273
     2
274
     3
340
11
275
     0
280
     0
281
     0
282
     0
283
     0
284
     8
285
     0
286
     0
287
     3
288
     0
  0
ENDTAB
  0
TABLE
  2
BLOCK_RECORD
  5
1
330
0
100
AcDbSymbolTable
 70
     9
  0
BLOCK_RECORD
  5
1F
102
{ACAD_XDICTIONARY
360
994
102
}
330
1
100
AcDbSymbolTableRecord
100
AcDbBlockTableRecord
  2
*MODEL_SPACE
  0
BLOCK_RECORD
  5
1B
102
{ACAD_XDICTIONARY
360
992
102
}
330
1
100
AcDbSymbolTableRecord
100
AcDbBlockTableRecord
  2
*PAPER_SPACE
  0
BLOCK_RECORD
  5
835
330
1
100
AcDbSymbolTableRecord
100
AcDbBlockTableRecord
  2
*D0
  0
BLOCK_RECORD
  5
851
330
1
100
AcDbSymbolTableRecord
100
AcDbBlockTableRecord
  2
*D1
  0
BLOCK_RECORD
  5
86D
330
1
100
AcDbSymbolTableRecord
100
AcDbBlockTableRecord
  2
*D2
  0
BLOCK_RECORD
  5
890
330
1
100
AcDbSymbolTableRecord
100
AcDbBlockTableRecord
  2
*D3
  0
BLOCK_RECORD
  5
8BE
330
1
100
AcDbSymbolTableRecord
100
AcDbBlockTableRecord
  2
*D4
  0
BLOCK_RECORD
  5
8D6
330
1
100
AcDbSymbolTableRecord
100
AcDbBlockTableRecord
  2
*D5
  0
BLOCK_RECORD
  5
8F2
330
1
100
AcDbSymbolTableRecord
100
AcDbBlockTableRecord
  2
*D6
  0
BLOCK_RECORD
  5
90A
330
1
100
AcDbSymbolTableRecord
100
AcDbBlockTableRecord
  2
*D7
  0
BLOCK_RECORD
  5
A2A
330
1
100
AcDbSymbolTableRecord
100
AcDbBlockTableRecord
  2
*D8
  0
ENDTAB
  0
ENDSEC
  0
SECTION
  2
BLOCKS
  0
BLOCK
  5
20
330
1F
100
AcDbEntity
  8
0
100
AcDbBlockBegin
  2
*MODEL_SPACE
 70
     0
 10
0.0
 20
0.0
 30
0.0
  3
*MODEL_SPACE
  1

  0
ENDBLK
  5
21
330
1F
100
AcDbEntity
  8
0
100
AcDbBlockEnd
  0
BLOCK
  5
1C
330
1B
100
AcDbEntity
 67
     1
  8
0
100
AcDbBlockBegin
  2
*PAPER_SPACE
 70
     0
 10
0.0
 20
0.0
 30
0.0
  3
*PAPER_SPACE
  1

  0
ENDBLK
  5
1D
330
1B
100
AcDbEntity
 67
     1
  8
0
100
AcDbBlockEnd
  0
BLOCK
  5
841
330
835
100
AcDbEntity
  8
0
100
AcDbBlockBegin
  2
*D0
 70
     1
 10
0.0
 20
0.0
 30
0.0
  3
*D0
  1

  0
LINE
  5
A92
330
835
100
AcDbEntity
  8
0
 62
     1
100
AcDbLine
 10
-9.719062799999999
 20
6.0265627
 30
0.0
 11
-9.719062799999999
 21
12.09138623991719
 31
0.0
  0
LINE
  5
A93
330
835
100
AcDbEntity
  8
0
 62
     1
100
AcDbLine
 10
-17.65906099999996
 20
6.0265627
 30
0.0
 11
-17.65906099999996
 21
12.09138623991719
 31
0.0
  0
LINE
  5
A94
330
835
100
AcDbEntity
  8
0
 62
     1
100
AcDbLine
 10
-21.15906099999996
 20
10.59138623991717
 30
0.0
 11
-24.65906099999996
 21
10.59138623991717
 31
0.0
  0
LINE
  5
A95
330
835
100
AcDbEntity
  8
0
 62
     1
100
AcDbLine
 10
-6.219062799999997
 20
10.59138623991717
 30
0.0
 11
13.2809372
 21
10.59138623991717
 31
0.0
  0
LINE
  5
A96
330
835
100
AcDbEntity
  8
0
 62
     1
100
AcDbLine
 10
-17.65906099999996
 20
10.59138623991717
 30
0.0
 11
-9.719062799999999
 21
10.59138623991717
 31
0.0
  0
SOLID
  5
A97
330
835
100
AcDbEntity
  8
0
 62
     1
100
AcDbTrace
 10
-21.15906099999996
 20
11.17471957325052
 30
0.0
 11
-21.15906099999996
 21
10.00805290658383
 31
0.0
 12
-17.65906099999996
 22
10.59138623991717
 32
0.0
 13
-17.65906099999996
 23
10.59138623991717
 33
0.0
  0
SOLID
  5
A98
330
835
100
AcDbEntity
  8
0
 62
     1
100
AcDbTrace
 10
-6.219062799999997
 20
11.17471957325052
 30
0.0
 11
-6.219062799999997
 21
10.00805290658383
 31
0.0
 12
-9.719062799999999
 22
10.59138623991717
 32
0.0
 13
-9.719062799999999
 23
10.59138623991717
 33
0.0
  0
MTEXT
  5
A99
330
835
100
AcDbEntity
  8
0
 62
     1
100
AcDbMText
 10
5.2809372
 20
13.34138623991719
 30
0.0
 40
3.5
 41
0.0
 71
     5
 72
     1
  1
φ7.94
1001
ACAD
1000
MTEXTBEGIN
1070
    73
1070
     1
1070
    44
1040
1.0
1070
    74
1070
     0
1000
MTEXTEND
1000
MTEXTBEGIN
1070
    73
1070
     1
1070
    44
1040
1.0
1070
    74
1070
     0
1000
MTEXTEND
1000
MTEXTBEGIN
1070
    73
1070
     1
1070
    44
1040
1.0
1070
    74
1070
     0
1000
MTEXTEND
1000
MTEXTBEGIN
1070
    73
1070
     1
1070
    44
1040
1.0
1070
    74
1070
     0
1000
MTEXTEND
  0
POINT
  5
A9A
330
835
100
AcDbEntity
  8
DEFPOINTS
 62
     0
100
AcDbPoint
 10
-9.719062799999999
 20
6.0265627
 30
0.0
  0
POINT
  5
A9B
330
835
100
AcDbEntity
  8
DEFPOINTS
 62
     0
100
AcDbPoint
 10
-17.65906099999996
 20
6.0265627
 30
0.0
  0
POINT
  5
A9C
330
835
100
AcDbEntity
  8
DEFPOINTS
 62
     0
100
AcDbPoint
 10
-17.65906099999996
 20
10.59138623991717
 30
0.0
  0
ENDBLK
  5
842
330
835
100
AcDbEntity
  8
0
100
AcDbBlockEnd
  0
BLOCK
  5
85D
330
851
100
AcDbEntity
  8
0
100
AcDbBlockBegin
  2
*D1
 70
     1
 10
0.0
 20
0.0
 30
0.0
  3
*D1
  1

  0
LINE
  5
9AA
330
851
100
AcDbEntity
  8
0
 62
     1
100
AcDbLine
 10
-25.189064
 20
30.621564
 30
0.0
 11
-39.52592653748274
 21
30.621564
 31
0.0
  0
LINE
  5
9AB
330
851
100
AcDbEntity
  8
0
 62
     1
100
AcDbLine
 10
-25.189064
 20
34.62156599999998
 30
0.0
 11
-39.52592653748274
 21
34.62156599999998
 31
0.0
  0
LINE
  5
9AC
330
851
100
AcDbEntity
  8
0
 62
     1
100
AcDbLine
 10
-38.02592653748274
 20
27.121564
 30
0.0
 11
-38.02592653748274
 21
23.621564
 31
0.0
  0
LINE
  5
9AD
330
851
100
AcDbEntity
  8
0
 62
     1
100
AcDbLine
 10
-38.02592653748274
 20
38.12156599999996
 30
0.0
 11
-38.02592653748272
 21
50.03823266666664
 31
0.0
  0
LINE
  5
9AE
330
851
100
AcDbEntity
  8
0
 62
     1
100
AcDbLine
 10
-38.02592653748274
 20
30.621564
 30
0.0
 11
-38.02592653748274
 21
34.62156599999998
 31
0.0
  0
SOLID
  5
9AF
330
851
100
AcDbEntity
  8
0
 62
     1
100
AcDbTrace
 10
-38.60925987081607
 20
27.121564
 30
0.0
 11
-37.44259320414941
 21
27.121564
 31
0.0
 12
-38.02592653748274
 22
30.621564
 32
0.0
 13
-38.02592653748274
 23
30.621564
 33
0.0
  0
SOLID
  5
9B0
330
851
100
AcDbEntity
  8
0
 62
     1
100
AcDbTrace
 10
-38.60925987081607
 20
38.12156599999996
 30
0.0
 11
-37.44259320414941
 21
38.12156599999996
 31
0.0
 12
-38.02592653748274
 22
34.62156599999998
 32
0.0
 13
-38.02592653748274
 23
34.62156599999998
 33
0.0
  0
MTEXT
  5
9B1
330
851
100
AcDbEntity
  8
0
 62
     1
100
AcDbMText
 10
-40.77592653748275
 20
45.8298993333333
 30
0.0
 40
3.5
 41
0.0
 71
     5
 72
     1
  1
4.0
 11
0.0000000000000001
 21
1.0
 31
0.0
1001
ACAD
1000
MTEXTBEGIN
1070
    73
1070
     1
1070
    44
1040
1.0
1070
    74
1070
     0
1000
MTEXTEND
1000
MTEXTBEGIN
1070
    73
1070
     1
1070
    44
1040
1.0
1070
    74
1070
     0
1000
MTEXTEND
1000
MTEXTBEGIN
1070
    73
1070
     1
1070
    44
1040
1.0
1070
    74
1070
     0
1000
MTEXTEND
1000
MTEXTBEGIN
1070
    73
1070
     1
1070
    44
1040
1.0
1070
    74
1070
     0
1000
MTEXTEND
1000
MTEXTBEGIN
1070
    73
1070
     1
1070
    44
1040
1.0
1070
    74
1070
     0
1000
MTEXTEND
  0
POINT
  5
9B2
330
851
100
AcDbEntity
  8
DEFPOINTS
 62
     0
100
AcDbPoint
 10
-25.189064
 20
30.621564
 30
0.0
  0
POINT
  5
9B3
330
851
100
AcDbEntity
  8
DEFPOINTS
 62
     0
100
AcDbPoint
 10
-25.189064
 20
34.62156599999998
 30
0.0
  0
POINT
  5
9B4
330
851
100
AcDbEntity
  8
DEFPOINTS
 62
     0
100
AcDbPoint
 10
-38.02592653748274
 20
34.62156599999998
 30
0.0
  0
ENDBLK
  5
85E
330
851
100
AcDbEntity
  8
0
100
AcDbBlockEnd
  0
BLOCK
  5
877
330
86D
100
AcDbEntity
  8
0
100
AcDbBlockBegin
  2
*D2
 70
     1
 10
0.0
 20
0.0
 30
0.0
  3
*D2
  1

  0
LINE
  5
9B5
330
86D
100
AcDbEntity
  8
0
 62
     1
100
AcDbLine
 10
-17.65906099999996
 20
-2.578437099999999
 30
0.0
 11
-49.69013352113326
 21
-2.57843709999999
 31
0.0
  0
LINE
  5
9B6
330
86D
100
AcDbEntity
  8
0
 62
     1
100
AcDbLine
 10
-13.689064
 20
36.621561
 30
0.0
 11
-49.69013352113325
 21
36.621561
 31
0.0
  0
LINE
  5
9B7
330
86D
100
AcDbEntity
  8
0
 62
     1
100
AcDbLine
 10
-48.19013352113326
 20
0.9215629000000092
 30
0.0
 11
-48.19013352113325
 21
33.12156100000001
 31
0.0
  0
SOLID
  5
9B8
330
86D
100
AcDbEntity
  8
0
 62
     1
100
AcDbTrace
 10
-48.77346685446659
 20
0.9215629000000095
 30
0.0
 11
-47.60680018779992
 21
0.9215629000000092
 31
0.0
 12
-48.19013352113326
 22
-2.57843709999999
 32
0.0
 13
-48.19013352113326
 23
-2.57843709999999
 33
0.0
  0
SOLID
  5
9B9
330
86D
100
AcDbEntity
  8
0
 62
     1
100
AcDbTrace
 10
-48.77346685446658
 20
33.12156100000001
 30
0.0
 11
-47.6068001877999
 21
33.12156100000001
 31
0.0
 12
-48.19013352113325
 22
36.621561
 32
0.0
 13
-48.19013352113325
 23
36.621561
 33
0.0
  0
MTEXT
  5
9BA
330
86D
100
AcDbEntity
  8
0
 62
     1
100
AcDbMText
 10
-50.94013352113325
 20
17.02156194999999
 30
0.0
 40
3.5
 41
0.0
 71
     5
 72
     1
  1
39.2
 11
0.0000000000000001
 21
1.0
 31
0.0
1001
ACAD
1000
MTEXTBEGIN
1070
    73
1070
     1
1070
    44
1040
1.0
1070
    74
1070
     0
1000
MTEXTEND
1000
MTEXTBEGIN
1070
    73
1070
     1
1070
    44
1040
1.0
1070
    74
1070
     0
1000
MTEXTEND
1000
MTEXTBEGIN
1070
    73
1070
     1
1070
    44
1040
1.0
1070
    74
1070
     0
1000
MTEXTEND
1000
MTEXTBEGIN
1070
    73
1070
     1
1070
    44
1040
1.0
1070
    74
1070
     0
1000
MTEXTEND
1000
MTEXTBEGIN
1070
    73
1070
     1
1070
    44
1040
1.0
1070
    74
1070
     0
1000
MTEXTEND
  0
POINT
  5
9BB
330
86D
100
AcDbEntity
  8
DEFPOINTS
 62
     0
100
AcDbPoint
 10
-17.65906099999996
 20
-2.578437099999999
 30
0.0
  0
POINT
  5
9BC
330
86D
100
AcDbEntity
  8
DEFPOINTS
 62
     0
100
AcDbPoint
 10
-13.689064
 20
36.621561
 30
0.0
  0
POINT
  5
9BD
330
86D
100
AcDbEntity
  8
DEFPOINTS
 62
     0
100
AcDbPoint
 10
-48.19013352113325
 20
36.621561
 30
0.0
  0
ENDBLK
  5
878
330
86D
100
AcDbEntity
  8
0
100
AcDbBlockEnd
  0
BLOCK
  5
89A
330
890
100
AcDbEntity
  8
0
100
AcDbBlockBegin
  2
*D3
 70
     1
 10
0.0
 20
0.0
 30
0.0
  3
*D3
  1

  0
LINE
  5
A03
330
890
100
AcDbEntity
  8
0
 62
     1
100
AcDbLine
 10
22.820938
 20
11.181563
 30
0.0
 11
22.820938
 21
-10.10120847590068
 31
0.0
  0
LINE
  5
A04
330
890
100
AcDbEntity
  8
0
 62
     1
100
AcDbLine
 10
51.400936
 20
11.181563
 30
0.0
 11
51.400936
 21
-10.10120847590068
 31
0.0
  0
LINE
  5
A05
330
890
100
AcDbEntity
  8
0
 62
     1
100
AcDbLine
 10
26.320938
 20
-8.601208475900705
 30
0.0
 11
47.900936
 21
-8.601208475900705
 31
0.0
  0
SOLID
  5
A06
330
890
100
AcDbEntity
  8
0
 62
     1
100
AcDbTrace
 10
26.320938
 20
-8.017875142567371
 30
0.0
 11
26.320938
 21
-9.184541809234039
 31
0.0
 12
22.820938
 22
-8.601208475900705
 32
0.0
 13
22.820938
 23
-8.601208475900705
 33
0.0
  0
SOLID
  5
A07
330
890
100
AcDbEntity
  8
0
 62
     1
100
AcDbTrace
 10
47.900936
 20
-8.017875142567371
 30
0.0
 11
47.900936
 21
-9.184541809234039
 31
0.0
 12
51.400936
 22
-8.601208475900705
 32
0.0
 13
51.400936
 23
-8.601208475900705
 33
0.0
  0
MTEXT
  5
A08
330
890
100
AcDbEntity
  8
0
 62
     1
100
AcDbMText
 10
37.110939
 20
-5.851208475900705
 30
0.0
 40
3.5
 41
0.0
 71
     5
 72
     1
  1
φ28.58
1001
ACAD
1000
MTEXTBEGIN
1070
    73
1070
     1
1070
    44
1040
1.0
1070
    74
1070
     0
1000
MTEXTEND
1000
MTEXTBEGIN
1070
    73
1070
     1
1070
    44
1040
1.0
1070
    74
1070
     0
1000
MTEXTEND
1000
MTEXTBEGIN
1070
    73
1070
     1
1070
    44
1040
1.0
1070
    74
1070
     0
1000
MTEXTEND
1000
MTEXTBEGIN
1070
    73
1070
     1
1070
    44
1040
1.0
1070
    74
1070
     0
1000
MTEXTEND
1000
MTEXTBEGIN
1070
    73
1070
     1
1070
    44
1040
1.0
1070
    74
1070
     0
1000
MTEXTEND
  0
POINT
  5
A09
330
890
100
AcDbEntity
  8
DEFPOINTS
 62
     0
100
AcDbPoint
 10
22.820938
 20
11.181563
 30
0.0
  0
POINT
  5
A0A
330
890
100
AcDbEntity
  8
DEFPOINTS
 62
     0
100
AcDbPoint
 10
51.400936
 20
11.181563
 30
0.0
  0
POINT
  5
A0B
330
890
100
AcDbEntity
  8
DEFPOINTS
 62
     0
100
AcDbPoint
 10
51.400936
 20
-8.601208475900705
 30
0.0
  0
ENDBLK
  5
89B
330
890
100
AcDbEntity
  8
0
100
AcDbBlockEnd
  0
BLOCK
  5
8C8
330
8BE
100
AcDbEntity
  8
0
100
AcDbBlockBegin
  2
*D4
 70
     1
 10
0.0
 20
0.0
 30
0.0
  3
*D4
  1

  0
LINE
  5
A0C
330
8BE
100
AcDbEntity
  8
0
 62
     1
100
AcDbLine
 10
50.600937
 20
10.38156299
 30
0.0
 11
72.55411506486893
 21
10.38156298999999
 31
0.0
  0
LINE
  5
A0D
330
8BE
100
AcDbEntity
  8
0
 62
     1
100
AcDbLine
 10
50.60093695811211
 20
26.26156300999999
 30
0.0
 11
72.55411506486893
 21
26.26156300999998
 31
0.0
  0
LINE
  5
A0E
330
8BE
100
AcDbEntity
  8
0
 62
     1
100
AcDbLine
 10
71.05411506486894
 20
13.88156298999999
 30
0.0
 11
71.05411506486894
 21
22.76156300999998
 31
0.0
  0
SOLID
  5
A0F
330
8BE
100
AcDbEntity
  8
0
 62
     1
100
AcDbTrace
 10
70.47078173153561
 20
13.88156298999999
 30
0.0
 11
71.63744839820227
 21
13.88156298999999
 31
0.0
 12
71.05411506486894
 22
10.38156298999999
 32
0.0
 13
71.05411506486894
 23
10.38156298999999
 33
0.0
  0
SOLID
  5
A10
330
8BE
100
AcDbEntity
  8
0
 62
     1
100
AcDbTrace
 10
70.47078173153561
 20
22.76156300999998
 30
0.0
 11
71.63744839820227
 21
22.76156300999998
 31
0.0
 12
71.05411506486894
 22
26.26156300999998
 32
0.0
 13
71.05411506486894
 23
26.26156300999998
 33
0.0
  0
MTEXT
  5
A11
330
8BE
100
AcDbEntity
  8
0
 62
     1
100
AcDbMText
 10
68.30411506486893
 20
18.321563
 30
0.0
 40
3.5
 41
0.0
 71
     5
 72
     1
  1
15.88
 11
0.0000000000000001
 21
1.0
 31
0.0
1001
ACAD
1000
MTEXTBEGIN
1070
    73
1070
     1
1070
    44
1040
1.0
1070
    74
1070
     0
1000
MTEXTEND
1000
MTEXTBEGIN
1070
    73
1070
     1
1070
    44
1040
1.0
1070
    74
1070
     0
1000
MTEXTEND
1000
MTEXTBEGIN
1070
    73
1070
     1
1070
    44
1040
1.0
1070
    74
1070
     0
1000
MTEXTEND
1000
MTEXTBEGIN
1070
    73
1070
     1
1070
    44
1040
1.0
1070
    74
1070
     0
1000
MTEXTEND
1000
MTEXTBEGIN
1070
    73
1070
     1
1070
    44
1040
1.0
1070
    74
1070
     0
1000
MTEXTEND
  0
POINT
  5
A12
330
8BE
100
AcDbEntity
  8
DEFPOINTS
 62
     0
100
AcDbPoint
 10
50.600937
 20
10.38156299
 30
0.0
  0
POINT
  5
A13
330
8BE
100
AcDbEntity
  8
DEFPOINTS
 62
     0
100
AcDbPoint
 10
50.60093695811211
 20
26.26156300999999
 30
0.0
  0
POINT
  5
A14
330
8BE
100
AcDbEntity
  8
DEFPOINTS
 62
     0
100
AcDbPoint
 10
71.05411506486894
 20
26.26156300999998
 30
0.0
  0
ENDBLK
  5
8C9
330
8BE
100
AcDbEntity
  8
0
100
AcDbBlockEnd
  0
BLOCK
  5
8E2
330
8D6
100
AcDbEntity
  8
0
100
AcDbBlockBegin
  2
*D5
 70
     1
 10
0.0
 20
0.0
 30
0.0
  3
*D5
  1

  0
LINE
  5
A15
330
8D6
100
AcDbEntity
  8
0
 62
     1
100
AcDbLine
 10
50.60093695811211
 20
26.26156300999999
 30
0.0
 11
72.55411506486893
 21
26.26156300999998
 31
0.0
  0
LINE
  5
A16
330
8D6
100
AcDbEntity
  8
0
 62
     1
100
AcDbLine
 10
48.610939
 20
30.26156
 30
0.0
 11
72.55411506486893
 21
30.26155999999998
 31
0.0
  0
LINE
  5
A17
330
8D6
100
AcDbEntity
  8
0
 62
     1
100
AcDbLine
 10
71.05411506486894
 20
22.76156300999998
 30
0.0
 11
71.05411506486894
 21
19.26156300999998
 31
0.0
  0
LINE
  5
A18
330
8D6
100
AcDbEntity
  8
0
 62
     1
100
AcDbLine
 10
71.05411506486895
 20
33.76155999999999
 30
0.0
 11
71.05411506486895
 21
45.67822666666666
 31
0.0
  0
LINE
  5
A19
330
8D6
100
AcDbEntity
  8
0
 62
     1
100
AcDbLine
 10
71.05411506486894
 20
26.26156300999998
 30
0.0
 11
71.05411506486894
 21
30.26155999999998
 31
0.0
  0
SOLID
  5
A1A
330
8D6
100
AcDbEntity
  8
0
 62
     1
100
AcDbTrace
 10
70.47078173153561
 20
22.76156300999998
 30
0.0
 11
71.63744839820227
 21
22.76156300999998
 31
0.0
 12
71.05411506486894
 22
26.26156300999998
 32
0.0
 13
71.05411506486894
 23
26.26156300999998
 33
0.0
  0
SOLID
  5
A1B
330
8D6
100
AcDbEntity
  8
0
 62
     1
100
AcDbTrace
 10
70.47078173153562
 20
33.76155999999999
 30
0.0
 11
71.63744839820228
 21
33.76155999999999
 31
0.0
 12
71.05411506486894
 22
30.26155999999998
 32
0.0
 13
71.05411506486894
 23
30.26155999999998
 33
0.0
  0
MTEXT
  5
A1C
330
8D6
100
AcDbEntity
  8
0
 62
     1
100
AcDbMText
 10
68.30411506486893
 20
41.46989333333332
 30
0.0
 40
3.5
 41
0.0
 71
     5
 72
     1
  1
4.0
 11
0.0000000000000001
 21
1.0
 31
0.0
1001
ACAD
1000
MTEXTBEGIN
1070
    73
1070
     1
1070
    44
1040
1.0
1070
    74
1070
     0
1000
MTEXTEND
1000
MTEXTBEGIN
1070
    73
1070
     1
1070
    44
1040
1.0
1070
    74
1070
     0
1000
MTEXTEND
1000
MTEXTBEGIN
1070
    73
1070
     1
1070
    44
1040
1.0
1070
    74
1070
     0
1000
MTEXTEND
1000
MTEXTBEGIN
1070
    73
1070
     1
1070
    44
1040
1.0
1070
    74
1070
     0
1000
MTEXTEND
1000
MTEXTBEGIN
1070
    73
1070
     1
1070
    44
1040
1.0
1070
    74
1070
     0
1000
MTEXTEND
  0
POINT
  5
A1D
330
8D6
100
AcDbEntity
  8
DEFPOINTS
 62
     0
100
AcDbPoint
 10
50.60093695811211
 20
26.26156300999999
 30
0.0
  0
POINT
  5
A1E
330
8D6
100
AcDbEntity
  8
DEFPOINTS
 62
     0
100
AcDbPoint
 10
48.610939
 20
30.26156
 30
0.0
  0
POINT
  5
A1F
330
8D6
100
AcDbEntity
  8
DEFPOINTS
 62
     0
100
AcDbPoint
 10
71.05411506486894
 20
30.26155999999998
 30
0.0
  0
ENDBLK
  5
8E3
330
8D6
100
AcDbEntity
  8
0
100
AcDbBlockEnd
  0
BLOCK
  5
8FC
330
8F2
100
AcDbEntity
  8
0
100
AcDbBlockBegin
  2
*D6
 70
     1
 10
0.0
 20
0.0
 30
0.0
  3
*D6
  1

  0
LINE
  5
9DD
330
8F2
100
AcDbEntity
  8
0
 62
     1
100
AcDbLine
 10
-13.689064
 20
-57.178436
 30
0.0
 11
-13.689064
 21
-70.41973107173065
 31
0.0
  0
LINE
  5
9DE
330
8F2
100
AcDbEntity
  8
0
 62
     1
100
AcDbLine
 10
37.110939
 20
-57.178436
 30
0.0
 11
37.110939
 21
-70.41973107173065
 31
0.0
  0
LINE
  5
9DF
330
8F2
100
AcDbEntity
  8
0
 62
     1
100
AcDbLine
 10
-10.189064
 20
-68.91973107173065
 30
0.0
 11
33.610939
 21
-68.91973107173065
 31
0.0
  0
SOLID
  5
9E0
330
8F2
100
AcDbEntity
  8
0
 62
     1
100
AcDbTrace
 10
-10.189064
 20
-68.33639773839732
 30
0.0
 11
-10.189064
 21
-69.50306440506397
 31
0.0
 12
-13.689064
 22
-68.91973107173065
 32
0.0
 13
-13.689064
 23
-68.91973107173065
 33
0.0
  0
SOLID
  5
9E1
330
8F2
100
AcDbEntity
  8
0
 62
     1
100
AcDbTrace
 10
33.610939
 20
-68.33639773839732
 30
0.0
 11
33.610939
 21
-69.50306440506397
 31
0.0
 12
37.110939
 22
-68.91973107173065
 32
0.0
 13
37.110939
 23
-68.91973107173065
 33
0.0
  0
MTEXT
  5
9E2
330
8F2
100
AcDbEntity
  8
0
 62
     1
100
AcDbMText
 10
11.7109375
 20
-66.16973107173065
 30
0.0
 40
3.5
 41
0.0
 71
     5
 72
     1
  1
50.80
1001
ACAD
1000
MTEXTBEGIN
1070
    73
1070
     1
1070
    44
1040
1.0
1070
    74
1070
     0
1000
MTEXTEND
1000
MTEXTBEGIN
1070
    73
1070
     1
1070
    44
1040
1.0
1070
    74
1070
     0
1000
MTEXTEND
1000
MTEXTBEGIN
1070
    73
1070
     1
1070
    44
1040
1.0
1070
    74
1070
     0
1000
MTEXTEND
1000
MTEXTBEGIN
1070
    73
1070
     1
1070
    44
1040
1.0
1070
    74
1070
     0
1000
MTEXTEND
1000
MTEXTBEGIN
1070
    73
1070
     1
1070
    44
1040
1.0
1070
    74
1070
     0
1000
MTEXTEND
  0
POINT
  5
9E3
330
8F2
100
AcDbEntity
  8
DEFPOINTS
 62
     0
100
AcDbPoint
 10
-13.689064
 20
-57.178436
 30
0.0
  0
POINT
  5
9E4
330
8F2
100
AcDbEntity
  8
DEFPOINTS
 62
     0
100
AcDbPoint
 10
37.110939
 20
-57.178436
 30
0.0
  0
POINT
  5
9E5
330
8F2
100
AcDbEntity
  8
DEFPOINTS
 62
     0
100
AcDbPoint
 10
37.110939
 20
-68.91973107173065
 30
0.0
  0
ENDBLK
  5
8FD
330
8F2
100
AcDbEntity
  8
0
100
AcDbBlockEnd
  0
BLOCK
  5
914
330
90A
100
AcDbEntity
  8
0
100
AcDbBlockBegin
  2
*D7
 70
     1
 10
0.0
 20
0.0
 30
0.0
  3
*D7
  1

  0
LINE
  5
A20
330
90A
100
AcDbEntity
  8
0
 62
     1
100
AcDbLine
 10
37.110939
 20
-30.178438
 30
0.0
 11
72.55411506486893
 21
-30.17843800000001
 31
0.0
  0
LINE
  5
A21
330
90A
100
AcDbEntity
  8
0
 62
     1
100
AcDbLine
 10
37.110939
 20
-53.17843599999999
 30
0.0
 11
72.55411506486892
 21
-53.17843599999999
 31
0.0
  0
LINE
  5
A22
330
90A
100
AcDbEntity
  8
0
 62
     1
100
AcDbLine
 10
71.05411506486892
 20
-33.67843800000001
 30
0.0
 11
71.05411506486892
 21
-49.678436
 31
0.0
  0
SOLID
  5
A23
330
90A
100
AcDbEntity
  8
0
 62
     1
100
AcDbTrace
 10
70.47078173153559
 20
-33.67843800000001
 30
0.0
 11
71.63744839820225
 21
-33.67843800000001
 31
0.0
 12
71.05411506486894
 22
-30.17843800000001
 32
0.0
 13
71.05411506486894
 23
-30.17843800000001
 33
0.0
  0
SOLID
  5
A24
330
90A
100
AcDbEntity
  8
0
 62
     1
100
AcDbTrace
 10
70.47078173153559
 20
-49.678436
 30
0.0
 11
71.63744839820225
 21
-49.678436
 31
0.0
 12
71.05411506486892
 22
-53.17843599999999
 32
0.0
 13
71.05411506486892
 23
-53.17843599999999
 33
0.0
  0
MTEXT
  5
A25
330
90A
100
AcDbEntity
  8
0
 62
     1
100
AcDbMText
 10
68.30411506486893
 20
-41.67843699999997
 30
0.0
 40
3.5
 41
0.0
 71
     5
 72
     1
  1
23.0
 11
0.0000000000000001
 21
1.0
 31
0.0
1001
ACAD
1000
MTEXTBEGIN
1070
    73
1070
     1
1070
    44
1040
1.0
1070
    74
1070
     0
1000
MTEXTEND
1000
MTEXTBEGIN
1070
    73
1070
     1
1070
    44
1040
1.0
1070
    74
1070
     0
1000
MTEXTEND
1000
MTEXTBEGIN
1070
    73
1070
     1
1070
    44
1040
1.0
1070
    74
1070
     0
1000
MTEXTEND
1000
MTEXTBEGIN
1070
    73
1070
     1
1070
    44
1040
1.0
1070
    74
1070
     0
1000
MTEXTEND
1000
MTEXTBEGIN
1070
    73
1070
     1
1070
    44
1040
1.0
1070
    74
1070
     0
1000
MTEXTEND
  0
POINT
  5
A26
330
90A
100
AcDbEntity
  8
DEFPOINTS
 62
     0
100
AcDbPoint
 10
37.110939
 20
-30.178438
 30
0.0
  0
POINT
  5
A27
330
90A
100
AcDbEntity
  8
DEFPOINTS
 62
     0
100
AcDbPoint
 10
37.110939
 20
-53.17843599999999
 30
0.0
  0
POINT
  5
A28
330
90A
100
AcDbEntity
  8
DEFPOINTS
 62
     0
100
AcDbPoint
 10
71.05411506486892
 20
-53.17843599999999
 30
0.0
  0
ENDBLK
  5
915
330
90A
100
AcDbEntity
  8
0
100
AcDbBlockEnd
  0
BLOCK
  5
A34
330
A2A
100
AcDbEntity
  8
0
100
AcDbBlockBegin
  2
*D8
 70
     1
 10
0.0
 20
0.0
 30
0.0
  3
*D8
  1

  0
LINE
  5
A53
330
A2A
100
AcDbEntity
  8
0
 62
     1
100
AcDbLine
 10
-13.689064
 20
-53.17843599999999
 30
0.0
 11
-49.69013352113327
 21
-53.17843599999998
 31
0.0
  0
LINE
  5
A54
330
A2A
100
AcDbEntity
  8
0
 62
     1
100
AcDbLine
 10
-13.689064
 20
-30.178438
 30
0.0
 11
-49.69013352113326
 21
-30.17843799999999
 31
0.0
  0
LINE
  5
A55
330
A2A
100
AcDbEntity
  8
0
 62
     1
100
AcDbLine
 10
-48.19013352113326
 20
-49.67843599999998
 30
0.0
 11
-48.19013352113326
 21
-33.67843799999996
 31
0.0
  0
SOLID
  5
A56
330
A2A
100
AcDbEntity
  8
0
 62
     1
100
AcDbTrace
 10
-48.7734668544666
 20
-49.67843599999998
 30
0.0
 11
-47.60680018779993
 21
-49.67843599999998
 31
0.0
 12
-48.19013352113326
 22
-53.17843599999998
 32
0.0
 13
-48.19013352113326
 23
-53.17843599999998
 33
0.0
  0
SOLID
  5
A57
330
A2A
100
AcDbEntity
  8
0
 62
     1
100
AcDbTrace
 10
-48.7734668544666
 20
-33.67843799999996
 30
0.0
 11
-47.60680018779992
 21
-33.67843799999999
 31
0.0
 12
-48.19013352113326
 22
-30.17843799999999
 32
0.0
 13
-48.19013352113326
 23
-30.17843799999999
 33
0.0
  0
MTEXT
  5
A58
330
A2A
100
AcDbEntity
  8
0
 62
     1
100
AcDbMText
 10
-50.94013352113325
 20
-41.67843699999997
 30
0.0
 40
3.5
 41
0.0
 71
     5
 72
     1
  1
23.0
 11
0.0000000000000001
 21
1.0
 31
0.0
1001
ACAD
1000
MTEXTBEGIN
1070
    73
1070
     1
1070
    44
1040
1.0
1070
    74
1070
     0
1000
MTEXTEND
1000
MTEXTBEGIN
1070
    73
1070
     1
1070
    44
1040
1.0
1070
    74
1070
     0
1000
MTEXTEND
1000
MTEXTBEGIN
1070
    73
1070
     1
1070
    44
1040
1.0
1070
    74
1070
     0
1000
MTEXTEND
1000
MTEXTBEGIN
1070
    73
1070
     1
1070
    44
1040
1.0
1070
    74
1070
     0
1000
MTEXTEND
1000
MTEXTBEGIN
1070
    73
1070
     1
1070
    44
1040
1.0
1070
    74
1070
     0
1000
MTEXTEND
  0
POINT
  5
A59
330
A2A
100
AcDbEntity
  8
DEFPOINTS
 62
     0
100
AcDbPoint
 10
-13.689064
 20
-53.17843599999999
 30
0.0
  0
POINT
  5
A5A
330
A2A
100
AcDbEntity
  8
DEFPOINTS
 62
     0
100
AcDbPoint
 10
-13.689064
 20
-30.178438
 30
0.0
  0
POINT
  5
A5B
330
A2A
100
AcDbEntity
  8
DEFPOINTS
 62
     0
100
AcDbPoint
 10
-48.19013352113326
 20
-30.17843799999999
 30
0.0
  0
ENDBLK
  5
A35
330
A2A
100
AcDbEntity
  8
0
100
AcDbBlockEnd
  0
ENDSEC
  0
SECTION
  2
ENTITIES
  0
TEXT
  5
733
330
1F
100
AcDbEntity
  8
0
  6
CONTINUOUS
 62
     7
100
AcDbText
 10
-28.114496
 20
73.70364599999998
 30
0.0
 40
4.8000002
  1

 41
0.8444833199999999
100
AcDbText
  0
ARC
  5
736
330
1F
100
AcDbEntity
  8
0
  6
CONTINUOUS
 62
     7
100
AcDbCircle
 10
37.110939
 20
-41.678436
 30
0.0
 40
14.29
100
AcDbArc
 50
233.5869399999999
 51
126.41306
  0
ARC
  5
737
330
1F
100
AcDbEntity
  8
0
  6
CONTINUOUS
 62
     7
100
AcDbCircle
 10
23.62093699999999
 20
25.461563
 30
0.0
 40
0.8000000099999999
100
AcDbArc
 50
90.00000300000001
 51
180.00001
  0
ARC
  5
738
330
1F
100
AcDbEntity
  8
0
  6
CONTINUOUS
 62
     7
100
AcDbCircle
 10
23.62093699999999
 20
11.181563
 30
0.0
 40
0.8000000099999999
100
AcDbArc
 50
179.9999899999999
 51
270.0
  0
ARC
  5
739
102
{ACAD_REACTORS
330
8D4
102
}
330
1F
100
AcDbEntity
  8
0
  6
CONTINUOUS
 62
     7
100
AcDbCircle
 10
50.600937
 20
11.181563
 30
0.0
 40
0.8000000099999999
100
AcDbArc
 50
270.0
 51
0.0
  0
ARC
  5
73A
102
{ACAD_REACTORS
330
8D4
102
}
330
1F
100
AcDbEntity
  8
0
  6
CONTINUOUS
 62
     7
100
AcDbCircle
 10
50.600937
 20
25.461563
 30
0.0
 40
0.8000000099999999
100
AcDbArc
 50
0.0
 51
90.00000300000001
  0
ARC
  5
73B
102
{ACAD_REACTORS
330
883
102
}
330
1F
100
AcDbEntity
  8
0
  6
CONTINUOUS
 62
     7
100
AcDbCircle
 10
-13.689064
 20
29.217525
 30
0.0
 40
7.404035999999997
100
AcDbArc
 50
46.81954700000001
 51
133.18045
  0
ARC
  5
73C
330
1F
100
AcDbEntity
  8
0
  6
CONTINUOUS
 62
     7
100
AcDbCircle
 10
-10.27656899999999
 20
-44.23854799999999
 30
0.0
 40
1.2479371
100
AcDbArc
 50
60.000002
 51
90.00000300000001
  0
ARC
  5
73D
330
1F
100
AcDbEntity
  8
0
  6
CONTINUOUS
 62
     7
100
AcDbCircle
 10
-10.053448
 20
-42.92637299999999
 30
0.0
 40
1.2479371
100
AcDbArc
 50
60.000002
 51
89.93374300000002
  0
ARC
  5
73E
330
1F
100
AcDbEntity
  8
0
  6
CONTINUOUS
 62
     7
100
AcDbCircle
 10
-19.42165
 20
-41.678436
 30
0.0
 40
0.93571097
100
AcDbArc
 50
34.85432199999999
 51
325.14566
  0
ARC
  5
73F
330
1F
100
AcDbEntity
  8
0
  6
CONTINUOUS
 62
     7
100
AcDbCircle
 10
-17.62973399999999
 20
-40.4305
 30
0.0
 40
1.2479371
100
AcDbArc
 50
214.85433
 51
270.0
  0
ARC
  5
740
330
1F
100
AcDbEntity
  8
0
  6
CONTINUOUS
 62
     7
100
AcDbCircle
 10
-19.42165
 20
-41.678436
 30
0.0
 40
2.183889899999999
100
AcDbArc
 50
46.658241
 51
313.34176
  0
ARC
  5
741
330
1F
100
AcDbEntity
  8
0
  6
CONTINUOUS
 62
     7
100
AcDbCircle
 10
-17.066223
 20
-39.18255999999999
 30
0.0
 40
1.2479371
100
AcDbArc
 50
226.65825
 51
252.64224
  0
ARC
  5
742
330
1F
100
AcDbEntity
  8
0
  6
CONTINUOUS
 62
     7
100
AcDbCircle
 10
-17.066223
 20
-44.174309
 30
0.0
 40
1.2479371
100
AcDbArc
 50
107.3577599999999
 51
133.3417499999999
  0
ARC
  5
743
330
1F
100
AcDbEntity
  8
0
  6
CONTINUOUS
 62
     7
100
AcDbCircle
 10
-17.62973399999999
 20
-42.92637299999999
 30
0.0
 40
1.2479371
100
AcDbArc
 50
90.00000300000001
 51
145.14567
  0
ARC
  5
744
330
1F
100
AcDbEntity
  8
0
  6
CONTINUOUS
 62
     7
100
AcDbCircle
 10
-10.27656899999999
 20
-39.118324
 30
0.0
 40
1.2479371
100
AcDbArc
 50
270.0
 51
300.0
  0
ARC
  5
745
330
1F
100
AcDbEntity
  8
0
  6
CONTINUOUS
 62
     7
100
AcDbCircle
 10
-10.053448
 20
-40.4305
 30
0.0
 40
1.2479371
100
AcDbArc
 50
269.93374
 51
300.0
  0
ARC
  5
746
330
1F
100
AcDbEntity
  8
0
  6
CONTINUOUS
 62
     7
100
AcDbCircle
 10
-13.689064
 20
-41.678436
 30
0.0
 40
3.97
100
AcDbArc
 50
42.622675
 51
317.3773299999997
  0
CIRCLE
  5
747
330
1F
100
AcDbEntity
  8
0
  6
CONTINUOUS
 62
     7
100
AcDbCircle
 10
37.110939
 20
-41.678436
 30
0.0
 40
5.5999999
  0
CIRCLE
  5
748
330
1F
100
AcDbEntity
  8
0
  6
CONTINUOUS
 62
     7
100
AcDbCircle
 10
37.110939
 20
-41.678436
 30
0.0
 40
3.97
  0
ARC
  5
749
330
1F
100
AcDbEntity
  8
0
  6
CONTINUOUS
 62
     7
100
AcDbCircle
 10
37.110939
 20
-41.678436
 30
0.0
 40
11.5
100
AcDbArc
 50
270.0
 51
90.00000300000001
  0
ARC
  5
74A
330
1F
100
AcDbEntity
  8
0
  6
CONTINUOUS
 62
     7
100
AcDbCircle
 10
-13.689064
 20
-41.678436
 30
0.0
 40
11.5
100
AcDbArc
 50
90.00000300000001
 51
270.0
  0
ARC
  5
74B
330
1F
100
AcDbEntity
  8
0
  6
CONTINUOUS
 62
     7
100
AcDbCircle
 10
-20.27583299999998
 20
0.7736257300000001
 30
0.0
 40
1.2479371
100
AcDbArc
 50
90.00000300000001
 51
270.0
  0
LINE
  5
74C
330
1F
100
AcDbEntity
  8
0
  6
CENTER
 62
     6
100
AcDbLine
 10
37.110939
 20
0.7029977861889165
 30
0.0
 11
37.110939
 21
35.238632
 31
0.0
  0
LINE
  5
74D
102
{ACAD_REACTORS
330
8A6
102
}
330
1F
100
AcDbEntity
  8
0
  6
CONTINUOUS
 62
     7
100
AcDbLine
 10
51.400936
 20
11.181563
 30
0.0
 11
51.400936
 21
25.461563
 31
0.0
  0
LINE
  5
74E
102
{ACAD_REACTORS
330
8A6
102
}
330
1F
100
AcDbEntity
  8
0
  6
CONTINUOUS
 62
     7
100
AcDbLine
 10
22.820938
 20
11.181563
 30
0.0
 11
22.820938
 21
25.461563
 31
0.0
  0
LINE
  5
74F
330
1F
100
AcDbEntity
  8
0
  6
CONTINUOUS
 62
     7
100
AcDbLine
 10
-10.767822
 20
-41.678436
 30
0.0
 11
-10.052004
 21
-41.678436
 31
0.0
  0
LINE
  5
750
330
1F
100
AcDbEntity
  8
0
  6
CONTINUOUS
 62
     7
100
AcDbLine
 10
-10.767822
 20
-42.99061199999999
 30
0.0
 11
-10.27656899999999
 21
-42.99061199999999
 31
0.0
  0
LINE
  5
751
330
1F
100
AcDbEntity
  8
0
  6
CONTINUOUS
 62
     7
100
AcDbLine
 10
-10.767822
 20
-40.366264
 30
0.0
 11
-10.27656899999999
 21
-40.366264
 31
0.0
  0
LINE
  5
752
330
1F
100
AcDbEntity
  8
0
  6
CENTER
 62
     6
100
AcDbLine
 10
-9.509136199999996
 20
-41.678436
 30
0.0
 11
54.564156
 21
-41.678436
 31
0.0
  0
LINE
  5
753
330
1F
100
AcDbEntity
  8
0
  6
CONTINUOUS
 62
     7
100
AcDbLine
 10
-10.767822
 20
-38.990082
 30
0.0
 11
-10.767822
 21
-44.366791
 31
0.0
  0
LINE
  5
754
330
1F
100
AcDbEntity
  8
0
  6
CONTINUOUS
 62
     7
100
AcDbLine
 10
-10.767822
 20
-2.578437099999999
 30
0.0
 11
-10.767822
 21
2.0265629
 31
0.0
  0
LINE
  5
755
330
1F
100
AcDbEntity
  8
0
  6
CONTINUOUS
 62
     7
100
AcDbLine
 10
23.993109
 20
-32.478438
 30
0.0
 11
23.993109
 21
-50.878436
 31
0.0
  0
LINE
  5
756
330
1F
100
AcDbEntity
  8
0
  6
CONTINUOUS
 62
     7
100
AcDbLine
 10
1.3806078
 20
2.026562699999999
 30
0.0
 11
23.993109
 21
6.381562699999999
 31
0.0
  0
LINE
  5
757
330
1F
100
AcDbEntity
  8
0
  6
CONTINUOUS
 62
     7
100
AcDbLine
 10
0.9989301000000001
 20
6.0265632
 30
0.0
 11
23.611429
 21
10.381563
 31
0.0
  0
LINE
  5
758
330
1F
100
AcDbEntity
  8
0
  6
CONTINUOUS
 62
     7
100
AcDbLine
 10
1.3806087
 20
34.616562
 30
0.0
 11
23.993109
 21
30.26156199999999
 31
0.0
  0
LINE
  5
759
330
1F
100
AcDbEntity
  8
0
  6
CONTINUOUS
 62
     7
100
AcDbLine
 10
0.9989300399999999
 20
30.61656199999999
 30
0.0
 11
23.611429
 21
26.261562
 31
0.0
  0
LINE
  5
75A
330
1F
100
AcDbEntity
  8
0
  6
CONTINUOUS
 62
     7
100
AcDbLine
 10
-4.294547099999999
 20
-44.810284
 30
0.0
 11
-4.918515199999998
 21
-45.89102899999999
 31
0.0
  0
LINE
  5
75B
330
1F
100
AcDbEntity
  8
0
  6
CONTINUOUS
 62
     7
100
AcDbLine
 10
-9.429478599999999
 20
-41.845631
 30
0.0
 11
-4.294547099999999
 21
-44.810284
 31
0.0
  0
LINE
  5
75C
330
1F
100
AcDbEntity
  8
0
  6
CONTINUOUS
 62
     7
100
AcDbLine
 10
-4.294547099999999
 20
-38.546593
 30
0.0
 11
-4.918515199999998
 21
-37.46584699999999
 31
0.0
  0
LINE
  5
75D
330
1F
100
AcDbEntity
  8
0
  6
CONTINUOUS
 62
     7
100
AcDbLine
 10
-9.429480599999999
 20
-41.511246
 30
0.0
 11
-4.294547099999999
 21
-38.546593
 31
0.0
  0
LINE
  5
75E
330
1F
100
AcDbEntity
  8
0
  6
CONTINUOUS
 62
     7
100
AcDbLine
 10
-9.6525993
 20
-43.157803
 30
0.0
 11
-4.918515199999998
 21
-45.89102899999999
 31
0.0
  0
LINE
  5
75F
330
1F
100
AcDbEntity
  8
0
  6
CONTINUOUS
 62
     7
100
AcDbLine
 10
-9.6525993
 20
-40.199074
 30
0.0
 11
-4.918515199999998
 21
-37.46584699999999
 31
0.0
  0
LINE
  5
760
102
{ACAD_REACTORS
330
A40
102
}
330
1F
100
AcDbEntity
  8
0
  6
CONTINUOUS
 62
     7
100
AcDbLine
 10
-13.689064
 20
-30.178438
 30
0.0
 11
37.110939
 21
-30.178438
 31
0.0
  0
LINE
  5
761
102
{ACAD_REACTORS
330
A40
102
}
330
1F
100
AcDbEntity
  8
0
  6
CONTINUOUS
 62
     7
100
AcDbLine
 10
-13.689064
 20
-53.17843599999999
 30
0.0
 11
37.110939
 21
-53.17843599999999
 31
0.0
  0
LINE
  5
762
102
{ACAD_REACTORS
330
908
102
}
330
1F
100
AcDbEntity
  8
0
  6
CENTER
 62
     6
100
AcDbLine
 10
37.110939
 20
-26.178438
 30
0.0
 11
37.110939
 21
-57.178436
 31
0.0
  0
LINE
  5
763
102
{ACAD_REACTORS
330
908
102
}
330
1F
100
AcDbEntity
  8
0
  6
CENTER
 62
     6
100
AcDbLine
 10
-13.689064
 20
-26.178438
 30
0.0
 11
-13.689064
 21
-57.178436
 31
0.0
  0
LINE
  5
764
330
1F
100
AcDbEntity
  8
0
  6
CENTER
 62
     6
100
AcDbLine
 10
-29.189064
 20
-41.678436
 30
0.0
 11
-10.767822
 21
-41.678436
 31
0.0
  0
LINE
  5
765
330
1F
100
AcDbEntity
  8
0
  6
CONTINUOUS
 62
     7
100
AcDbLine
 10
48.610939
 20
10.381563
 30
0.0
 11
48.610939
 21
6.381562699999999
 31
0.0
  0
LINE
  5
766
330
1F
100
AcDbEntity
  8
0
  6
CONTINUOUS
 62
     7
100
AcDbLine
 10
48.610939
 20
30.26156
 30
0.0
 11
48.610939
 21
26.261562
 31
0.0
  0
LINE
  5
767
330
1F
100
AcDbEntity
  8
0
  6
CONTINUOUS
 62
     7
100
AcDbLine
 10
-5.542373699999997
 20
-0.4743112400000002
 30
0.0
 11
-4.294436499999997
 21
0.7736259700000005
 31
0.0
  0
LINE
  5
768
330
1F
100
AcDbEntity
  8
0
  6
CONTINUOUS
 62
     7
100
AcDbLine
 10
-20.27583299999998
 20
-0.4743113900000001
 30
0.0
 11
-17.65906099999996
 21
-0.4743113900000001
 31
0.0
  0
LINE
  5
769
330
1F
100
AcDbEntity
  8
0
  6
CONTINUOUS
 62
     7
100
AcDbLine
 10
-4.294436499999997
 20
0.7736259700000005
 30
0.0
 11
-5.5423732
 21
2.021562499999995
 31
0.0
  0
LINE
  5
76A
330
1F
100
AcDbEntity
  8
0
  6
CONTINUOUS
 62
     7
100
AcDbLine
 10
-10.767822
 20
-0.4743113900000001
 30
0.0
 11
-5.5423732
 21
-0.4743113900000001
 31
0.0
  0
LINE
  5
76B
330
1F
100
AcDbEntity
  8
0
  6
CONTINUOUS
 62
     7
100
AcDbLine
 10
23.993109
 20
6.381562699999999
 30
0.0
 11
48.610939
 21
6.381562699999999
 31
0.0
  0
LINE
  5
76C
330
1F
100
AcDbEntity
  8
0
  6
CONTINUOUS
 62
     7
100
AcDbLine
 10
23.62093699999999
 20
26.261562
 30
0.0
 11
50.600937
 21
26.261562
 31
0.0
  0
LINE
  5
76D
102
{ACAD_REACTORS
330
8F0
102
}
330
1F
100
AcDbEntity
  8
0
  6
CONTINUOUS
 62
     7
100
AcDbLine
 10
23.993109
 20
30.26156
 30
0.0
 11
48.610939
 21
30.26156
 31
0.0
  0
LINE
  5
76E
330
1F
100
AcDbEntity
  8
0
  6
CONTINUOUS
 62
     7
100
AcDbLine
 10
23.62093699999999
 20
10.381563
 30
0.0
 11
50.600937
 21
10.381563
 31
0.0
  0
LINE
  5
76F
330
1F
100
AcDbEntity
  8
0
  6
CONTINUOUS
 62
     7
100
AcDbLine
 10
-25.189064
 20
6.021562699999997
 30
0.0
 11
0.99893034
 21
6.021562699999997
 31
0.0
  0
LINE
  5
770
330
1F
100
AcDbEntity
  8
0
  6
CONTINUOUS
 62
     7
100
AcDbLine
 10
-25.189064
 20
2.0215629
 30
0.0
 11
1.380608
 21
2.0215629
 31
0.0
  0
LINE
  5
771
330
1F
100
AcDbEntity
  8
0
  6
CONTINUOUS
 62
     7
100
AcDbLine
 10
-25.189064
 20
2.0215629
 30
0.0
 11
-25.189064
 21
6.021562699999997
 31
0.0
  0
LINE
  5
772
330
1F
100
AcDbEntity
  8
0
  6
CENTER
 62
     6
100
AcDbLine
 10
-25.189064
 20
18.321562
 30
0.0
 11
54.564156
 21
18.321562
 31
0.0
  0
LINE
  5
774
102
{ACAD_REACTORS
330
84F
102
}
330
1F
100
AcDbEntity
  8
0
  6
CONTINUOUS
 62
     7
100
AcDbLine
 10
-9.719062799999999
 20
30.62156399999999
 30
0.0
 11
-9.719062799999999
 21
6.0265627
 31
0.0
  0
LINE
  5
775
102
{ACAD_REACTORS
330
84F
102
}
330
1F
100
AcDbEntity
  8
0
  6
CONTINUOUS
 62
     7
100
AcDbLine
 10
-17.65906099999996
 20
30.62156399999999
 30
0.0
 11
-17.65906099999996
 21
6.0265627
 31
0.0
  0
LINE
  5
776
102
{ACAD_REACTORS
330
86B
102
}
330
1F
100
AcDbEntity
  8
0
  6
CONTINUOUS
 62
     7
100
AcDbLine
 10
-25.189064
 20
30.621564
 30
0.0
 11
0.99893034
 21
30.621564
 31
0.0
  0
LINE
  5
777
330
1F
100
AcDbEntity
  8
0
  6
CONTINUOUS
 62
     7
100
AcDbLine
 10
-25.189064
 20
30.621564
 30
0.0
 11
-25.189064
 21
34.62156599999998
 31
0.0
  0
LINE
  5
778
102
{ACAD_REACTORS
330
86B
102
}
330
1F
100
AcDbEntity
  8
0
  6
CONTINUOUS
 62
     7
100
AcDbLine
 10
-25.189064
 20
34.62156599999998
 30
0.0
 11
1.380608
 21
34.62156599999998
 31
0.0
  0
LINE
  5
779
102
{ACAD_REACTORS
330
883
102
}
330
1F
100
AcDbEntity
  8
0
  6
CENTER
 62
     6
100
AcDbLine
 10
-13.689064
 20
-5.973437299999997
 30
0.0
 11
-13.689064
 21
42.616566
 31
0.0
  0
LINE
  5
77A
330
1F
100
AcDbEntity
  8
0
  6
CONTINUOUS
 62
     7
100
AcDbLine
 10
-17.65906099999996
 20
-2.578437099999999
 30
0.0
 11
-17.65906099999996
 21
2.0265629
 31
0.0
  0
LINE
  5
77B
102
{ACAD_REACTORS
330
883
102
}
330
1F
100
AcDbEntity
  8
0
  6
CONTINUOUS
 62
     7
100
AcDbLine
 10
-17.65906099999996
 20
-2.578437099999999
 30
0.0
 11
-10.767822
 21
-2.578437099999999
 31
0.0
  0
DIMENSION
  5
834
102
{ACAD_XDICTIONARY
360
843
102
}
102
{ACAD_REACTORS
330
84F
102
}
330
1F
100
AcDbEntity
  8
0
100
AcDbDimension
  2
*D0
 10
-17.65906099999996
 20
10.59138623991717
 30
0.0
 11
5.2809372
 21
10.59138623991717
 31
0.0
 70
   160
  1
φ<>
  3
ISO-25
100
AcDbAlignedDimension
 13
-9.719062799999999
 23
6.0265627
 33
0.0
 14
-17.65906099999996
 24
6.0265627
 34
0.0
100
AcDbRotatedDimension
  0
DIMENSION
  5
850
102
{ACAD_XDICTIONARY
360
85F
102
}
102
{ACAD_REACTORS
330
86B
102
}
330
1F
100
AcDbEntity
  8
0
100
AcDbDimension
  2
*D1
 10
-38.02592653748274
 20
34.62156599999998
 30
0.0
 11
-40.77592653748275
 21
45.8298993333333
 31
0.0
 70
    32
  3
ISO-25
100
AcDbAlignedDimension
 13
-25.189064
 23
30.621564
 33
0.0
 14
-25.189064
 24
34.62156599999998
 34
0.0
 50
90.0
100
AcDbRotatedDimension
1001
ACAD
1000
DSTYLE
1002
{
1070
    78
1070
     0
1070
   271
1070
     1
1002
}
  0
DIMENSION
  5
86C
102
{ACAD_XDICTIONARY
360
879
102
}
102
{ACAD_REACTORS
330
883
102
}
330
1F
100
AcDbEntity
  8
0
100
AcDbDimension
  2
*D2
 10
-48.19013352113325
 20
36.621561
 30
0.0
 11
-50.94013352113325
 21
17.02156194999999
 31
0.0
 70
    32
  3
ISO-25
100
AcDbAlignedDimension
 13
-17.65906099999996
 23
-2.578437099999999
 33
0.0
 14
-13.689064
 24
36.621561
 34
0.0
 50
90.0
100
AcDbRotatedDimension
  0
DIMENSION
  5
88F
102
{ACAD_XDICTIONARY
360
89C
102
}
102
{ACAD_REACTORS
330
8A6
102
}
330
1F
100
AcDbEntity
  8
0
100
AcDbDimension
  2
*D3
 10
51.400936
 20
-8.601208475900705
 30
0.0
 11
37.110939
 21
-8.601208475900705
 31
0.0
 70
   160
  1
φ<>
  3
ISO-25
100
AcDbAlignedDimension
 13
22.820938
 23
11.181563
 33
0.0
 14
51.400936
 24
11.181563
 34
0.0
100
AcDbRotatedDimension
  0
DIMENSION
  5
8BD
102
{ACAD_XDICTIONARY
360
8CA
102
}
102
{ACAD_REACTORS
330
8D4
102
}
330
1F
100
AcDbEntity
  8
0
100
AcDbDimension
  2
*D4
 10
71.05411506486894
 20
26.26156300999998
 30
0.0
 11
68.30411506486893
 21
18.321563
 31
0.0
 70
    32
  3
ISO-25
100
AcDbAlignedDimension
 13
50.600937
 23
10.38156299
 33
0.0
 14
50.60093695811211
 24
26.26156300999999
 34
0.0
 50
90.0
100
AcDbRotatedDimension
  0
DIMENSION
  5
8D5
102
{ACAD_XDICTIONARY
360
8E4
102
}
102
{ACAD_REACTORS
330
8F0
102
}
330
1F
100
AcDbEntity
  8
0
100
AcDbDimension
  2
*D5
 10
71.05411506486894
 20
30.26155999999998
 30
0.0
 11
68.30411506486893
 21
41.46989333333332
 31
0.0
 70
    32
  3
ISO-25
100
AcDbAlignedDimension
 13
50.60093695811211
 23
26.26156300999999
 33
0.0
 14
48.610939
 24
30.26156
 34
0.0
 50
90.0
100
AcDbRotatedDimension
1001
ACAD
1000
DSTYLE
1002
{
1070
    78
1070
     0
1070
   271
1070
     1
1002
}
  0
DIMENSION
  5
8F1
102
{ACAD_XDICTIONARY
360
8FE
102
}
102
{ACAD_REACTORS
330
908
102
}
330
1F
100
AcDbEntity
  8
0
100
AcDbDimension
  2
*D6
 10
37.110939
 20
-68.91973107173065
 30
0.0
 11
11.7109375
 21
-66.16973107173065
 31
0.0
 70
    32
  3
ISO-25
100
AcDbAlignedDimension
 13
-13.689064
 23
-57.178436
 33
0.0
 14
37.110939
 24
-57.178436
 34
0.0
100
AcDbRotatedDimension
1001
ACAD
1000
DSTYLE
1002
{
1070
    78
1070
     0
1002
}
  0
DIMENSION
  5
A29
102
{ACAD_XDICTIONARY
360
A36
102
}
102
{ACAD_REACTORS
330
A40
102
}
330
1F
100
AcDbEntity
  8
0
100
AcDbDimension
  2
*D8
 10
-48.19013352113326
 20
-30.17843799999999
 30
0.0
 11
-50.94013352113325
 21
-41.67843699999997
 31
0.0
 70
    32
  3
ISO-25
100
AcDbAlignedDimension
 13
-13.689064
 23
-53.17843599999999
 33
0.0
 14
-13.689064
 24
-30.178438
 34
0.0
 50
90.0
100
AcDbRotatedDimension
1001
ACAD
1000
DSTYLE
1002
{
1070
   271
1070
     1
1070
    78
1070
     0
1002
}
  0
TEXT
  5
AF6
330
1F
100
AcDbEntity
  8
0
100
AcDbText
 10
50.90974273347604
 20
-77.85126001243695
 30
0.0
 40
1.3
  1
DATE2020.5.1
100
AcDbText
  0
ENDSEC
  0
SECTION
  2
OBJECTS
  0
DICTIONARY
  5
C
330
0
100
AcDbDictionary
  3
ACAD_GROUP
350
D
  3
ACAD_LAYOUT
350
1A
  3
ACAD_MLINESTYLE
350
17
  3
ACAD_PLOTSETTINGS
350
19
  3
ACAD_PLOTSTYLENAME
350
E
  3
ACDBHEADERROUNDTRIPXREC
350
B22
  3
ACDBVARIABLEDICTIONARY
350
2C
  0
DICTIONARY
  5
994
330
1F
100
AcDbDictionary
280
     1
  3
ACAD_LAYOUTSELFREF
360
B43
  0
DICTIONARY
  5
992
330
1B
100
AcDbDictionary
280
     1
  3
ACAD_LAYOUTSELFREF
360
B42
  0
DICTIONARY
  5
843
330
834
100
AcDbDictionary
280
     1
  3
ACAD_DIMASSOC
360
84F
  0
DICTIONARY
  5
85F
330
850
100
AcDbDictionary
280
     1
  3
ACAD_DIMASSOC
360
86B
  0
DICTIONARY
  5
879
330
86C
100
AcDbDictionary
280
     1
  3
ACAD_DIMASSOC
360
883
  0
DICTIONARY
  5
89C
330
88F
100
AcDbDictionary
280
     1
  3
ACAD_DIMASSOC
360
8A6
  0
DICTIONARY
  5
8CA
330
8BD
100
AcDbDictionary
280
     1
  3
ACAD_DIMASSOC
360
8D4
  0
DICTIONARY
  5
8E4
330
8D5
100
AcDbDictionary
280
     1
  3
ACAD_DIMASSOC
360
8F0
  0
DICTIONARY
  5
8FE
330
8F1
100
AcDbDictionary
280
     1
  3
ACAD_DIMASSOC
360
908
  0
DICTIONARY
  5
A36
330
A29
100
AcDbDictionary
280
     1
  3
ACAD_DIMASSOC
360
A40
  0
DICTIONARY
  5
D
102
{ACAD_REACTORS
330
C
102
}
330
C
100
AcDbDictionary
  0
DICTIONARY
  5
1A
102
{ACAD_REACTORS
330
C
102
}
330
C
100
AcDbDictionary
  0
DICTIONARY
  5
17
102
{ACAD_REACTORS
330
C
102
}
330
C
100
AcDbDictionary
  3
STANDARD
350
18
  0
DICTIONARY
  5
19
102
{ACAD_REACTORS
330
C
102
}
330
C
100
AcDbDictionary
  0
ACDBDICTIONARYWDFLT
  5
E
102
{ACAD_REACTORS
330
C
102
}
330
C
100
AcDbDictionary
281
     1
  3
Normal
350
F
100
AcDbDictionaryWithDefault
340
F
  0
DICTIONARY
  5
B22
102
{ACAD_REACTORS
330
C
102
}
330
C
100
AcDbDictionary
  3
CEPSNTYPE
350
B2C
  3
FINGERPRINTGUID
350
B2D
  3
HYPERLINKBASE
350
B25
  3
INSUNITS
350
B2B
  3
LAYOUTDICT
350
B27
  3
LWETCUNION
350
B2A
  3
PLOTSETDICT
350
B28
  3
PLOTSTYLNAMDICT
350
B29
  3
PSVPSCALE
350
B2F
  3
PUCSBASE
350
B32
  3
PUCSORGBACK
350
B38
  3
PUCSORGBOTTOM
350
B34
  3
PUCSORGFRONT
350
B37
  3
PUCSORGLEFT
350
B35
  3
PUCSORGRIGHT
350
B36
  3
PUCSORGTOP
350
B33
  3
PUCSORTHOREF
350
B30
  3
PUCSORTHOVIEW
350
B31
  3
STYLESHEET
350
B26
  3
TSTACKALIGN
350
B23
  3
TSTACKSIZE
350
B24
  3
UCSBASE
350
B3B
  3
UCSORGBACK
350
B41
  3
UCSORGBOTTOM
350
B3D
  3
UCSORGFRONT
350
B40
  3
UCSORGLEFT
350
B3E
  3
UCSORGRIGHT
350
B3F
  3
UCSORGTOP
350
B3C
  3
UCSORTHOREF
350
B39
  3
UCSORTHOVIEW
350
B3A
  3
VERSIONGUID
350
B2E
  0
DICTIONARY
  5
2C
102
{ACAD_REACTORS
330
C
102
}
330
C
100
AcDbDictionary
  3
DIMASSOC
350
2E
  3
HIDETEXT
350
2D
  0
XRECORD
  5
B43
102
{ACAD_REACTORS
330
994
102
}
330
994
100
AcDbXrecord
340
1F
  0
XRECORD
  5
B42
102
{ACAD_REACTORS
330
992
102
}
330
992
100
AcDbXrecord
340
1B
  0
DIMASSOC
  5
84F
102
{ACAD_REACTORS
330
843
102
}
330
843
100
AcDbDimAssoc
330
834
 90
        3
 70
     0
 71
     0
  1
AcDbOsnapPointRef
 72
     1
331
774
 73
     2
 91
        0
 40
1.0
 10
-9.719062799999999
 20
6.0265627
 30
0.0
 75
     0
  1
AcDbOsnapPointRef
 72
     1
331
775
 73
     2
 91
        0
 40
1.0
 10
-17.65906099999996
 20
6.0265627
 30
0.0
 75
     0
  0
DIMASSOC
  5
86B
102
{ACAD_REACTORS
330
85F
102
}
330
85F
100
AcDbDimAssoc
330
850
 90
        3
 70
     0
 71
     0
  1
AcDbOsnapPointRef
 72
    13
331
776
 73
     2
 91
        0
 40
0.0
 10
-25.189064
 20
30.621564
 30
0.0
 75
     0
  1
AcDbOsnapPointRef
 72
    13
331
778
 73
     2
 91
        0
 40
0.0
 10
-25.189064
 20
34.62156599999998
 30
0.0
 75
     0
  0
DIMASSOC
  5
883
102
{ACAD_REACTORS
330
879
102
}
330
879
100
AcDbDimAssoc
330
86C
 90
        3
 70
     0
 71
     0
  1
AcDbOsnapPointRef
 72
    13
331
77B
 73
     2
 91
        0
 40
0.0
 10
-17.65906099999996
 20
-2.578437099999999
 30
0.0
 75
     0
  1
AcDbOsnapPointRef
 72
     6
331
779
 73
     2
 91
        0
 40
0.8766206093260338
 10
-13.689064
 20
36.621561
 30
0.0
332
73B
 74
     2
 92
        0
 75
     0
  0
DIMASSOC
  5
8A6
102
{ACAD_REACTORS
330
89C
102
}
330
89C
100
AcDbDimAssoc
330
88F
 90
        3
 70
     0
 71
     0
  1
AcDbOsnapPointRef
 72
    13
331
74E
 73
     2
 91
        0
 40
0.0
 10
22.820938
 20
11.181563
 30
0.0
 75
     0
  1
AcDbOsnapPointRef
 72
    13
331
74D
 73
     2
 91
        0
 40
0.0
 10
51.400936
 20
11.181563
 30
0.0
 75
     0
  0
DIMASSOC
  5
8D4
102
{ACAD_REACTORS
330
8CA
102
}
330
8CA
100
AcDbDimAssoc
330
8BD
 90
        3
 70
     0
 71
     0
  1
AcDbOsnapPointRef
 72
    13
331
739
 73
     2
 91
        0
 40
4.712388980384688
 10
50.600937
 20
10.38156299
 30
0.0
 75
     0
  1
AcDbOsnapPointRef
 72
     1
331
73A
 73
     2
 91
        0
 40
1.570796379154771
 10
50.60093695811211
 20
26.26156300999999
 30
0.0
 75
     0
  0
DIMASSOC
  5
8F0
102
{ACAD_REACTORS
330
8E4
102
}
330
8E4
100
AcDbDimAssoc
330
8D5
 90
        2
 70
     0
 71
     0
  1
AcDbOsnapPointRef
 72
     1
331
76D
 73
     2
 91
        0
 40
1.0
 10
48.610939
 20
30.26156
 30
0.0
 75
     0
  0
DIMASSOC
  5
908
102
{ACAD_REACTORS
330
8FE
102
}
330
8FE
100
AcDbDimAssoc
330
8F1
 90
        3
 70
     0
 71
     0
  1
AcDbOsnapPointRef
 72
     1
331
763
 73
     2
 91
        0
 40
1.0
 10
-13.689064
 20
-57.178436
 30
0.0
 75
     0
  1
AcDbOsnapPointRef
 72
     1
331
762
 73
     2
 91
        0
 40
1.0
 10
37.110939
 20
-57.178436
 30
0.0
 75
     0
  0
DIMASSOC
  5
A40
102
{ACAD_REACTORS
330
A36
102
}
330
A36
100
AcDbDimAssoc
330
A29
 90
        3
 70
     0
 71
     0
  1
AcDbOsnapPointRef
 72
    13
331
761
 73
     2
 91
        0
 40
0.0
 10
-13.689064
 20
-53.17843599999999
 30
0.0
 75
     0
  1
AcDbOsnapPointRef
 72
    13
331
760
 73
     2
 91
        0
 40
0.0
 10
-13.689064
 20
-30.178438
 30
0.0
 75
     0
  0
MLINESTYLE
  5
18
102
{ACAD_REACTORS
330
17
102
}
330
17
100
AcDbMlineStyle
  2
STANDARD
 70
     0
  3

 62
   256
 51
90.0
 52
90.0
 71
     2
 49
0.5
 62
   256
  6
BYLAYER
 49
-0.5
 62
   256
  6
BYLAYER
  0
ACDBPLACEHOLDER
  5
F
102
{ACAD_REACTORS
330
E
102
}
330
E
100
AcDbPlaceHolder
280
     0
  0
XRECORD
  5
B2C
102
{ACAD_REACTORS
330
B22
102
}
330
B22
100
AcDbXrecord
 90
        0
  0
XRECORD
  5
B2D
102
{ACAD_REACTORS
330
B22
102
}
330
B22
100
AcDbXrecord
  1
{5B0931FC-56BC-4C5C-811F-96A4ED1ECC1B}
  0
XRECORD
  5
B25
102
{ACAD_REACTORS
330
B22
102
}
330
B22
100
AcDbXrecord
  1

  0
XRECORD
  5
B2B
102
{ACAD_REACTORS
330
B22
102
}
330
B22
100
AcDbXrecord
 90
        4
  0
XRECORD
  5
B27
102
{ACAD_REACTORS
330
B22
102
}
330
B22
100
AcDbXrecord
340
1A
  0
XRECORD
  5
B2A
102
{ACAD_REACTORS
330
B22
102
}
330
B22
100
AcDbXrecord
 90
    10781
  0
XRECORD
  5
B28
102
{ACAD_REACTORS
330
B22
102
}
330
B22
100
AcDbXrecord
340
19
  0
XRECORD
  5
B29
102
{ACAD_REACTORS
330
B22
102
}
330
B22
100
AcDbXrecord
340
E
  0
XRECORD
  5
B2F
102
{ACAD_REACTORS
330
B22
102
}
330
B22
100
AcDbXrecord
 40
0.0
  0
XRECORD
  5
B32
102
{ACAD_REACTORS
330
B22
102
}
330
B22
100
AcDbXrecord
340
0
  0
XRECORD
  5
B38
102
{ACAD_REACTORS
330
B22
102
}
330
B22
100
AcDbXrecord
 10
0.0
 20
0.0
 30
0.0
  0
XRECORD
  5
B34
102
{ACAD_REACTORS
330
B22
102
}
330
B22
100
AcDbXrecord
 10
0.0
 20
0.0
 30
0.0
  0
XRECORD
  5
B37
102
{ACAD_REACTORS
330
B22
102
}
330
B22
100
AcDbXrecord
 10
0.0
 20
0.0
 30
0.0
  0
XRECORD
  5
B35
102
{ACAD_REACTORS
330
B22
102
}
330
B22
100
AcDbXrecord
 10
0.0
 20
0.0
 30
0.0
  0
XRECORD
  5
B36
102
{ACAD_REACTORS
330
B22
102
}
330
B22
100
AcDbXrecord
 10
0.0
 20
0.0
 30
0.0
  0
XRECORD
  5
B33
102
{ACAD_REACTORS
330
B22
102
}
330
B22
100
AcDbXrecord
 10
0.0
 20
0.0
 30
0.0
  0
XRECORD
  5
B30
102
{ACAD_REACTORS
330
B22
102
}
330
B22
100
AcDbXrecord
340
0
  0
XRECORD
  5
B31
102
{ACAD_REACTORS
330
B22
102
}
330
B22
100
AcDbXrecord
 70
     0
  0
XRECORD
  5
B26
102
{ACAD_REACTORS
330
B22
102
}
330
B22
100
AcDbXrecord
  1
MONOCHROME.CTB
  0
XRECORD
  5
B23
102
{ACAD_REACTORS
330
B22
102
}
330
B22
100
AcDbXrecord
 90
        1
  0
XRECORD
  5
B24
102
{ACAD_REACTORS
330
B22
102
}
330
B22
100
AcDbXrecord
 90
       70
  0
XRECORD
  5
B3B
102
{ACAD_REACTORS
330
B22
102
}
330
B22
100
AcDbXrecord
340
0
  0
XRECORD
  5
B41
102
{ACAD_REACTORS
330
B22
102
}
330
B22
100
AcDbXrecord
 10
0.0
 20
0.0
 30
0.0
  0
XRECORD
  5
B3D
102
{ACAD_REACTORS
330
B22
102
}
330
B22
100
AcDbXrecord
 10
0.0
 20
0.0
 30
0.0
  0
XRECORD
  5
B40
102
{ACAD_REACTORS
330
B22
102
}
330
B22
100
AcDbXrecord
 10
0.0
 20
0.0
 30
0.0
  0
XRECORD
  5
B3E
102
{ACAD_REACTORS
330
B22
102
}
330
B22
100
AcDbXrecord
 10
0.0
 20
0.0
 30
0.0
  0
XRECORD
  5
B3F
102
{ACAD_REACTORS
330
B22
102
}
330
B22
100
AcDbXrecord
 10
0.0
 20
0.0
 30
0.0
  0
XRECORD
  5
B3C
102
{ACAD_REACTORS
330
B22
102
}
330
B22
100
AcDbXrecord
 10
0.0
 20
0.0
 30
0.0
  0
XRECORD
  5
B39
102
{ACAD_REACTORS
330
B22
102
}
330
B22
100
AcDbXrecord
340
0
  0
XRECORD
  5
B3A
102
{ACAD_REACTORS
330
B22
102
}
330
B22
100
AcDbXrecord
 70
     0
  0
XRECORD
  5
B2E
102
{ACAD_REACTORS
330
B22
102
}
330
B22
100
AcDbXrecord
  1
{4B5DBE17-1C0B-4B5A-9F93-ABD3DF5D171B}
  0
DICTIONARYVAR
  5
2E
102
{ACAD_REACTORS
330
2C
102
}
330
2C
100
DictionaryVariables
280
     0
  1
2
  0
DICTIONARYVAR
  5
2D
102
{ACAD_REACTORS
330
2C
102
}
330
2C
100
DictionaryVariables
280
     0
  1
1
  0
ENDSEC
  0
EOF
