  0
SECTION
  2
HEADER
  9
$ACADVER
  1
AC1014
  9
$ACADMAINTVER
 70
     9
  9
$DWGCODEPAGE
  3
ANSI_932
  9
$INSBASE
 10
0.0
 20
0.0
 30
0.0
  9
$EXTMIN
 10
-47.06806647525699
 20
-77.42861890494241
 30
0.0
  9
$EXTMAX
 10
49.76678730772662
 20
79.09903720000011
 30
0.0
  9
$LIMMIN
 10
0.0
 20
0.0
  9
$LIMMAX
 10
420.0
 20
297.0
  9
$ORTHOMODE
 70
     1
  9
$REGENMODE
 70
     1
  9
$FILLMODE
 70
     1
  9
$QTEXTMODE
 70
     0
  9
$MIRRTEXT
 70
     1
  9
$DRAGMODE
 70
     2
  9
$LTSCALE
 40
1.0
  9
$OSMODE
 70
    37
  9
$ATTMODE
 70
     1
  9
$TEXTSIZE
 40
2.5
  9
$TRACEWID
 40
1.0
  9
$TEXTSTYLE
  7
STANDARD
  9
$CLAYER
  8
0
  9
$CELTYPE
  6
BYLAYER
  9
$CECOLOR
 62
   256
  9
$CELTSCALE
 40
1.0
  9
$DELOBJ
 70
     1
  9
$DISPSILH
 70
     0
  9
$DIMSCALE
 40
1.0
  9
$DIMASZ
 40
3.0
  9
$DIMEXO
 40
0.0
  9
$DIMDLI
 40
3.75
  9
$DIMRND
 40
0.0
  9
$DIMDLE
 40
0.0
  9
$DIMEXE
 40
1.5
  9
$DIMTP
 40
0.0
  9
$DIMTM
 40
0.0
  9
$DIMTXT
 40
2.799999999999998
  9
$DIMCEN
 40
2.5
  9
$DIMTSZ
 40
0.0
  9
$DIMTOL
 70
     0
  9
$DIMLIM
 70
     0
  9
$DIMTIH
 70
     0
  9
$DIMTOH
 70
     0
  9
$DIMSE1
 70
     0
  9
$DIMSE2
 70
     0
  9
$DIMTAD
 70
     1
  9
$DIMZIN
 70
     8
  9
$DIMBLK
  1

  9
$DIMASO
 70
     1
  9
$DIMSHO
 70
     1
  9
$DIMPOST
  1

  9
$DIMAPOST
  1

  9
$DIMALT
 70
     0
  9
$DIMALTD
 70
     3
  9
$DIMALTF
 40
0.03937007874016
  9
$DIMLFAC
 40
1.0
  9
$DIMTOFL
 70
     1
  9
$DIMTVP
 40
0.0
  9
$DIMTIX
 70
     0
  9
$DIMSOXD
 70
     0
  9
$DIMSAH
 70
     0
  9
$DIMBLK1
  1

  9
$DIMBLK2
  1

  9
$DIMSTYLE
  2
ISO-25
  9
$DIMCLRD
 70
     1
  9
$DIMCLRE
 70
     1
  9
$DIMCLRT
 70
     1
  9
$DIMTFAC
 40
1.0
  9
$DIMGAP
 40
1.0
  9
$DIMJUST
 70
     0
  9
$DIMSD1
 70
     0
  9
$DIMSD2
 70
     0
  9
$DIMTOLJ
 70
     0
  9
$DIMTZIN
 70
     8
  9
$DIMALTZ
 70
     0
  9
$DIMALTTZ
 70
     0
  9
$DIMFIT
 70
     3
  9
$DIMUPT
 70
     0
  9
$DIMUNIT
 70
     2
  9
$DIMDEC
 70
     2
  9
$DIMTDEC
 70
     2
  9
$DIMALTU
 70
     2
  9
$DIMALTTD
 70
     3
  9
$DIMTXSTY
  7
STANDARD
  9
$DIMAUNIT
 70
     0
  9
$LUNITS
 70
     2
  9
$LUPREC
 70
     4
  9
$SKETCHINC
 40
1.0
  9
$FILLETRAD
 40
10.0
  9
$AUNITS
 70
     0
  9
$AUPREC
 70
     0
  9
$MENU
  1
.
  9
$ELEVATION
 40
0.0
  9
$PELEVATION
 40
0.0
  9
$THICKNESS
 40
0.0
  9
$LIMCHECK
 70
     0
  9
$BLIPMODE
 70
     0
  9
$CHAMFERA
 40
10.0
  9
$CHAMFERB
 40
10.0
  9
$CHAMFERC
 40
20.0
  9
$CHAMFERD
 40
0.0
  9
$SKPOLY
 70
     0
  9
$TDCREATE
 40
2453755.379305208
  9
$TDUPDATE
 40
2454530.577255497
  9
$TDINDWG
 40
0.0188053704
  9
$TDUSRTIMER
 40
0.0188047106
  9
$USRTIMER
 70
     1
  9
$ANGBASE
 50
0.0
  9
$ANGDIR
 70
     0
  9
$PDMODE
 70
     0
  9
$PDSIZE
 40
0.0
  9
$PLINEWID
 40
0.0
  9
$COORDS
 70
     1
  9
$SPLFRAME
 70
     0
  9
$SPLINETYPE
 70
     6
  9
$SPLINESEGS
 70
     8
  9
$ATTDIA
 70
     0
  9
$ATTREQ
 70
     1
  9
$HANDLING
 70
     1
  9
$HANDSEED
  5
AFD
  9
$SURFTAB1
 70
     6
  9
$SURFTAB2
 70
     6
  9
$SURFTYPE
 70
     6
  9
$SURFU
 70
     6
  9
$SURFV
 70
     6
  9
$UCSNAME
  2

  9
$UCSORG
 10
0.0
 20
0.0
 30
0.0
  9
$UCSXDIR
 10
1.0
 20
0.0
 30
0.0
  9
$UCSYDIR
 10
0.0
 20
1.0
 30
0.0
  9
$PUCSNAME
  2

  9
$PUCSORG
 10
0.0
 20
0.0
 30
0.0
  9
$PUCSXDIR
 10
1.0
 20
0.0
 30
0.0
  9
$PUCSYDIR
 10
0.0
 20
1.0
 30
0.0
  9
$USERI1
 70
     0
  9
$USERI2
 70
     0
  9
$USERI3
 70
     0
  9
$USERI4
 70
     0
  9
$USERI5
 70
     0
  9
$USERR1
 40
0.0
  9
$USERR2
 40
0.0
  9
$USERR3
 40
0.0
  9
$USERR4
 40
0.0
  9
$USERR5
 40
0.0
  9
$WORLDVIEW
 70
     1
  9
$SHADEDGE
 70
     3
  9
$SHADEDIF
 70
    70
  9
$TILEMODE
 70
     1
  9
$MAXACTVP
 70
    64
  9
$PINSBASE
 10
0.0
 20
0.0
 30
0.0
  9
$PLIMCHECK
 70
     0
  9
$PEXTMIN
 10
1.000000000000000E+20
 20
1.000000000000000E+20
 30
1.000000000000000E+20
  9
$PEXTMAX
 10
-1.000000000000000E+20
 20
-1.000000000000000E+20
 30
-1.000000000000000E+20
  9
$PLIMMIN
 10
0.0
 20
0.0
  9
$PLIMMAX
 10
420.0
 20
297.0
  9
$UNITMODE
 70
     0
  9
$VISRETAIN
 70
     1
  9
$PLINEGEN
 70
     0
  9
$PSLTSCALE
 70
     1
  9
$TREEDEPTH
 70
  3020
  9
$PICKSTYLE
 70
     1
  9
$CMLSTYLE
  2
STANDARD
  9
$CMLJUST
 70
     0
  9
$CMLSCALE
 40
20.0
  9
$PROXYGRAPHICS
 70
     1
  9
$MEASUREMENT
 70
     1
  0
ENDSEC
  0
SECTION
  2
CLASSES
  0
CLASS
  1
ACDBDICTIONARYWDFLT
  2
AcDbDictionaryWithDefault
  3
AutoCAD 2000
 90
        0
280
     0
281
     0
  0
CLASS
  1
ACDBPLACEHOLDER
  2
AcDbPlaceHolder
  3
AutoCAD 2000
 90
        0
280
     0
281
     0
  0
CLASS
  1
LAYOUT
  2
AcDbLayout
  3
AutoCAD 2000
 90
        0
280
     0
281
     0
  0
CLASS
  1
DICTIONARYVAR
  2
AcDbDictionaryVar
  3
AutoCAD 2000
 90
        0
280
     0
281
     0
  0
CLASS
  1
DIMASSOC
  2
AcDbDimAssoc
  3
"AcDbDimAssoc|Product Desc:     AcDim ARX App For Dimension|Company:          Autodesk, Inc.|WEB Address:      www.autodesk.com"
 90
        0
280
     0
281
     0
  0
CLASS
  1
LONG_TRANSACTION
  2
AcDbLongTransaction
  3
AutoCAD 2000
 90
        0
280
     0
281
     0
  0
CLASS
  1
LWPOLYLINE
  2
AcDbPolyline
  3
AutoCAD 2000
 90
        0
280
     0
281
     1
  0
CLASS
  1
HATCH
  2
AcDbHatch
  3
AutoCAD 2000
 90
        0
280
     0
281
     1
  0
CLASS
  1
XRECORD
  2
AcDbXrecord
  3
AutoCAD 2000
 90
        0
280
     0
281
     0
  0
CLASS
  1
LONG_TRANSACTION
  2
AcDbLongTransaction
  3
AutoCAD 2000
 90
        0
280
     0
281
     0
  0
CLASS
  1
LWPOLYLINE
  2
AcDbPolyline
  3
AutoCAD 2000
 90
        0
280
     0
281
     1
  0
CLASS
  1
HATCH
  2
AcDbHatch
  3
AutoCAD 2000
 90
        0
280
     0
281
     1
  0
CLASS
  1
XRECORD
  2
AcDbXrecord
  3
AutoCAD 2000
 90
        0
280
     0
281
     0
  0
CLASS
  1
LONG_TRANSACTION
  2
AcDbLongTransaction
  3
AutoCAD 2000
 90
        0
280
     0
281
     0
  0
CLASS
  1
LWPOLYLINE
  2
AcDbPolyline
  3
AutoCAD 2000
 90
        0
280
     0
281
     1
  0
CLASS
  1
HATCH
  2
AcDbHatch
  3
AutoCAD 2000
 90
        0
280
     0
281
     1
  0
CLASS
  1
XRECORD
  2
AcDbXrecord
  3
AutoCAD 2000
 90
        0
280
     0
281
     0
  0
CLASS
  1
LONG_TRANSACTION
  2
AcDbLongTransaction
  3
AutoCAD 2000
 90
        0
280
     0
281
     0
  0
CLASS
  1
LWPOLYLINE
  2
AcDbPolyline
  3
AutoCAD 2000
 90
        0
280
     0
281
     1
  0
CLASS
  1
HATCH
  2
AcDbHatch
  3
AutoCAD 2000
 90
        0
280
     0
281
     1
  0
CLASS
  1
XRECORD
  2
AcDbXrecord
  3
AutoCAD 2000
 90
        0
280
     0
281
     0
  0
CLASS
  1
LONG_TRANSACTION
  2
AcDbLongTransaction
  3
AutoCAD 2000
 90
        0
280
     0
281
     0
  0
CLASS
  1
LWPOLYLINE
  2
AcDbPolyline
  3
AutoCAD 2000
 90
        0
280
     0
281
     1
  0
CLASS
  1
HATCH
  2
AcDbHatch
  3
AutoCAD 2000
 90
        0
280
     0
281
     1
  0
CLASS
  1
XRECORD
  2
AcDbXrecord
  3
AutoCAD 2000
 90
        0
280
     0
281
     0
  0
CLASS
  1
LONG_TRANSACTION
  2
AcDbLongTransaction
  3
AutoCAD 2000
 90
        0
280
     0
281
     0
  0
CLASS
  1
LWPOLYLINE
  2
AcDbPolyline
  3
AutoCAD 2000
 90
        0
280
     0
281
     1
  0
CLASS
  1
HATCH
  2
AcDbHatch
  3
AutoCAD 2000
 90
        0
280
     0
281
     1
  0
CLASS
  1
XRECORD
  2
AcDbXrecord
  3
AutoCAD 2000
 90
        0
280
     0
281
     0
  0
ENDSEC
  0
SECTION
  2
TABLES
  0
TABLE
  2
VPORT
  5
8
330
0
100
AcDbSymbolTable
 70
     2
  0
VPORT
  5
ADA
330
8
100
AcDbSymbolTableRecord
100
AcDbViewportTableRecord
  2
*ACTIVE
 70
     0
 10
0.0
 20
0.0
 11
1.0
 21
1.0
 12
1.343986893504649
 22
7.231981004108561
 13
0.0
 23
0.0
 14
10.0
 24
10.0
 15
10.0
 25
10.0
 16
0.0
 26
0.0
 36
1.0
 17
0.0
 27
0.0
 37
0.0
 40
171.1903764084738
 41
1.662983425414364
 42
50.0
 43
0.0
 44
0.0
 50
0.0
 51
0.0
 71
     0
 72
   100
 73
     1
 74
     3
 75
     0
 76
     0
 77
     0
 78
     0
  0
ENDTAB
  0
TABLE
  2
LTYPE
  5
5
330
0
100
AcDbSymbolTable
 70
     2
  0
LTYPE
  5
14
330
5
100
AcDbSymbolTableRecord
100
AcDbLinetypeTableRecord
  2
BYBLOCK
 70
     0
  3

 72
    65
 73
     0
 40
0.0
  0
LTYPE
  5
15
330
5
100
AcDbSymbolTableRecord
100
AcDbLinetypeTableRecord
  2
BYLAYER
 70
     0
  3

 72
    65
 73
     0
 40
0.0
  0
LTYPE
  5
16
330
5
100
AcDbSymbolTableRecord
100
AcDbLinetypeTableRecord
  2
CONTINUOUS
 70
     0
  3
Solid line
 72
    65
 73
     0
 40
0.0
  0
LTYPE
  5
F4
330
5
100
AcDbSymbolTableRecord
100
AcDbLinetypeTableRecord
  2
CENTER
 70
     0
  3
____ _ ____ _ ____ _ ____ _ ____ _ ____ _ ____
 72
    65
 73
     4
 40
17.5
 49
13.0
 74
     0
 49
-1.5
 74
     0
 49
1.5
 74
     0
 49
-1.5
 74
     0
  0
ENDTAB
  0
TABLE
  2
LAYER
  5
2
330
0
100
AcDbSymbolTable
 70
     2
  0
LAYER
  5
10
330
2
100
AcDbSymbolTableRecord
100
AcDbLayerTableRecord
  2
0
 70
     0
 62
     7
  6
CONTINUOUS
  0
LAYER
  5
F5
330
2
100
AcDbSymbolTableRecord
100
AcDbLayerTableRecord
  2
DEFPOINTS
 70
     0
 62
     7
  6
CONTINUOUS
  0
ENDTAB
  0
TABLE
  2
STYLE
  5
3
330
0
100
AcDbSymbolTable
 70
     1
  0
STYLE
  5
11
330
3
100
AcDbSymbolTableRecord
100
AcDbTextStyleTableRecord
  2
STANDARD
 70
     0
 40
0.0
 41
1.0
 50
0.0
 71
     0
 42
2.5
  3
txt.shx
  4
bigfont.shx
  0
ENDTAB
  0
TABLE
  2
VIEW
  5
6
330
0
100
AcDbSymbolTable
 70
     0
  0
ENDTAB
  0
TABLE
  2
UCS
  5
7
330
0
100
AcDbSymbolTable
 70
     0
  0
ENDTAB
  0
TABLE
  2
APPID
  5
9
330
0
100
AcDbSymbolTable
 70
     1
  0
APPID
  5
12
330
9
100
AcDbSymbolTableRecord
100
AcDbRegAppTableRecord
  2
ACAD
 70
     0
  0
ENDTAB
  0
TABLE
  2
DIMSTYLE
  5
A
330
0
100
AcDbSymbolTable
 70
     1
  0
DIMSTYLE
105
27
102
{ACAD_REACTORS
330
809
330
825
330
83D
330
86B
330
883
330
89F
330
9E2
102
}
330
A
100
AcDbSymbolTableRecord
100
AcDbDimStyleTableRecord
  2
ISO-25
 70
     0
  3

  4

  5

  6

  7

 40
1.0
 41
3.0
 42
0.0
 43
3.75
 44
1.5
 45
0.0
 46
0.0
 47
0.0
 48
0.0
140
2.799999999999998
141
2.5
142
0.0
143
0.03937007874016
144
1.0
145
0.0
146
1.0
147
1.0
 71
     0
 72
     0
 73
     0
 74
     0
 75
     0
 76
     0
 77
     1
 78
     8
170
     0
171
     3
172
     1
173
     0
174
     0
175
     0
176
     1
177
     1
178
     1
270
     2
271
     2
272
     2
273
     2
274
     3
340
11
275
     0
280
     0
281
     0
282
     0
283
     0
284
     8
285
     0
286
     0
287
     3
288
     0
  0
ENDTAB
  0
TABLE
  2
BLOCK_RECORD
  5
1
330
0
100
AcDbSymbolTable
 70
     8
  0
BLOCK_RECORD
  5
1F
102
{ACAD_XDICTIONARY
360
965
102
}
330
1
100
AcDbSymbolTableRecord
100
AcDbBlockTableRecord
  2
*MODEL_SPACE
  0
BLOCK_RECORD
  5
1B
102
{ACAD_XDICTIONARY
360
963
102
}
330
1
100
AcDbSymbolTableRecord
100
AcDbBlockTableRecord
  2
*PAPER_SPACE
  0
BLOCK_RECORD
  5
80A
330
1
100
AcDbSymbolTableRecord
100
AcDbBlockTableRecord
  2
*D0
  0
BLOCK_RECORD
  5
826
330
1
100
AcDbSymbolTableRecord
100
AcDbBlockTableRecord
  2
*D1
  0
BLOCK_RECORD
  5
83E
330
1
100
AcDbSymbolTableRecord
100
AcDbBlockTableRecord
  2
*D2
  0
BLOCK_RECORD
  5
86C
330
1
100
AcDbSymbolTableRecord
100
AcDbBlockTableRecord
  2
*D3
  0
BLOCK_RECORD
  5
884
330
1
100
AcDbSymbolTableRecord
100
AcDbBlockTableRecord
  2
*D4
  0
BLOCK_RECORD
  5
8A0
330
1
100
AcDbSymbolTableRecord
100
AcDbBlockTableRecord
  2
*D5
  0
BLOCK_RECORD
  5
8B8
330
1
100
AcDbSymbolTableRecord
100
AcDbBlockTableRecord
  2
*D6
  0
BLOCK_RECORD
  5
9E3
330
1
100
AcDbSymbolTableRecord
100
AcDbBlockTableRecord
  2
*D7
  0
ENDTAB
  0
ENDSEC
  0
SECTION
  2
BLOCKS
  0
BLOCK
  5
20
330
1F
100
AcDbEntity
  8
0
100
AcDbBlockBegin
  2
*MODEL_SPACE
 70
     0
 10
0.0
 20
0.0
 30
0.0
  3
*MODEL_SPACE
  1

  0
ENDBLK
  5
21
330
1F
100
AcDbEntity
  8
0
100
AcDbBlockEnd
  0
BLOCK
  5
1C
330
1B
100
AcDbEntity
 67
     1
  8
0
100
AcDbBlockBegin
  2
*PAPER_SPACE
 70
     0
 10
0.0
 20
0.0
 30
0.0
  3
*PAPER_SPACE
  1

  0
ENDBLK
  5
1D
330
1B
100
AcDbEntity
 67
     1
  8
0
100
AcDbBlockEnd
  0
BLOCK
  5
816
330
80A
100
AcDbEntity
  8
0
100
AcDbBlockBegin
  2
*D0
 70
     1
 10
0.0
 20
0.0
 30
0.0
  3
*D0
  1

  0
LINE
  5
A2F
330
80A
100
AcDbEntity
  8
0
 62
     1
100
AcDbLine
 10
-21.07624799999999
 20
2.7749331
 30
0.0
 11
-21.07624799999999
 21
8.998678450035411
 31
0.0
  0
LINE
  5
A30
330
80A
100
AcDbEntity
  8
0
 62
     1
100
AcDbLine
 10
-27.03624699999998
 20
2.7749331
 30
0.0
 11
-27.03624699999998
 21
8.998678450035411
 31
0.0
  0
LINE
  5
A31
330
80A
100
AcDbEntity
  8
0
 62
     1
100
AcDbLine
 10
-30.03624699999998
 20
7.498678450035412
 30
0.0
 11
-33.03624699999998
 21
7.498678450035412
 31
0.0
  0
LINE
  5
A32
330
80A
100
AcDbEntity
  8
0
 62
     1
100
AcDbLine
 10
-18.07624799999999
 20
7.498678450035412
 30
0.0
 11
-1.876247999999995
 21
7.498678450035412
 31
0.0
  0
LINE
  5
A33
330
80A
100
AcDbEntity
  8
0
 62
     1
100
AcDbLine
 10
-27.03624699999998
 20
7.498678450035412
 30
0.0
 11
-21.07624799999999
 21
7.498678450035412
 31
0.0
  0
SOLID
  5
A34
330
80A
100
AcDbEntity
  8
0
 62
     1
100
AcDbTrace
 10
-30.03624699999998
 20
7.998678450035412
 30
0.0
 11
-30.03624699999998
 21
6.998678450035412
 31
0.0
 12
-27.03624699999998
 22
7.498678450035412
 32
0.0
 13
-27.03624699999998
 23
7.498678450035412
 33
0.0
  0
SOLID
  5
A35
330
80A
100
AcDbEntity
  8
0
 62
     1
100
AcDbTrace
 10
-18.07624799999999
 20
7.998678450035412
 30
0.0
 11
-18.07624799999999
 21
6.998678450035412
 31
0.0
 12
-21.07624799999999
 22
7.498678450035412
 32
0.0
 13
-21.07624799999999
 23
7.498678450035412
 33
0.0
  0
MTEXT
  5
A36
330
80A
100
AcDbEntity
  8
0
 62
     1
100
AcDbMText
 10
-8.476247999999991
 20
9.898678450035411
 30
0.0
 40
2.799999999999998
 41
0.0
 71
     5
 72
     1
  1
φ5.96
1001
ACAD
1000
MTEXTBEGIN
1070
    73
1070
     1
1070
    44
1040
1.0
1070
    74
1070
     0
1000
MTEXTEND
1000
MTEXTBEGIN
1070
    73
1070
     1
1070
    44
1040
1.0
1070
    74
1070
     0
1000
MTEXTEND
1000
MTEXTBEGIN
1070
    73
1070
     1
1070
    44
1040
1.0
1070
    74
1070
     0
1000
MTEXTEND
1000
MTEXTBEGIN
1070
    73
1070
     1
1070
    44
1040
1.0
1070
    74
1070
     0
1000
MTEXTEND
  0
POINT
  5
A37
330
80A
100
AcDbEntity
  8
DEFPOINTS
 62
     0
100
AcDbPoint
 10
-21.07624799999999
 20
2.7749331
 30
0.0
  0
POINT
  5
A38
330
80A
100
AcDbEntity
  8
DEFPOINTS
 62
     0
100
AcDbPoint
 10
-27.03624699999998
 20
2.7749331
 30
0.0
  0
POINT
  5
A39
330
80A
100
AcDbEntity
  8
DEFPOINTS
 62
     0
100
AcDbPoint
 10
-27.03624699999998
 20
7.498678450035412
 30
0.0
  0
ENDBLK
  5
817
330
80A
100
AcDbEntity
  8
0
100
AcDbBlockEnd
  0
BLOCK
  5
830
330
826
100
AcDbEntity
  8
0
100
AcDbBlockBegin
  2
*D1
 70
     1
 10
0.0
 20
0.0
 30
0.0
  3
*D1
  1

  0
LINE
  5
A64
330
826
100
AcDbEntity
  8
0
 62
     1
100
AcDbLine
 10
-26.31625399999999
 20
27.234934
 30
0.0
 11
-44.76806647525699
 21
27.234934
 31
0.0
  0
LINE
  5
A65
330
826
100
AcDbEntity
  8
0
 62
     1
100
AcDbLine
 10
-27.03624699999998
 20
-4.265068099999997
 30
0.0
 11
-44.76806647525699
 21
-4.26506809999999
 31
0.0
  0
LINE
  5
A66
330
826
100
AcDbEntity
  8
0
 62
     1
100
AcDbLine
 10
-43.26806647525699
 20
24.23493399999999
 30
0.0
 11
-43.26806647525699
 21
-1.26506809999999
 31
0.0
  0
SOLID
  5
A67
330
826
100
AcDbEntity
  8
0
 62
     1
100
AcDbTrace
 10
-43.76806647525699
 20
24.23493399999999
 30
0.0
 11
-42.76806647525699
 21
24.23493399999999
 31
0.0
 12
-43.26806647525699
 22
27.234934
 32
0.0
 13
-43.26806647525699
 23
27.234934
 33
0.0
  0
SOLID
  5
A68
330
826
100
AcDbEntity
  8
0
 62
     1
100
AcDbTrace
 10
-43.76806647525699
 20
-1.26506809999999
 30
0.0
 11
-42.768066475257
 21
-1.26506809999999
 31
0.0
 12
-43.26806647525699
 22
-4.26506809999999
 32
0.0
 13
-43.26806647525699
 23
-4.26506809999999
 33
0.0
  0
MTEXT
  5
A69
330
826
100
AcDbEntity
  8
0
 62
     1
100
AcDbMText
 10
-45.668066475257
 20
11.48493294999999
 30
0.0
 40
2.799999999999998
 41
0.0
 71
     5
 72
     1
  1
31.5
 11
0.0000000000000001
 21
1.0
 31
0.0
1001
ACAD
1000
MTEXTBEGIN
1070
    73
1070
     1
1070
    44
1040
1.0
1070
    74
1070
     0
1000
MTEXTEND
1000
MTEXTBEGIN
1070
    73
1070
     1
1070
    44
1040
1.0
1070
    74
1070
     0
1000
MTEXTEND
1000
MTEXTBEGIN
1070
    73
1070
     1
1070
    44
1040
1.0
1070
    74
1070
     0
1000
MTEXTEND
  0
POINT
  5
A6A
330
826
100
AcDbEntity
  8
DEFPOINTS
 62
     0
100
AcDbPoint
 10
-26.31625399999999
 20
27.234934
 30
0.0
  0
POINT
  5
A6B
330
826
100
AcDbEntity
  8
DEFPOINTS
 62
     0
100
AcDbPoint
 10
-27.03624699999998
 20
-4.265068099999997
 30
0.0
  0
POINT
  5
A6C
330
826
100
AcDbEntity
  8
DEFPOINTS
 62
     0
100
AcDbPoint
 10
-43.26806647525699
 20
-4.26506809999999
 30
0.0
  0
ENDBLK
  5
831
330
826
100
AcDbEntity
  8
0
100
AcDbBlockEnd
  0
BLOCK
  5
848
330
83E
100
AcDbEntity
  8
0
100
AcDbBlockBegin
  2
*D2
 70
     1
 10
0.0
 20
0.0
 30
0.0
  3
*D2
  1

  0
LINE
  5
996
330
83E
100
AcDbEntity
  8
0
 62
     1
100
AcDbLine
 10
2.9287562
 20
6.9349365
 30
0.0
 11
2.928756199999998
 21
-11.3978677421775
 31
0.0
  0
LINE
  5
997
330
83E
100
AcDbEntity
  8
0
 62
     1
100
AcDbLine
 10
25.158661
 20
6.9349365
 30
0.0
 11
25.158661
 21
-11.3978677421775
 31
0.0
  0
LINE
  5
998
330
83E
100
AcDbEntity
  8
0
 62
     1
100
AcDbLine
 10
5.928756199999997
 20
-9.897867742177536
 30
0.0
 11
22.15866099999999
 21
-9.897867742177536
 31
0.0
  0
SOLID
  5
999
330
83E
100
AcDbEntity
  8
0
 62
     1
100
AcDbTrace
 10
5.928756199999997
 20
-9.397867742177536
 30
0.0
 11
5.928756199999997
 21
-10.39786774217754
 31
0.0
 12
2.928756199999998
 22
-9.897867742177536
 32
0.0
 13
2.928756199999998
 23
-9.897867742177536
 33
0.0
  0
SOLID
  5
99A
330
83E
100
AcDbEntity
  8
0
 62
     1
100
AcDbTrace
 10
22.15866099999999
 20
-9.397867742177536
 30
0.0
 11
22.15866099999999
 21
-10.39786774217754
 31
0.0
 12
25.158661
 22
-9.897867742177536
 32
0.0
 13
25.158661
 23
-9.897867742177536
 33
0.0
  0
MTEXT
  5
99B
330
83E
100
AcDbEntity
  8
0
 62
     1
100
AcDbMText
 10
13.72465366441051
 20
-7.497867742177537
 30
0.0
 40
2.799999999999998
 41
0.0
 71
     5
 72
     1
  1
φ22.23
1001
ACAD
1000
MTEXTBEGIN
1070
    73
1070
     1
1070
    44
1040
1.0
1070
    74
1070
     0
1000
MTEXTEND
1000
MTEXTBEGIN
1070
    73
1070
     1
1070
    44
1040
1.0
1070
    74
1070
     0
1000
MTEXTEND
1000
MTEXTBEGIN
1070
    73
1070
     1
1070
    44
1040
1.0
1070
    74
1070
     0
1000
MTEXTEND
1000
MTEXTBEGIN
1070
    73
1070
     1
1070
    44
1040
1.0
1070
    74
1070
     0
1000
MTEXTEND
1000
MTEXTBEGIN
1070
    73
1070
     1
1070
    44
1040
1.0
1070
    74
1070
     0
1000
MTEXTEND
  0
POINT
  5
99C
330
83E
100
AcDbEntity
  8
DEFPOINTS
 62
     0
100
AcDbPoint
 10
2.9287562
 20
6.9349365
 30
0.0
  0
POINT
  5
99D
330
83E
100
AcDbEntity
  8
DEFPOINTS
 62
     0
100
AcDbPoint
 10
25.158661
 20
6.9349365
 30
0.0
  0
POINT
  5
99E
330
83E
100
AcDbEntity
  8
DEFPOINTS
 62
     0
100
AcDbPoint
 10
25.158661
 20
-9.897867742177536
 30
0.0
  0
ENDBLK
  5
849
330
83E
100
AcDbEntity
  8
0
100
AcDbBlockEnd
  0
BLOCK
  5
876
330
86C
100
AcDbEntity
  8
0
100
AcDbBlockBegin
  2
*D3
 70
     1
 10
0.0
 20
0.0
 30
0.0
  3
*D3
  1

  0
LINE
  5
9C5
330
86C
100
AcDbEntity
  8
0
 62
     1
100
AcDbLine
 10
24.55865499999999
 20
6.334936480000001
 30
0.0
 11
43.73213079431557
 21
6.334936479999996
 31
0.0
  0
LINE
  5
9C6
330
86C
100
AcDbEntity
  8
0
 62
     1
100
AcDbLine
 10
24.561974
 20
19.03491999999999
 30
0.0
 11
43.73213079431559
 21
19.03491999999998
 31
0.0
  0
LINE
  5
9C7
330
86C
100
AcDbEntity
  8
0
 62
     1
100
AcDbLine
 10
42.23213079431557
 20
9.334936479999996
 30
0.0
 11
42.23213079431559
 21
16.03491999999998
 31
0.0
  0
SOLID
  5
9C8
330
86C
100
AcDbEntity
  8
0
 62
     1
100
AcDbTrace
 10
41.73213079431557
 20
9.334936479999996
 30
0.0
 11
42.73213079431559
 21
9.334936479999996
 31
0.0
 12
42.23213079431557
 22
6.334936479999996
 32
0.0
 13
42.23213079431557
 23
6.334936479999996
 33
0.0
  0
SOLID
  5
9C9
330
86C
100
AcDbEntity
  8
0
 62
     1
100
AcDbTrace
 10
41.73213079431559
 20
16.03491999999998
 30
0.0
 11
42.73213079431559
 21
16.03491999999998
 31
0.0
 12
42.23213079431559
 22
19.03491999999998
 32
0.0
 13
42.23213079431559
 23
19.03491999999998
 33
0.0
  0
MTEXT
  5
9CA
330
86C
100
AcDbEntity
  8
0
 62
     1
100
AcDbMText
 10
39.83213079431559
 20
12.68492823999999
 30
0.0
 40
2.799999999999998
 41
0.0
 71
     5
 72
     1
  1
12.70
 11
0.0000000000000001
 21
1.0
 31
0.0
1001
ACAD
1000
MTEXTBEGIN
1070
    73
1070
     1
1070
    44
1040
1.0
1070
    74
1070
     0
1000
MTEXTEND
1000
MTEXTBEGIN
1070
    73
1070
     1
1070
    44
1040
1.0
1070
    74
1070
     0
1000
MTEXTEND
1000
MTEXTBEGIN
1070
    73
1070
     1
1070
    44
1040
1.0
1070
    74
1070
     0
1000
MTEXTEND
1000
MTEXTBEGIN
1070
    73
1070
     1
1070
    44
1040
1.0
1070
    74
1070
     0
1000
MTEXTEND
1000
MTEXTBEGIN
1070
    73
1070
     1
1070
    44
1040
1.0
1070
    74
1070
     0
1000
MTEXTEND
  0
POINT
  5
9CB
330
86C
100
AcDbEntity
  8
DEFPOINTS
 62
     0
100
AcDbPoint
 10
24.55865499999999
 20
6.334936480000001
 30
0.0
  0
POINT
  5
9CC
330
86C
100
AcDbEntity
  8
DEFPOINTS
 62
     0
100
AcDbPoint
 10
24.561974
 20
19.03491999999999
 30
0.0
  0
POINT
  5
9CD
330
86C
100
AcDbEntity
  8
DEFPOINTS
 62
     0
100
AcDbPoint
 10
42.23213079431559
 20
19.03491999999998
 30
0.0
  0
ENDBLK
  5
877
330
86C
100
AcDbEntity
  8
0
100
AcDbBlockEnd
  0
BLOCK
  5
890
330
884
100
AcDbEntity
  8
0
100
AcDbBlockBegin
  2
*D4
 70
     1
 10
0.0
 20
0.0
 30
0.0
  3
*D4
  1

  0
LINE
  5
9CE
330
884
100
AcDbEntity
  8
0
 62
     1
100
AcDbLine
 10
24.561974
 20
19.03491999999999
 30
0.0
 11
43.73213079431559
 21
19.03491999999998
 31
0.0
  0
LINE
  5
9CF
330
884
100
AcDbEntity
  8
0
 62
     1
100
AcDbLine
 10
22.59365799999998
 20
22.234932
 30
0.0
 11
43.73213079431559
 21
22.23493199999999
 31
0.0
  0
LINE
  5
9D0
330
884
100
AcDbEntity
  8
0
 62
     1
100
AcDbLine
 10
42.23213079431559
 20
16.03491999999998
 30
0.0
 11
42.23213079431557
 21
13.03491999999998
 31
0.0
  0
LINE
  5
9D1
330
884
100
AcDbEntity
  8
0
 62
     1
100
AcDbLine
 10
42.23213079431559
 20
25.23493199999998
 30
0.0
 11
42.23213079431559
 21
35.83493199999999
 31
0.0
  0
LINE
  5
9D2
330
884
100
AcDbEntity
  8
0
 62
     1
100
AcDbLine
 10
42.23213079431559
 20
19.03491999999998
 30
0.0
 11
42.23213079431559
 21
22.23493199999999
 31
0.0
  0
SOLID
  5
9D3
330
884
100
AcDbEntity
  8
0
 62
     1
100
AcDbTrace
 10
41.73213079431559
 20
16.03491999999998
 30
0.0
 11
42.73213079431559
 21
16.03491999999998
 31
0.0
 12
42.23213079431559
 22
19.03491999999998
 32
0.0
 13
42.23213079431559
 23
19.03491999999998
 33
0.0
  0
SOLID
  5
9D4
330
884
100
AcDbEntity
  8
0
 62
     1
100
AcDbTrace
 10
41.73213079431559
 20
25.23493199999998
 30
0.0
 11
42.73213079431559
 21
25.23493199999998
 31
0.0
 12
42.23213079431559
 22
22.23493199999999
 32
0.0
 13
42.23213079431559
 23
22.23493199999999
 33
0.0
  0
MTEXT
  5
9D5
330
884
100
AcDbEntity
  8
0
 62
     1
100
AcDbMText
 10
39.83213079431559
 20
32.034932
 30
0.0
 40
2.799999999999998
 41
0.0
 71
     5
 72
     1
  1
3.2
 11
0.0000000000000001
 21
1.0
 31
0.0
1001
ACAD
1000
MTEXTBEGIN
1070
    73
1070
     1
1070
    44
1040
1.0
1070
    74
1070
     0
1000
MTEXTEND
1000
MTEXTBEGIN
1070
    73
1070
     1
1070
    44
1040
1.0
1070
    74
1070
     0
1000
MTEXTEND
1000
MTEXTBEGIN
1070
    73
1070
     1
1070
    44
1040
1.0
1070
    74
1070
     0
1000
MTEXTEND
1000
MTEXTBEGIN
1070
    73
1070
     1
1070
    44
1040
1.0
1070
    74
1070
     0
1000
MTEXTEND
1000
MTEXTBEGIN
1070
    73
1070
     1
1070
    44
1040
1.0
1070
    74
1070
     0
1000
MTEXTEND
  0
POINT
  5
9D6
330
884
100
AcDbEntity
  8
DEFPOINTS
 62
     0
100
AcDbPoint
 10
24.561974
 20
19.03491999999999
 30
0.0
  0
POINT
  5
9D7
330
884
100
AcDbEntity
  8
DEFPOINTS
 62
     0
100
AcDbPoint
 10
22.59365799999998
 20
22.234932
 30
0.0
  0
POINT
  5
9D8
330
884
100
AcDbEntity
  8
DEFPOINTS
 62
     0
100
AcDbPoint
 10
42.23213079431559
 20
22.23493199999999
 30
0.0
  0
ENDBLK
  5
891
330
884
100
AcDbEntity
  8
0
100
AcDbBlockEnd
  0
BLOCK
  5
8AA
330
8A0
100
AcDbEntity
  8
0
100
AcDbBlockBegin
  2
*D5
 70
     1
 10
0.0
 20
0.0
 30
0.0
  3
*D5
  1

  0
LINE
  5
9B3
330
8A0
100
AcDbEntity
  8
0
 62
     1
100
AcDbLine
 10
-24.056244
 20
-54.69591499999999
 30
0.0
 11
-24.056244
 21
-68.80564362059478
 31
0.0
  0
LINE
  5
9B4
330
8A0
100
AcDbEntity
  8
0
 62
     1
100
AcDbLine
 10
14.04374699999999
 20
-58.84455899999998
 30
0.0
 11
14.04374699999999
 21
-68.80564362059478
 31
0.0
  0
LINE
  5
9B5
330
8A0
100
AcDbEntity
  8
0
 62
     1
100
AcDbLine
 10
-21.05624399999999
 20
-67.30564362059476
 30
0.0
 11
11.04374699999999
 21
-67.30564362059476
 31
0.0
  0
SOLID
  5
9B6
330
8A0
100
AcDbEntity
  8
0
 62
     1
100
AcDbTrace
 10
-21.05624399999999
 20
-66.80564362059477
 30
0.0
 11
-21.05624399999999
 21
-67.80564362059476
 31
0.0
 12
-24.056244
 22
-67.30564362059476
 32
0.0
 13
-24.056244
 23
-67.30564362059476
 33
0.0
  0
SOLID
  5
9B7
330
8A0
100
AcDbEntity
  8
0
 62
     1
100
AcDbTrace
 10
11.04374699999999
 20
-66.80564362059477
 30
0.0
 11
11.04374699999999
 21
-67.80564362059476
 31
0.0
 12
14.04374699999999
 22
-67.30564362059476
 32
0.0
 13
14.04374699999999
 23
-67.30564362059476
 33
0.0
  0
MTEXT
  5
9B8
330
8A0
100
AcDbEntity
  8
0
 62
     1
100
AcDbMText
 10
-5.006248500000004
 20
-64.90564362059476
 30
0.0
 40
2.799999999999998
 41
0.0
 71
     5
 72
     1
  1
38.10
1001
ACAD
1000
MTEXTBEGIN
1070
    73
1070
     1
1070
    44
1040
1.0
1070
    74
1070
     0
1000
MTEXTEND
1000
MTEXTBEGIN
1070
    73
1070
     1
1070
    44
1040
1.0
1070
    74
1070
     0
1000
MTEXTEND
1000
MTEXTBEGIN
1070
    73
1070
     1
1070
    44
1040
1.0
1070
    74
1070
     0
1000
MTEXTEND
1000
MTEXTBEGIN
1070
    73
1070
     1
1070
    44
1040
1.0
1070
    74
1070
     0
1000
MTEXTEND
1000
MTEXTBEGIN
1070
    73
1070
     1
1070
    44
1040
1.0
1070
    74
1070
     0
1000
MTEXTEND
  0
POINT
  5
9B9
330
8A0
100
AcDbEntity
  8
DEFPOINTS
 62
     0
100
AcDbPoint
 10
-24.056244
 20
-54.69591499999999
 30
0.0
  0
POINT
  5
9BA
330
8A0
100
AcDbEntity
  8
DEFPOINTS
 62
     0
100
AcDbPoint
 10
14.04374699999999
 20
-58.84455899999998
 30
0.0
  0
POINT
  5
9BB
330
8A0
100
AcDbEntity
  8
DEFPOINTS
 62
     0
100
AcDbPoint
 10
14.04374699999999
 20
-67.30564362059476
 30
0.0
  0
ENDBLK
  5
8AB
330
8A0
100
AcDbEntity
  8
0
100
AcDbBlockEnd
  0
BLOCK
  5
8C2
330
8B8
100
AcDbEntity
  8
0
100
AcDbBlockBegin
  2
*D6
 70
     1
 10
0.0
 20
0.0
 30
0.0
  3
*D6
  1

  0
LINE
  5
9D9
330
8B8
100
AcDbEntity
  8
0
 62
     1
100
AcDbLine
 10
13.99375899999999
 20
-51.7577294
 30
0.0
 11
43.73213079431557
 21
-51.75772940000001
 31
0.0
  0
LINE
  5
9DA
330
8B8
100
AcDbEntity
  8
0
 62
     1
100
AcDbLine
 10
13.99375899999999
 20
-34.557732
 30
0.0
 11
43.73213079431557
 21
-34.55773200000001
 31
0.0
  0
LINE
  5
9DB
330
8B8
100
AcDbEntity
  8
0
 62
     1
100
AcDbLine
 10
42.23213079431557
 20
-48.7577294
 30
0.0
 11
42.23213079431557
 21
-37.55773200000001
 31
0.0
  0
SOLID
  5
9DC
330
8B8
100
AcDbEntity
  8
0
 62
     1
100
AcDbTrace
 10
41.73213079431557
 20
-48.7577294
 30
0.0
 11
42.73213079431557
 21
-48.7577294
 31
0.0
 12
42.23213079431557
 22
-51.75772940000001
 32
0.0
 13
42.23213079431557
 23
-51.75772940000001
 33
0.0
  0
SOLID
  5
9DD
330
8B8
100
AcDbEntity
  8
0
 62
     1
100
AcDbTrace
 10
41.73213079431557
 20
-37.55773200000001
 30
0.0
 11
42.73213079431557
 21
-37.55773200000001
 31
0.0
 12
42.23213079431557
 22
-34.55773200000001
 32
0.0
 13
42.23213079431557
 23
-34.55773200000001
 33
0.0
  0
MTEXT
  5
9DE
330
8B8
100
AcDbEntity
  8
0
 62
     1
100
AcDbMText
 10
39.83213079431559
 20
-43.1577307
 30
0.0
 40
2.799999999999998
 41
0.0
 71
     5
 72
     1
  1
17.2
 11
0.0000000000000001
 21
1.0
 31
0.0
1001
ACAD
1000
MTEXTBEGIN
1070
    73
1070
     1
1070
    44
1040
1.0
1070
    74
1070
     0
1000
MTEXTEND
1000
MTEXTBEGIN
1070
    73
1070
     1
1070
    44
1040
1.0
1070
    74
1070
     0
1000
MTEXTEND
1000
MTEXTBEGIN
1070
    73
1070
     1
1070
    44
1040
1.0
1070
    74
1070
     0
1000
MTEXTEND
1000
MTEXTBEGIN
1070
    73
1070
     1
1070
    44
1040
1.0
1070
    74
1070
     0
1000
MTEXTEND
1000
MTEXTBEGIN
1070
    73
1070
     1
1070
    44
1040
1.0
1070
    74
1070
     0
1000
MTEXTEND
  0
POINT
  5
9DF
330
8B8
100
AcDbEntity
  8
DEFPOINTS
 62
     0
100
AcDbPoint
 10
13.99375899999999
 20
-51.7577294
 30
0.0
  0
POINT
  5
9E0
330
8B8
100
AcDbEntity
  8
DEFPOINTS
 62
     0
100
AcDbPoint
 10
13.99375899999999
 20
-34.557732
 30
0.0
  0
POINT
  5
9E1
330
8B8
100
AcDbEntity
  8
DEFPOINTS
 62
     0
100
AcDbPoint
 10
42.23213079431557
 20
-34.55773200000001
 30
0.0
  0
ENDBLK
  5
8C3
330
8B8
100
AcDbEntity
  8
0
100
AcDbBlockEnd
  0
BLOCK
  5
9ED
330
9E3
100
AcDbEntity
  8
0
100
AcDbBlockBegin
  2
*D7
 70
     1
 10
0.0
 20
0.0
 30
0.0
  3
*D7
  1

  0
LINE
  5
A76
330
9E3
100
AcDbEntity
  8
0
 62
     1
100
AcDbLine
 10
-24.00624099999999
 20
-51.757736
 30
0.0
 11
-44.76806647525701
 21
-51.757736
 31
0.0
  0
LINE
  5
A77
330
9E3
100
AcDbEntity
  8
0
 62
     1
100
AcDbLine
 10
-24.00624099999999
 20
-34.557732
 30
0.0
 11
-44.76806647525701
 21
-34.557732
 31
0.0
  0
LINE
  5
A78
330
9E3
100
AcDbEntity
  8
0
 62
     1
100
AcDbLine
 10
-43.26806647525699
 20
-48.757736
 30
0.0
 11
-43.26806647525699
 21
-37.557732
 31
0.0
  0
SOLID
  5
A79
330
9E3
100
AcDbEntity
  8
0
 62
     1
100
AcDbTrace
 10
-43.76806647525699
 20
-48.757736
 30
0.0
 11
-42.76806647525702
 21
-48.757736
 31
0.0
 12
-43.26806647525699
 22
-51.757736
 32
0.0
 13
-43.26806647525699
 23
-51.757736
 33
0.0
  0
SOLID
  5
A7A
330
9E3
100
AcDbEntity
  8
0
 62
     1
100
AcDbTrace
 10
-43.76806647525699
 20
-37.557732
 30
0.0
 11
-42.76806647525701
 21
-37.557732
 31
0.0
 12
-43.26806647525699
 22
-34.557732
 32
0.0
 13
-43.26806647525699
 23
-34.557732
 33
0.0
  0
MTEXT
  5
A7B
330
9E3
100
AcDbEntity
  8
0
 62
     1
100
AcDbMText
 10
-45.668066475257
 20
-43.157734
 30
0.0
 40
2.799999999999998
 41
0.0
 71
     5
 72
     1
  1
17.2
 11
0.0000000000000001
 21
1.0
 31
0.0
1001
ACAD
1000
MTEXTBEGIN
1070
    73
1070
     1
1070
    44
1040
1.0
1070
    74
1070
     0
1000
MTEXTEND
1000
MTEXTBEGIN
1070
    73
1070
     1
1070
    44
1040
1.0
1070
    74
1070
     0
1000
MTEXTEND
1000
MTEXTBEGIN
1070
    73
1070
     1
1070
    44
1040
1.0
1070
    74
1070
     0
1000
MTEXTEND
  0
POINT
  5
A7C
330
9E3
100
AcDbEntity
  8
DEFPOINTS
 62
     0
100
AcDbPoint
 10
-24.00624099999999
 20
-51.757736
 30
0.0
  0
POINT
  5
A7D
330
9E3
100
AcDbEntity
  8
DEFPOINTS
 62
     0
100
AcDbPoint
 10
-24.00624099999999
 20
-34.557732
 30
0.0
  0
POINT
  5
A7E
330
9E3
100
AcDbEntity
  8
DEFPOINTS
 62
     0
100
AcDbPoint
 10
-43.26806647525699
 20
-34.557732
 30
0.0
  0
ENDBLK
  5
9EE
330
9E3
100
AcDbEntity
  8
0
100
AcDbBlockEnd
  0
ENDSEC
  0
SECTION
  2
ENTITIES
  0
TEXT
  5
722
330
1F
100
AcDbEntity
  8
0
  6
CONTINUOUS
 62
     7
100
AcDbText
 10
-39.410655
 20
74.299037
 30
0.0
 40
4.8000002
  1

 41
0.8444833199999999
100
AcDbText
  0
ARC
  5
725
330
1F
100
AcDbEntity
  8
0
  6
CONTINUOUS
 62
     7
100
AcDbCircle
 10
14.04374699999999
 20
-43.15773
 30
0.0
 40
11.115
100
AcDbArc
 50
230.69
 51
129.31
  0
ARC
  5
726
330
1F
100
AcDbEntity
  8
0
  6
CONTINUOUS
 62
     7
100
AcDbCircle
 10
-22.296112
 20
-45.079399
 30
0.0
 40
0.9367399800000001
100
AcDbArc
 50
60.000002
 51
68.7266
  0
ARC
  5
727
330
1F
100
AcDbEntity
  8
0
  6
CONTINUOUS
 62
     7
100
AcDbCircle
 10
-24.056244
 20
-43.15773
 30
0.0
 40
2.98
100
AcDbArc
 50
45.194901
 51
314.805
  0
ARC
  5
728
330
1F
100
AcDbEntity
  8
0
  6
CONTINUOUS
 62
     7
100
AcDbCircle
 10
-22.128647
 20
-42.22106899999999
 30
0.0
 40
0.9367399800000001
100
AcDbArc
 50
280.604
 51
300.0
  0
ARC
  5
729
330
1F
100
AcDbEntity
  8
0
  6
CONTINUOUS
 62
     7
100
AcDbCircle
 10
-22.296112
 20
-41.236069
 30
0.0
 40
0.9367399800000001
100
AcDbArc
 50
291.27301
 51
300.0
  0
ARC
  5
72A
330
1F
100
AcDbEntity
  8
0
  6
CONTINUOUS
 62
     7
100
AcDbCircle
 10
-27.014244
 20
-44.094398
 30
0.0
 40
0.9367399800000001
100
AcDbArc
 50
90.00000300000001
 51
145.146
  0
ARC
  5
72B
330
1F
100
AcDbEntity
  8
0
  6
CONTINUOUS
 62
     7
100
AcDbCircle
 10
-26.59124799999998
 20
-45.031395
 30
0.0
 40
0.9367399800000001
100
AcDbArc
 50
107.3579999999999
 51
133.342
  0
ARC
  5
72C
330
1F
100
AcDbEntity
  8
0
  6
CONTINUOUS
 62
     7
100
AcDbCircle
 10
-26.59124799999998
 20
-41.284401
 30
0.0
 40
0.9367399800000001
100
AcDbArc
 50
226.6579999999999
 51
252.6419999999999
  0
ARC
  5
72D
330
1F
100
AcDbEntity
  8
0
  6
CONTINUOUS
 62
     7
100
AcDbCircle
 10
-28.359314
 20
-43.15773
 30
0.0
 40
1.639293
100
AcDbArc
 50
46.6582
 51
313.342
  0
ARC
  5
72E
330
1F
100
AcDbEntity
  8
0
  6
CONTINUOUS
 62
     7
100
AcDbCircle
 10
-27.014244
 20
-42.22106899999999
 30
0.0
 40
0.9367399800000001
100
AcDbArc
 50
214.854
 51
270.0
  0
ARC
  5
72F
330
1F
100
AcDbEntity
  8
0
  6
CONTINUOUS
 62
     7
100
AcDbCircle
 10
-22.128647
 20
-44.094398
 30
0.0
 40
0.9367399800000001
100
AcDbArc
 50
60.000002
 51
79.39569700000001
  0
ARC
  5
730
330
1F
100
AcDbEntity
  8
0
  6
CONTINUOUS
 62
     7
100
AcDbCircle
 10
-28.359314
 20
-43.15773
 30
0.0
 40
0.70237303
100
AcDbArc
 50
34.854302
 51
325.1459899999998
  0
CIRCLE
  5
731
330
1F
100
AcDbEntity
  8
0
  6
CONTINUOUS
 62
     7
100
AcDbCircle
 10
14.04374699999999
 20
-43.15773
 30
0.0
 40
4.1900001
  0
ARC
  5
732
330
1F
100
AcDbEntity
  8
0
  6
CONTINUOUS
 62
     7
100
AcDbCircle
 10
-24.00624099999999
 20
-43.15773
 30
0.0
 40
8.599999399999997
100
AcDbArc
 50
90.00000300000001
 51
270.0
  0
CIRCLE
  5
733
330
1F
100
AcDbEntity
  8
0
  6
CONTINUOUS
 62
     7
100
AcDbCircle
 10
14.04374699999999
 20
-43.15773
 30
0.0
 40
2.98
  0
ARC
  5
734
330
1F
100
AcDbEntity
  8
0
  6
CONTINUOUS
 62
     7
100
AcDbCircle
 10
13.99375899999999
 20
-43.15773
 30
0.0
 40
8.599999399999997
100
AcDbArc
 50
270.0
 51
90.00000300000001
  0
ARC
  5
735
330
1F
100
AcDbEntity
  8
0
  6
CONTINUOUS
 62
     7
100
AcDbCircle
 10
24.55865499999999
 20
18.434929
 30
0.0
 40
0.60000002
100
AcDbArc
 50
0.0
 51
90.00000300000001
  0
ARC
  5
736
102
{ACAD_REACTORS
330
882
102
}
330
1F
100
AcDbEntity
  8
0
  6
CONTINUOUS
 62
     7
100
AcDbCircle
 10
24.55865499999999
 20
6.9349365
 30
0.0
 40
0.60000002
100
AcDbArc
 50
270.0
 51
0.0
  0
ARC
  5
737
330
1F
100
AcDbEntity
  8
0
  6
CONTINUOUS
 62
     7
100
AcDbCircle
 10
3.528747099999999
 20
18.434929
 30
0.0
 40
0.60000002
100
AcDbArc
 50
90.00000300000001
 51
180.00001
  0
ARC
  5
738
330
1F
100
AcDbEntity
  8
0
  6
CONTINUOUS
 62
     7
100
AcDbCircle
 10
3.528747099999999
 20
6.9349365
 30
0.0
 40
0.60000002
100
AcDbArc
 50
180.00001
 51
270.0
  0
ARC
  5
739
330
1F
100
AcDbEntity
  8
0
  6
CONTINUOUS
 62
     7
100
AcDbCircle
 10
-29.000481
 20
-1.351739899999995
 30
0.0
 40
0.9367399800000001
100
AcDbArc
 50
90.00000300000001
 51
270.0
  0
LINE
  5
73A
330
1F
100
AcDbEntity
  8
0
  6
CONTINUOUS
 62
     7
100
AcDbLine
 10
-27.03624699999998
 20
-4.265068099999997
 30
0.0
 11
-21.956253
 21
-4.265068099999997
 31
0.0
  0
LINE
  5
73B
330
1F
100
AcDbEntity
  8
0
  6
CENTER
 62
     6
100
AcDbLine
 10
14.043701
 20
25.435783
 30
0.0
 11
14.043701
 21
-1.532363699999995
 31
0.0
  0
LINE
  5
73C
102
{ACAD_REACTORS
330
8B6
102
}
330
1F
100
AcDbEntity
  8
0
  6
CENTER
 62
     6
100
AcDbLine
 10
14.04374699999999
 20
-27.82855999999998
 30
0.0
 11
14.04374699999999
 21
-58.84455899999998
 31
0.0
  0
LINE
  5
73D
102
{ACAD_REACTORS
330
8B6
102
}
330
1F
100
AcDbEntity
  8
0
  6
CENTER
 62
     6
100
AcDbLine
 10
-24.056244
 20
-32.76741799999999
 30
0.0
 11
-24.056244
 21
-54.69591499999999
 31
0.0
  0
LINE
  5
73E
330
1F
100
AcDbEntity
  8
0
  6
CENTER
 62
     6
100
AcDbLine
 10
-24.056244
 20
29.781975
 30
0.0
 11
-24.056244
 21
-7.7533035
 31
0.0
  0
LINE
  5
73F
330
1F
100
AcDbEntity
  8
0
  6
CENTER
 62
     6
100
AcDbLine
 10
-35.442894
 20
-43.15773
 30
0.0
 11
28.367081
 21
-43.15773
 31
0.0
  0
LINE
  5
740
330
1F
100
AcDbEntity
  8
0
  6
CENTER
 62
     6
100
AcDbLine
 10
-32.60624699999999
 20
12.684929
 30
0.0
 11
28.249527
 21
12.684929
 31
0.0
  0
LINE
  5
741
102
{ACAD_REACTORS
330
9F9
102
}
330
1F
100
AcDbEntity
  8
0
  6
CONTINUOUS
 62
     7
100
AcDbLine
 10
13.99375899999999
 20
-51.757736
 30
0.0
 11
-24.00624099999999
 21
-51.757736
 31
0.0
  0
LINE
  5
742
330
1F
100
AcDbEntity
  8
0
  6
CONTINUOUS
 62
     7
100
AcDbLine
 10
2.593749499999995
 20
-36.277732
 30
0.0
 11
2.593749499999999
 21
-50.03773599999998
 31
0.0
  0
LINE
  5
743
330
1F
100
AcDbEntity
  8
0
  6
CONTINUOUS
 62
     7
100
AcDbLine
 10
-21.827742
 20
-42.047401
 30
0.0
 11
-17.673182
 21
-39.64873499999999
 31
0.0
  0
LINE
  5
744
102
{ACAD_REACTORS
330
9F9
102
}
330
1F
100
AcDbEntity
  8
0
  6
CONTINUOUS
 62
     7
100
AcDbLine
 10
-24.00624099999999
 20
-34.557732
 30
0.0
 11
13.99375899999999
 21
-34.557732
 31
0.0
  0
LINE
  5
745
330
1F
100
AcDbEntity
  8
0
  6
CONTINUOUS
 62
     7
100
AcDbLine
 10
-21.66027499999999
 20
-43.032398
 30
0.0
 11
-17.20478599999999
 21
-40.460072
 31
0.0
  0
LINE
  5
746
330
1F
100
AcDbEntity
  8
0
  6
CONTINUOUS
 62
     7
100
AcDbLine
 10
-17.673178
 20
-46.666733
 30
0.0
 11
-17.204782
 21
-45.85574
 31
0.0
  0
LINE
  5
747
330
1F
100
AcDbEntity
  8
0
  6
CONTINUOUS
 62
     7
100
AcDbLine
 10
-21.66027499999999
 20
-43.28339399999999
 30
0.0
 11
-17.20477299999998
 21
-45.855728
 31
0.0
  0
LINE
  5
748
330
1F
100
AcDbEntity
  8
0
  6
CONTINUOUS
 62
     7
100
AcDbLine
 10
-21.827742
 20
-44.26806599999999
 30
0.0
 11
-17.673176
 21
-46.66673699999999
 31
0.0
  0
LINE
  5
749
330
1F
100
AcDbEntity
  8
0
  6
CONTINUOUS
 62
     7
100
AcDbLine
 10
-17.67317999999998
 20
-39.64873499999999
 30
0.0
 11
-17.204779
 21
-40.460072
 31
0.0
  0
LINE
  5
74A
330
1F
100
AcDbEntity
  8
0
  6
CONTINUOUS
 62
     7
100
AcDbLine
 10
-21.956253
 20
-41.04340399999999
 30
0.0
 11
-21.956253
 21
-45.27206399999999
 31
0.0
  0
LINE
  5
74B
102
{ACAD_REACTORS
330
854
102
}
330
1F
100
AcDbEntity
  8
0
  6
CONTINUOUS
 62
     7
100
AcDbLine
 10
25.158661
 20
18.434929
 30
0.0
 11
25.158661
 21
6.9349365
 31
0.0
  0
LINE
  5
74C
102
{ACAD_REACTORS
330
854
102
}
330
1F
100
AcDbEntity
  8
0
  6
CONTINUOUS
 62
     7
100
AcDbLine
 10
2.9287562
 20
18.434929
 30
0.0
 11
2.9287562
 21
6.9349365
 31
0.0
  0
LINE
  5
74D
330
1F
100
AcDbEntity
  8
0
  6
CONTINUOUS
 62
     7
100
AcDbLine
 10
-12.606247
 20
2.784933099999998
 30
0.0
 11
2.2148123
 21
6.3349342
 31
0.0
  0
LINE
  5
74E
330
1F
100
AcDbEntity
  8
0
  6
CONTINUOUS
 62
     7
100
AcDbLine
 10
-32.60624699999999
 20
25.78492999999999
 30
0.0
 11
-32.60624699999999
 21
22.58493299999999
 31
0.0
  0
LINE
  5
74F
330
1F
100
AcDbEntity
  8
0
  6
CONTINUOUS
 62
     7
100
AcDbLine
 10
2.5937605
 20
3.1349339
 30
0.0
 11
-12.22731
 21
-0.4150714800000002
 31
0.0
  0
LINE
  5
750
330
1F
100
AcDbEntity
  8
0
  6
CONTINUOUS
 62
     7
100
AcDbLine
 10
22.59365799999998
 20
22.234932
 30
0.0
 11
22.59365799999998
 21
19.03491999999999
 31
0.0
  0
LINE
  5
751
330
1F
100
AcDbEntity
  8
0
  6
CONTINUOUS
 62
     7
100
AcDbLine
 10
2.5937517
 20
22.23494
 30
0.0
 11
-12.22731
 21
25.78492999999999
 31
0.0
  0
LINE
  5
752
102
{ACAD_REACTORS
330
824
102
}
330
1F
100
AcDbEntity
  8
0
  6
CONTINUOUS
 62
     7
100
AcDbLine
 10
-21.07624799999999
 20
2.7749331
 30
0.0
 11
-21.07624799999999
 21
22.59493299999999
 31
0.0
  0
LINE
  5
753
102
{ACAD_REACTORS
330
824
102
}
330
1F
100
AcDbEntity
  8
0
  6
CONTINUOUS
 62
     7
100
AcDbLine
 10
-27.03624699999998
 20
2.7749331
 30
0.0
 11
-27.03624699999998
 21
22.59493299999999
 31
0.0
  0
LINE
  5
754
330
1F
100
AcDbEntity
  8
0
  6
CONTINUOUS
 62
     7
100
AcDbLine
 10
-21.956253
 20
-0.42507148
 30
0.0
 11
-21.956253
 21
-4.265068099999997
 31
0.0
  0
LINE
  5
755
330
1F
100
AcDbEntity
  8
0
  6
CONTINUOUS
 62
     7
100
AcDbLine
 10
-17.941101
 20
-2.288396299999996
 30
0.0
 11
-17.004362
 21
-1.3517371
 31
0.0
  0
LINE
  5
756
330
1F
100
AcDbEntity
  8
0
  6
CONTINUOUS
 62
     7
100
AcDbLine
 10
-29.000481
 20
-2.288400599999999
 30
0.0
 11
-27.03624699999998
 21
-2.288400599999999
 31
0.0
  0
LINE
  5
757
330
1F
100
AcDbEntity
  8
0
  6
CONTINUOUS
 62
     7
100
AcDbLine
 10
-17.004356
 20
-1.351743099999999
 30
0.0
 11
-17.941095
 21
-0.4150763400000005
 31
0.0
  0
LINE
  5
758
330
1F
100
AcDbEntity
  8
0
  6
CONTINUOUS
 62
     7
100
AcDbLine
 10
-21.956253
 20
-2.288400599999999
 30
0.0
 11
-17.941101
 21
-2.288400599999999
 31
0.0
  0
LINE
  5
759
102
{ACAD_REACTORS
330
83C
102
}
330
1F
100
AcDbEntity
  8
0
  6
CONTINUOUS
 62
     7
100
AcDbLine
 10
-27.756248
 20
25.794928
 30
0.0
 11
-26.31625399999999
 21
27.234934
 31
0.0
  0
LINE
  5
75A
330
1F
100
AcDbEntity
  8
0
  6
CONTINUOUS
 62
     7
100
AcDbLine
 10
-20.356247
 20
25.79492999999999
 30
0.0
 11
-21.796247
 21
27.23494099999999
 31
0.0
  0
LINE
  5
75B
330
1F
100
AcDbEntity
  8
0
  6
CONTINUOUS
 62
     7
100
AcDbLine
 10
-12.606247
 20
22.58493299999999
 30
0.0
 11
2.214817299999999
 21
19.03491999999999
 31
0.0
  0
LINE
  5
75C
330
1F
100
AcDbEntity
  8
0
  6
CONTINUOUS
 62
     7
100
AcDbLine
 10
2.593749499999999
 20
3.1349337
 30
0.0
 11
22.59365799999998
 21
3.1349337
 31
0.0
  0
LINE
  5
75D
330
1F
100
AcDbEntity
  8
0
  6
CONTINUOUS
 62
     7
100
AcDbLine
 10
-26.316246
 20
27.234932
 30
0.0
 11
-21.79624899999998
 21
27.234932
 31
0.0
  0
LINE
  5
75E
102
{ACAD_REACTORS
330
83C
102
}
330
1F
100
AcDbEntity
  8
0
  6
CONTINUOUS
 62
     7
100
AcDbLine
 10
-27.03624699999998
 20
-0.42507148
 30
0.0
 11
-27.03624699999998
 21
-4.265068099999997
 31
0.0
  0
LINE
  5
75F
102
{ACAD_REACTORS
330
89E
102
}
330
1F
100
AcDbEntity
  8
0
  6
CONTINUOUS
 62
     7
100
AcDbLine
 10
2.593749499999999
 20
22.234932
 30
0.0
 11
22.59365799999998
 21
22.234932
 31
0.0
  0
LINE
  5
760
102
{ACAD_REACTORS
330
882
330
89E
102
}
330
1F
100
AcDbEntity
  8
0
  6
CONTINUOUS
 62
     7
100
AcDbLine
 10
2.214812799999998
 20
19.03491999999999
 30
0.0
 11
24.561974
 21
19.03491999999999
 31
0.0
  0
LINE
  5
761
330
1F
100
AcDbEntity
  8
0
  6
CONTINUOUS
 62
     7
100
AcDbLine
 10
2.214812799999998
 20
6.334938
 30
0.0
 11
24.560019
 21
6.334938
 31
0.0
  0
LINE
  5
762
330
1F
100
AcDbEntity
  8
0
  6
CONTINUOUS
 62
     7
100
AcDbLine
 10
22.59365799999998
 20
6.334938
 30
0.0
 11
22.59365799999998
 21
3.1349337
 31
0.0
  0
LINE
  5
763
330
1F
100
AcDbEntity
  8
0
  6
CONTINUOUS
 62
     7
100
AcDbLine
 10
-32.60624699999999
 20
2.784933099999998
 30
0.0
 11
-12.606247
 21
2.784933099999998
 31
0.0
  0
LINE
  5
764
330
1F
100
AcDbEntity
  8
0
  6
CONTINUOUS
 62
     7
100
AcDbLine
 10
-32.60624699999999
 20
2.784933099999998
 30
0.0
 11
-32.60624699999999
 21
-0.4150714800000002
 31
0.0
  0
LINE
  5
765
330
1F
100
AcDbEntity
  8
0
  6
CONTINUOUS
 62
     7
100
AcDbLine
 10
-32.60624699999999
 20
-0.4150714800000002
 30
0.0
 11
-12.22731
 21
-0.4150714800000002
 31
0.0
  0
LINE
  5
766
330
1F
100
AcDbEntity
  8
0
  6
CONTINUOUS
 62
     7
100
AcDbLine
 10
-32.60624699999999
 20
25.78492999999999
 30
0.0
 11
-12.22731
 21
25.78492999999999
 31
0.0
  0
LINE
  5
767
330
1F
100
AcDbEntity
  8
0
  6
CONTINUOUS
 62
     7
100
AcDbLine
 10
-32.60624699999999
 20
22.58493299999999
 30
0.0
 11
-12.606247
 21
22.58493299999999
 31
0.0
  0
DIMENSION
  5
809
102
{ACAD_XDICTIONARY
360
818
102
}
102
{ACAD_REACTORS
330
824
102
}
330
1F
100
AcDbEntity
  8
0
100
AcDbDimension
  2
*D0
 10
-27.03624699999998
 20
7.498678450035412
 30
0.0
 11
-8.476247999999991
 21
7.498678450035412
 31
0.0
 70
   160
  1
φ<>
  3
ISO-25
100
AcDbAlignedDimension
 13
-21.07624799999999
 23
2.7749331
 33
0.0
 14
-27.03624699999998
 24
2.7749331
 34
0.0
100
AcDbRotatedDimension
  0
DIMENSION
  5
825
102
{ACAD_XDICTIONARY
360
832
102
}
102
{ACAD_REACTORS
330
83C
102
}
330
1F
100
AcDbEntity
  8
0
100
AcDbDimension
  2
*D1
 10
-43.26806647525699
 20
-4.26506809999999
 30
0.0
 11
-43.26806647525699
 21
11.48493294999999
 31
0.0
 70
   160
  3
ISO-25
100
AcDbAlignedDimension
 13
-26.31625399999999
 23
27.234934
 33
0.0
 14
-27.03624699999998
 24
-4.265068099999997
 34
0.0
 50
90.0
100
AcDbRotatedDimension
  0
DIMENSION
  5
83D
102
{ACAD_XDICTIONARY
360
84A
102
}
102
{ACAD_REACTORS
330
854
102
}
330
1F
100
AcDbEntity
  8
0
100
AcDbDimension
  2
*D2
 10
25.158661
 20
-9.897867742177536
 30
0.0
 11
13.72465366441051
 21
-9.897867742177536
 31
0.0
 70
   160
  1
φ<>
  3
ISO-25
100
AcDbAlignedDimension
 13
2.9287562
 23
6.9349365
 33
0.0
 14
25.158661
 24
6.9349365
 34
0.0
100
AcDbRotatedDimension
  0
DIMENSION
  5
86B
102
{ACAD_XDICTIONARY
360
878
102
}
102
{ACAD_REACTORS
330
882
102
}
330
1F
100
AcDbEntity
  8
0
100
AcDbDimension
  2
*D3
 10
42.23213079431559
 20
19.03491999999998
 30
0.0
 11
39.83213079431559
 21
12.68492823999999
 31
0.0
 70
    32
  3
ISO-25
100
AcDbAlignedDimension
 13
24.55865499999999
 23
6.334936480000001
 33
0.0
 14
24.561974
 24
19.03491999999999
 34
0.0
 50
90.0
100
AcDbRotatedDimension
1001
ACAD
1000
DSTYLE
1002
{
1070
    78
1070
     0
1002
}
  0
DIMENSION
  5
883
102
{ACAD_XDICTIONARY
360
892
102
}
102
{ACAD_REACTORS
330
89E
102
}
330
1F
100
AcDbEntity
  8
0
100
AcDbDimension
  2
*D4
 10
42.23213079431559
 20
22.23493199999999
 30
0.0
 11
39.83213079431559
 21
32.034932
 31
0.0
 70
    32
  3
ISO-25
100
AcDbAlignedDimension
 13
24.561974
 23
19.03491999999999
 33
0.0
 14
22.59365799999998
 24
22.234932
 34
0.0
 50
90.0
100
AcDbRotatedDimension
  0
DIMENSION
  5
89F
102
{ACAD_XDICTIONARY
360
8AC
102
}
102
{ACAD_REACTORS
330
8B6
102
}
330
1F
100
AcDbEntity
  8
0
100
AcDbDimension
  2
*D5
 10
14.04374699999999
 20
-67.30564362059476
 30
0.0
 11
-5.006248500000004
 21
-64.90564362059476
 31
0.0
 70
    32
  3
ISO-25
100
AcDbAlignedDimension
 13
-24.056244
 23
-54.69591499999999
 33
0.0
 14
14.04374699999999
 24
-58.84455899999998
 34
0.0
100
AcDbRotatedDimension
1001
ACAD
1000
DSTYLE
1002
{
1070
    78
1070
     0
1002
}
  0
DIMENSION
  5
9E2
102
{ACAD_XDICTIONARY
360
9EF
102
}
102
{ACAD_REACTORS
330
9F9
102
}
330
1F
100
AcDbEntity
  8
0
100
AcDbDimension
  2
*D7
 10
-43.26806647525699
 20
-34.557732
 30
0.0
 11
-45.668066475257
 21
-43.157734
 31
0.0
 70
    32
  3
ISO-25
100
AcDbAlignedDimension
 13
-24.00624099999999
 23
-51.757736
 33
0.0
 14
-24.00624099999999
 24
-34.557732
 34
0.0
 50
90.0
100
AcDbRotatedDimension
  0
TEXT
  5
AAE
330
1F
100
AcDbEntity
  8
0
100
AcDbText
 10
19.89461049487101
 20
-77.42861890494238
 30
0.0
 40
1.25
  1
DATE2020.5.1
100
AcDbText
  0
ENDSEC
  0
SECTION
  2
OBJECTS
  0
DICTIONARY
  5
C
330
0
100
AcDbDictionary
  3
ACAD_GROUP
350
D
  3
ACAD_LAYOUT
350
1A
  3
ACAD_MLINESTYLE
350
17
  3
ACAD_PLOTSETTINGS
350
19
  3
ACAD_PLOTSTYLENAME
350
E
  3
ACDBHEADERROUNDTRIPXREC
350
ADB
  3
ACDBVARIABLEDICTIONARY
350
2C
  0
DICTIONARY
  5
965
330
1F
100
AcDbDictionary
280
     1
  3
ACAD_LAYOUTSELFREF
360
AFC
  0
DICTIONARY
  5
963
330
1B
100
AcDbDictionary
280
     1
  3
ACAD_LAYOUTSELFREF
360
AFB
  0
DICTIONARY
  5
818
330
809
100
AcDbDictionary
280
     1
  3
ACAD_DIMASSOC
360
824
  0
DICTIONARY
  5
832
330
825
100
AcDbDictionary
280
     1
  3
ACAD_DIMASSOC
360
83C
  0
DICTIONARY
  5
84A
330
83D
100
AcDbDictionary
280
     1
  3
ACAD_DIMASSOC
360
854
  0
DICTIONARY
  5
878
330
86B
100
AcDbDictionary
280
     1
  3
ACAD_DIMASSOC
360
882
  0
DICTIONARY
  5
892
330
883
100
AcDbDictionary
280
     1
  3
ACAD_DIMASSOC
360
89E
  0
DICTIONARY
  5
8AC
330
89F
100
AcDbDictionary
280
     1
  3
ACAD_DIMASSOC
360
8B6
  0
DICTIONARY
  5
9EF
330
9E2
100
AcDbDictionary
280
     1
  3
ACAD_DIMASSOC
360
9F9
  0
DICTIONARY
  5
D
102
{ACAD_REACTORS
330
C
102
}
330
C
100
AcDbDictionary
  0
DICTIONARY
  5
1A
102
{ACAD_REACTORS
330
C
102
}
330
C
100
AcDbDictionary
  0
DICTIONARY
  5
17
102
{ACAD_REACTORS
330
C
102
}
330
C
100
AcDbDictionary
  3
STANDARD
350
18
  0
DICTIONARY
  5
19
102
{ACAD_REACTORS
330
C
102
}
330
C
100
AcDbDictionary
  0
ACDBDICTIONARYWDFLT
  5
E
102
{ACAD_REACTORS
330
C
102
}
330
C
100
AcDbDictionary
281
     1
  3
Normal
350
F
100
AcDbDictionaryWithDefault
340
F
  0
DICTIONARY
  5
ADB
102
{ACAD_REACTORS
330
C
102
}
330
C
100
AcDbDictionary
  3
CEPSNTYPE
350
AE5
  3
FINGERPRINTGUID
350
AE6
  3
HYPERLINKBASE
350
ADE
  3
INSUNITS
350
AE4
  3
LAYOUTDICT
350
AE0
  3
LWETCUNION
350
AE3
  3
PLOTSETDICT
350
AE1
  3
PLOTSTYLNAMDICT
350
AE2
  3
PSVPSCALE
350
AE8
  3
PUCSBASE
350
AEB
  3
PUCSORGBACK
350
AF1
  3
PUCSORGBOTTOM
350
AED
  3
PUCSORGFRONT
350
AF0
  3
PUCSORGLEFT
350
AEE
  3
PUCSORGRIGHT
350
AEF
  3
PUCSORGTOP
350
AEC
  3
PUCSORTHOREF
350
AE9
  3
PUCSORTHOVIEW
350
AEA
  3
STYLESHEET
350
ADF
  3
TSTACKALIGN
350
ADC
  3
TSTACKSIZE
350
ADD
  3
UCSBASE
350
AF4
  3
UCSORGBACK
350
AFA
  3
UCSORGBOTTOM
350
AF6
  3
UCSORGFRONT
350
AF9
  3
UCSORGLEFT
350
AF7
  3
UCSORGRIGHT
350
AF8
  3
UCSORGTOP
350
AF5
  3
UCSORTHOREF
350
AF2
  3
UCSORTHOVIEW
350
AF3
  3
VERSIONGUID
350
AE7
  0
DICTIONARY
  5
2C
102
{ACAD_REACTORS
330
C
102
}
330
C
100
AcDbDictionary
  3
DIMASSOC
350
2E
  3
HIDETEXT
350
2D
  0
XRECORD
  5
AFC
102
{ACAD_REACTORS
330
965
102
}
330
965
100
AcDbXrecord
340
1F
  0
XRECORD
  5
AFB
102
{ACAD_REACTORS
330
963
102
}
330
963
100
AcDbXrecord
340
1B
  0
DIMASSOC
  5
824
102
{ACAD_REACTORS
330
818
102
}
330
818
100
AcDbDimAssoc
330
809
 90
        3
 70
     0
 71
     0
  1
AcDbOsnapPointRef
 72
    13
331
752
 73
     2
 91
        0
 40
0.0
 10
-21.07624799999999
 20
2.7749331
 30
0.0
 75
     0
  1
AcDbOsnapPointRef
 72
    13
331
753
 73
     2
 91
        0
 40
0.0
 10
-27.03624699999998
 20
2.7749331
 30
0.0
 75
     0
  0
DIMASSOC
  5
83C
102
{ACAD_REACTORS
330
832
102
}
330
832
100
AcDbDimAssoc
330
825
 90
        3
 70
     0
 71
     0
  1
AcDbOsnapPointRef
 72
     1
331
759
 73
     2
 91
        0
 40
1.0
 10
-26.31625399999999
 20
27.234934
 30
0.0
 75
     0
  1
AcDbOsnapPointRef
 72
     1
331
75E
 73
     2
 91
        0
 40
1.0
 10
-27.03624699999998
 20
-4.265068099999997
 30
0.0
 75
     0
  0
DIMASSOC
  5
854
102
{ACAD_REACTORS
330
84A
102
}
330
84A
100
AcDbDimAssoc
330
83D
 90
        3
 70
     0
 71
     0
  1
AcDbOsnapPointRef
 72
     1
331
74C
 73
     2
 91
        0
 40
1.0
 10
2.9287562
 20
6.9349365
 30
0.0
 75
     0
  1
AcDbOsnapPointRef
 72
     1
331
74B
 73
     2
 91
        0
 40
1.0
 10
25.158661
 20
6.9349365
 30
0.0
 75
     0
  0
DIMASSOC
  5
882
102
{ACAD_REACTORS
330
878
102
}
330
878
100
AcDbDimAssoc
330
86B
 90
        3
 70
     0
 71
     0
  1
AcDbOsnapPointRef
 72
    13
331
736
 73
     2
 91
        0
 40
4.712388980384688
 10
24.55865499999999
 20
6.334936480000001
 30
0.0
 75
     0
  1
AcDbOsnapPointRef
 72
     1
331
760
 73
     2
 91
        0
 40
1.0
 10
24.561974
 20
19.03491999999999
 30
0.0
 75
     0
  0
DIMASSOC
  5
89E
102
{ACAD_REACTORS
330
892
102
}
330
892
100
AcDbDimAssoc
330
883
 90
        3
 70
     0
 71
     0
  1
AcDbOsnapPointRef
 72
     1
331
760
 73
     2
 91
        0
 40
1.0
 10
24.561974
 20
19.03491999999999
 30
0.0
 75
     0
  1
AcDbOsnapPointRef
 72
     1
331
75F
 73
     2
 91
        0
 40
1.0
 10
22.59365799999998
 20
22.234932
 30
0.0
 75
     0
  0
DIMASSOC
  5
8B6
102
{ACAD_REACTORS
330
8AC
102
}
330
8AC
100
AcDbDimAssoc
330
89F
 90
        3
 70
     0
 71
     0
  1
AcDbOsnapPointRef
 72
     1
331
73D
 73
     2
 91
        0
 40
1.0
 10
-24.056244
 20
-54.69591499999999
 30
0.0
 75
     0
  1
AcDbOsnapPointRef
 72
     1
331
73C
 73
     2
 91
        0
 40
1.0
 10
14.04374699999999
 20
-58.84455899999998
 30
0.0
 75
     0
  0
DIMASSOC
  5
9F9
102
{ACAD_REACTORS
330
9EF
102
}
330
9EF
100
AcDbDimAssoc
330
9E2
 90
        3
 70
     0
 71
     0
  1
AcDbOsnapPointRef
 72
     1
331
741
 73
     2
 91
        0
 40
1.0
 10
-24.00624099999999
 20
-51.757736
 30
0.0
 75
     0
  1
AcDbOsnapPointRef
 72
    13
331
744
 73
     2
 91
        0
 40
0.0
 10
-24.00624099999999
 20
-34.557732
 30
0.0
 75
     0
  0
MLINESTYLE
  5
18
102
{ACAD_REACTORS
330
17
102
}
330
17
100
AcDbMlineStyle
  2
STANDARD
 70
     0
  3

 62
   256
 51
90.0
 52
90.0
 71
     2
 49
0.5
 62
   256
  6
BYLAYER
 49
-0.5
 62
   256
  6
BYLAYER
  0
ACDBPLACEHOLDER
  5
F
102
{ACAD_REACTORS
330
E
102
}
330
E
100
AcDbPlaceHolder
280
     0
  0
XRECORD
  5
AE5
102
{ACAD_REACTORS
330
ADB
102
}
330
ADB
100
AcDbXrecord
 90
        0
  0
XRECORD
  5
AE6
102
{ACAD_REACTORS
330
ADB
102
}
330
ADB
100
AcDbXrecord
  1
{5B0931FC-56BC-4C5C-811F-96A4ED1ECC1B}
  0
XRECORD
  5
ADE
102
{ACAD_REACTORS
330
ADB
102
}
330
ADB
100
AcDbXrecord
  1

  0
XRECORD
  5
AE4
102
{ACAD_REACTORS
330
ADB
102
}
330
ADB
100
AcDbXrecord
 90
        4
  0
XRECORD
  5
AE0
102
{ACAD_REACTORS
330
ADB
102
}
330
ADB
100
AcDbXrecord
340
1A
  0
XRECORD
  5
AE3
102
{ACAD_REACTORS
330
ADB
102
}
330
ADB
100
AcDbXrecord
 90
    10781
  0
XRECORD
  5
AE1
102
{ACAD_REACTORS
330
ADB
102
}
330
ADB
100
AcDbXrecord
340
19
  0
XRECORD
  5
AE2
102
{ACAD_REACTORS
330
ADB
102
}
330
ADB
100
AcDbXrecord
340
E
  0
XRECORD
  5
AE8
102
{ACAD_REACTORS
330
ADB
102
}
330
ADB
100
AcDbXrecord
 40
0.0
  0
XRECORD
  5
AEB
102
{ACAD_REACTORS
330
ADB
102
}
330
ADB
100
AcDbXrecord
340
0
  0
XRECORD
  5
AF1
102
{ACAD_REACTORS
330
ADB
102
}
330
ADB
100
AcDbXrecord
 10
0.0
 20
0.0
 30
0.0
  0
XRECORD
  5
AED
102
{ACAD_REACTORS
330
ADB
102
}
330
ADB
100
AcDbXrecord
 10
0.0
 20
0.0
 30
0.0
  0
XRECORD
  5
AF0
102
{ACAD_REACTORS
330
ADB
102
}
330
ADB
100
AcDbXrecord
 10
0.0
 20
0.0
 30
0.0
  0
XRECORD
  5
AEE
102
{ACAD_REACTORS
330
ADB
102
}
330
ADB
100
AcDbXrecord
 10
0.0
 20
0.0
 30
0.0
  0
XRECORD
  5
AEF
102
{ACAD_REACTORS
330
ADB
102
}
330
ADB
100
AcDbXrecord
 10
0.0
 20
0.0
 30
0.0
  0
XRECORD
  5
AEC
102
{ACAD_REACTORS
330
ADB
102
}
330
ADB
100
AcDbXrecord
 10
0.0
 20
0.0
 30
0.0
  0
XRECORD
  5
AE9
102
{ACAD_REACTORS
330
ADB
102
}
330
ADB
100
AcDbXrecord
340
0
  0
XRECORD
  5
AEA
102
{ACAD_REACTORS
330
ADB
102
}
330
ADB
100
AcDbXrecord
 70
     0
  0
XRECORD
  5
ADF
102
{ACAD_REACTORS
330
ADB
102
}
330
ADB
100
AcDbXrecord
  1
MONOCHROME.CTB
  0
XRECORD
  5
ADC
102
{ACAD_REACTORS
330
ADB
102
}
330
ADB
100
AcDbXrecord
 90
        1
  0
XRECORD
  5
ADD
102
{ACAD_REACTORS
330
ADB
102
}
330
ADB
100
AcDbXrecord
 90
       70
  0
XRECORD
  5
AF4
102
{ACAD_REACTORS
330
ADB
102
}
330
ADB
100
AcDbXrecord
340
0
  0
XRECORD
  5
AFA
102
{ACAD_REACTORS
330
ADB
102
}
330
ADB
100
AcDbXrecord
 10
0.0
 20
0.0
 30
0.0
  0
XRECORD
  5
AF6
102
{ACAD_REACTORS
330
ADB
102
}
330
ADB
100
AcDbXrecord
 10
0.0
 20
0.0
 30
0.0
  0
XRECORD
  5
AF9
102
{ACAD_REACTORS
330
ADB
102
}
330
ADB
100
AcDbXrecord
 10
0.0
 20
0.0
 30
0.0
  0
XRECORD
  5
AF7
102
{ACAD_REACTORS
330
ADB
102
}
330
ADB
100
AcDbXrecord
 10
0.0
 20
0.0
 30
0.0
  0
XRECORD
  5
AF8
102
{ACAD_REACTORS
330
ADB
102
}
330
ADB
100
AcDbXrecord
 10
0.0
 20
0.0
 30
0.0
  0
XRECORD
  5
AF5
102
{ACAD_REACTORS
330
ADB
102
}
330
ADB
100
AcDbXrecord
 10
0.0
 20
0.0
 30
0.0
  0
XRECORD
  5
AF2
102
{ACAD_REACTORS
330
ADB
102
}
330
ADB
100
AcDbXrecord
340
0
  0
XRECORD
  5
AF3
102
{ACAD_REACTORS
330
ADB
102
}
330
ADB
100
AcDbXrecord
 70
     0
  0
XRECORD
  5
AE7
102
{ACAD_REACTORS
330
ADB
102
}
330
ADB
100
AcDbXrecord
  1
{C31221EF-1697-45D7-ABDC-18E3DBE3EAA5}
  0
DICTIONARYVAR
  5
2E
102
{ACAD_REACTORS
330
2C
102
}
330
2C
100
DictionaryVariables
280
     0
  1
2
  0
DICTIONARYVAR
  5
2D
102
{ACAD_REACTORS
330
2C
102
}
330
2C
100
DictionaryVariables
280
     0
  1
1
  0
ENDSEC
  0
EOF
