  0
SECTION
  2
HEADER
  9
$ACADVER
  1
AC1014
  9
$ACADMAINTVER
 70
     9
  9
$DWGCODEPAGE
  3
ANSI_932
  9
$INSBASE
 10
0.0
 20
0.0
 30
0.0
  9
$EXTMIN
 10
-98.4389747205742
 20
-98.79630345232904
 30
0.0
  9
$EXTMAX
 10
95.03241071960536
 20
85.70364620000022
 30
0.0
  9
$LIMMIN
 10
0.0
 20
0.0
  9
$LIMMAX
 10
420.0
 20
297.0
  9
$ORTHOMODE
 70
     0
  9
$REGENMODE
 70
     1
  9
$FILLMODE
 70
     1
  9
$QTEXTMODE
 70
     0
  9
$MIRRTEXT
 70
     1
  9
$DRAGMODE
 70
     2
  9
$LTSCALE
 40
1.0
  9
$OSMODE
 70
    37
  9
$ATTMODE
 70
     1
  9
$TEXTSIZE
 40
2.5
  9
$TRACEWID
 40
1.0
  9
$TEXTSTYLE
  7
STANDARD
  9
$CLAYER
  8
0
  9
$CELTYPE
  6
BYLAYER
  9
$CECOLOR
 62
   256
  9
$CELTSCALE
 40
1.0
  9
$DELOBJ
 70
     1
  9
$DISPSILH
 70
     0
  9
$DIMSCALE
 40
1.0
  9
$DIMASZ
 40
3.5
  9
$DIMEXO
 40
0.0
  9
$DIMDLI
 40
3.75
  9
$DIMRND
 40
0.0
  9
$DIMDLE
 40
0.0
  9
$DIMEXE
 40
1.5
  9
$DIMTP
 40
0.0
  9
$DIMTM
 40
0.0
  9
$DIMTXT
 40
3.5
  9
$DIMCEN
 40
2.5
  9
$DIMTSZ
 40
0.0
  9
$DIMTOL
 70
     0
  9
$DIMLIM
 70
     0
  9
$DIMTIH
 70
     0
  9
$DIMTOH
 70
     0
  9
$DIMSE1
 70
     0
  9
$DIMSE2
 70
     0
  9
$DIMTAD
 70
     1
  9
$DIMZIN
 70
     8
  9
$DIMBLK
  1

  9
$DIMASO
 70
     1
  9
$DIMSHO
 70
     1
  9
$DIMPOST
  1

  9
$DIMAPOST
  1

  9
$DIMALT
 70
     0
  9
$DIMALTD
 70
     3
  9
$DIMALTF
 40
0.03937007874016
  9
$DIMLFAC
 40
1.0
  9
$DIMTOFL
 70
     1
  9
$DIMTVP
 40
0.0
  9
$DIMTIX
 70
     0
  9
$DIMSOXD
 70
     0
  9
$DIMSAH
 70
     0
  9
$DIMBLK1
  1

  9
$DIMBLK2
  1

  9
$DIMSTYLE
  2
ISO-25
  9
$DIMCLRD
 70
     1
  9
$DIMCLRE
 70
     1
  9
$DIMCLRT
 70
     1
  9
$DIMTFAC
 40
1.0
  9
$DIMGAP
 40
1.0
  9
$DIMJUST
 70
     0
  9
$DIMSD1
 70
     0
  9
$DIMSD2
 70
     0
  9
$DIMTOLJ
 70
     0
  9
$DIMTZIN
 70
     8
  9
$DIMALTZ
 70
     0
  9
$DIMALTTZ
 70
     0
  9
$DIMFIT
 70
     3
  9
$DIMUPT
 70
     0
  9
$DIMUNIT
 70
     2
  9
$DIMDEC
 70
     2
  9
$DIMTDEC
 70
     2
  9
$DIMALTU
 70
     2
  9
$DIMALTTD
 70
     3
  9
$DIMTXSTY
  7
STANDARD
  9
$DIMAUNIT
 70
     0
  9
$LUNITS
 70
     2
  9
$LUPREC
 70
     4
  9
$SKETCHINC
 40
1.0
  9
$FILLETRAD
 40
10.0
  9
$AUNITS
 70
     0
  9
$AUPREC
 70
     0
  9
$MENU
  1
.
  9
$ELEVATION
 40
0.0
  9
$PELEVATION
 40
0.0
  9
$THICKNESS
 40
0.0
  9
$LIMCHECK
 70
     0
  9
$BLIPMODE
 70
     0
  9
$CHAMFERA
 40
10.0
  9
$CHAMFERB
 40
10.0
  9
$CHAMFERC
 40
20.0
  9
$CHAMFERD
 40
0.0
  9
$SKPOLY
 70
     0
  9
$TDCREATE
 40
2453755.379305208
  9
$TDUPDATE
 40
2454530.723071828
  9
$TDINDWG
 40
0.0146799653
  9
$TDUSRTIMER
 40
0.0146794329
  9
$USRTIMER
 70
     1
  9
$ANGBASE
 50
0.0
  9
$ANGDIR
 70
     0
  9
$PDMODE
 70
     0
  9
$PDSIZE
 40
0.0
  9
$PLINEWID
 40
0.0
  9
$COORDS
 70
     1
  9
$SPLFRAME
 70
     0
  9
$SPLINETYPE
 70
     6
  9
$SPLINESEGS
 70
     8
  9
$ATTDIA
 70
     0
  9
$ATTREQ
 70
     1
  9
$HANDLING
 70
     1
  9
$HANDSEED
  5
679
  9
$SURFTAB1
 70
     6
  9
$SURFTAB2
 70
     6
  9
$SURFTYPE
 70
     6
  9
$SURFU
 70
     6
  9
$SURFV
 70
     6
  9
$UCSNAME
  2

  9
$UCSORG
 10
0.0
 20
0.0
 30
0.0
  9
$UCSXDIR
 10
1.0
 20
0.0
 30
0.0
  9
$UCSYDIR
 10
0.0
 20
1.0
 30
0.0
  9
$PUCSNAME
  2

  9
$PUCSORG
 10
0.0
 20
0.0
 30
0.0
  9
$PUCSXDIR
 10
1.0
 20
0.0
 30
0.0
  9
$PUCSYDIR
 10
0.0
 20
1.0
 30
0.0
  9
$USERI1
 70
     0
  9
$USERI2
 70
     0
  9
$USERI3
 70
     0
  9
$USERI4
 70
     0
  9
$USERI5
 70
     0
  9
$USERR1
 40
0.0
  9
$USERR2
 40
0.0
  9
$USERR3
 40
0.0
  9
$USERR4
 40
0.0
  9
$USERR5
 40
0.0
  9
$WORLDVIEW
 70
     1
  9
$SHADEDGE
 70
     3
  9
$SHADEDIF
 70
    70
  9
$TILEMODE
 70
     1
  9
$MAXACTVP
 70
    64
  9
$PINSBASE
 10
0.0
 20
0.0
 30
0.0
  9
$PLIMCHECK
 70
     0
  9
$PEXTMIN
 10
1.000000000000000E+20
 20
1.000000000000000E+20
 30
1.000000000000000E+20
  9
$PEXTMAX
 10
-1.000000000000000E+20
 20
-1.000000000000000E+20
 30
-1.000000000000000E+20
  9
$PLIMMIN
 10
0.0
 20
0.0
  9
$PLIMMAX
 10
420.0
 20
297.0
  9
$UNITMODE
 70
     0
  9
$VISRETAIN
 70
     1
  9
$PLINEGEN
 70
     0
  9
$PSLTSCALE
 70
     1
  9
$TREEDEPTH
 70
  3020
  9
$PICKSTYLE
 70
     1
  9
$CMLSTYLE
  2
STANDARD
  9
$CMLJUST
 70
     0
  9
$CMLSCALE
 40
20.0
  9
$PROXYGRAPHICS
 70
     1
  9
$MEASUREMENT
 70
     1
  0
ENDSEC
  0
SECTION
  2
CLASSES
  0
CLASS
  1
ACDBDICTIONARYWDFLT
  2
AcDbDictionaryWithDefault
  3
AutoCAD 2000
 90
        0
280
     0
281
     0
  0
CLASS
  1
ACDBPLACEHOLDER
  2
AcDbPlaceHolder
  3
AutoCAD 2000
 90
        0
280
     0
281
     0
  0
CLASS
  1
LAYOUT
  2
AcDbLayout
  3
AutoCAD 2000
 90
        0
280
     0
281
     0
  0
CLASS
  1
DICTIONARYVAR
  2
AcDbDictionaryVar
  3
AutoCAD 2000
 90
        0
280
     0
281
     0
  0
CLASS
  1
DIMASSOC
  2
AcDbDimAssoc
  3
"AcDbDimAssoc|Product Desc:     AcDim ARX App For Dimension|Company:          Autodesk, Inc.|WEB Address:      www.autodesk.com"
 90
        0
280
     0
281
     0
  0
CLASS
  1
LONG_TRANSACTION
  2
AcDbLongTransaction
  3
AutoCAD 2000
 90
        0
280
     0
281
     0
  0
CLASS
  1
LWPOLYLINE
  2
AcDbPolyline
  3
AutoCAD 2000
 90
        0
280
     0
281
     1
  0
CLASS
  1
HATCH
  2
AcDbHatch
  3
AutoCAD 2000
 90
        0
280
     0
281
     1
  0
CLASS
  1
XRECORD
  2
AcDbXrecord
  3
AutoCAD 2000
 90
        0
280
     0
281
     0
  0
CLASS
  1
LONG_TRANSACTION
  2
AcDbLongTransaction
  3
AutoCAD 2000
 90
        0
280
     0
281
     0
  0
CLASS
  1
LWPOLYLINE
  2
AcDbPolyline
  3
AutoCAD 2000
 90
        0
280
     0
281
     1
  0
CLASS
  1
HATCH
  2
AcDbHatch
  3
AutoCAD 2000
 90
        0
280
     0
281
     1
  0
CLASS
  1
XRECORD
  2
AcDbXrecord
  3
AutoCAD 2000
 90
        0
280
     0
281
     0
  0
ENDSEC
  0
SECTION
  2
TABLES
  0
TABLE
  2
VPORT
  5
8
330
0
100
AcDbSymbolTable
 70
     2
  0
VPORT
  5
655
330
8
100
AcDbSymbolTableRecord
100
AcDbViewportTableRecord
  2
*ACTIVE
 70
     0
 10
0.0
 20
0.0
 11
1.0
 21
1.0
 12
-1.706310999963556
 22
3.56106032012473
 13
0.0
 23
0.0
 14
10.0
 24
10.0
 15
10.0
 25
10.0
 16
0.0
 26
0.0
 36
1.0
 17
0.0
 27
0.0
 37
0.0
 40
206.9151941262846
 41
1.621593291404612
 42
50.0
 43
0.0
 44
0.0
 50
0.0
 51
0.0
 71
     0
 72
   100
 73
     1
 74
     3
 75
     0
 76
     0
 77
     0
 78
     0
  0
ENDTAB
  0
TABLE
  2
LTYPE
  5
5
330
0
100
AcDbSymbolTable
 70
     2
  0
LTYPE
  5
14
330
5
100
AcDbSymbolTableRecord
100
AcDbLinetypeTableRecord
  2
BYBLOCK
 70
     0
  3

 72
    65
 73
     0
 40
0.0
  0
LTYPE
  5
15
330
5
100
AcDbSymbolTableRecord
100
AcDbLinetypeTableRecord
  2
BYLAYER
 70
     0
  3

 72
    65
 73
     0
 40
0.0
  0
LTYPE
  5
16
330
5
100
AcDbSymbolTableRecord
100
AcDbLinetypeTableRecord
  2
CONTINUOUS
 70
     0
  3
Solid line
 72
    65
 73
     0
 40
0.0
  0
LTYPE
  5
EB
330
5
100
AcDbSymbolTableRecord
100
AcDbLinetypeTableRecord
  2
CENTER
 70
     0
  3
____ _ ____ _ ____ _ ____ _ ____ _ ____ _ ____
 72
    65
 73
     4
 40
17.5
 49
13.0
 74
     0
 49
-1.5
 74
     0
 49
1.5
 74
     0
 49
-1.5
 74
     0
  0
ENDTAB
  0
TABLE
  2
LAYER
  5
2
330
0
100
AcDbSymbolTable
 70
     2
  0
LAYER
  5
10
330
2
100
AcDbSymbolTableRecord
100
AcDbLayerTableRecord
  2
0
 70
     0
 62
     7
  6
CONTINUOUS
  0
LAYER
  5
EC
330
2
100
AcDbSymbolTableRecord
100
AcDbLayerTableRecord
  2
DEFPOINTS
 70
     0
 62
     7
  6
CONTINUOUS
  0
ENDTAB
  0
TABLE
  2
STYLE
  5
3
330
0
100
AcDbSymbolTable
 70
     1
  0
STYLE
  5
11
330
3
100
AcDbSymbolTableRecord
100
AcDbTextStyleTableRecord
  2
STANDARD
 70
     0
 40
0.0
 41
1.0
 50
0.0
 71
     0
 42
2.5
  3
txt.shx
  4
bigfont.shx
  0
ENDTAB
  0
TABLE
  2
VIEW
  5
6
330
0
100
AcDbSymbolTable
 70
     0
  0
ENDTAB
  0
TABLE
  2
UCS
  5
7
330
0
100
AcDbSymbolTable
 70
     0
  0
ENDTAB
  0
TABLE
  2
APPID
  5
9
330
0
100
AcDbSymbolTable
 70
     1
  0
APPID
  5
12
330
9
100
AcDbSymbolTableRecord
100
AcDbRegAppTableRecord
  2
ACAD
 70
     0
  0
ENDTAB
  0
TABLE
  2
DIMSTYLE
  5
A
330
0
100
AcDbSymbolTable
 70
     1
  0
DIMSTYLE
105
27
102
{ACAD_REACTORS
330
3F4
330
41E
330
443
330
45F
330
47B
330
497
330
4B8
330
4D0
330
4E8
330
500
330
518
330
530
102
}
330
A
100
AcDbSymbolTableRecord
100
AcDbDimStyleTableRecord
  2
ISO-25
 70
     0
  3

  4

  5

  6

  7

 40
1.0
 41
3.5
 42
0.0
 43
3.75
 44
1.5
 45
0.0
 46
0.0
 47
0.0
 48
0.0
140
3.5
141
2.5
142
0.0
143
0.03937007874016
144
1.0
145
0.0
146
1.0
147
1.0
 71
     0
 72
     0
 73
     0
 74
     0
 75
     0
 76
     0
 77
     1
 78
     8
170
     0
171
     3
172
     1
173
     0
174
     0
175
     0
176
     1
177
     1
178
     1
270
     2
271
     2
272
     2
273
     2
274
     3
340
11
275
     0
280
     0
281
     0
282
     0
283
     0
284
     8
285
     0
286
     0
287
     3
288
     0
  0
ENDTAB
  0
TABLE
  2
BLOCK_RECORD
  5
1
330
0
100
AcDbSymbolTable
 70
    12
  0
BLOCK_RECORD
  5
1F
102
{ACAD_XDICTIONARY
360
64A
102
}
330
1
100
AcDbSymbolTableRecord
100
AcDbBlockTableRecord
  2
*MODEL_SPACE
  0
BLOCK_RECORD
  5
1B
102
{ACAD_XDICTIONARY
360
648
102
}
330
1
100
AcDbSymbolTableRecord
100
AcDbBlockTableRecord
  2
*PAPER_SPACE
  0
BLOCK_RECORD
  5
3F5
330
1
100
AcDbSymbolTableRecord
100
AcDbBlockTableRecord
  2
*D0
  0
BLOCK_RECORD
  5
41F
330
1
100
AcDbSymbolTableRecord
100
AcDbBlockTableRecord
  2
*D1
  0
BLOCK_RECORD
  5
444
330
1
100
AcDbSymbolTableRecord
100
AcDbBlockTableRecord
  2
*D2
  0
BLOCK_RECORD
  5
460
330
1
100
AcDbSymbolTableRecord
100
AcDbBlockTableRecord
  2
*D3
  0
BLOCK_RECORD
  5
47C
330
1
100
AcDbSymbolTableRecord
100
AcDbBlockTableRecord
  2
*D4
  0
BLOCK_RECORD
  5
498
330
1
100
AcDbSymbolTableRecord
100
AcDbBlockTableRecord
  2
*D5
  0
BLOCK_RECORD
  5
4B9
330
1
100
AcDbSymbolTableRecord
100
AcDbBlockTableRecord
  2
*D6
  0
BLOCK_RECORD
  5
4D1
330
1
100
AcDbSymbolTableRecord
100
AcDbBlockTableRecord
  2
*D7
  0
BLOCK_RECORD
  5
4E9
330
1
100
AcDbSymbolTableRecord
100
AcDbBlockTableRecord
  2
*D8
  0
BLOCK_RECORD
  5
501
330
1
100
AcDbSymbolTableRecord
100
AcDbBlockTableRecord
  2
*D9
  0
BLOCK_RECORD
  5
519
330
1
100
AcDbSymbolTableRecord
100
AcDbBlockTableRecord
  2
*D10
  0
BLOCK_RECORD
  5
531
330
1
100
AcDbSymbolTableRecord
100
AcDbBlockTableRecord
  2
*D11
  0
ENDTAB
  0
ENDSEC
  0
SECTION
  2
BLOCKS
  0
BLOCK
  5
20
330
1F
100
AcDbEntity
  8
0
100
AcDbBlockBegin
  2
*MODEL_SPACE
 70
     0
 10
0.0
 20
0.0
 30
0.0
  3
*MODEL_SPACE
  1

  0
ENDBLK
  5
21
330
1F
100
AcDbEntity
  8
0
100
AcDbBlockEnd
  0
BLOCK
  5
1C
330
1B
100
AcDbEntity
 67
     1
  8
0
100
AcDbBlockBegin
  2
*PAPER_SPACE
 70
     0
 10
0.0
 20
0.0
 30
0.0
  3
*PAPER_SPACE
  1

  0
ENDBLK
  5
1D
330
1B
100
AcDbEntity
 67
     1
  8
0
100
AcDbBlockEnd
  0
BLOCK
  5
3FF
330
3F5
100
AcDbEntity
  8
0
100
AcDbBlockBegin
  2
*D0
 70
     1
 10
0.0
 20
0.0
 30
0.0
  3
*D0
  1

  0
LINE
  5
600
330
3F5
100
AcDbEntity
  8
0
 62
     1
100
AcDbLine
 10
62.849998
 20
19.30999899999997
 30
0.0
 11
94.76337432423951
 21
19.30999899999997
 31
0.0
  0
LINE
  5
601
330
3F5
100
AcDbEntity
  8
0
 62
     1
100
AcDbLine
 10
62.849998
 20
35.189999
 30
0.0
 11
94.76337432423951
 21
35.18999899999999
 31
0.0
  0
LINE
  5
602
330
3F5
100
AcDbEntity
  8
0
 62
     1
100
AcDbLine
 10
93.26337432423953
 20
22.80999899999995
 30
0.0
 11
93.26337432423953
 21
31.68999899999999
 31
0.0
  0
SOLID
  5
603
330
3F5
100
AcDbEntity
  8
0
 62
     1
100
AcDbTrace
 10
92.68004099090616
 20
22.80999899999995
 30
0.0
 11
93.84670765757283
 21
22.80999899999995
 31
0.0
 12
93.26337432423953
 22
19.30999899999997
 32
0.0
 13
93.26337432423953
 23
19.30999899999997
 33
0.0
  0
SOLID
  5
604
330
3F5
100
AcDbEntity
  8
0
 62
     1
100
AcDbTrace
 10
92.68004099090616
 20
31.68999899999999
 30
0.0
 11
93.84670765757283
 21
31.68999899999999
 31
0.0
 12
93.26337432423953
 22
35.18999899999999
 32
0.0
 13
93.26337432423953
 23
35.18999899999999
 33
0.0
  0
MTEXT
  5
605
330
3F5
100
AcDbEntity
  8
0
 62
     1
100
AcDbMText
 10
90.51337432423952
 20
26.8449741191526
 30
0.0
 40
3.5
 41
0.0
 71
     5
 72
     1
  1
15.88
 11
0.0000000000000001
 21
1.0
 31
0.0
1001
ACAD
1000
MTEXTBEGIN
1070
    73
1070
     1
1070
    44
1040
1.0
1070
    74
1070
     0
1000
MTEXTEND
1000
MTEXTBEGIN
1070
    73
1070
     1
1070
    44
1040
1.0
1070
    74
1070
     0
1000
MTEXTEND
  0
POINT
  5
606
330
3F5
100
AcDbEntity
  8
DEFPOINTS
 62
     0
100
AcDbPoint
 10
62.849998
 20
19.30999899999997
 30
0.0
  0
POINT
  5
607
330
3F5
100
AcDbEntity
  8
DEFPOINTS
 62
     0
100
AcDbPoint
 10
62.849998
 20
35.189999
 30
0.0
  0
POINT
  5
608
330
3F5
100
AcDbEntity
  8
DEFPOINTS
 62
     0
100
AcDbPoint
 10
93.26337432423953
 20
35.18999899999999
 30
0.0
  0
ENDBLK
  5
400
330
3F5
100
AcDbEntity
  8
0
100
AcDbBlockEnd
  0
BLOCK
  5
42B
330
41F
100
AcDbEntity
  8
0
100
AcDbBlockBegin
  2
*D1
 70
     1
 10
0.0
 20
0.0
 30
0.0
  3
*D1
  1

  0
LINE
  5
595
330
41F
100
AcDbEntity
  8
0
 62
     1
100
AcDbLine
 10
42.86000099999999
 20
20.91
 30
0.0
 11
42.86000099999999
 21
23.56505896529744
 31
0.0
  0
LINE
  5
596
330
41F
100
AcDbEntity
  8
0
 62
     1
100
AcDbLine
 10
58.74000200000001
 20
20.91
 30
0.0
 11
58.74000200000001
 21
23.56505896529744
 31
0.0
  0
LINE
  5
597
330
41F
100
AcDbEntity
  8
0
 62
     1
100
AcDbLine
 10
39.36000099999999
 20
22.06505896529745
 30
0.0
 11
35.86000099999999
 21
22.06505896529745
 31
0.0
  0
LINE
  5
598
330
41F
100
AcDbEntity
  8
0
 62
     1
100
AcDbLine
 10
62.24000200000001
 20
22.06505896529745
 30
0.0
 11
84.07333533333334
 21
22.06505896529745
 31
0.0
  0
LINE
  5
599
330
41F
100
AcDbEntity
  8
0
 62
     1
100
AcDbLine
 10
42.86000099999999
 20
22.06505896529745
 30
0.0
 11
58.74000200000001
 21
22.06505896529745
 31
0.0
  0
SOLID
  5
59A
330
41F
100
AcDbEntity
  8
0
 62
     1
100
AcDbTrace
 10
39.36000099999999
 20
22.64839229863078
 30
0.0
 11
39.36000099999999
 21
21.48172563196411
 31
0.0
 12
42.86000099999999
 22
22.06505896529745
 32
0.0
 13
42.86000099999999
 23
22.06505896529745
 33
0.0
  0
SOLID
  5
59B
330
41F
100
AcDbEntity
  8
0
 62
     1
100
AcDbTrace
 10
62.24000200000001
 20
22.64839229863078
 30
0.0
 11
62.24000200000001
 21
21.48172563196411
 31
0.0
 12
58.74000200000001
 22
22.06505896529745
 32
0.0
 13
58.74000200000001
 23
22.06505896529745
 33
0.0
  0
MTEXT
  5
59C
330
41F
100
AcDbEntity
  8
0
 62
     1
100
AcDbMText
 10
74.90666866666669
 20
24.81505896529744
 30
0.0
 40
3.5
 41
0.0
 71
     5
 72
     1
  1
φ15.88
1001
ACAD
1000
MTEXTBEGIN
1070
    73
1070
     1
1070
    44
1040
1.0
1070
    74
1070
     0
1000
MTEXTEND
1000
MTEXTBEGIN
1070
    73
1070
     1
1070
    44
1040
1.0
1070
    74
1070
     0
1000
MTEXTEND
  0
POINT
  5
59D
330
41F
100
AcDbEntity
  8
DEFPOINTS
 62
     0
100
AcDbPoint
 10
42.86000099999999
 20
20.91
 30
0.0
  0
POINT
  5
59E
330
41F
100
AcDbEntity
  8
DEFPOINTS
 62
     0
100
AcDbPoint
 10
58.74000200000001
 20
20.91
 30
0.0
  0
POINT
  5
59F
330
41F
100
AcDbEntity
  8
DEFPOINTS
 62
     0
100
AcDbPoint
 10
58.74000200000001
 20
22.06505896529745
 30
0.0
  0
ENDBLK
  5
42C
330
41F
100
AcDbEntity
  8
0
100
AcDbBlockEnd
  0
BLOCK
  5
450
330
444
100
AcDbEntity
  8
0
100
AcDbBlockBegin
  2
*D2
 70
     1
 10
0.0
 20
0.0
 30
0.0
  3
*D2
  1

  0
LINE
  5
609
330
444
100
AcDbEntity
  8
0
 62
     1
100
AcDbLine
 10
62.849998
 20
35.189999
 30
0.0
 11
94.76337432423951
 21
35.18999899999999
 31
0.0
  0
LINE
  5
60A
330
444
100
AcDbEntity
  8
0
 62
     1
100
AcDbLine
 10
62.849998
 20
39.189999
 30
0.0
 11
94.76337432423951
 21
39.18999899999999
 31
0.0
  0
LINE
  5
60B
330
444
100
AcDbEntity
  8
0
 62
     1
100
AcDbLine
 10
93.26337432423953
 20
31.68999899999999
 30
0.0
 11
93.26337432423953
 21
28.18999899999999
 31
0.0
  0
LINE
  5
60C
330
444
100
AcDbEntity
  8
0
 62
     1
100
AcDbLine
 10
93.26337432423953
 20
42.68999899999999
 30
0.0
 11
93.26337432423953
 21
54.60666566666665
 31
0.0
  0
LINE
  5
60D
330
444
100
AcDbEntity
  8
0
 62
     1
100
AcDbLine
 10
93.26337432423953
 20
35.18999899999999
 30
0.0
 11
93.26337432423953
 21
39.18999899999999
 31
0.0
  0
SOLID
  5
60E
330
444
100
AcDbEntity
  8
0
 62
     1
100
AcDbTrace
 10
92.68004099090616
 20
31.68999899999999
 30
0.0
 11
93.84670765757283
 21
31.68999899999999
 31
0.0
 12
93.26337432423953
 22
35.18999899999999
 32
0.0
 13
93.26337432423953
 23
35.18999899999999
 33
0.0
  0
SOLID
  5
60F
330
444
100
AcDbEntity
  8
0
 62
     1
100
AcDbTrace
 10
92.68004099090621
 20
42.68999899999999
 30
0.0
 11
93.84670765757283
 21
42.68999899999999
 31
0.0
 12
93.26337432423953
 22
39.18999899999999
 32
0.0
 13
93.26337432423953
 23
39.18999899999999
 33
0.0
  0
MTEXT
  5
610
330
444
100
AcDbEntity
  8
0
 62
     1
100
AcDbMText
 10
90.51337432423952
 20
50.39833233333332
 30
0.0
 40
3.5
 41
0.0
 71
     5
 72
     1
  1
4.0
 11
0.0000000000000001
 21
1.0
 31
0.0
1001
ACAD
1000
MTEXTBEGIN
1070
    73
1070
     1
1070
    44
1040
1.0
1070
    74
1070
     0
1000
MTEXTEND
1000
MTEXTBEGIN
1070
    73
1070
     1
1070
    44
1040
1.0
1070
    74
1070
     0
1000
MTEXTEND
  0
POINT
  5
611
330
444
100
AcDbEntity
  8
DEFPOINTS
 62
     0
100
AcDbPoint
 10
62.849998
 20
35.189999
 30
0.0
  0
POINT
  5
612
330
444
100
AcDbEntity
  8
DEFPOINTS
 62
     0
100
AcDbPoint
 10
62.849998
 20
39.189999
 30
0.0
  0
POINT
  5
613
330
444
100
AcDbEntity
  8
DEFPOINTS
 62
     0
100
AcDbPoint
 10
93.26337432423953
 20
39.18999899999999
 30
0.0
  0
ENDBLK
  5
451
330
444
100
AcDbEntity
  8
0
100
AcDbBlockEnd
  0
BLOCK
  5
46C
330
460
100
AcDbEntity
  8
0
100
AcDbBlockBegin
  2
*D3
 70
     1
 10
0.0
 20
0.0
 30
0.0
  3
*D3
  1

  0
LINE
  5
5AB
330
460
100
AcDbEntity
  8
0
 62
     1
100
AcDbLine
 10
-46.830002
 20
14.95
 30
0.0
 11
-46.830002
 21
20.38058888695092
 31
0.0
  0
LINE
  5
5AC
330
460
100
AcDbEntity
  8
0
 62
     1
100
AcDbLine
 10
-54.77
 20
14.95
 30
0.0
 11
-54.77
 21
20.38058888695092
 31
0.0
  0
LINE
  5
5AD
330
460
100
AcDbEntity
  8
0
 62
     1
100
AcDbLine
 10
-43.33000199999999
 20
18.88058888695092
 30
0.0
 11
-39.830002
 21
18.88058888695092
 31
0.0
  0
LINE
  5
5AE
330
460
100
AcDbEntity
  8
0
 62
     1
100
AcDbLine
 10
-58.27
 20
18.88058888695092
 30
0.0
 11
-77.77000000000002
 21
18.88058888695092
 31
0.0
  0
LINE
  5
5AF
330
460
100
AcDbEntity
  8
0
 62
     1
100
AcDbLine
 10
-46.830002
 20
18.88058888695092
 30
0.0
 11
-54.77
 21
18.88058888695092
 31
0.0
  0
SOLID
  5
5B0
330
460
100
AcDbEntity
  8
0
 62
     1
100
AcDbTrace
 10
-43.33000199999999
 20
19.46392222028426
 30
0.0
 11
-43.33000199999999
 21
18.29725555361759
 31
0.0
 12
-46.830002
 22
18.88058888695092
 32
0.0
 13
-46.830002
 23
18.88058888695092
 33
0.0
  0
SOLID
  5
5B1
330
460
100
AcDbEntity
  8
0
 62
     1
100
AcDbTrace
 10
-58.27
 20
19.46392222028426
 30
0.0
 11
-58.27
 21
18.29725555361759
 31
0.0
 12
-54.77
 22
18.88058888695092
 32
0.0
 13
-54.77
 23
18.88058888695092
 33
0.0
  0
MTEXT
  5
5B2
330
460
100
AcDbEntity
  8
0
 62
     1
100
AcDbMText
 10
-69.77000000000001
 20
21.63058888695092
 30
0.0
 40
3.5
 41
0.0
 71
     5
 72
     1
  1
φ7.94
1001
ACAD
1000
MTEXTBEGIN
1070
    73
1070
     1
1070
    44
1040
1.0
1070
    74
1070
     0
1000
MTEXTEND
1000
MTEXTBEGIN
1070
    73
1070
     1
1070
    44
1040
1.0
1070
    74
1070
     0
1000
MTEXTEND
  0
POINT
  5
5B3
330
460
100
AcDbEntity
  8
DEFPOINTS
 62
     0
100
AcDbPoint
 10
-46.830002
 20
14.95
 30
0.0
  0
POINT
  5
5B4
330
460
100
AcDbEntity
  8
DEFPOINTS
 62
     0
100
AcDbPoint
 10
-54.77
 20
14.95
 30
0.0
  0
POINT
  5
5B5
330
460
100
AcDbEntity
  8
DEFPOINTS
 62
     0
100
AcDbPoint
 10
-54.77
 20
18.88058888695092
 30
0.0
  0
ENDBLK
  5
46D
330
460
100
AcDbEntity
  8
0
100
AcDbBlockEnd
  0
BLOCK
  5
488
330
47C
100
AcDbEntity
  8
0
100
AcDbBlockBegin
  2
*D4
 70
     1
 10
0.0
 20
0.0
 30
0.0
  3
*D4
  1

  0
LINE
  5
5B6
330
47C
100
AcDbEntity
  8
0
 62
     1
100
AcDbLine
 10
-61.200001
 20
39.549999
 30
0.0
 11
-75.98806996585027
 21
39.549999
 31
0.0
  0
LINE
  5
5B7
330
47C
100
AcDbEntity
  8
0
 62
     1
100
AcDbLine
 10
-61.200001
 20
43.55000299999999
 30
0.0
 11
-75.98806996585027
 21
43.55000299999999
 31
0.0
  0
LINE
  5
5B8
330
47C
100
AcDbEntity
  8
0
 62
     1
100
AcDbLine
 10
-74.48806996585027
 20
36.049999
 30
0.0
 11
-74.48806996585027
 21
32.549999
 31
0.0
  0
LINE
  5
5B9
330
47C
100
AcDbEntity
  8
0
 62
     1
100
AcDbLine
 10
-74.48806996585027
 20
47.050003
 30
0.0
 11
-74.48806996585027
 21
58.96666966666666
 31
0.0
  0
LINE
  5
5BA
330
47C
100
AcDbEntity
  8
0
 62
     1
100
AcDbLine
 10
-74.48806996585027
 20
39.549999
 30
0.0
 11
-74.48806996585027
 21
43.55000299999999
 31
0.0
  0
SOLID
  5
5BB
330
47C
100
AcDbEntity
  8
0
 62
     1
100
AcDbTrace
 10
-75.0714032991836
 20
36.049999
 30
0.0
 11
-73.90473663251694
 21
36.049999
 31
0.0
 12
-74.48806996585027
 22
39.549999
 32
0.0
 13
-74.48806996585027
 23
39.549999
 33
0.0
  0
SOLID
  5
5BC
330
47C
100
AcDbEntity
  8
0
 62
     1
100
AcDbTrace
 10
-75.0714032991836
 20
47.050003
 30
0.0
 11
-73.90473663251694
 21
47.050003
 31
0.0
 12
-74.48806996585027
 22
43.55000299999999
 32
0.0
 13
-74.48806996585027
 23
43.55000299999999
 33
0.0
  0
MTEXT
  5
5BD
330
47C
100
AcDbEntity
  8
0
 62
     1
100
AcDbMText
 10
-77.2380699658503
 20
54.75833633333333
 30
0.0
 40
3.5
 41
0.0
 71
     5
 72
     1
  1
4.0
 11
0.0000000000000001
 21
1.0
 31
0.0
1001
ACAD
1000
MTEXTBEGIN
1070
    73
1070
     1
1070
    44
1040
1.0
1070
    74
1070
     0
1000
MTEXTEND
1000
MTEXTBEGIN
1070
    73
1070
     1
1070
    44
1040
1.0
1070
    74
1070
     0
1000
MTEXTEND
  0
POINT
  5
5BE
330
47C
100
AcDbEntity
  8
DEFPOINTS
 62
     0
100
AcDbPoint
 10
-61.200001
 20
39.549999
 30
0.0
  0
POINT
  5
5BF
330
47C
100
AcDbEntity
  8
DEFPOINTS
 62
     0
100
AcDbPoint
 10
-61.200001
 20
43.55000299999999
 30
0.0
  0
POINT
  5
5C0
330
47C
100
AcDbEntity
  8
DEFPOINTS
 62
     0
100
AcDbPoint
 10
-74.48806996585027
 20
43.55000299999999
 30
0.0
  0
ENDBLK
  5
489
330
47C
100
AcDbEntity
  8
0
100
AcDbBlockEnd
  0
BLOCK
  5
4A2
330
498
100
AcDbEntity
  8
0
100
AcDbBlockBegin
  2
*D5
 70
     1
 10
0.0
 20
0.0
 30
0.0
  3
*D5
  1

  0
LINE
  5
5C1
330
498
100
AcDbEntity
  8
0
 62
     1
100
AcDbLine
 10
-65.19999699999999
 20
27.25
 30
0.0
 11
-86.7859270946487
 21
27.25
 31
0.0
  0
LINE
  5
5C2
330
498
100
AcDbEntity
  8
0
 62
     1
100
AcDbLine
 10
-65.19999699999999
 20
-5.3499999
 30
0.0
 11
-86.7859270946487
 21
-5.349999899999994
 31
0.0
  0
LINE
  5
5C3
330
498
100
AcDbEntity
  8
0
 62
     1
100
AcDbLine
 10
-85.28592709464872
 20
23.75
 30
0.0
 11
-85.28592709464872
 21
-1.849999899999994
 31
0.0
  0
SOLID
  5
5C4
330
498
100
AcDbEntity
  8
0
 62
     1
100
AcDbTrace
 10
-85.86926042798204
 20
23.75
 30
0.0
 11
-84.7025937613154
 21
23.75
 31
0.0
 12
-85.28592709464872
 22
27.25
 32
0.0
 13
-85.28592709464872
 23
27.25
 33
0.0
  0
SOLID
  5
5C5
330
498
100
AcDbEntity
  8
0
 62
     1
100
AcDbTrace
 10
-85.86926042798204
 20
-1.849999899999994
 30
0.0
 11
-84.7025937613154
 21
-1.849999899999994
 31
0.0
 12
-85.28592709464872
 22
-5.349999899999994
 32
0.0
 13
-85.28592709464872
 23
-5.349999899999994
 33
0.0
  0
MTEXT
  5
5C6
330
498
100
AcDbEntity
  8
0
 62
     1
100
AcDbMText
 10
-88.0359270946487
 20
18.70081743770777
 30
0.0
 40
3.5
 41
0.0
 71
     5
 72
     1
  1
32.6
 11
0.0000000000000001
 21
1.0
 31
0.0
1001
ACAD
1000
MTEXTBEGIN
1070
    73
1070
     1
1070
    44
1040
1.0
1070
    74
1070
     0
1000
MTEXTEND
1000
MTEXTBEGIN
1070
    73
1070
     1
1070
    44
1040
1.0
1070
    74
1070
     0
1000
MTEXTEND
  0
POINT
  5
5C7
330
498
100
AcDbEntity
  8
DEFPOINTS
 62
     0
100
AcDbPoint
 10
-65.19999699999999
 20
27.25
 30
0.0
  0
POINT
  5
5C8
330
498
100
AcDbEntity
  8
DEFPOINTS
 62
     0
100
AcDbPoint
 10
-65.19999699999999
 20
-5.3499999
 30
0.0
  0
POINT
  5
5C9
330
498
100
AcDbEntity
  8
DEFPOINTS
 62
     0
100
AcDbPoint
 10
-85.28592709464872
 20
-5.349999899999994
 30
0.0
  0
ENDBLK
  5
4A3
330
498
100
AcDbEntity
  8
0
100
AcDbBlockEnd
  0
BLOCK
  5
4C3
330
4B9
100
AcDbEntity
  8
0
100
AcDbBlockBegin
  2
*D6
 70
     1
 10
0.0
 20
0.0
 30
0.0
  3
*D6
  1

  0
LINE
  5
5CA
330
4B9
100
AcDbEntity
  8
0
 62
     1
100
AcDbLine
 10
-61.200001
 20
10.950001
 30
0.0
 11
-95.43897472057414
 21
10.950001
 31
0.0
  0
LINE
  5
5CB
330
4B9
100
AcDbEntity
  8
0
 62
     1
100
AcDbLine
 10
-53.60999904152695
 20
45.54999900000001
 30
0.0
 11
-95.43897472057414
 21
45.54999900000001
 31
0.0
  0
LINE
  5
5CC
330
4B9
100
AcDbEntity
  8
0
 62
     1
100
AcDbLine
 10
-93.93897472057416
 20
14.45000100000001
 30
0.0
 11
-93.93897472057416
 21
42.04999899999999
 31
0.0
  0
SOLID
  5
5CD
330
4B9
100
AcDbEntity
  8
0
 62
     1
100
AcDbTrace
 10
-94.52230805390748
 20
14.45000100000001
 30
0.0
 11
-93.35564138724086
 21
14.45000100000001
 31
0.0
 12
-93.93897472057416
 22
10.950001
 32
0.0
 13
-93.93897472057416
 23
10.950001
 33
0.0
  0
SOLID
  5
5CE
330
4B9
100
AcDbEntity
  8
0
 62
     1
100
AcDbTrace
 10
-94.52230805390748
 20
42.04999899999999
 30
0.0
 11
-93.35564138724079
 21
42.04999899999999
 31
0.0
 12
-93.93897472057416
 22
45.54999900000001
 32
0.0
 13
-93.93897472057416
 23
45.54999900000001
 33
0.0
  0
MTEXT
  5
5CF
330
4B9
100
AcDbEntity
  8
0
 62
     1
100
AcDbMText
 10
-96.68897472057416
 20
28.24999999999999
 30
0.0
 40
3.5
 41
0.0
 71
     5
 72
     1
  1
34.6
 11
0.0000000000000001
 21
1.0
 31
0.0
1001
ACAD
1000
MTEXTBEGIN
1070
    73
1070
     1
1070
    44
1040
1.0
1070
    74
1070
     0
1000
MTEXTEND
1000
MTEXTBEGIN
1070
    73
1070
     1
1070
    44
1040
1.0
1070
    74
1070
     0
1000
MTEXTEND
  0
POINT
  5
5D0
330
4B9
100
AcDbEntity
  8
DEFPOINTS
 62
     0
100
AcDbPoint
 10
-61.200001
 20
10.950001
 30
0.0
  0
POINT
  5
5D1
330
4B9
100
AcDbEntity
  8
DEFPOINTS
 62
     0
100
AcDbPoint
 10
-53.60999904152695
 20
45.54999900000001
 30
0.0
  0
POINT
  5
5D2
330
4B9
100
AcDbEntity
  8
DEFPOINTS
 62
     0
100
AcDbPoint
 10
-93.93897472057416
 20
45.54999900000001
 30
0.0
  0
ENDBLK
  5
4C4
330
4B9
100
AcDbEntity
  8
0
100
AcDbBlockEnd
  0
BLOCK
  5
4DB
330
4D1
100
AcDbEntity
  8
0
100
AcDbBlockBegin
  2
*D7
 70
     1
 10
0.0
 20
0.0
 30
0.0
  3
*D7
  1

  0
LINE
  5
5D3
330
4D1
100
AcDbEntity
  8
0
 62
     1
100
AcDbLine
 10
-61.200001
 20
10.950001
 30
0.0
 11
-95.43897472057414
 21
10.950001
 31
0.0
  0
LINE
  5
5D4
330
4D1
100
AcDbEntity
  8
0
 62
     1
100
AcDbLine
 10
-54.77
 20
-26.25
 30
0.0
 11
-95.43897472057414
 21
-26.24999999999998
 31
0.0
  0
LINE
  5
5D5
330
4D1
100
AcDbEntity
  8
0
 62
     1
100
AcDbLine
 10
-93.93897472057416
 20
7.450001000000008
 30
0.0
 11
-93.93897472057416
 21
-22.74999999999998
 31
0.0
  0
SOLID
  5
5D6
330
4D1
100
AcDbEntity
  8
0
 62
     1
100
AcDbTrace
 10
-94.52230805390748
 20
7.450001000000008
 30
0.0
 11
-93.35564138724079
 21
7.450001000000008
 31
0.0
 12
-93.93897472057416
 22
10.950001
 32
0.0
 13
-93.93897472057416
 23
10.950001
 33
0.0
  0
SOLID
  5
5D7
330
4D1
100
AcDbEntity
  8
0
 62
     1
100
AcDbTrace
 10
-94.52230805390748
 20
-22.74999999999998
 30
0.0
 11
-93.35564138724079
 21
-22.74999999999998
 31
0.0
 12
-93.93897472057416
 22
-26.24999999999998
 32
0.0
 13
-93.93897472057416
 23
-26.24999999999998
 33
0.0
  0
MTEXT
  5
5D8
330
4D1
100
AcDbEntity
  8
0
 62
     1
100
AcDbMText
 10
-96.68897472057416
 20
-7.649999500000001
 30
0.0
 40
3.5
 41
0.0
 71
     5
 72
     1
  1
37.2
 11
0.0000000000000001
 21
1.0
 31
0.0
1001
ACAD
1000
MTEXTBEGIN
1070
    73
1070
     1
1070
    44
1040
1.0
1070
    74
1070
     0
1000
MTEXTEND
1000
MTEXTBEGIN
1070
    73
1070
     1
1070
    44
1040
1.0
1070
    74
1070
     0
1000
MTEXTEND
  0
POINT
  5
5D9
330
4D1
100
AcDbEntity
  8
DEFPOINTS
 62
     0
100
AcDbPoint
 10
-61.200001
 20
10.950001
 30
0.0
  0
POINT
  5
5DA
330
4D1
100
AcDbEntity
  8
DEFPOINTS
 62
     0
100
AcDbPoint
 10
-54.77
 20
-26.25
 30
0.0
  0
POINT
  5
5DB
330
4D1
100
AcDbEntity
  8
DEFPOINTS
 62
     0
100
AcDbPoint
 10
-93.93897472057416
 20
-26.24999999999998
 30
0.0
  0
ENDBLK
  5
4DC
330
4D1
100
AcDbEntity
  8
0
100
AcDbBlockEnd
  0
BLOCK
  5
4F3
330
4E9
100
AcDbEntity
  8
0
100
AcDbBlockBegin
  2
*D8
 70
     1
 10
0.0
 20
0.0
 30
0.0
  3
*D8
  1

  0
LINE
  5
5DC
330
4E9
100
AcDbEntity
  8
0
 62
     1
100
AcDbLine
 10
-50.799999
 20
-54.40686999999999
 30
0.0
 11
-86.78592709464876
 21
-54.40686999999997
 31
0.0
  0
LINE
  5
5DD
330
4E9
100
AcDbEntity
  8
0
 62
     1
100
AcDbLine
 10
-50.799999
 20
-75.20686999999998
 30
0.0
 11
-86.78592709464876
 21
-75.20686999999998
 31
0.0
  0
LINE
  5
5DE
330
4E9
100
AcDbEntity
  8
0
 62
     1
100
AcDbLine
 10
-85.28592709464875
 20
-57.90686999999998
 30
0.0
 11
-85.28592709464875
 21
-71.70686999999998
 31
0.0
  0
SOLID
  5
5DF
330
4E9
100
AcDbEntity
  8
0
 62
     1
100
AcDbTrace
 10
-85.86926042798209
 20
-57.90686999999998
 30
0.0
 11
-84.70259376131542
 21
-57.90686999999998
 31
0.0
 12
-85.28592709464875
 22
-54.40686999999997
 32
0.0
 13
-85.28592709464875
 23
-54.40686999999997
 33
0.0
  0
SOLID
  5
5E0
330
4E9
100
AcDbEntity
  8
0
 62
     1
100
AcDbTrace
 10
-85.86926042798209
 20
-71.70686999999998
 30
0.0
 11
-84.70259376131542
 21
-71.70686999999998
 31
0.0
 12
-85.28592709464875
 22
-75.20686999999998
 32
0.0
 13
-85.28592709464875
 23
-75.20686999999998
 33
0.0
  0
MTEXT
  5
5E1
330
4E9
100
AcDbEntity
  8
0
 62
     1
100
AcDbMText
 10
-88.03592709464874
 20
-64.80686999999999
 30
0.0
 40
3.5
 41
0.0
 71
     5
 72
     1
  1
20.8
 11
0.0000000000000001
 21
1.0
 31
0.0
1001
ACAD
1000
MTEXTBEGIN
1070
    73
1070
     1
1070
    44
1040
1.0
1070
    74
1070
     0
1000
MTEXTEND
1000
MTEXTBEGIN
1070
    73
1070
     1
1070
    44
1040
1.0
1070
    74
1070
     0
1000
MTEXTEND
  0
POINT
  5
5E2
330
4E9
100
AcDbEntity
  8
DEFPOINTS
 62
     0
100
AcDbPoint
 10
-50.799999
 20
-54.40686999999999
 30
0.0
  0
POINT
  5
5E3
330
4E9
100
AcDbEntity
  8
DEFPOINTS
 62
     0
100
AcDbPoint
 10
-50.799999
 20
-75.20686999999998
 30
0.0
  0
POINT
  5
5E4
330
4E9
100
AcDbEntity
  8
DEFPOINTS
 62
     0
100
AcDbPoint
 10
-85.28592709464875
 20
-75.20686999999998
 30
0.0
  0
ENDBLK
  5
4F4
330
4E9
100
AcDbEntity
  8
0
100
AcDbBlockEnd
  0
BLOCK
  5
50B
330
501
100
AcDbEntity
  8
0
100
AcDbBlockBegin
  2
*D9
 70
     1
 10
0.0
 20
0.0
 30
0.0
  3
*D9
  1

  0
LINE
  5
5E5
330
501
100
AcDbEntity
  8
0
 62
     1
100
AcDbLine
 10
-50.799999
 20
-80.856873
 30
0.0
 11
-50.799999
 21
-95.33530182062945
 31
0.0
  0
LINE
  5
5E6
330
501
100
AcDbEntity
  8
0
 62
     1
100
AcDbLine
 10
-25.4
 20
-80.856873
 30
0.0
 11
-25.4
 21
-95.33530182062945
 31
0.0
  0
LINE
  5
5E7
330
501
100
AcDbEntity
  8
0
 62
     1
100
AcDbLine
 10
-47.299999
 20
-93.83530182062944
 30
0.0
 11
-28.9
 21
-93.83530182062944
 31
0.0
  0
SOLID
  5
5E8
330
501
100
AcDbEntity
  8
0
 62
     1
100
AcDbTrace
 10
-47.299999
 20
-93.25196848729612
 30
0.0
 11
-47.299999
 21
-94.41863515396276
 31
0.0
 12
-50.799999
 22
-93.83530182062944
 32
0.0
 13
-50.799999
 23
-93.83530182062944
 33
0.0
  0
SOLID
  5
5E9
330
501
100
AcDbEntity
  8
0
 62
     1
100
AcDbTrace
 10
-28.9
 20
-93.25196848729612
 30
0.0
 11
-28.9
 21
-94.41863515396276
 31
0.0
 12
-25.4
 22
-93.83530182062944
 32
0.0
 13
-25.4
 23
-93.83530182062944
 33
0.0
  0
MTEXT
  5
5EA
330
501
100
AcDbEntity
  8
0
 62
     1
100
AcDbMText
 10
-38.09999949999999
 20
-91.08530182062944
 30
0.0
 40
3.5
 41
0.0
 71
     5
 72
     1
  1
25.40
1001
ACAD
1000
MTEXTBEGIN
1070
    73
1070
     1
1070
    44
1040
1.0
1070
    74
1070
     0
1000
MTEXTEND
1000
MTEXTBEGIN
1070
    73
1070
     1
1070
    44
1040
1.0
1070
    74
1070
     0
1000
MTEXTEND
  0
POINT
  5
5EB
330
501
100
AcDbEntity
  8
DEFPOINTS
 62
     0
100
AcDbPoint
 10
-50.799999
 20
-80.856873
 30
0.0
  0
POINT
  5
5EC
330
501
100
AcDbEntity
  8
DEFPOINTS
 62
     0
100
AcDbPoint
 10
-25.4
 20
-80.856873
 30
0.0
  0
POINT
  5
5ED
330
501
100
AcDbEntity
  8
DEFPOINTS
 62
     0
100
AcDbPoint
 10
-25.4
 20
-93.83530182062944
 30
0.0
  0
ENDBLK
  5
50C
330
501
100
AcDbEntity
  8
0
100
AcDbBlockEnd
  0
BLOCK
  5
523
330
519
100
AcDbEntity
  8
0
100
AcDbBlockBegin
  2
*D10
 70
     1
 10
0.0
 20
0.0
 30
0.0
  3
*D10
  1

  0
LINE
  5
5EE
330
519
100
AcDbEntity
  8
0
 62
     1
100
AcDbLine
 10
-25.4
 20
-80.856873
 30
0.0
 11
-25.4
 21
-95.33530182062945
 31
0.0
  0
LINE
  5
5EF
330
519
100
AcDbEntity
  8
0
 62
     1
100
AcDbLine
 10
0.0000000000000426
 20
-80.856873
 30
0.0
 11
0.0000000000000417
 21
-95.33530182062945
 31
0.0
  0
LINE
  5
5F0
330
519
100
AcDbEntity
  8
0
 62
     1
100
AcDbLine
 10
-21.89999999999999
 20
-93.83530182062944
 30
0.0
 11
-3.499999999999957
 21
-93.83530182062944
 31
0.0
  0
SOLID
  5
5F1
330
519
100
AcDbEntity
  8
0
 62
     1
100
AcDbTrace
 10
-21.89999999999999
 20
-93.25196848729612
 30
0.0
 11
-21.89999999999999
 21
-94.41863515396276
 31
0.0
 12
-25.4
 22
-93.83530182062944
 32
0.0
 13
-25.4
 23
-93.83530182062944
 33
0.0
  0
SOLID
  5
5F2
330
519
100
AcDbEntity
  8
0
 62
     1
100
AcDbTrace
 10
-3.499999999999957
 20
-93.25196848729612
 30
0.0
 11
-3.499999999999957
 21
-94.41863515396276
 31
0.0
 12
0.0000000000000418
 22
-93.83530182062944
 32
0.0
 13
0.0000000000000418
 23
-93.83530182062944
 33
0.0
  0
MTEXT
  5
5F3
330
519
100
AcDbEntity
  8
0
 62
     1
100
AcDbMText
 10
-12.69999999999997
 20
-91.08530182062944
 30
0.0
 40
3.5
 41
0.0
 71
     5
 72
     1
  1
25.40
1001
ACAD
1000
MTEXTBEGIN
1070
    73
1070
     1
1070
    44
1040
1.0
1070
    74
1070
     0
1000
MTEXTEND
1000
MTEXTBEGIN
1070
    73
1070
     1
1070
    44
1040
1.0
1070
    74
1070
     0
1000
MTEXTEND
  0
POINT
  5
5F4
330
519
100
AcDbEntity
  8
DEFPOINTS
 62
     0
100
AcDbPoint
 10
-25.4
 20
-80.856873
 30
0.0
  0
POINT
  5
5F5
330
519
100
AcDbEntity
  8
DEFPOINTS
 62
     0
100
AcDbPoint
 10
0.0000000000000426
 20
-80.856873
 30
0.0
  0
POINT
  5
5F6
330
519
100
AcDbEntity
  8
DEFPOINTS
 62
     0
100
AcDbPoint
 10
0.0000000000000418
 20
-93.83530182062944
 30
0.0
  0
ENDBLK
  5
524
330
519
100
AcDbEntity
  8
0
100
AcDbBlockEnd
  0
BLOCK
  5
53B
330
531
100
AcDbEntity
  8
0
100
AcDbBlockBegin
  2
*D11
 70
     1
 10
0.0
 20
0.0
 30
0.0
  3
*D11
  1

  0
LINE
  5
5F7
330
531
100
AcDbEntity
  8
0
 62
     1
100
AcDbLine
 10
50.799999
 20
-76.85686999999998
 30
0.0
 11
81.41934395989094
 21
-76.85686999999998
 31
0.0
  0
LINE
  5
5F8
330
531
100
AcDbEntity
  8
0
 62
     1
100
AcDbLine
 10
50.799999
 20
-52.75686999999999
 30
0.0
 11
81.41934395989094
 21
-52.75686999999999
 31
0.0
  0
LINE
  5
5F9
330
531
100
AcDbEntity
  8
0
 62
     1
100
AcDbLine
 10
79.91934395989097
 20
-73.35686999999999
 30
0.0
 11
79.91934395989097
 21
-56.25686999999999
 31
0.0
  0
SOLID
  5
5FA
330
531
100
AcDbEntity
  8
0
 62
     1
100
AcDbTrace
 10
79.33601062655764
 20
-73.35686999999999
 30
0.0
 11
80.50267729322429
 21
-73.35686999999999
 31
0.0
 12
79.91934395989097
 22
-76.85686999999998
 32
0.0
 13
79.91934395989097
 23
-76.85686999999998
 33
0.0
  0
SOLID
  5
5FB
330
531
100
AcDbEntity
  8
0
 62
     1
100
AcDbTrace
 10
79.33601062655764
 20
-56.25686999999999
 30
0.0
 11
80.50267729322429
 21
-56.25686999999999
 31
0.0
 12
79.91934395989097
 22
-52.75686999999999
 32
0.0
 13
79.91934395989097
 23
-52.75686999999999
 33
0.0
  0
MTEXT
  5
5FC
330
531
100
AcDbEntity
  8
0
 62
     1
100
AcDbMText
 10
77.16934395989098
 20
-64.80686999999997
 30
0.0
 40
3.5
 41
0.0
 71
     5
 72
     1
  1
24.1
 11
0.0000000000000001
 21
1.0
 31
0.0
1001
ACAD
1000
MTEXTBEGIN
1070
    73
1070
     1
1070
    44
1040
1.0
1070
    74
1070
     0
1000
MTEXTEND
1000
MTEXTBEGIN
1070
    73
1070
     1
1070
    44
1040
1.0
1070
    74
1070
     0
1000
MTEXTEND
  0
POINT
  5
5FD
330
531
100
AcDbEntity
  8
DEFPOINTS
 62
     0
100
AcDbPoint
 10
50.799999
 20
-76.85686999999998
 30
0.0
  0
POINT
  5
5FE
330
531
100
AcDbEntity
  8
DEFPOINTS
 62
     0
100
AcDbPoint
 10
50.799999
 20
-52.75686999999999
 30
0.0
  0
POINT
  5
5FF
330
531
100
AcDbEntity
  8
DEFPOINTS
 62
     0
100
AcDbPoint
 10
79.91934395989097
 20
-52.75686999999999
 30
0.0
  0
ENDBLK
  5
53C
330
531
100
AcDbEntity
  8
0
100
AcDbBlockEnd
  0
ENDSEC
  0
SECTION
  2
ENTITIES
  0
TEXT
  5
202
330
1F
100
AcDbEntity
  8
0
  6
CONTINUOUS
 62
     7
100
AcDbText
 10
-28.11449599999999
 20
80.90364599999999
 30
0.0
 40
4.8000002
  1

 41
0.8455652399999998
100
AcDbText
  0
ARC
  5
204
330
1F
100
AcDbEntity
  8
0
  6
CONTINUOUS
 62
     7
100
AcDbCircle
 10
57.13999900000001
 20
0.9900001299999999
 30
0.0
 40
1.6
100
AcDbArc
 50
0.0
 51
90.0
  0
ARC
  5
205
330
1F
100
AcDbEntity
  8
0
  6
CONTINUOUS
 62
     7
100
AcDbCircle
 10
44.45999899999999
 20
0.9900001299999999
 30
0.0
 40
1.6
100
AcDbArc
 50
90.0
 51
180.0
  0
ARC
  5
206
330
1F
100
AcDbEntity
  8
0
  6
CONTINUOUS
 62
     7
100
AcDbCircle
 10
57.13999900000001
 20
-11.69000099999997
 30
0.0
 40
1.6
100
AcDbArc
 50
270.0
 51
0.0
  0
ARC
  5
207
330
1F
100
AcDbEntity
  8
0
  6
CONTINUOUS
 62
     7
100
AcDbCircle
 10
44.45999899999999
 20
-11.69000099999997
 30
0.0
 40
1.6
100
AcDbArc
 50
180.0
 51
270.0
  0
ARC
  5
208
330
1F
100
AcDbEntity
  8
0
  6
CONTINUOUS
 62
     7
100
AcDbCircle
 10
-6.3400002
 20
0.9900001299999999
 30
0.0
 40
1.6
100
AcDbArc
 50
90.0
 51
180.0
  0
ARC
  5
209
330
1F
100
AcDbEntity
  8
0
  6
CONTINUOUS
 62
     7
100
AcDbCircle
 10
6.3400002
 20
-11.69000099999997
 30
0.0
 40
1.6
100
AcDbArc
 50
270.0
 51
0.0
  0
ARC
  5
20A
330
1F
100
AcDbEntity
  8
0
  6
CONTINUOUS
 62
     7
100
AcDbCircle
 10
-6.3400002
 20
-11.69000099999997
 30
0.0
 40
1.6
100
AcDbArc
 50
180.0
 51
270.0
  0
ARC
  5
20B
330
1F
100
AcDbEntity
  8
0
  6
CONTINUOUS
 62
     7
100
AcDbCircle
 10
-31.73999999999999
 20
0.9900001299999999
 30
0.0
 40
1.6
100
AcDbArc
 50
90.0
 51
180.0
  0
ARC
  5
20C
330
1F
100
AcDbEntity
  8
0
  6
CONTINUOUS
 62
     7
100
AcDbCircle
 10
-19.05999899999995
 20
0.9900001299999999
 30
0.0
 40
1.6
100
AcDbArc
 50
0.0
 51
90.0
  0
ARC
  5
20D
330
1F
100
AcDbEntity
  8
0
  6
CONTINUOUS
 62
     7
100
AcDbCircle
 10
-19.05999899999995
 20
-11.69000099999997
 30
0.0
 40
1.6
100
AcDbArc
 50
270.0
 51
0.0
  0
ARC
  5
20E
330
1F
100
AcDbEntity
  8
0
  6
CONTINUOUS
 62
     7
100
AcDbCircle
 10
-31.73999999999999
 20
-11.69000099999997
 30
0.0
 40
1.6
100
AcDbArc
 50
180.0
 51
270.0
  0
ARC
  5
20F
330
1F
100
AcDbEntity
  8
0
  6
CONTINUOUS
 62
     7
100
AcDbCircle
 10
19.05999899999995
 20
0.9900001299999999
 30
0.0
 40
1.6
100
AcDbArc
 50
90.0
 51
180.0
  0
ARC
  5
210
330
1F
100
AcDbEntity
  8
0
  6
CONTINUOUS
 62
     7
100
AcDbCircle
 10
6.3400002
 20
0.9900001299999999
 30
0.0
 40
1.6
100
AcDbArc
 50
0.0
 51
90.0
  0
ARC
  5
211
330
1F
100
AcDbEntity
  8
0
  6
CONTINUOUS
 62
     7
100
AcDbCircle
 10
31.73999999999999
 20
0.9900001299999999
 30
0.0
 40
1.6
100
AcDbArc
 50
0.0
 51
90.0
  0
ARC
  5
212
330
1F
100
AcDbEntity
  8
0
  6
CONTINUOUS
 62
     7
100
AcDbCircle
 10
31.73999999999999
 20
-11.69000099999997
 30
0.0
 40
1.6
100
AcDbArc
 50
270.0
 51
0.0
  0
ARC
  5
213
330
1F
100
AcDbEntity
  8
0
  6
CONTINUOUS
 62
     7
100
AcDbCircle
 10
19.05999899999995
 20
-11.69000099999997
 30
0.0
 40
1.6
100
AcDbArc
 50
180.0
 51
270.0
  0
ARC
  5
214
330
1F
100
AcDbEntity
  8
0
  6
CONTINUOUS
 62
     7
100
AcDbCircle
 10
25.4
 20
-26.473438
 30
0.0
 40
3.983455699999999
100
AcDbArc
 50
45.13670399999997
 51
134.8633
  0
ARC
  5
215
330
1F
100
AcDbEntity
  8
0
  6
CONTINUOUS
 62
     7
100
AcDbCircle
 10
-0.000000042458957
 20
-26.473438
 30
0.0
 40
3.983455699999999
100
AcDbArc
 50
45.136699
 51
134.8633
  0
ARC
  5
216
102
{ACAD_REACTORS
330
4CF
102
}
330
1F
100
AcDbEntity
  8
0
  6
CONTINUOUS
 62
     7
100
AcDbCircle
 10
-50.799999
 20
48.37344
 30
0.0
 40
3.983455699999999
100
AcDbArc
 50
225.13668
 51
314.8633199999999
  0
ARC
  5
217
330
1F
100
AcDbEntity
  8
0
  6
CONTINUOUS
 62
     7
100
AcDbCircle
 10
-25.4
 20
48.37344
 30
0.0
 40
3.983455699999999
100
AcDbArc
 50
225.1366999999999
 51
314.8632999999998
  0
ARC
  5
218
330
1F
100
AcDbEntity
  8
0
  6
CONTINUOUS
 62
     7
100
AcDbCircle
 10
25.4
 20
48.37344
 30
0.0
 40
3.983455699999999
100
AcDbArc
 50
225.1366999999999
 51
314.8632999999998
  0
ARC
  5
219
330
1F
100
AcDbEntity
  8
0
  6
CONTINUOUS
 62
     7
100
AcDbCircle
 10
0.000000042458957
 20
48.37344
 30
0.0
 40
3.983455699999999
100
AcDbArc
 50
225.1366999999999
 51
314.8632999999998
  0
CIRCLE
  5
21A
330
1F
100
AcDbEntity
  8
0
  6
CONTINUOUS
 62
     7
100
AcDbCircle
 10
25.4
 20
-64.80686999999999
 30
0.0
 40
3.97
  0
CIRCLE
  5
21B
330
1F
100
AcDbEntity
  8
0
  6
CONTINUOUS
 62
     7
100
AcDbCircle
 10
0.0
 20
-64.80686999999999
 30
0.0
 40
3.97
  0
ARC
  5
21C
330
1F
100
AcDbEntity
  8
0
  6
CONTINUOUS
 62
     7
100
AcDbCircle
 10
-28.812494
 20
-67.36698199999999
 30
0.0
 40
1.247937099999999
100
AcDbArc
 50
104.8367299999999
 51
120.00006
  0
ARC
  5
21D
330
1F
100
AcDbEntity
  8
0
  6
CONTINUOUS
 62
     7
100
AcDbCircle
 10
-29.03561599999999
 20
-66.05481000000001
 30
0.0
 40
1.247937099999999
100
AcDbArc
 50
105.52977
 51
120.00006
  0
ARC
  5
21E
330
1F
100
AcDbEntity
  8
0
  6
CONTINUOUS
 62
     7
100
AcDbCircle
 10
-19.66741199999998
 20
-64.80686999999999
 30
0.0
 40
0.93571097
100
AcDbArc
 50
214.8543899999999
 51
145.14561
  0
ARC
  5
21F
330
1F
100
AcDbEntity
  8
0
  6
CONTINUOUS
 62
     7
100
AcDbCircle
 10
-21.45933199999999
 20
-63.55893299999999
 30
0.0
 40
1.247937099999999
100
AcDbArc
 50
270.0
 51
325.14574
  0
ARC
  5
220
330
1F
100
AcDbEntity
  8
0
  6
CONTINUOUS
 62
     7
100
AcDbCircle
 10
-19.66741199999998
 20
-64.80686999999999
 30
0.0
 40
2.183889899999999
100
AcDbArc
 50
226.6583199999999
 51
133.3417399999996
  0
ARC
  5
221
330
1F
100
AcDbEntity
  8
0
  6
CONTINUOUS
 62
     7
100
AcDbCircle
 10
-22.022842
 20
-62.310993
 30
0.0
 40
1.247937099999999
100
AcDbArc
 50
287.35782
 51
313.34181
  0
ARC
  5
222
330
1F
100
AcDbEntity
  8
0
  6
CONTINUOUS
 62
     7
100
AcDbCircle
 10
-22.022842
 20
-67.30274200000001
 30
0.0
 40
1.247937099999999
100
AcDbArc
 50
46.65831499999998
 51
72.64223499999999
  0
ARC
  5
223
330
1F
100
AcDbEntity
  8
0
  6
CONTINUOUS
 62
     7
100
AcDbCircle
 10
-21.45933199999999
 20
-66.05481000000001
 30
0.0
 40
1.247937099999999
100
AcDbArc
 50
34.854407
 51
90.0
  0
ARC
  5
224
330
1F
100
AcDbEntity
  8
0
  6
CONTINUOUS
 62
     7
100
AcDbCircle
 10
-28.812494
 20
-62.24675799999999
 30
0.0
 40
1.247937099999999
100
AcDbArc
 50
240.00003
 51
255.16327
  0
ARC
  5
225
330
1F
100
AcDbEntity
  8
0
  6
CONTINUOUS
 62
     7
100
AcDbCircle
 10
-29.03561599999999
 20
-63.55893299999999
 30
0.0
 40
1.247937099999999
100
AcDbArc
 50
240.00003
 51
254.4701799999999
  0
CIRCLE
  5
226
330
1F
100
AcDbEntity
  8
0
  6
CONTINUOUS
 62
     7
100
AcDbCircle
 10
-25.4
 20
-64.80686999999999
 30
0.0
 40
3.97
  0
ARC
  5
227
330
1F
100
AcDbEntity
  8
0
  6
CONTINUOUS
 62
     7
100
AcDbCircle
 10
-18.81323199999998
 20
-22.89793799999999
 30
0.0
 40
1.247937099999999
100
AcDbArc
 50
270.0
 51
90.0
  0
ARC
  5
228
330
1F
100
AcDbEntity
  8
0
  6
CONTINUOUS
 62
     7
100
AcDbCircle
 10
-57.386768
 20
-22.89793799999999
 30
0.0
 40
1.247937099999999
100
AcDbArc
 50
90.0
 51
270.0
  0
ARC
  5
229
330
1F
100
AcDbEntity
  8
0
  6
CONTINUOUS
 62
     7
100
AcDbCircle
 10
-47.387505
 20
-67.36698199999999
 30
0.0
 40
1.247937099999999
100
AcDbArc
 50
59.999864
 51
75.16327199999998
  0
ARC
  5
22A
330
1F
100
AcDbEntity
  8
0
  6
CONTINUOUS
 62
     7
100
AcDbCircle
 10
-47.164383
 20
-66.05481000000001
 30
0.0
 40
1.247937099999999
100
AcDbArc
 50
59.999864
 51
74.470226
  0
ARC
  5
22B
330
1F
100
AcDbEntity
  8
0
  6
CONTINUOUS
 62
     7
100
AcDbCircle
 10
-56.532589
 20
-64.80686999999999
 30
0.0
 40
0.93571097
100
AcDbArc
 50
34.854319
 51
325.1456799999999
  0
ARC
  5
22C
330
1F
100
AcDbEntity
  8
0
  6
CONTINUOUS
 62
     7
100
AcDbCircle
 10
-54.740669
 20
-63.55893299999999
 30
0.0
 40
1.247937099999999
100
AcDbArc
 50
214.85426
 51
270.0
  0
ARC
  5
22D
330
1F
100
AcDbEntity
  8
0
  6
CONTINUOUS
 62
     7
100
AcDbCircle
 10
-56.532589
 20
-64.80686999999999
 30
0.0
 40
2.183889899999999
100
AcDbArc
 50
46.658256
 51
313.34181
  0
ARC
  5
22E
330
1F
100
AcDbEntity
  8
0
  6
CONTINUOUS
 62
     7
100
AcDbCircle
 10
-54.17715799999999
 20
-62.310993
 30
0.0
 40
1.247937099999999
100
AcDbArc
 50
226.6581299999999
 51
252.6421799999999
  0
ARC
  5
22F
330
1F
100
AcDbEntity
  8
0
  6
CONTINUOUS
 62
     7
100
AcDbCircle
 10
-54.17715799999999
 20
-67.30274200000001
 30
0.0
 40
1.247937099999999
100
AcDbArc
 50
107.3577699999995
 51
133.3417499999999
  0
ARC
  5
230
330
1F
100
AcDbEntity
  8
0
  6
CONTINUOUS
 62
     7
100
AcDbCircle
 10
-54.740669
 20
-66.05481000000001
 30
0.0
 40
1.247937099999999
100
AcDbArc
 50
90.0
 51
145.14559
  0
ARC
  5
231
330
1F
100
AcDbEntity
  8
0
  6
CONTINUOUS
 62
     7
100
AcDbCircle
 10
-47.387505
 20
-62.24675799999999
 30
0.0
 40
1.247937099999999
100
AcDbArc
 50
284.8367299999998
 51
300.00005
  0
ARC
  5
232
330
1F
100
AcDbEntity
  8
0
  6
CONTINUOUS
 62
     7
100
AcDbCircle
 10
-47.164383
 20
-63.55893299999999
 30
0.0
 40
1.247937099999999
100
AcDbArc
 50
285.5298199999999
 51
300.00005
  0
CIRCLE
  5
233
330
1F
100
AcDbEntity
  8
0
  6
CONTINUOUS
 62
     7
100
AcDbCircle
 10
-50.799999
 20
-64.80686999999999
 30
0.0
 40
3.97
  0
ARC
  5
234
330
1F
100
AcDbEntity
  8
0
  6
CONTINUOUS
 62
     7
100
AcDbCircle
 10
-38.09999799999999
 20
-141.0866399999999
 30
0.0
 40
66.929764
100
AcDbArc
 50
80.547397
 51
99.452609
  0
ARC
  5
235
330
1F
100
AcDbEntity
  8
0
  6
CONTINUOUS
 62
     7
100
AcDbCircle
 10
12.7
 20
-33.79887
 30
0.0
 40
23.10799999999999
100
AcDbArc
 50
247.7273799999998
 51
292.2726199999999
  0
ARC
  5
236
330
1F
100
AcDbEntity
  8
0
  6
CONTINUOUS
 62
     7
100
AcDbCircle
 10
0.0000000000000426
 20
-64.80686999999999
 30
0.0
 40
10.4
100
AcDbArc
 50
67.727384
 51
292.2726099999997
  0
ARC
  5
237
330
1F
100
AcDbEntity
  8
0
  6
CONTINUOUS
 62
     7
100
AcDbCircle
 10
12.7
 20
-95.814873
 30
0.0
 40
23.10799999999999
100
AcDbArc
 50
67.72738299999999
 51
112.2726199999999
  0
ARC
  5
238
330
1F
100
AcDbEntity
  8
0
  6
CONTINUOUS
 62
     7
100
AcDbCircle
 10
25.4
 20
-64.80686999999999
 30
0.0
 40
10.4
100
AcDbArc
 50
247.72737
 51
112.2726199999999
  0
ARC
  5
239
330
1F
100
AcDbEntity
  8
0
  6
CONTINUOUS
 62
     7
100
AcDbCircle
 10
-38.09999799999999
 20
11.472891
 30
0.0
 40
66.929764
100
AcDbArc
 50
260.54739
 51
279.4526
  0
ARC
  5
23A
330
1F
100
AcDbEntity
  8
0
  6
CONTINUOUS
 62
     7
100
AcDbCircle
 10
-12.7
 20
-35.08956099999998
 30
0.0
 40
20.26730699999999
100
AcDbArc
 50
246.8600499999998
 51
293.1399399999999
  0
ARC
  5
23B
330
1F
100
AcDbEntity
  8
0
  6
CONTINUOUS
 62
     7
100
AcDbCircle
 10
25.4
 20
-64.80686999999999
 30
0.0
 40
12.05
100
AcDbArc
 50
66.86005899999999
 51
136.91317
  0
ARC
  5
23C
330
1F
100
AcDbEntity
  8
0
  6
CONTINUOUS
 62
     7
100
AcDbCircle
 10
0.0000000000000426
 20
-64.80686999999999
 30
0.0
 40
12.05
100
AcDbArc
 50
246.86006
 51
316.91319
  0
ARC
  5
23D
330
1F
100
AcDbEntity
  8
0
  6
CONTINUOUS
 62
     7
100
AcDbCircle
 10
0.0000000000000426
 20
-64.80686999999999
 30
0.0
 40
12.05
100
AcDbArc
 50
43.08682499999999
 51
113.13994
  0
ARC
  5
23E
330
1F
100
AcDbEntity
  8
0
  6
CONTINUOUS
 62
     7
100
AcDbCircle
 10
38.09999799999999
 20
-35.08956099999998
 30
0.0
 40
20.26730699999999
100
AcDbArc
 50
246.8600499999998
 51
293.1399399999999
  0
ARC
  5
23F
330
1F
100
AcDbEntity
  8
0
  6
CONTINUOUS
 62
     7
100
AcDbCircle
 10
-12.7
 20
-94.524178
 30
0.0
 40
20.26730699999999
100
AcDbArc
 50
66.860058
 51
113.1399499999997
  0
ARC
  5
240
330
1F
100
AcDbEntity
  8
0
  6
CONTINUOUS
 62
     7
100
AcDbCircle
 10
-25.4
 20
-64.80686999999999
 30
0.0
 40
10.4
100
AcDbArc
 50
260.5474
 51
99.452607
  0
ARC
  5
241
102
{ACAD_REACTORS
330
4FF
102
}
330
1F
100
AcDbEntity
  8
0
  6
CONTINUOUS
 62
     7
100
AcDbCircle
 10
-50.799999
 20
-64.80686999999999
 30
0.0
 40
10.4
100
AcDbArc
 50
80.547404
 51
279.45259
  0
ARC
  5
242
330
1F
100
AcDbEntity
  8
0
  6
CONTINUOUS
 62
     7
100
AcDbCircle
 10
-25.4
 20
-64.80686999999999
 30
0.0
 40
12.05
100
AcDbArc
 50
66.86005899999999
 51
127.4527
  0
ARC
  5
243
102
{ACAD_REACTORS
330
547
102
}
330
1F
100
AcDbEntity
  8
0
  6
CONTINUOUS
 62
     7
100
AcDbCircle
 10
50.799999
 20
-64.80686999999999
 30
0.0
 40
12.05
100
AcDbArc
 50
246.8600499999998
 51
113.1399499999997
  0
CIRCLE
  5
244
330
1F
100
AcDbEntity
  8
0
  6
CONTINUOUS
 62
     7
100
AcDbCircle
 10
50.799999
 20
-64.80686999999999
 30
0.0
 40
4.0275002
  0
ARC
  5
245
330
1F
100
AcDbEntity
  8
0
  6
CONTINUOUS
 62
     7
100
AcDbCircle
 10
25.4
 20
-64.80686999999999
 30
0.0
 40
12.05
100
AcDbArc
 50
223.0868099999999
 51
293.1399399999999
  0
ARC
  5
246
330
1F
100
AcDbEntity
  8
0
  6
CONTINUOUS
 62
     7
100
AcDbCircle
 10
-25.4
 20
-64.80686999999999
 30
0.0
 40
12.05
100
AcDbArc
 50
232.54731
 51
293.1399399999999
  0
ARC
  5
247
330
1F
100
AcDbEntity
  8
0
  6
CONTINUOUS
 62
     7
100
AcDbCircle
 10
38.09999799999999
 20
-94.524178
 30
0.0
 40
20.26730699999999
100
AcDbArc
 50
66.86005699999999
 51
113.1399499999997
  0
CIRCLE
  5
248
330
1F
100
AcDbEntity
  8
0
  6
CONTINUOUS
 62
     7
100
AcDbCircle
 10
50.799999
 20
-64.80686999999999
 30
0.0
 40
5.6125002
  0
ARC
  5
249
330
1F
100
AcDbEntity
  8
0
  6
CONTINUOUS
 62
     7
100
AcDbCircle
 10
57.13999900000001
 20
33.59
 30
0.0
 40
1.6
100
AcDbArc
 50
0.0
 51
90.0
  0
ARC
  5
24A
330
1F
100
AcDbEntity
  8
0
  6
CONTINUOUS
 62
     7
100
AcDbCircle
 10
44.45999899999999
 20
33.59
 30
0.0
 40
1.6
100
AcDbArc
 50
90.0
 51
180.0
  0
ARC
  5
24B
330
1F
100
AcDbEntity
  8
0
  6
CONTINUOUS
 62
     7
100
AcDbCircle
 10
57.13999900000001
 20
20.91
 30
0.0
 40
1.6
100
AcDbArc
 50
270.0
 51
0.0
  0
ARC
  5
24C
330
1F
100
AcDbEntity
  8
0
  6
CONTINUOUS
 62
     7
100
AcDbCircle
 10
44.45999899999999
 20
20.91
 30
0.0
 40
1.6
100
AcDbArc
 50
180.0
 51
270.0
  0
ARC
  5
24D
330
1F
100
AcDbEntity
  8
0
  6
CONTINUOUS
 62
     7
100
AcDbCircle
 10
-6.3400002
 20
33.59
 30
0.0
 40
1.6
100
AcDbArc
 50
90.0
 51
180.0
  0
ARC
  5
24E
330
1F
100
AcDbEntity
  8
0
  6
CONTINUOUS
 62
     7
100
AcDbCircle
 10
6.3400002
 20
20.91
 30
0.0
 40
1.6
100
AcDbArc
 50
270.0
 51
0.0
  0
ARC
  5
24F
330
1F
100
AcDbEntity
  8
0
  6
CONTINUOUS
 62
     7
100
AcDbCircle
 10
-6.3400002
 20
20.91
 30
0.0
 40
1.6
100
AcDbArc
 50
180.0
 51
270.0
  0
ARC
  5
250
330
1F
100
AcDbEntity
  8
0
  6
CONTINUOUS
 62
     7
100
AcDbCircle
 10
-31.73999999999999
 20
33.59
 30
0.0
 40
1.6
100
AcDbArc
 50
90.0
 51
180.0
  0
ARC
  5
251
330
1F
100
AcDbEntity
  8
0
  6
CONTINUOUS
 62
     7
100
AcDbCircle
 10
-19.05999899999995
 20
33.59
 30
0.0
 40
1.6
100
AcDbArc
 50
0.0
 51
90.0
  0
ARC
  5
252
330
1F
100
AcDbEntity
  8
0
  6
CONTINUOUS
 62
     7
100
AcDbCircle
 10
-19.05999899999995
 20
20.91
 30
0.0
 40
1.6
100
AcDbArc
 50
270.0
 51
0.0
  0
ARC
  5
253
330
1F
100
AcDbEntity
  8
0
  6
CONTINUOUS
 62
     7
100
AcDbCircle
 10
-31.73999999999999
 20
20.91
 30
0.0
 40
1.6
100
AcDbArc
 50
180.0
 51
270.0
  0
ARC
  5
254
330
1F
100
AcDbEntity
  8
0
  6
CONTINUOUS
 62
     7
100
AcDbCircle
 10
19.05999899999995
 20
33.59
 30
0.0
 40
1.6
100
AcDbArc
 50
90.0
 51
180.0
  0
ARC
  5
255
330
1F
100
AcDbEntity
  8
0
  6
CONTINUOUS
 62
     7
100
AcDbCircle
 10
6.3400002
 20
33.59
 30
0.0
 40
1.6
100
AcDbArc
 50
0.0
 51
90.0
  0
ARC
  5
256
330
1F
100
AcDbEntity
  8
0
  6
CONTINUOUS
 62
     7
100
AcDbCircle
 10
31.73999999999999
 20
33.59
 30
0.0
 40
1.6
100
AcDbArc
 50
0.0
 51
90.0
  0
ARC
  5
257
330
1F
100
AcDbEntity
  8
0
  6
CONTINUOUS
 62
     7
100
AcDbCircle
 10
31.73999999999999
 20
20.91
 30
0.0
 40
1.6
100
AcDbArc
 50
270.0
 51
0.0
  0
ARC
  5
258
330
1F
100
AcDbEntity
  8
0
  6
CONTINUOUS
 62
     7
100
AcDbCircle
 10
19.05999899999995
 20
20.91
 30
0.0
 40
1.6
100
AcDbArc
 50
180.0
 51
270.0
  0
LINE
  5
259
330
1F
100
AcDbEntity
  8
0
  6
CONTINUOUS
 62
     7
100
AcDbLine
 10
-10.4
 20
10.950001
 30
0.0
 11
35.799999
 21
10.950001
 31
0.0
  0
LINE
  5
25A
102
{ACAD_REACTORS
330
4CF
330
4E7
102
}
330
1F
100
AcDbEntity
  8
0
  6
CONTINUOUS
 62
     7
100
AcDbLine
 10
-61.200001
 20
10.950001
 30
0.0
 11
-15.0
 21
10.950001
 31
0.0
  0
LINE
  5
25B
330
1F
100
AcDbEntity
  8
0
  6
CONTINUOUS
 62
     7
100
AcDbLine
 10
-61.200001
 20
10.950002
 30
0.0
 11
-61.200001
 21
6.950000799999997
 31
0.0
  0
LINE
  5
25C
330
1F
100
AcDbEntity
  8
0
  6
CONTINUOUS
 62
     7
100
AcDbLine
 10
-61.200001
 20
6.950000799999997
 30
0.0
 11
-15.0
 21
6.950000799999997
 31
0.0
  0
LINE
  5
25D
330
1F
100
AcDbEntity
  8
0
  6
CONTINUOUS
 62
     7
100
AcDbLine
 10
-54.77
 20
6.950000799999997
 30
0.0
 11
-54.77
 21
-17.64999999999998
 31
0.0
  0
LINE
  5
25E
330
1F
100
AcDbEntity
  8
0
  6
CONTINUOUS
 62
     7
100
AcDbLine
 10
-46.830002
 20
6.950000799999997
 30
0.0
 11
-46.830002
 21
-17.64999999999998
 31
0.0
  0
LINE
  5
25F
330
1F
100
AcDbEntity
  8
0
  6
CONTINUOUS
 62
     7
100
AcDbLine
 10
35.799999
 20
10.950002
 30
0.0
 11
35.799999
 21
6.950000799999997
 31
0.0
  0
LINE
  5
260
330
1F
100
AcDbEntity
  8
0
  6
CONTINUOUS
 62
     7
100
AcDbLine
 10
-61.200001
 20
-21.65
 30
0.0
 11
-15.0
 21
-21.65
 31
0.0
  0
LINE
  5
261
330
1F
100
AcDbEntity
  8
0
  6
CONTINUOUS
 62
     7
100
AcDbLine
 10
-10.4
 20
-17.64999999999998
 30
0.0
 11
35.799999
 21
-17.64999999999998
 31
0.0
  0
LINE
  5
262
330
1F
100
AcDbEntity
  8
0
  6
CONTINUOUS
 62
     7
100
AcDbLine
 10
-10.4
 20
10.950002
 30
0.0
 11
-10.4
 21
6.950000799999997
 31
0.0
  0
LINE
  5
263
330
1F
100
AcDbEntity
  8
0
  6
CONTINUOUS
 62
     7
100
AcDbLine
 10
62.849998
 20
6.5899992
 30
0.0
 11
13.34999999999999
 21
6.5899992
 31
0.0
  0
LINE
  5
264
330
1F
100
AcDbEntity
  8
0
  6
CONTINUOUS
 62
     7
100
AcDbLine
 10
58.74000200000001
 20
0.9900001299999999
 30
0.0
 11
58.74000200000001
 21
-11.69000099999997
 31
0.0
  0
LINE
  5
265
330
1F
100
AcDbEntity
  8
0
  6
CONTINUOUS
 62
     7
100
AcDbLine
 10
42.86000099999999
 20
0.9900001299999999
 30
0.0
 11
42.86000099999999
 21
-11.69000099999997
 31
0.0
  0
LINE
  5
266
330
1F
100
AcDbEntity
  8
0
  6
CONTINUOUS
 62
     7
100
AcDbLine
 10
7.940000099999998
 20
0.9900001299999999
 30
0.0
 11
7.940000099999998
 21
-11.69000099999997
 31
0.0
  0
LINE
  5
267
330
1F
100
AcDbEntity
  8
0
  6
CONTINUOUS
 62
     7
100
AcDbLine
 10
-7.940000099999998
 20
0.9900001299999999
 30
0.0
 11
-7.940000099999998
 21
-11.69000099999997
 31
0.0
  0
LINE
  5
268
330
1F
100
AcDbEntity
  8
0
  6
CONTINUOUS
 62
     7
100
AcDbLine
 10
-33.34
 20
0.9900001299999999
 30
0.0
 11
-33.34
 21
-11.69000099999997
 31
0.0
  0
LINE
  5
269
330
1F
100
AcDbEntity
  8
0
  6
CONTINUOUS
 62
     7
100
AcDbLine
 10
62.849998
 20
6.5899992
 30
0.0
 11
62.849998
 21
2.5899987
 31
0.0
  0
LINE
  5
26A
330
1F
100
AcDbEntity
  8
0
  6
CONTINUOUS
 62
     7
100
AcDbLine
 10
-61.200001
 20
-17.64999999999998
 30
0.0
 11
-61.200001
 21
-21.65
 31
0.0
  0
LINE
  5
26B
330
1F
100
AcDbEntity
  8
0
  6
CONTINUOUS
 62
     7
100
AcDbLine
 10
12.05
 20
6.5899992
 30
0.0
 11
12.05
 21
2.5899987
 31
0.0
  0
LINE
  5
26C
330
1F
100
AcDbEntity
  8
0
  6
CONTINUOUS
 62
     7
100
AcDbLine
 10
62.849998
 20
-13.290001
 30
0.0
 11
13.34999999999999
 21
-13.290001
 31
0.0
  0
LINE
  5
26D
330
1F
100
AcDbEntity
  8
0
  6
CONTINUOUS
 62
     7
100
AcDbLine
 10
62.849998
 20
-17.28999899999999
 30
0.0
 11
13.34999999999999
 21
-17.28999899999999
 31
0.0
  0
LINE
  5
26E
330
1F
100
AcDbEntity
  8
0
  6
CONTINUOUS
 62
     7
100
AcDbLine
 10
62.849998
 20
2.5899987
 30
0.0
 11
13.34999999999999
 21
2.5899987
 31
0.0
  0
LINE
  5
26F
330
1F
100
AcDbEntity
  8
0
  6
CONTINUOUS
 62
     7
100
AcDbLine
 10
-37.450001
 20
-17.28999899999999
 30
0.0
 11
-37.450001
 21
-13.290001
 31
0.0
  0
LINE
  5
270
330
1F
100
AcDbEntity
  8
0
  6
CONTINUOUS
 62
     7
100
AcDbLine
 10
12.05
 20
-17.28999899999999
 30
0.0
 11
12.05
 21
-13.290001
 31
0.0
  0
LINE
  5
271
330
1F
100
AcDbEntity
  8
0
  6
CONTINUOUS
 62
     7
100
AcDbLine
 10
-17.459999
 20
0.9900001299999999
 30
0.0
 11
-17.459999
 21
-11.69000099999997
 31
0.0
  0
LINE
  5
272
330
1F
100
AcDbEntity
  8
0
  6
CONTINUOUS
 62
     7
100
AcDbLine
 10
-37.450001
 20
6.5899992
 30
0.0
 11
-37.450001
 21
2.5899987
 31
0.0
  0
LINE
  5
273
330
1F
100
AcDbEntity
  8
0
  6
CONTINUOUS
 62
     7
100
AcDbLine
 10
-15.0
 20
-17.64999999999998
 30
0.0
 11
-15.0
 21
-21.65
 31
0.0
  0
LINE
  5
274
330
1F
100
AcDbEntity
  8
0
  6
CONTINUOUS
 62
     7
100
AcDbLine
 10
62.849998
 20
-17.28999899999999
 30
0.0
 11
62.849998
 21
-13.290001
 31
0.0
  0
LINE
  5
275
330
1F
100
AcDbEntity
  8
0
  6
CONTINUOUS
 62
     7
100
AcDbLine
 10
-10.4
 20
-17.64999999999998
 30
0.0
 11
-10.4
 21
-21.65
 31
0.0
  0
LINE
  5
276
330
1F
100
AcDbEntity
  8
0
  6
CONTINUOUS
 62
     7
100
AcDbLine
 10
-37.450001
 20
2.5899987
 30
0.0
 11
12.05
 21
2.5899987
 31
0.0
  0
LINE
  5
277
330
1F
100
AcDbEntity
  8
0
  6
CONTINUOUS
 62
     7
100
AcDbLine
 10
-37.450001
 20
-13.290001
 30
0.0
 11
12.05
 21
-13.290001
 31
0.0
  0
LINE
  5
278
330
1F
100
AcDbEntity
  8
0
  6
CONTINUOUS
 62
     7
100
AcDbLine
 10
17.459999
 20
0.9900001299999999
 30
0.0
 11
17.459999
 21
-11.69000099999997
 31
0.0
  0
LINE
  5
279
330
1F
100
AcDbEntity
  8
0
  6
CONTINUOUS
 62
     7
100
AcDbLine
 10
-37.450001
 20
6.5899992
 30
0.0
 11
12.05
 21
6.5899992
 31
0.0
  0
LINE
  5
27A
330
1F
100
AcDbEntity
  8
0
  6
CONTINUOUS
 62
     7
100
AcDbLine
 10
-15.0
 20
10.950002
 30
0.0
 11
-15.0
 21
6.950000799999997
 31
0.0
  0
LINE
  5
27B
330
1F
100
AcDbEntity
  8
0
  6
CONTINUOUS
 62
     7
100
AcDbLine
 10
33.34
 20
0.9900001299999999
 30
0.0
 11
33.34
 21
-11.69000099999997
 31
0.0
  0
LINE
  5
27C
330
1F
100
AcDbEntity
  8
0
  6
CONTINUOUS
 62
     7
100
AcDbLine
 10
35.799999
 20
-17.64999999999998
 30
0.0
 11
35.799999
 21
-21.65
 31
0.0
  0
LINE
  5
27D
330
1F
100
AcDbEntity
  8
0
  6
CONTINUOUS
 62
     7
100
AcDbLine
 10
-37.450001
 20
-17.28999899999999
 30
0.0
 11
12.05
 21
-17.28999899999999
 31
0.0
  0
LINE
  5
27E
330
1F
100
AcDbEntity
  8
0
  6
CONTINUOUS
 62
     7
100
AcDbLine
 10
-61.200001
 20
-17.64999999999998
 30
0.0
 11
-15.0
 21
-17.64999999999998
 31
0.0
  0
LINE
  5
27F
330
1F
100
AcDbEntity
  8
0
  6
CONTINUOUS
 62
     7
100
AcDbLine
 10
-10.4
 20
6.950000799999997
 30
0.0
 11
35.799999
 21
6.950000799999997
 31
0.0
  0
LINE
  5
280
330
1F
100
AcDbEntity
  8
0
  6
CONTINUOUS
 62
     7
100
AcDbLine
 10
13.34999999999999
 20
-17.28999899999999
 30
0.0
 11
13.34999999999999
 21
-13.290001
 31
0.0
  0
LINE
  5
281
330
1F
100
AcDbEntity
  8
0
  6
CONTINUOUS
 62
     7
100
AcDbLine
 10
13.34999999999999
 20
6.5899992
 30
0.0
 11
13.34999999999999
 21
2.5899987
 31
0.0
  0
LINE
  5
282
330
1F
100
AcDbEntity
  8
0
  6
CONTINUOUS
 62
     7
100
AcDbLine
 10
-10.4
 20
-21.65
 30
0.0
 11
35.799999
 21
-21.65
 31
0.0
  0
LINE
  5
283
102
{ACAD_REACTORS
330
4AE
102
}
330
1F
100
AcDbEntity
  8
0
  6
CENTER
 62
     6
100
AcDbLine
 10
-65.19999699999999
 20
-5.3499999
 30
0.0
 11
66.073509
 21
-5.3499999
 31
0.0
  0
LINE
  5
284
330
1F
100
AcDbEntity
  8
0
  6
CONTINUOUS
 62
     7
100
AcDbLine
 10
29.36999899999999
 20
-22.48999799999999
 30
0.0
 11
28.209999
 21
-23.649998
 31
0.0
  0
LINE
  5
285
330
1F
100
AcDbEntity
  8
0
  6
CONTINUOUS
 62
     7
100
AcDbLine
 10
28.209999
 20
-23.649998
 30
0.0
 11
22.58999999999999
 21
-23.649998
 31
0.0
  0
LINE
  5
286
330
1F
100
AcDbEntity
  8
0
  6
CONTINUOUS
 62
     7
100
AcDbLine
 10
22.58999999999999
 20
-23.64999999999999
 30
0.0
 11
21.429998
 21
-22.48999799999999
 31
0.0
  0
LINE
  5
287
330
1F
100
AcDbEntity
  8
0
  6
CONTINUOUS
 62
     7
100
AcDbLine
 10
29.36999899999999
 20
-22.48999799999999
 30
0.0
 11
29.36999899999999
 21
-21.65
 31
0.0
  0
LINE
  5
288
330
1F
100
AcDbEntity
  8
0
  6
CONTINUOUS
 62
     7
100
AcDbLine
 10
21.43
 20
-22.48999799999999
 30
0.0
 11
21.43
 21
-21.65
 31
0.0
  0
LINE
  5
289
330
1F
100
AcDbEntity
  8
0
  6
CONTINUOUS
 62
     7
100
AcDbLine
 10
-2.809999499999998
 20
-23.649998
 30
0.0
 11
-3.969999299999997
 21
-22.48999799999999
 31
0.0
  0
LINE
  5
28A
330
1F
100
AcDbEntity
  8
0
  6
CONTINUOUS
 62
     7
100
AcDbLine
 10
2.809999899999997
 20
-23.649998
 30
0.0
 11
-2.809999899999997
 21
-23.649998
 31
0.0
  0
LINE
  5
28B
330
1F
100
AcDbEntity
  8
0
  6
CONTINUOUS
 62
     7
100
AcDbLine
 10
3.970000299999997
 20
-22.48999799999999
 30
0.0
 11
2.8100002
 21
-23.649998
 31
0.0
  0
LINE
  5
28C
330
1F
100
AcDbEntity
  8
0
  6
CONTINUOUS
 62
     7
100
AcDbLine
 10
3.97
 20
-22.48999799999999
 30
0.0
 11
3.97
 21
-21.65
 31
0.0
  0
LINE
  5
28D
330
1F
100
AcDbEntity
  8
0
  6
CONTINUOUS
 62
     7
100
AcDbLine
 10
-3.97
 20
-22.48999799999999
 30
0.0
 11
-3.97
 21
-21.65
 31
0.0
  0
LINE
  5
28E
330
1F
100
AcDbEntity
  8
0
  6
CONTINUOUS
 62
     7
100
AcDbLine
 10
-54.77
 20
44.38999899999998
 30
0.0
 11
-54.77
 21
43.55000299999999
 31
0.0
  0
LINE
  5
28F
330
1F
100
AcDbEntity
  8
0
  6
CONTINUOUS
 62
     7
100
AcDbLine
 10
-47.990002
 20
45.549999
 30
0.0
 11
-46.829998
 21
44.38999899999998
 31
0.0
  0
LINE
  5
290
330
1F
100
AcDbEntity
  8
0
  6
CONTINUOUS
 62
     7
100
AcDbLine
 10
-54.769997
 20
44.38999899999998
 30
0.0
 11
-53.609997
 21
45.549999
 31
0.0
  0
LINE
  5
291
330
1F
100
AcDbEntity
  8
0
  6
CONTINUOUS
 62
     7
100
AcDbLine
 10
-46.829998
 20
44.38999899999998
 30
0.0
 11
-46.829998
 21
43.55000299999999
 31
0.0
  0
LINE
  5
292
102
{ACAD_REACTORS
330
4CF
102
}
330
1F
100
AcDbEntity
  8
0
  6
CONTINUOUS
 62
     7
100
AcDbLine
 10
-53.610001
 20
45.549999
 30
0.0
 11
-47.98999799999999
 21
45.549999
 31
0.0
  0
LINE
  5
293
330
1F
100
AcDbEntity
  8
0
  6
CONTINUOUS
 62
     7
100
AcDbLine
 10
-28.209999
 20
45.549999
 30
0.0
 11
-22.58999999999999
 21
45.549999
 31
0.0
  0
LINE
  5
294
330
1F
100
AcDbEntity
  8
0
  6
CONTINUOUS
 62
     7
100
AcDbLine
 10
-29.36999899999999
 20
44.38999899999998
 30
0.0
 11
-29.36999899999999
 21
43.55000299999999
 31
0.0
  0
LINE
  5
295
330
1F
100
AcDbEntity
  8
0
  6
CONTINUOUS
 62
     7
100
AcDbLine
 10
-22.589998
 20
45.549999
 30
0.0
 11
-21.429998
 21
44.38999899999998
 31
0.0
  0
LINE
  5
296
330
1F
100
AcDbEntity
  8
0
  6
CONTINUOUS
 62
     7
100
AcDbLine
 10
-29.36999899999999
 20
44.38999899999998
 30
0.0
 11
-28.209999
 21
45.549999
 31
0.0
  0
LINE
  5
297
330
1F
100
AcDbEntity
  8
0
  6
CONTINUOUS
 62
     7
100
AcDbLine
 10
-21.43
 20
44.38999899999998
 30
0.0
 11
-21.43
 21
43.55000299999999
 31
0.0
  0
LINE
  5
298
330
1F
100
AcDbEntity
  8
0
  6
CONTINUOUS
 62
     7
100
AcDbLine
 10
21.429998
 20
44.38999899999998
 30
0.0
 11
22.58999999999999
 21
45.549999
 31
0.0
  0
LINE
  5
299
330
1F
100
AcDbEntity
  8
0
  6
CONTINUOUS
 62
     7
100
AcDbLine
 10
28.210001
 20
45.549999
 30
0.0
 11
29.370001
 21
44.38999899999998
 31
0.0
  0
LINE
  5
29A
330
1F
100
AcDbEntity
  8
0
  6
CONTINUOUS
 62
     7
100
AcDbLine
 10
22.58999999999999
 20
45.549999
 30
0.0
 11
28.209999
 21
45.549999
 31
0.0
  0
LINE
  5
29B
330
1F
100
AcDbEntity
  8
0
  6
CONTINUOUS
 62
     7
100
AcDbLine
 10
29.36999899999999
 20
44.38999899999998
 30
0.0
 11
29.36999899999999
 21
43.55000299999999
 31
0.0
  0
LINE
  5
29C
330
1F
100
AcDbEntity
  8
0
  6
CONTINUOUS
 62
     7
100
AcDbLine
 10
21.43
 20
44.38999899999998
 30
0.0
 11
21.43
 21
43.55000299999999
 31
0.0
  0
LINE
  5
29D
330
1F
100
AcDbEntity
  8
0
  6
CONTINUOUS
 62
     7
100
AcDbLine
 10
-3.970000699999999
 20
44.38999899999998
 30
0.0
 11
-2.810000699999999
 21
45.549999
 31
0.0
  0
LINE
  5
29E
330
1F
100
AcDbEntity
  8
0
  6
CONTINUOUS
 62
     7
100
AcDbLine
 10
2.810000399999999
 20
45.549999
 30
0.0
 11
3.970000299999997
 21
44.38999899999998
 31
0.0
  0
LINE
  5
29F
330
1F
100
AcDbEntity
  8
0
  6
CONTINUOUS
 62
     7
100
AcDbLine
 10
-2.809999899999997
 20
45.549999
 30
0.0
 11
2.809999899999997
 21
45.549999
 31
0.0
  0
LINE
  5
2A0
330
1F
100
AcDbEntity
  8
0
  6
CONTINUOUS
 62
     7
100
AcDbLine
 10
28.207214
 20
-61.999653
 30
0.0
 11
28.207214
 21
-67.61408199999999
 31
0.0
  0
LINE
  5
2A1
330
1F
100
AcDbEntity
  8
0
  6
CONTINUOUS
 62
     7
100
AcDbLine
 10
28.207214
 20
-67.61408199999999
 30
0.0
 11
22.592785
 21
-67.61408199999999
 31
0.0
  0
LINE
  5
2A2
330
1F
100
AcDbEntity
  8
0
  6
CONTINUOUS
 62
     7
100
AcDbLine
 10
22.592785
 20
-61.999653
 30
0.0
 11
22.592785
 21
-67.61408199999999
 31
0.0
  0
LINE
  5
2A3
330
1F
100
AcDbEntity
  8
0
  6
CONTINUOUS
 62
     7
100
AcDbLine
 10
28.207214
 20
-61.999653
 30
0.0
 11
22.592785
 21
-61.999653
 31
0.0
  0
LINE
  5
2A4
330
1F
100
AcDbEntity
  8
0
  6
CONTINUOUS
 62
     7
100
AcDbLine
 10
2.807214
 20
-61.999653
 30
0.0
 11
2.807214
 21
-67.61408199999999
 31
0.0
  0
LINE
  5
2A5
330
1F
100
AcDbEntity
  8
0
  6
CONTINUOUS
 62
     7
100
AcDbLine
 10
2.807214
 20
-67.61408199999999
 30
0.0
 11
-2.807214
 21
-67.61408199999999
 31
0.0
  0
LINE
  5
2A6
330
1F
100
AcDbEntity
  8
0
  6
CONTINUOUS
 62
     7
100
AcDbLine
 10
-2.807214
 20
-61.999653
 30
0.0
 11
-2.807214
 21
-67.61408199999999
 31
0.0
  0
LINE
  5
2A7
330
1F
100
AcDbEntity
  8
0
  6
CONTINUOUS
 62
     7
100
AcDbLine
 10
2.807214
 20
-61.999653
 30
0.0
 11
-2.807214
 21
-61.999653
 31
0.0
  0
LINE
  5
2A8
330
1F
100
AcDbEntity
  8
0
  6
CENTER
 62
     6
100
AcDbLine
 10
25.4
 20
-48.75687
 30
0.0
 11
25.4
 21
-80.856873
 31
0.0
  0
LINE
  5
2A9
330
1F
100
AcDbEntity
  8
0
  6
CONTINUOUS
 62
     7
100
AcDbLine
 10
-34.79451799999999
 20
-67.938721
 30
0.0
 11
-34.170547
 21
-69.019463
 31
0.0
  0
LINE
  5
2AA
330
1F
100
AcDbEntity
  8
0
  6
CONTINUOUS
 62
     7
100
AcDbLine
 10
-29.65958399999999
 20
-64.97405999999999
 30
0.0
 11
-34.79451799999999
 21
-67.938721
 31
0.0
  0
LINE
  5
2AB
330
1F
100
AcDbEntity
  8
0
  6
CONTINUOUS
 62
     7
100
AcDbLine
 10
-34.79451799999999
 20
-61.675022
 30
0.0
 11
-34.170547
 21
-60.594276
 31
0.0
  0
LINE
  5
2AC
330
1F
100
AcDbEntity
  8
0
  6
CONTINUOUS
 62
     7
100
AcDbLine
 10
-29.659586
 20
-64.639679
 30
0.0
 11
-34.79451799999999
 21
-61.675022
 31
0.0
  0
LINE
  5
2AD
330
1F
100
AcDbEntity
  8
0
  6
CONTINUOUS
 62
     7
100
AcDbLine
 10
-29.43646199999999
 20
-66.28623199999998
 30
0.0
 11
-34.170547
 21
-69.019463
 31
0.0
  0
LINE
  5
2AE
330
1F
100
AcDbEntity
  8
0
  6
CONTINUOUS
 62
     7
100
AcDbLine
 10
-29.43646199999999
 20
-63.32749899999999
 30
0.0
 11
-34.170547
 21
-60.594276
 31
0.0
  0
LINE
  5
2AF
330
1F
100
AcDbEntity
  8
0
  6
CONTINUOUS
 62
     7
100
AcDbLine
 10
-33.546692
 20
-24.145874
 30
0.0
 11
-34.794628
 21
-22.89793799999999
 31
0.0
  0
LINE
  5
2B0
330
1F
100
AcDbEntity
  8
0
  6
CONTINUOUS
 62
     7
100
AcDbLine
 10
-18.81323199999998
 20
-24.145874
 30
0.0
 11
-21.43
 21
-24.145874
 31
0.0
  0
LINE
  5
2B1
330
1F
100
AcDbEntity
  8
0
  6
CONTINUOUS
 62
     7
100
AcDbLine
 10
-34.794628
 20
-22.89793799999999
 30
0.0
 11
-33.546688
 21
-21.65
 31
0.0
  0
LINE
  5
2B2
330
1F
100
AcDbEntity
  8
0
  6
CONTINUOUS
 62
     7
100
AcDbLine
 10
-29.370001
 20
-24.145874
 30
0.0
 11
-33.546688
 21
-24.145874
 31
0.0
  0
LINE
  5
2B3
330
1F
100
AcDbEntity
  8
0
  6
CONTINUOUS
 62
     7
100
AcDbLine
 10
-42.65331299999997
 20
-24.145874
 30
0.0
 11
-41.405373
 21
-22.89793799999999
 31
0.0
  0
LINE
  5
2B4
330
1F
100
AcDbEntity
  8
0
  6
CONTINUOUS
 62
     7
100
AcDbLine
 10
-57.386768
 20
-24.145874
 30
0.0
 11
-54.77
 21
-24.145874
 31
0.0
  0
LINE
  5
2B5
330
1F
100
AcDbEntity
  8
0
  6
CONTINUOUS
 62
     7
100
AcDbLine
 10
-41.405373
 20
-22.89793799999999
 30
0.0
 11
-42.65331299999997
 21
-21.65
 31
0.0
  0
LINE
  5
2B6
330
1F
100
AcDbEntity
  8
0
  6
CONTINUOUS
 62
     7
100
AcDbLine
 10
-46.830002
 20
-24.145874
 30
0.0
 11
-42.653309
 21
-24.145874
 31
0.0
  0
LINE
  5
2B7
330
1F
100
AcDbEntity
  8
0
  6
CONTINUOUS
 62
     7
100
AcDbLine
 10
-41.405487
 20
-67.938721
 30
0.0
 11
-42.02945299999999
 21
-69.019463
 31
0.0
  0
LINE
  5
2B8
330
1F
100
AcDbEntity
  8
0
  6
CONTINUOUS
 62
     7
100
AcDbLine
 10
-46.54041699999999
 20
-64.97405999999999
 30
0.0
 11
-41.405487
 21
-67.938721
 31
0.0
  0
LINE
  5
2B9
330
1F
100
AcDbEntity
  8
0
  6
CONTINUOUS
 62
     7
100
AcDbLine
 10
-41.405487
 20
-61.675026
 30
0.0
 11
-42.02945699999999
 21
-60.59428
 31
0.0
  0
LINE
  5
2BA
330
1F
100
AcDbEntity
  8
0
  6
CONTINUOUS
 62
     7
100
AcDbLine
 10
-46.54041699999999
 20
-64.639679
 30
0.0
 11
-41.405487
 21
-61.675026
 31
0.0
  0
LINE
  5
2BB
330
1F
100
AcDbEntity
  8
0
  6
CONTINUOUS
 62
     7
100
AcDbLine
 10
-46.763535
 20
-66.28623199999998
 30
0.0
 11
-42.02945299999999
 21
-69.019463
 31
0.0
  0
LINE
  5
2BC
330
1F
100
AcDbEntity
  8
0
  6
CONTINUOUS
 62
     7
100
AcDbLine
 10
-46.763538
 20
-63.327503
 30
0.0
 11
-42.02945699999999
 21
-60.59428
 31
0.0
  0
LINE
  5
2BD
330
1F
100
AcDbEntity
  8
0
  6
CONTINUOUS
 62
     7
100
AcDbLine
 10
25.4
 20
-52.75686999999999
 30
0.0
 11
26.049999
 21
-52.75686999999999
 31
0.0
  0
LINE
  5
2BE
102
{ACAD_REACTORS
330
547
102
}
330
1F
100
AcDbEntity
  8
0
  6
CONTINUOUS
 62
     7
100
AcDbLine
 10
50.150002
 20
-52.75686999999999
 30
0.0
 11
50.799999
 21
-52.75686999999999
 31
0.0
  0
LINE
  5
2BF
102
{ACAD_REACTORS
330
517
102
}
330
1F
100
AcDbEntity
  8
0
  6
CENTER
 62
     6
100
AcDbLine
 10
-25.4
 20
-48.75687
 30
0.0
 11
-25.4
 21
-80.856873
 31
0.0
  0
LINE
  5
2C0
102
{ACAD_REACTORS
330
52F
102
}
330
1F
100
AcDbEntity
  8
0
  6
CENTER
 62
     6
100
AcDbLine
 10
0.0000000000000426
 20
-48.75687
 30
0.0
 11
0.0000000000000426
 21
-80.856873
 31
0.0
  0
LINE
  5
2C1
330
1F
100
AcDbEntity
  8
0
  6
CENTER
 62
     6
100
AcDbLine
 10
-65.19999699999999
 20
-64.80686999999999
 30
0.0
 11
66.84999799999999
 21
-64.80686999999999
 31
0.0
  0
LINE
  5
2C2
102
{ACAD_REACTORS
330
4FF
330
517
102
}
330
1F
100
AcDbEntity
  8
0
  6
CENTER
 62
     6
100
AcDbLine
 10
-50.799999
 20
-48.75687
 30
0.0
 11
-50.799999
 21
-80.856873
 31
0.0
  0
LINE
  5
2C3
102
{ACAD_REACTORS
330
547
102
}
330
1F
100
AcDbEntity
  8
0
  6
CENTER
 62
     6
100
AcDbLine
 10
50.799999
 20
-48.75687
 30
0.0
 11
50.799999
 21
-80.856873
 31
0.0
  0
LINE
  5
2C4
330
1F
100
AcDbEntity
  8
0
  6
CONTINUOUS
 62
     7
100
AcDbLine
 10
-61.200001
 20
43.55000299999999
 30
0.0
 11
-61.200001
 21
39.549999
 31
0.0
  0
LINE
  5
2C5
102
{ACAD_REACTORS
330
496
102
}
330
1F
100
AcDbEntity
  8
0
  6
CONTINUOUS
 62
     7
100
AcDbLine
 10
-61.200001
 20
39.549999
 30
0.0
 11
-15.0
 21
39.549999
 31
0.0
  0
LINE
  5
2C6
330
1F
100
AcDbEntity
  8
0
  6
CONTINUOUS
 62
     7
100
AcDbLine
 10
3.97
 20
44.38999899999998
 30
0.0
 11
3.97
 21
43.55000299999999
 31
0.0
  0
LINE
  5
2C7
102
{ACAD_REACTORS
330
496
102
}
330
1F
100
AcDbEntity
  8
0
  6
CONTINUOUS
 62
     7
100
AcDbLine
 10
-61.200001
 20
43.55000299999999
 30
0.0
 11
-15.0
 21
43.55000299999999
 31
0.0
  0
LINE
  5
2C8
102
{ACAD_REACTORS
330
47A
102
}
330
1F
100
AcDbEntity
  8
0
  6
CONTINUOUS
 62
     7
100
AcDbLine
 10
-54.77
 20
39.549999
 30
0.0
 11
-54.77
 21
14.95
 31
0.0
  0
LINE
  5
2C9
102
{ACAD_REACTORS
330
47A
102
}
330
1F
100
AcDbEntity
  8
0
  6
CONTINUOUS
 62
     7
100
AcDbLine
 10
-46.830002
 20
39.549999
 30
0.0
 11
-46.830002
 21
14.95
 31
0.0
  0
LINE
  5
2CA
330
1F
100
AcDbEntity
  8
0
  6
CONTINUOUS
 62
     7
100
AcDbLine
 10
-54.77
 20
-21.65
 30
0.0
 11
-54.77
 21
-26.25
 31
0.0
  0
LINE
  5
2CB
330
1F
100
AcDbEntity
  8
0
  6
CONTINUOUS
 62
     7
100
AcDbLine
 10
35.799999
 20
43.55000299999999
 30
0.0
 11
35.799999
 21
39.549999
 31
0.0
  0
LINE
  5
2CC
102
{ACAD_REACTORS
330
4E7
102
}
330
1F
100
AcDbEntity
  8
0
  6
CONTINUOUS
 62
     7
100
AcDbLine
 10
-54.77
 20
-26.25
 30
0.0
 11
-46.830002
 21
-26.25
 31
0.0
  0
LINE
  5
2CD
330
1F
100
AcDbEntity
  8
0
  6
CONTINUOUS
 62
     7
100
AcDbLine
 10
-21.43
 20
-21.65
 30
0.0
 11
-21.43
 21
-26.25
 31
0.0
  0
LINE
  5
2CE
330
1F
100
AcDbEntity
  8
0
  6
CONTINUOUS
 62
     7
100
AcDbLine
 10
-10.4
 20
14.95
 30
0.0
 11
35.799999
 21
14.95
 31
0.0
  0
LINE
  5
2CF
330
1F
100
AcDbEntity
  8
0
  6
CONTINUOUS
 62
     7
100
AcDbLine
 10
-29.370001
 20
-26.25
 30
0.0
 11
-21.43
 21
-26.25
 31
0.0
  0
LINE
  5
2D0
330
1F
100
AcDbEntity
  8
0
  6
CONTINUOUS
 62
     7
100
AcDbLine
 10
-10.4
 20
43.55000299999999
 30
0.0
 11
-10.4
 21
39.549999
 31
0.0
  0
LINE
  5
2D1
330
1F
100
AcDbEntity
  8
0
  6
CONTINUOUS
 62
     7
100
AcDbLine
 10
-29.370001
 20
-21.65
 30
0.0
 11
-29.370001
 21
-26.25
 31
0.0
  0
LINE
  5
2D2
102
{ACAD_REACTORS
330
45E
102
}
330
1F
100
AcDbEntity
  8
0
  6
CONTINUOUS
 62
     7
100
AcDbLine
 10
62.849998
 20
39.189999
 30
0.0
 11
13.34999999999999
 21
39.189999
 31
0.0
  0
LINE
  5
2D3
102
{ACAD_REACTORS
330
439
102
}
330
1F
100
AcDbEntity
  8
0
  6
CONTINUOUS
 62
     7
100
AcDbLine
 10
58.74000200000001
 20
33.59
 30
0.0
 11
58.74000200000001
 21
20.91
 31
0.0
  0
LINE
  5
2D4
102
{ACAD_REACTORS
330
439
102
}
330
1F
100
AcDbEntity
  8
0
  6
CONTINUOUS
 62
     7
100
AcDbLine
 10
42.86000099999999
 20
33.59
 30
0.0
 11
42.86000099999999
 21
20.91
 31
0.0
  0
LINE
  5
2D5
330
1F
100
AcDbEntity
  8
0
  6
CONTINUOUS
 62
     7
100
AcDbLine
 10
7.940000099999998
 20
33.59
 30
0.0
 11
7.940000099999998
 21
20.91
 31
0.0
  0
LINE
  5
2D6
330
1F
100
AcDbEntity
  8
0
  6
CONTINUOUS
 62
     7
100
AcDbLine
 10
-7.940000099999998
 20
33.59
 30
0.0
 11
-7.940000099999998
 21
20.91
 31
0.0
  0
LINE
  5
2D7
330
1F
100
AcDbEntity
  8
0
  6
CONTINUOUS
 62
     7
100
AcDbLine
 10
-33.34
 20
33.59
 30
0.0
 11
-33.34
 21
20.91
 31
0.0
  0
LINE
  5
2D8
330
1F
100
AcDbEntity
  8
0
  6
CONTINUOUS
 62
     7
100
AcDbLine
 10
62.849998
 20
39.189999
 30
0.0
 11
62.849998
 21
35.189999
 31
0.0
  0
LINE
  5
2D9
330
1F
100
AcDbEntity
  8
0
  6
CONTINUOUS
 62
     7
100
AcDbLine
 10
-61.200001
 20
14.95
 30
0.0
 11
-61.200001
 21
10.950001
 31
0.0
  0
LINE
  5
2DA
330
1F
100
AcDbEntity
  8
0
  6
CONTINUOUS
 62
     7
100
AcDbLine
 10
12.05
 20
39.189999
 30
0.0
 11
12.05
 21
35.189999
 31
0.0
  0
LINE
  5
2DB
102
{ACAD_REACTORS
330
40B
102
}
330
1F
100
AcDbEntity
  8
0
  6
CONTINUOUS
 62
     7
100
AcDbLine
 10
62.849998
 20
19.30999899999997
 30
0.0
 11
13.34999999999999
 21
19.30999899999997
 31
0.0
  0
LINE
  5
2DC
330
1F
100
AcDbEntity
  8
0
  6
CONTINUOUS
 62
     7
100
AcDbLine
 10
62.849998
 20
15.31
 30
0.0
 11
13.34999999999999
 21
15.31
 31
0.0
  0
LINE
  5
2DD
102
{ACAD_REACTORS
330
40B
330
45E
102
}
330
1F
100
AcDbEntity
  8
0
  6
CONTINUOUS
 62
     7
100
AcDbLine
 10
62.849998
 20
35.189999
 30
0.0
 11
13.34999999999999
 21
35.189999
 31
0.0
  0
LINE
  5
2DE
330
1F
100
AcDbEntity
  8
0
  6
CONTINUOUS
 62
     7
100
AcDbLine
 10
-37.450001
 20
15.31
 30
0.0
 11
-37.450001
 21
19.30999899999997
 31
0.0
  0
LINE
  5
2DF
330
1F
100
AcDbEntity
  8
0
  6
CENTER
 62
     6
100
AcDbLine
 10
0.0
 20
47.5
 30
0.0
 11
0.0
 21
-26.25
 31
0.0
  0
LINE
  5
2E0
330
1F
100
AcDbEntity
  8
0
  6
CONTINUOUS
 62
     7
100
AcDbLine
 10
12.05
 20
15.31
 30
0.0
 11
12.05
 21
19.30999899999997
 31
0.0
  0
LINE
  5
2E1
330
1F
100
AcDbEntity
  8
0
  6
CONTINUOUS
 62
     7
100
AcDbLine
 10
-17.459999
 20
33.59
 30
0.0
 11
-17.459999
 21
20.91
 31
0.0
  0
LINE
  5
2E2
330
1F
100
AcDbEntity
  8
0
  6
CONTINUOUS
 62
     7
100
AcDbLine
 10
-37.450001
 20
39.189999
 30
0.0
 11
-37.450001
 21
35.189999
 31
0.0
  0
LINE
  5
2E3
330
1F
100
AcDbEntity
  8
0
  6
CENTER
 62
     6
100
AcDbLine
 10
50.799999
 20
42.38999899999996
 30
0.0
 11
50.799999
 21
-21.6
 31
0.0
  0
LINE
  5
2E4
330
1F
100
AcDbEntity
  8
0
  6
CONTINUOUS
 62
     7
100
AcDbLine
 10
-15.0
 20
14.95
 30
0.0
 11
-15.0
 21
10.950001
 31
0.0
  0
LINE
  5
2E5
330
1F
100
AcDbEntity
  8
0
  6
CONTINUOUS
 62
     7
100
AcDbLine
 10
62.849998
 20
15.31
 30
0.0
 11
62.849998
 21
19.30999899999997
 31
0.0
  0
LINE
  5
2E6
330
1F
100
AcDbEntity
  8
0
  6
CENTER
 62
     6
100
AcDbLine
 10
-25.4
 20
47.5
 30
0.0
 11
-25.4
 21
-28.277555
 31
0.0
  0
LINE
  5
2E7
330
1F
100
AcDbEntity
  8
0
  6
CONTINUOUS
 62
     7
100
AcDbLine
 10
-46.830002
 20
-21.65
 30
0.0
 11
-46.830002
 21
-26.25
 31
0.0
  0
LINE
  5
2E8
330
1F
100
AcDbEntity
  8
0
  6
CENTER
 62
     6
100
AcDbLine
 10
-50.799999
 20
47.5
 30
0.0
 11
-50.799999
 21
-28.495787
 31
0.0
  0
LINE
  5
2E9
330
1F
100
AcDbEntity
  8
0
  6
CONTINUOUS
 62
     7
100
AcDbLine
 10
-10.4
 20
43.55000299999999
 30
0.0
 11
35.799999
 21
43.55000299999999
 31
0.0
  0
LINE
  5
2EA
330
1F
100
AcDbEntity
  8
0
  6
CONTINUOUS
 62
     7
100
AcDbLine
 10
-10.4
 20
14.95
 30
0.0
 11
-10.4
 21
10.950001
 31
0.0
  0
LINE
  5
2EB
330
1F
100
AcDbEntity
  8
0
  6
CONTINUOUS
 62
     7
100
AcDbLine
 10
-37.450001
 20
35.189999
 30
0.0
 11
12.05
 21
35.189999
 31
0.0
  0
LINE
  5
2EC
330
1F
100
AcDbEntity
  8
0
  6
CONTINUOUS
 62
     7
100
AcDbLine
 10
-37.450001
 20
19.30999899999997
 30
0.0
 11
12.05
 21
19.30999899999997
 31
0.0
  0
LINE
  5
2ED
330
1F
100
AcDbEntity
  8
0
  6
CONTINUOUS
 62
     7
100
AcDbLine
 10
17.459999
 20
33.59
 30
0.0
 11
17.459999
 21
20.91
 31
0.0
  0
LINE
  5
2EE
330
1F
100
AcDbEntity
  8
0
  6
CONTINUOUS
 62
     7
100
AcDbLine
 10
-37.450001
 20
39.189999
 30
0.0
 11
12.05
 21
39.189999
 31
0.0
  0
LINE
  5
2EF
330
1F
100
AcDbEntity
  8
0
  6
CONTINUOUS
 62
     7
100
AcDbLine
 10
-15.0
 20
43.55000299999999
 30
0.0
 11
-15.0
 21
39.549999
 31
0.0
  0
LINE
  5
2F0
330
1F
100
AcDbEntity
  8
0
  6
CONTINUOUS
 62
     7
100
AcDbLine
 10
33.34
 20
33.59
 30
0.0
 11
33.34
 21
20.91
 31
0.0
  0
LINE
  5
2F1
330
1F
100
AcDbEntity
  8
0
  6
CONTINUOUS
 62
     7
100
AcDbLine
 10
35.799999
 20
14.95
 30
0.0
 11
35.799999
 21
10.950001
 31
0.0
  0
LINE
  5
2F2
330
1F
100
AcDbEntity
  8
0
  6
CONTINUOUS
 62
     7
100
AcDbLine
 10
-37.450001
 20
15.31
 30
0.0
 11
12.05
 21
15.31
 31
0.0
  0
LINE
  5
2F3
330
1F
100
AcDbEntity
  8
0
  6
CONTINUOUS
 62
     7
100
AcDbLine
 10
-3.97
 20
44.38999899999998
 30
0.0
 11
-3.97
 21
43.55000299999999
 31
0.0
  0
LINE
  5
2F4
330
1F
100
AcDbEntity
  8
0
  6
CONTINUOUS
 62
     7
100
AcDbLine
 10
-61.200001
 20
14.95
 30
0.0
 11
-15.0
 21
14.95
 31
0.0
  0
LINE
  5
2F5
330
1F
100
AcDbEntity
  8
0
  6
CONTINUOUS
 62
     7
100
AcDbLine
 10
-10.4
 20
39.549999
 30
0.0
 11
35.799999
 21
39.549999
 31
0.0
  0
LINE
  5
2F6
330
1F
100
AcDbEntity
  8
0
  6
CONTINUOUS
 62
     7
100
AcDbLine
 10
13.34999999999999
 20
15.31
 30
0.0
 11
13.34999999999999
 21
19.30999899999997
 31
0.0
  0
LINE
  5
2F7
330
1F
100
AcDbEntity
  8
0
  6
CONTINUOUS
 62
     7
100
AcDbLine
 10
13.34999999999999
 20
39.189999
 30
0.0
 11
13.34999999999999
 21
35.189999
 31
0.0
  0
LINE
  5
2F8
330
1F
100
AcDbEntity
  8
0
  6
CENTER
 62
     6
100
AcDbLine
 10
25.4
 20
47.5
 30
0.0
 11
25.4
 21
-26.25
 31
0.0
  0
LINE
  5
2F9
102
{ACAD_REACTORS
330
4AE
102
}
330
1F
100
AcDbEntity
  8
0
  6
CENTER
 62
     6
100
AcDbLine
 10
-65.19999699999999
 20
27.25
 30
0.0
 11
66.073509
 21
27.25
 31
0.0
  0
DIMENSION
  5
3F4
102
{ACAD_XDICTIONARY
360
401
102
}
102
{ACAD_REACTORS
330
40B
102
}
330
1F
100
AcDbEntity
  8
0
100
AcDbDimension
  2
*D0
 10
93.26337432423953
 20
35.18999899999999
 30
0.0
 11
93.26337432423953
 21
26.8449741191526
 31
0.0
 70
   160
  3
ISO-25
100
AcDbAlignedDimension
 13
62.849998
 23
19.30999899999997
 33
0.0
 14
62.849998
 24
35.189999
 34
0.0
 50
90.0
100
AcDbRotatedDimension
  0
DIMENSION
  5
41E
102
{ACAD_XDICTIONARY
360
42D
102
}
102
{ACAD_REACTORS
330
439
102
}
330
1F
100
AcDbEntity
  8
0
100
AcDbDimension
  2
*D1
 10
58.74000200000001
 20
22.06505896529745
 30
0.0
 11
74.90666866666669
 21
24.81505896529744
 31
0.0
 70
    32
  1
φ<>
  3
ISO-25
100
AcDbAlignedDimension
 13
42.86000099999999
 23
20.91
 33
0.0
 14
58.74000200000001
 24
20.91
 34
0.0
100
AcDbRotatedDimension
  0
DIMENSION
  5
443
102
{ACAD_XDICTIONARY
360
452
102
}
102
{ACAD_REACTORS
330
45E
102
}
330
1F
100
AcDbEntity
  8
0
100
AcDbDimension
  2
*D2
 10
93.26337432423953
 20
39.18999899999999
 30
0.0
 11
90.51337432423952
 21
50.39833233333332
 31
0.0
 70
    32
  3
ISO-25
100
AcDbAlignedDimension
 13
62.849998
 23
35.189999
 33
0.0
 14
62.849998
 24
39.189999
 34
0.0
 50
90.0
100
AcDbRotatedDimension
1001
ACAD
1000
DSTYLE
1002
{
1070
   271
1070
     1
1070
    78
1070
     0
1002
}
  0
DIMENSION
  5
45F
102
{ACAD_XDICTIONARY
360
46E
102
}
102
{ACAD_REACTORS
330
47A
102
}
330
1F
100
AcDbEntity
  8
0
100
AcDbDimension
  2
*D3
 10
-54.77
 20
18.88058888695092
 30
0.0
 11
-69.77000000000001
 21
21.63058888695092
 31
0.0
 70
    32
  1
φ<>
  3
ISO-25
100
AcDbAlignedDimension
 13
-46.830002
 23
14.95
 33
0.0
 14
-54.77
 24
14.95
 34
0.0
100
AcDbRotatedDimension
  0
DIMENSION
  5
47B
102
{ACAD_XDICTIONARY
360
48A
102
}
102
{ACAD_REACTORS
330
496
102
}
330
1F
100
AcDbEntity
  8
0
100
AcDbDimension
  2
*D4
 10
-74.48806996585027
 20
43.55000299999999
 30
0.0
 11
-77.2380699658503
 21
54.75833633333333
 31
0.0
 70
    32
  3
ISO-25
100
AcDbAlignedDimension
 13
-61.200001
 23
39.549999
 33
0.0
 14
-61.200001
 24
43.55000299999999
 34
0.0
 50
90.0
100
AcDbRotatedDimension
1001
ACAD
1000
DSTYLE
1002
{
1070
   271
1070
     1
1070
    78
1070
     0
1002
}
  0
DIMENSION
  5
497
102
{ACAD_XDICTIONARY
360
4A4
102
}
102
{ACAD_REACTORS
330
4AE
102
}
330
1F
100
AcDbEntity
  8
0
100
AcDbDimension
  2
*D5
 10
-85.28592709464872
 20
-5.349999899999994
 30
0.0
 11
-85.28592709464872
 21
18.70081743770777
 31
0.0
 70
   160
  3
ISO-25
100
AcDbAlignedDimension
 13
-65.19999699999999
 23
27.25
 33
0.0
 14
-65.19999699999999
 24
-5.3499999
 34
0.0
 50
90.0
100
AcDbRotatedDimension
  0
DIMENSION
  5
4B8
102
{ACAD_XDICTIONARY
360
4C5
102
}
102
{ACAD_REACTORS
330
4CF
102
}
330
1F
100
AcDbEntity
  8
0
100
AcDbDimension
  2
*D6
 10
-93.93897472057416
 20
45.54999900000001
 30
0.0
 11
-96.68897472057416
 21
28.24999999999999
 31
0.0
 70
    32
  3
ISO-25
100
AcDbAlignedDimension
 13
-61.200001
 23
10.950001
 33
0.0
 14
-53.60999904152695
 24
45.54999900000001
 34
0.0
 50
90.0
100
AcDbRotatedDimension
  0
DIMENSION
  5
4D0
102
{ACAD_XDICTIONARY
360
4DD
102
}
102
{ACAD_REACTORS
330
4E7
102
}
330
1F
100
AcDbEntity
  8
0
100
AcDbDimension
  2
*D7
 10
-93.93897472057416
 20
-26.24999999999998
 30
0.0
 11
-96.68897472057416
 21
-7.649999500000001
 31
0.0
 70
    32
  3
ISO-25
100
AcDbAlignedDimension
 13
-61.200001
 23
10.950001
 33
0.0
 14
-54.77
 24
-26.25
 34
0.0
 50
90.0
100
AcDbRotatedDimension
  0
DIMENSION
  5
4E8
102
{ACAD_XDICTIONARY
360
4F5
102
}
102
{ACAD_REACTORS
330
4FF
102
}
330
1F
100
AcDbEntity
  8
0
100
AcDbDimension
  2
*D8
 10
-85.28592709464875
 20
-75.20686999999998
 30
0.0
 11
-88.03592709464874
 21
-64.80686999999999
 31
0.0
 70
    32
  3
ISO-25
100
AcDbAlignedDimension
 13
-50.799999
 23
-54.40686999999999
 33
0.0
 14
-50.799999
 24
-75.20686999999998
 34
0.0
 50
90.0
100
AcDbRotatedDimension
  0
DIMENSION
  5
500
102
{ACAD_XDICTIONARY
360
50D
102
}
102
{ACAD_REACTORS
330
517
102
}
330
1F
100
AcDbEntity
  8
0
100
AcDbDimension
  2
*D9
 10
-25.4
 20
-93.83530182062944
 30
0.0
 11
-38.09999949999999
 21
-91.08530182062944
 31
0.0
 70
    32
  3
ISO-25
100
AcDbAlignedDimension
 13
-50.799999
 23
-80.856873
 33
0.0
 14
-25.4
 24
-80.856873
 34
0.0
100
AcDbRotatedDimension
1001
ACAD
1000
DSTYLE
1002
{
1070
    78
1070
     0
1002
}
  0
DIMENSION
  5
518
102
{ACAD_XDICTIONARY
360
525
102
}
102
{ACAD_REACTORS
330
52F
102
}
330
1F
100
AcDbEntity
  8
0
100
AcDbDimension
  2
*D10
 10
0.0000000000000418
 20
-93.83530182062944
 30
0.0
 11
-12.69999999999997
 21
-91.08530182062944
 31
0.0
 70
    32
  3
ISO-25
100
AcDbAlignedDimension
 13
-25.4
 23
-80.856873
 33
0.0
 14
0.0000000000000426
 24
-80.856873
 34
0.0
100
AcDbRotatedDimension
1001
ACAD
1000
DSTYLE
1002
{
1070
    78
1070
     0
1002
}
  0
DIMENSION
  5
530
102
{ACAD_XDICTIONARY
360
53D
102
}
102
{ACAD_REACTORS
330
547
102
}
330
1F
100
AcDbEntity
  8
0
100
AcDbDimension
  2
*D11
 10
79.91934395989097
 20
-52.75686999999999
 30
0.0
 11
77.16934395989098
 21
-64.80686999999997
 31
0.0
 70
    32
  3
ISO-25
100
AcDbAlignedDimension
 13
50.799999
 23
-76.85686999999998
 33
0.0
 14
50.799999
 24
-52.75686999999999
 34
0.0
 50
90.0
100
AcDbRotatedDimension
  0
TEXT
  5
625
330
1F
100
AcDbEntity
  8
0
100
AcDbText
 10
74.5524107196054
 20
-98.79630345232904
 30
0.0
 40
1.6
  1
DATE2020.5.1
100
AcDbText
  0
ENDSEC
  0
SECTION
  2
OBJECTS
  0
DICTIONARY
  5
C
330
0
100
AcDbDictionary
  3
ACAD_GROUP
350
D
  3
ACAD_LAYOUT
350
1A
  3
ACAD_MLINESTYLE
350
17
  3
ACAD_PLOTSETTINGS
350
19
  3
ACAD_PLOTSTYLENAME
350
E
  3
ACDBHEADERROUNDTRIPXREC
350
656
  3
ACDBVARIABLEDICTIONARY
350
2C
  0
DICTIONARY
  5
64A
330
1F
100
AcDbDictionary
280
     1
  3
ACAD_LAYOUTSELFREF
360
678
  0
DICTIONARY
  5
648
330
1B
100
AcDbDictionary
280
     1
  3
ACAD_LAYOUTSELFREF
360
677
  0
DICTIONARY
  5
401
330
3F4
100
AcDbDictionary
280
     1
  3
ACAD_DIMASSOC
360
40B
  0
DICTIONARY
  5
42D
330
41E
100
AcDbDictionary
280
     1
  3
ACAD_DIMASSOC
360
439
  0
DICTIONARY
  5
452
330
443
100
AcDbDictionary
280
     1
  3
ACAD_DIMASSOC
360
45E
  0
DICTIONARY
  5
46E
330
45F
100
AcDbDictionary
280
     1
  3
ACAD_DIMASSOC
360
47A
  0
DICTIONARY
  5
48A
330
47B
100
AcDbDictionary
280
     1
  3
ACAD_DIMASSOC
360
496
  0
DICTIONARY
  5
4A4
330
497
100
AcDbDictionary
280
     1
  3
ACAD_DIMASSOC
360
4AE
  0
DICTIONARY
  5
4C5
330
4B8
100
AcDbDictionary
280
     1
  3
ACAD_DIMASSOC
360
4CF
  0
DICTIONARY
  5
4DD
330
4D0
100
AcDbDictionary
280
     1
  3
ACAD_DIMASSOC
360
4E7
  0
DICTIONARY
  5
4F5
330
4E8
100
AcDbDictionary
280
     1
  3
ACAD_DIMASSOC
360
4FF
  0
DICTIONARY
  5
50D
330
500
100
AcDbDictionary
280
     1
  3
ACAD_DIMASSOC
360
517
  0
DICTIONARY
  5
525
330
518
100
AcDbDictionary
280
     1
  3
ACAD_DIMASSOC
360
52F
  0
DICTIONARY
  5
53D
330
530
100
AcDbDictionary
280
     1
  3
ACAD_DIMASSOC
360
547
  0
DICTIONARY
  5
D
102
{ACAD_REACTORS
330
C
102
}
330
C
100
AcDbDictionary
  0
DICTIONARY
  5
1A
102
{ACAD_REACTORS
330
C
102
}
330
C
100
AcDbDictionary
  0
DICTIONARY
  5
17
102
{ACAD_REACTORS
330
C
102
}
330
C
100
AcDbDictionary
  3
STANDARD
350
18
  0
DICTIONARY
  5
19
102
{ACAD_REACTORS
330
C
102
}
330
C
100
AcDbDictionary
  0
ACDBDICTIONARYWDFLT
  5
E
102
{ACAD_REACTORS
330
C
102
}
330
C
100
AcDbDictionary
281
     1
  3
Normal
350
F
100
AcDbDictionaryWithDefault
340
F
  0
DICTIONARY
  5
656
102
{ACAD_REACTORS
330
C
102
}
330
C
100
AcDbDictionary
  3
CEPSNTYPE
350
660
  3
DIMSTYLEDATA
350
664
  3
FINGERPRINTGUID
350
661
  3
HYPERLINKBASE
350
659
  3
INSUNITS
350
65F
  3
LAYOUTDICT
350
65B
  3
LWETCUNION
350
65E
  3
PLOTSETDICT
350
65C
  3
PLOTSTYLNAMDICT
350
65D
  3
PSVPSCALE
350
663
  3
PUCSBASE
350
667
  3
PUCSORGBACK
350
66D
  3
PUCSORGBOTTOM
350
669
  3
PUCSORGFRONT
350
66C
  3
PUCSORGLEFT
350
66A
  3
PUCSORGRIGHT
350
66B
  3
PUCSORGTOP
350
668
  3
PUCSORTHOREF
350
665
  3
PUCSORTHOVIEW
350
666
  3
STYLESHEET
350
65A
  3
TSTACKALIGN
350
657
  3
TSTACKSIZE
350
658
  3
UCSBASE
350
670
  3
UCSORGBACK
350
676
  3
UCSORGBOTTOM
350
672
  3
UCSORGFRONT
350
675
  3
UCSORGLEFT
350
673
  3
UCSORGRIGHT
350
674
  3
UCSORGTOP
350
671
  3
UCSORTHOREF
350
66E
  3
UCSORTHOVIEW
350
66F
  3
VERSIONGUID
350
662
  0
DICTIONARY
  5
2C
102
{ACAD_REACTORS
330
C
102
}
330
C
100
AcDbDictionary
  3
DIMASSOC
350
2E
  3
HIDETEXT
350
2D
  0
XRECORD
  5
678
102
{ACAD_REACTORS
330
64A
102
}
330
64A
100
AcDbXrecord
340
1F
  0
XRECORD
  5
677
102
{ACAD_REACTORS
330
648
102
}
330
648
100
AcDbXrecord
340
1B
  0
DIMASSOC
  5
40B
102
{ACAD_REACTORS
330
401
102
}
330
401
100
AcDbDimAssoc
330
3F4
 90
        3
 70
     0
 71
     0
  1
AcDbOsnapPointRef
 72
    13
331
2DB
 73
     2
 91
        0
 40
0.0
 10
62.849998
 20
19.30999899999997
 30
0.0
 75
     0
  1
AcDbOsnapPointRef
 72
    13
331
2DD
 73
     2
 91
        0
 40
0.0
 10
62.849998
 20
35.189999
 30
0.0
 75
     0
  0
DIMASSOC
  5
439
102
{ACAD_REACTORS
330
42D
102
}
330
42D
100
AcDbDimAssoc
330
41E
 90
        3
 70
     0
 71
     0
  1
AcDbOsnapPointRef
 72
     1
331
2D4
 73
     2
 91
        0
 40
1.0
 10
42.86000099999999
 20
20.91
 30
0.0
 75
     0
  1
AcDbOsnapPointRef
 72
     1
331
2D3
 73
     2
 91
        0
 40
1.0
 10
58.74000200000001
 20
20.91
 30
0.0
 75
     0
  0
DIMASSOC
  5
45E
102
{ACAD_REACTORS
330
452
102
}
330
452
100
AcDbDimAssoc
330
443
 90
        3
 70
     0
 71
     0
  1
AcDbOsnapPointRef
 72
    13
331
2DD
 73
     2
 91
        0
 40
0.0
 10
62.849998
 20
35.189999
 30
0.0
 75
     0
  1
AcDbOsnapPointRef
 72
    13
331
2D2
 73
     2
 91
        0
 40
0.0
 10
62.849998
 20
39.189999
 30
0.0
 75
     0
  0
DIMASSOC
  5
47A
102
{ACAD_REACTORS
330
46E
102
}
330
46E
100
AcDbDimAssoc
330
45F
 90
        3
 70
     0
 71
     0
  1
AcDbOsnapPointRef
 72
     1
331
2C9
 73
     2
 91
        0
 40
1.0
 10
-46.830002
 20
14.95
 30
0.0
 75
     0
  1
AcDbOsnapPointRef
 72
     1
331
2C8
 73
     2
 91
        0
 40
1.0
 10
-54.77
 20
14.95
 30
0.0
 75
     0
  0
DIMASSOC
  5
496
102
{ACAD_REACTORS
330
48A
102
}
330
48A
100
AcDbDimAssoc
330
47B
 90
        3
 70
     0
 71
     0
  1
AcDbOsnapPointRef
 72
    13
331
2C5
 73
     2
 91
        0
 40
0.0
 10
-61.200001
 20
39.549999
 30
0.0
 75
     0
  1
AcDbOsnapPointRef
 72
    13
331
2C7
 73
     2
 91
        0
 40
0.0
 10
-61.200001
 20
43.55000299999999
 30
0.0
 75
     0
  0
DIMASSOC
  5
4AE
102
{ACAD_REACTORS
330
4A4
102
}
330
4A4
100
AcDbDimAssoc
330
497
 90
        3
 70
     0
 71
     0
  1
AcDbOsnapPointRef
 72
    13
331
2F9
 73
     2
 91
        0
 40
0.0
 10
-65.19999699999999
 20
27.25
 30
0.0
 75
     0
  1
AcDbOsnapPointRef
 72
    13
331
283
 73
     2
 91
        0
 40
0.0
 10
-65.19999699999999
 20
-5.3499999
 30
0.0
 75
     0
  0
DIMASSOC
  5
4CF
102
{ACAD_REACTORS
330
4C5
102
}
330
4C5
100
AcDbDimAssoc
330
4B8
 90
        3
 70
     0
 71
     0
  1
AcDbOsnapPointRef
 72
    13
331
25A
 73
     2
 91
        0
 40
0.0
 10
-61.200001
 20
10.950001
 30
0.0
 75
     0
  1
AcDbOsnapPointRef
 72
     6
331
292
 73
     2
 91
        0
 40
0.000000348482563
 10
-53.60999904152695
 20
45.549999
 30
0.0
332
216
 74
     2
 92
        0
 75
     0
  0
DIMASSOC
  5
4E7
102
{ACAD_REACTORS
330
4DD
102
}
330
4DD
100
AcDbDimAssoc
330
4D0
 90
        3
 70
     0
 71
     0
  1
AcDbOsnapPointRef
 72
    13
331
25A
 73
     2
 91
        0
 40
0.0
 10
-61.200001
 20
10.950001
 30
0.0
 75
     0
  1
AcDbOsnapPointRef
 72
    13
331
2CC
 73
     2
 91
        0
 40
0.0
 10
-54.77
 20
-26.25
 30
0.0
 75
     0
  0
DIMASSOC
  5
4FF
102
{ACAD_REACTORS
330
4F5
102
}
330
4F5
100
AcDbDimAssoc
330
4E8
 90
        3
 70
     0
 71
     0
  1
AcDbOsnapPointRef
 72
     6
331
2C2
 73
     2
 91
        0
 40
0.1760124446094286
 10
-50.799999
 20
-54.40686999999999
 30
0.0
332
241
 74
     2
 92
        0
 75
     0
  1
AcDbOsnapPointRef
 72
     6
331
2C2
 73
     2
 91
        0
 40
0.8239874619326359
 10
-50.799999
 20
-75.20686999999998
 30
0.0
332
241
 74
     2
 92
        0
 75
     0
  0
DIMASSOC
  5
517
102
{ACAD_REACTORS
330
50D
102
}
330
50D
100
AcDbDimAssoc
330
500
 90
        3
 70
     0
 71
     0
  1
AcDbOsnapPointRef
 72
     1
331
2C2
 73
     2
 91
        0
 40
1.0
 10
-50.799999
 20
-80.856873
 30
0.0
 75
     0
  1
AcDbOsnapPointRef
 72
     1
331
2BF
 73
     2
 91
        0
 40
1.0
 10
-25.4
 20
-80.856873
 30
0.0
 75
     0
  0
DIMASSOC
  5
52F
102
{ACAD_REACTORS
330
525
102
}
330
525
100
AcDbDimAssoc
330
518
 90
        2
 70
     0
 71
     0
  1
AcDbOsnapPointRef
 72
     1
331
2C0
 73
     2
 91
        0
 40
1.0
 10
0.0000000000000426
 20
-80.856873
 30
0.0
 75
     0
  0
DIMASSOC
  5
547
102
{ACAD_REACTORS
330
53D
102
}
330
53D
100
AcDbDimAssoc
330
530
 90
        3
 70
     0
 71
     0
  1
AcDbOsnapPointRef
 72
     6
331
2C3
 73
     2
 91
        0
 40
0.8753893262876017
 10
50.799999
 20
-76.85686999999998
 30
0.0
332
243
 74
     2
 92
        0
 75
     0
  1
AcDbOsnapPointRef
 72
     1
331
2BE
 73
     2
 91
        0
 40
1.0
 10
50.799999
 20
-52.75686999999999
 30
0.0
 75
     0
  0
MLINESTYLE
  5
18
102
{ACAD_REACTORS
330
17
102
}
330
17
100
AcDbMlineStyle
  2
STANDARD
 70
     0
  3

 62
   256
 51
90.0
 52
90.0
 71
     2
 49
0.5
 62
   256
  6
BYLAYER
 49
-0.5
 62
   256
  6
BYLAYER
  0
ACDBPLACEHOLDER
  5
F
102
{ACAD_REACTORS
330
E
102
}
330
E
100
AcDbPlaceHolder
280
     0
  0
XRECORD
  5
660
102
{ACAD_REACTORS
330
656
102
}
330
656
100
AcDbXrecord
 90
        0
  0
XRECORD
  5
664
102
{ACAD_REACTORS
330
656
102
}
330
656
100
AcDbXrecord
1000
DSTYLE
1002
{
1070
   371
 70
    -1
1070
   372
 70
    -1
1002
}
  0
XRECORD
  5
661
102
{ACAD_REACTORS
330
656
102
}
330
656
100
AcDbXrecord
  1
{5B0931FC-56BC-4C5C-811F-96A4ED1ECC1B}
  0
XRECORD
  5
659
102
{ACAD_REACTORS
330
656
102
}
330
656
100
AcDbXrecord
  1

  0
XRECORD
  5
65F
102
{ACAD_REACTORS
330
656
102
}
330
656
100
AcDbXrecord
 90
        4
  0
XRECORD
  5
65B
102
{ACAD_REACTORS
330
656
102
}
330
656
100
AcDbXrecord
340
1A
  0
XRECORD
  5
65E
102
{ACAD_REACTORS
330
656
102
}
330
656
100
AcDbXrecord
 90
    10781
  0
XRECORD
  5
65C
102
{ACAD_REACTORS
330
656
102
}
330
656
100
AcDbXrecord
340
19
  0
XRECORD
  5
65D
102
{ACAD_REACTORS
330
656
102
}
330
656
100
AcDbXrecord
340
E
  0
XRECORD
  5
663
102
{ACAD_REACTORS
330
656
102
}
330
656
100
AcDbXrecord
 40
0.0
  0
XRECORD
  5
667
102
{ACAD_REACTORS
330
656
102
}
330
656
100
AcDbXrecord
340
0
  0
XRECORD
  5
66D
102
{ACAD_REACTORS
330
656
102
}
330
656
100
AcDbXrecord
 10
0.0
 20
0.0
 30
0.0
  0
XRECORD
  5
669
102
{ACAD_REACTORS
330
656
102
}
330
656
100
AcDbXrecord
 10
0.0
 20
0.0
 30
0.0
  0
XRECORD
  5
66C
102
{ACAD_REACTORS
330
656
102
}
330
656
100
AcDbXrecord
 10
0.0
 20
0.0
 30
0.0
  0
XRECORD
  5
66A
102
{ACAD_REACTORS
330
656
102
}
330
656
100
AcDbXrecord
 10
0.0
 20
0.0
 30
0.0
  0
XRECORD
  5
66B
102
{ACAD_REACTORS
330
656
102
}
330
656
100
AcDbXrecord
 10
0.0
 20
0.0
 30
0.0
  0
XRECORD
  5
668
102
{ACAD_REACTORS
330
656
102
}
330
656
100
AcDbXrecord
 10
0.0
 20
0.0
 30
0.0
  0
XRECORD
  5
665
102
{ACAD_REACTORS
330
656
102
}
330
656
100
AcDbXrecord
340
0
  0
XRECORD
  5
666
102
{ACAD_REACTORS
330
656
102
}
330
656
100
AcDbXrecord
 70
     0
  0
XRECORD
  5
65A
102
{ACAD_REACTORS
330
656
102
}
330
656
100
AcDbXrecord
  1
monochrome.ctb
  0
XRECORD
  5
657
102
{ACAD_REACTORS
330
656
102
}
330
656
100
AcDbXrecord
 90
        1
  0
XRECORD
  5
658
102
{ACAD_REACTORS
330
656
102
}
330
656
100
AcDbXrecord
 90
       70
  0
XRECORD
  5
670
102
{ACAD_REACTORS
330
656
102
}
330
656
100
AcDbXrecord
340
0
  0
XRECORD
  5
676
102
{ACAD_REACTORS
330
656
102
}
330
656
100
AcDbXrecord
 10
0.0
 20
0.0
 30
0.0
  0
XRECORD
  5
672
102
{ACAD_REACTORS
330
656
102
}
330
656
100
AcDbXrecord
 10
0.0
 20
0.0
 30
0.0
  0
XRECORD
  5
675
102
{ACAD_REACTORS
330
656
102
}
330
656
100
AcDbXrecord
 10
0.0
 20
0.0
 30
0.0
  0
XRECORD
  5
673
102
{ACAD_REACTORS
330
656
102
}
330
656
100
AcDbXrecord
 10
0.0
 20
0.0
 30
0.0
  0
XRECORD
  5
674
102
{ACAD_REACTORS
330
656
102
}
330
656
100
AcDbXrecord
 10
0.0
 20
0.0
 30
0.0
  0
XRECORD
  5
671
102
{ACAD_REACTORS
330
656
102
}
330
656
100
AcDbXrecord
 10
0.0
 20
0.0
 30
0.0
  0
XRECORD
  5
66E
102
{ACAD_REACTORS
330
656
102
}
330
656
100
AcDbXrecord
340
0
  0
XRECORD
  5
66F
102
{ACAD_REACTORS
330
656
102
}
330
656
100
AcDbXrecord
 70
     0
  0
XRECORD
  5
662
102
{ACAD_REACTORS
330
656
102
}
330
656
100
AcDbXrecord
  1
{2D78B1B3-364F-4BBC-AAF0-13298E30D84B}
  0
DICTIONARYVAR
  5
2E
102
{ACAD_REACTORS
330
2C
102
}
330
2C
100
DictionaryVariables
280
     0
  1
2
  0
DICTIONARYVAR
  5
2D
102
{ACAD_REACTORS
330
2C
102
}
330
2C
100
DictionaryVariables
280
     0
  1
1
  0
ENDSEC
  0
EOF
