  0
SECTION
  2
HEADER
  9
$ACADVER
  1
AC1014
  9
$ACADMAINTVER
 70
     9
  9
$DWGCODEPAGE
  3
ANSI_932
  9
$INSBASE
 10
0.0
 20
0.0
 30
0.0
  9
$EXTMIN
 10
-80.94429956593316
 20
-93.27822922101804
 30
0.0
  9
$EXTMAX
 10
76.46016673820554
 20
59.40182289999996
 30
0.0
  9
$LIMMIN
 10
0.0
 20
0.0
  9
$LIMMAX
 10
420.0
 20
297.0
  9
$ORTHOMODE
 70
     0
  9
$REGENMODE
 70
     1
  9
$FILLMODE
 70
     1
  9
$QTEXTMODE
 70
     0
  9
$MIRRTEXT
 70
     1
  9
$DRAGMODE
 70
     2
  9
$LTSCALE
 40
1.0
  9
$OSMODE
 70
    37
  9
$ATTMODE
 70
     1
  9
$TEXTSIZE
 40
2.5
  9
$TRACEWID
 40
1.0
  9
$TEXTSTYLE
  7
STANDARD
  9
$CLAYER
  8
0
  9
$CELTYPE
  6
BYLAYER
  9
$CECOLOR
 62
   256
  9
$CELTSCALE
 40
1.0
  9
$DELOBJ
 70
     1
  9
$DISPSILH
 70
     0
  9
$DIMSCALE
 40
1.0
  9
$DIMASZ
 40
3.0
  9
$DIMEXO
 40
0.0
  9
$DIMDLI
 40
3.75
  9
$DIMRND
 40
0.0
  9
$DIMDLE
 40
0.0
  9
$DIMEXE
 40
1.5
  9
$DIMTP
 40
0.0
  9
$DIMTM
 40
0.0
  9
$DIMTXT
 40
3.0
  9
$DIMCEN
 40
2.5
  9
$DIMTSZ
 40
0.0
  9
$DIMTOL
 70
     0
  9
$DIMLIM
 70
     0
  9
$DIMTIH
 70
     0
  9
$DIMTOH
 70
     0
  9
$DIMSE1
 70
     0
  9
$DIMSE2
 70
     0
  9
$DIMTAD
 70
     1
  9
$DIMZIN
 70
     8
  9
$DIMBLK
  1

  9
$DIMASO
 70
     1
  9
$DIMSHO
 70
     1
  9
$DIMPOST
  1

  9
$DIMAPOST
  1

  9
$DIMALT
 70
     0
  9
$DIMALTD
 70
     3
  9
$DIMALTF
 40
0.03937007874016
  9
$DIMLFAC
 40
1.0
  9
$DIMTOFL
 70
     1
  9
$DIMTVP
 40
0.0
  9
$DIMTIX
 70
     0
  9
$DIMSOXD
 70
     0
  9
$DIMSAH
 70
     0
  9
$DIMBLK1
  1

  9
$DIMBLK2
  1

  9
$DIMSTYLE
  2
ISO-25
  9
$DIMCLRD
 70
     1
  9
$DIMCLRE
 70
     1
  9
$DIMCLRT
 70
     1
  9
$DIMTFAC
 40
1.0
  9
$DIMGAP
 40
1.0
  9
$DIMJUST
 70
     0
  9
$DIMSD1
 70
     0
  9
$DIMSD2
 70
     0
  9
$DIMTOLJ
 70
     0
  9
$DIMTZIN
 70
     8
  9
$DIMALTZ
 70
     0
  9
$DIMALTTZ
 70
     0
  9
$DIMFIT
 70
     3
  9
$DIMUPT
 70
     0
  9
$DIMUNIT
 70
     2
  9
$DIMDEC
 70
     2
  9
$DIMTDEC
 70
     2
  9
$DIMALTU
 70
     2
  9
$DIMALTTD
 70
     3
  9
$DIMTXSTY
  7
STANDARD
  9
$DIMAUNIT
 70
     0
  9
$LUNITS
 70
     2
  9
$LUPREC
 70
     4
  9
$SKETCHINC
 40
1.0
  9
$FILLETRAD
 40
10.0
  9
$AUNITS
 70
     0
  9
$AUPREC
 70
     0
  9
$MENU
  1
.
  9
$ELEVATION
 40
0.0
  9
$PELEVATION
 40
0.0
  9
$THICKNESS
 40
0.0
  9
$LIMCHECK
 70
     0
  9
$BLIPMODE
 70
     0
  9
$CHAMFERA
 40
10.0
  9
$CHAMFERB
 40
10.0
  9
$CHAMFERC
 40
20.0
  9
$CHAMFERD
 40
0.0
  9
$SKPOLY
 70
     0
  9
$TDCREATE
 40
2453755.379305208
  9
$TDUPDATE
 40
2454530.722441759
  9
$TDINDWG
 40
0.0150456134
  9
$TDUSRTIMER
 40
0.0150452662
  9
$USRTIMER
 70
     1
  9
$ANGBASE
 50
0.0
  9
$ANGDIR
 70
     0
  9
$PDMODE
 70
     0
  9
$PDSIZE
 40
0.0
  9
$PLINEWID
 40
0.0
  9
$COORDS
 70
     1
  9
$SPLFRAME
 70
     0
  9
$SPLINETYPE
 70
     6
  9
$SPLINESEGS
 70
     8
  9
$ATTDIA
 70
     0
  9
$ATTREQ
 70
     1
  9
$HANDLING
 70
     1
  9
$HANDSEED
  5
71C
  9
$SURFTAB1
 70
     6
  9
$SURFTAB2
 70
     6
  9
$SURFTYPE
 70
     6
  9
$SURFU
 70
     6
  9
$SURFV
 70
     6
  9
$UCSNAME
  2

  9
$UCSORG
 10
0.0
 20
0.0
 30
0.0
  9
$UCSXDIR
 10
1.0
 20
0.0
 30
0.0
  9
$UCSYDIR
 10
0.0
 20
1.0
 30
0.0
  9
$PUCSNAME
  2

  9
$PUCSORG
 10
0.0
 20
0.0
 30
0.0
  9
$PUCSXDIR
 10
1.0
 20
0.0
 30
0.0
  9
$PUCSYDIR
 10
0.0
 20
1.0
 30
0.0
  9
$USERI1
 70
     0
  9
$USERI2
 70
     0
  9
$USERI3
 70
     0
  9
$USERI4
 70
     0
  9
$USERI5
 70
     0
  9
$USERR1
 40
0.0
  9
$USERR2
 40
0.0
  9
$USERR3
 40
0.0
  9
$USERR4
 40
0.0
  9
$USERR5
 40
0.0
  9
$WORLDVIEW
 70
     1
  9
$SHADEDGE
 70
     3
  9
$SHADEDIF
 70
    70
  9
$TILEMODE
 70
     1
  9
$MAXACTVP
 70
    64
  9
$PINSBASE
 10
0.0
 20
0.0
 30
0.0
  9
$PLIMCHECK
 70
     0
  9
$PEXTMIN
 10
1.000000000000000E+20
 20
1.000000000000000E+20
 30
1.000000000000000E+20
  9
$PEXTMAX
 10
-1.000000000000000E+20
 20
-1.000000000000000E+20
 30
-1.000000000000000E+20
  9
$PLIMMIN
 10
0.0
 20
0.0
  9
$PLIMMAX
 10
420.0
 20
297.0
  9
$UNITMODE
 70
     0
  9
$VISRETAIN
 70
     1
  9
$PLINEGEN
 70
     0
  9
$PSLTSCALE
 70
     1
  9
$TREEDEPTH
 70
  3020
  9
$PICKSTYLE
 70
     1
  9
$CMLSTYLE
  2
STANDARD
  9
$CMLJUST
 70
     0
  9
$CMLSCALE
 40
20.0
  9
$PROXYGRAPHICS
 70
     1
  9
$MEASUREMENT
 70
     1
  0
ENDSEC
  0
SECTION
  2
CLASSES
  0
CLASS
  1
ACDBDICTIONARYWDFLT
  2
AcDbDictionaryWithDefault
  3
AutoCAD 2000
 90
        0
280
     0
281
     0
  0
CLASS
  1
ACDBPLACEHOLDER
  2
AcDbPlaceHolder
  3
AutoCAD 2000
 90
        0
280
     0
281
     0
  0
CLASS
  1
LAYOUT
  2
AcDbLayout
  3
AutoCAD 2000
 90
        0
280
     0
281
     0
  0
CLASS
  1
DICTIONARYVAR
  2
AcDbDictionaryVar
  3
AutoCAD 2000
 90
        0
280
     0
281
     0
  0
CLASS
  1
DIMASSOC
  2
AcDbDimAssoc
  3
"AcDbDimAssoc|Product Desc:     AcDim ARX App For Dimension|Company:          Autodesk, Inc.|WEB Address:      www.autodesk.com"
 90
        0
280
     0
281
     0
  0
CLASS
  1
LONG_TRANSACTION
  2
AcDbLongTransaction
  3
AutoCAD 2000
 90
        0
280
     0
281
     0
  0
CLASS
  1
LWPOLYLINE
  2
AcDbPolyline
  3
AutoCAD 2000
 90
        0
280
     0
281
     1
  0
CLASS
  1
HATCH
  2
AcDbHatch
  3
AutoCAD 2000
 90
        0
280
     0
281
     1
  0
CLASS
  1
XRECORD
  2
AcDbXrecord
  3
AutoCAD 2000
 90
        0
280
     0
281
     0
  0
CLASS
  1
LONG_TRANSACTION
  2
AcDbLongTransaction
  3
AutoCAD 2000
 90
        0
280
     0
281
     0
  0
CLASS
  1
LWPOLYLINE
  2
AcDbPolyline
  3
AutoCAD 2000
 90
        0
280
     0
281
     1
  0
CLASS
  1
HATCH
  2
AcDbHatch
  3
AutoCAD 2000
 90
        0
280
     0
281
     1
  0
CLASS
  1
XRECORD
  2
AcDbXrecord
  3
AutoCAD 2000
 90
        0
280
     0
281
     0
  0
ENDSEC
  0
SECTION
  2
TABLES
  0
TABLE
  2
VPORT
  5
8
330
0
100
AcDbSymbolTable
 70
     2
  0
VPORT
  5
6F8
330
8
100
AcDbSymbolTableRecord
100
AcDbViewportTableRecord
  2
*ACTIVE
 70
     0
 10
0.0
 20
0.0
 11
1.0
 21
1.0
 12
-2.247520703724795
 22
-8.575477388390844
 13
0.0
 23
0.0
 14
10.0
 24
10.0
 15
10.0
 25
10.0
 16
0.0
 26
0.0
 36
1.0
 17
0.0
 27
0.0
 37
0.0
 40
171.2166532466219
 41
1.621593291404612
 42
50.0
 43
0.0
 44
0.0
 50
0.0
 51
0.0
 71
     0
 72
   100
 73
     1
 74
     3
 75
     0
 76
     0
 77
     0
 78
     0
  0
ENDTAB
  0
TABLE
  2
LTYPE
  5
5
330
0
100
AcDbSymbolTable
 70
     2
  0
LTYPE
  5
14
330
5
100
AcDbSymbolTableRecord
100
AcDbLinetypeTableRecord
  2
BYBLOCK
 70
     0
  3

 72
    65
 73
     0
 40
0.0
  0
LTYPE
  5
15
330
5
100
AcDbSymbolTableRecord
100
AcDbLinetypeTableRecord
  2
BYLAYER
 70
     0
  3

 72
    65
 73
     0
 40
0.0
  0
LTYPE
  5
16
330
5
100
AcDbSymbolTableRecord
100
AcDbLinetypeTableRecord
  2
CONTINUOUS
 70
     0
  3
Solid line
 72
    65
 73
     0
 40
0.0
  0
LTYPE
  5
F5
330
5
100
AcDbSymbolTableRecord
100
AcDbLinetypeTableRecord
  2
CENTER
 70
     0
  3
____ _ ____ _ ____ _ ____ _ ____ _ ____ _ ____
 72
    65
 73
     4
 40
17.5
 49
13.0
 74
     0
 49
-1.5
 74
     0
 49
1.5
 74
     0
 49
-1.5
 74
     0
  0
ENDTAB
  0
TABLE
  2
LAYER
  5
2
330
0
100
AcDbSymbolTable
 70
     2
  0
LAYER
  5
10
330
2
100
AcDbSymbolTableRecord
100
AcDbLayerTableRecord
  2
0
 70
     0
 62
     7
  6
CONTINUOUS
  0
LAYER
  5
F6
330
2
100
AcDbSymbolTableRecord
100
AcDbLayerTableRecord
  2
DEFPOINTS
 70
     0
 62
     7
  6
CONTINUOUS
  0
ENDTAB
  0
TABLE
  2
STYLE
  5
3
330
0
100
AcDbSymbolTable
 70
     1
  0
STYLE
  5
11
330
3
100
AcDbSymbolTableRecord
100
AcDbTextStyleTableRecord
  2
STANDARD
 70
     0
 40
0.0
 41
1.0
 50
0.0
 71
     0
 42
2.5
  3
txt.shx
  4
bigfont.shx
  0
ENDTAB
  0
TABLE
  2
VIEW
  5
6
330
0
100
AcDbSymbolTable
 70
     0
  0
ENDTAB
  0
TABLE
  2
UCS
  5
7
330
0
100
AcDbSymbolTable
 70
     0
  0
ENDTAB
  0
TABLE
  2
APPID
  5
9
330
0
100
AcDbSymbolTable
 70
     1
  0
APPID
  5
12
330
9
100
AcDbSymbolTableRecord
100
AcDbRegAppTableRecord
  2
ACAD
 70
     0
  0
ENDTAB
  0
TABLE
  2
DIMSTYLE
  5
A
330
0
100
AcDbSymbolTable
 70
     2
  0
DIMSTYLE
105
27
102
{ACAD_REACTORS
330
487
330
4AA
330
4CB
330
4E7
330
50E
330
52A
330
542
330
55A
330
572
330
58A
330
5A2
330
5BA
330
5D2
102
}
330
A
100
AcDbSymbolTableRecord
100
AcDbDimStyleTableRecord
  2
ISO-25
 70
     0
  3

  4

  5

  6

  7

 40
1.0
 41
3.0
 42
0.0
 43
3.75
 44
1.5
 45
0.0
 46
0.0
 47
0.0
 48
0.0
140
3.0
141
2.5
142
0.0
143
0.03937007874016
144
1.0
145
0.0
146
1.0
147
1.0
 71
     0
 72
     0
 73
     0
 74
     0
 75
     0
 76
     0
 77
     1
 78
     8
170
     0
171
     3
172
     1
173
     0
174
     0
175
     0
176
     1
177
     1
178
     1
270
     2
271
     2
272
     2
273
     2
274
     3
340
11
275
     0
280
     0
281
     0
282
     0
283
     0
284
     8
285
     0
286
     0
287
     3
288
     0
  0
DIMSTYLE
105
F7
330
A
100
AcDbSymbolTableRecord
100
AcDbDimStyleTableRecord
  2
DIMSTYLE
 70
     0
  3

  4

  5

  6

  7

 40
1.0
 41
1.0
 42
2.54
 43
0.38
 44
2.54
 45
0.0
 46
0.0
 47
0.0
 48
0.0
140
3.2
141
0.09
142
0.0
143
25.4
144
1.0
145
0.0
146
1.0
147
1.6
 71
     0
 72
     0
 73
     0
 74
     0
 75
     0
 76
     0
 77
     0
 78
     0
170
     0
171
     2
172
     0
173
     1
174
     0
175
     0
176
     0
177
     0
178
     0
270
     2
271
     4
272
     4
273
     2
274
     2
340
11
275
     0
280
     0
281
     0
282
     0
283
     1
284
     0
285
     0
286
     0
287
     3
288
     0
  0
ENDTAB
  0
TABLE
  2
BLOCK_RECORD
  5
1
330
0
100
AcDbSymbolTable
 70
    42
  0
BLOCK_RECORD
  5
1F
102
{ACAD_XDICTIONARY
360
6ED
102
}
330
1
100
AcDbSymbolTableRecord
100
AcDbBlockTableRecord
  2
*MODEL_SPACE
  0
BLOCK_RECORD
  5
1B
102
{ACAD_XDICTIONARY
360
6EB
102
}
330
1
100
AcDbSymbolTableRecord
100
AcDbBlockTableRecord
  2
*PAPER_SPACE
  0
BLOCK_RECORD
  5
4E
330
1
100
AcDbSymbolTableRecord
100
AcDbBlockTableRecord
  2
_NONE
  0
BLOCK_RECORD
  5
52
330
1
100
AcDbSymbolTableRecord
100
AcDbBlockTableRecord
  2
_OPEN30
  0
BLOCK_RECORD
  5
58
330
1
100
AcDbSymbolTableRecord
100
AcDbBlockTableRecord
  2
*D2
  0
BLOCK_RECORD
  5
65
330
1
100
AcDbSymbolTableRecord
100
AcDbBlockTableRecord
  2
*D3
  0
BLOCK_RECORD
  5
72
330
1
100
AcDbSymbolTableRecord
100
AcDbBlockTableRecord
  2
*D4
  0
BLOCK_RECORD
  5
7D
330
1
100
AcDbSymbolTableRecord
100
AcDbBlockTableRecord
  2
*D5
  0
BLOCK_RECORD
  5
89
330
1
100
AcDbSymbolTableRecord
100
AcDbBlockTableRecord
  2
*D6
  0
BLOCK_RECORD
  5
95
330
1
100
AcDbSymbolTableRecord
100
AcDbBlockTableRecord
  2
*D7
  0
BLOCK_RECORD
  5
A0
330
1
100
AcDbSymbolTableRecord
100
AcDbBlockTableRecord
  2
*D8
  0
BLOCK_RECORD
  5
AC
330
1
100
AcDbSymbolTableRecord
100
AcDbBlockTableRecord
  2
*D9
  0
BLOCK_RECORD
  5
B9
330
1
100
AcDbSymbolTableRecord
100
AcDbBlockTableRecord
  2
*D10
  0
BLOCK_RECORD
  5
C8
330
1
100
AcDbSymbolTableRecord
100
AcDbBlockTableRecord
  2
*D11
  0
BLOCK_RECORD
  5
D3
330
1
100
AcDbSymbolTableRecord
100
AcDbBlockTableRecord
  2
*D12
  0
BLOCK_RECORD
  5
DE
330
1
100
AcDbSymbolTableRecord
100
AcDbBlockTableRecord
  2
*D13
  0
BLOCK_RECORD
  5
EA
330
1
100
AcDbSymbolTableRecord
100
AcDbBlockTableRecord
  2
*D14
  0
BLOCK_RECORD
  5
374
330
1
100
AcDbSymbolTableRecord
100
AcDbBlockTableRecord
  2
*D15
  0
BLOCK_RECORD
  5
37F
330
1
100
AcDbSymbolTableRecord
100
AcDbBlockTableRecord
  2
*D16
  0
BLOCK_RECORD
  5
38B
330
1
100
AcDbSymbolTableRecord
100
AcDbBlockTableRecord
  2
*D17
  0
BLOCK_RECORD
  5
396
330
1
100
AcDbSymbolTableRecord
100
AcDbBlockTableRecord
  2
*D18
  0
BLOCK_RECORD
  5
3A1
330
1
100
AcDbSymbolTableRecord
100
AcDbBlockTableRecord
  2
*D19
  0
BLOCK_RECORD
  5
3AF
330
1
100
AcDbSymbolTableRecord
100
AcDbBlockTableRecord
  2
*D20
  0
BLOCK_RECORD
  5
3BC
330
1
100
AcDbSymbolTableRecord
100
AcDbBlockTableRecord
  2
*D21
  0
BLOCK_RECORD
  5
3C9
330
1
100
AcDbSymbolTableRecord
100
AcDbBlockTableRecord
  2
*D22
  0
BLOCK_RECORD
  5
3D5
330
1
100
AcDbSymbolTableRecord
100
AcDbBlockTableRecord
  2
*D23
  0
BLOCK_RECORD
  5
3E2
330
1
100
AcDbSymbolTableRecord
100
AcDbBlockTableRecord
  2
*D24
  0
BLOCK_RECORD
  5
3EF
330
1
100
AcDbSymbolTableRecord
100
AcDbBlockTableRecord
  2
*D25
  0
BLOCK_RECORD
  5
3FB
330
1
100
AcDbSymbolTableRecord
100
AcDbBlockTableRecord
  2
*D26
  0
BLOCK_RECORD
  5
406
330
1
100
AcDbSymbolTableRecord
100
AcDbBlockTableRecord
  2
*D27
  0
BLOCK_RECORD
  5
488
330
1
100
AcDbSymbolTableRecord
100
AcDbBlockTableRecord
  2
*D28
  0
BLOCK_RECORD
  5
4AB
330
1
100
AcDbSymbolTableRecord
100
AcDbBlockTableRecord
  2
*D29
  0
BLOCK_RECORD
  5
4CC
330
1
100
AcDbSymbolTableRecord
100
AcDbBlockTableRecord
  2
*D30
  0
BLOCK_RECORD
  5
4E8
330
1
100
AcDbSymbolTableRecord
100
AcDbBlockTableRecord
  2
*D31
  0
BLOCK_RECORD
  5
50F
330
1
100
AcDbSymbolTableRecord
100
AcDbBlockTableRecord
  2
*D32
  0
BLOCK_RECORD
  5
52B
330
1
100
AcDbSymbolTableRecord
100
AcDbBlockTableRecord
  2
*D33
  0
BLOCK_RECORD
  5
543
330
1
100
AcDbSymbolTableRecord
100
AcDbBlockTableRecord
  2
*D34
  0
BLOCK_RECORD
  5
55B
330
1
100
AcDbSymbolTableRecord
100
AcDbBlockTableRecord
  2
*D35
  0
BLOCK_RECORD
  5
573
330
1
100
AcDbSymbolTableRecord
100
AcDbBlockTableRecord
  2
*D36
  0
BLOCK_RECORD
  5
58B
330
1
100
AcDbSymbolTableRecord
100
AcDbBlockTableRecord
  2
*D37
  0
BLOCK_RECORD
  5
5A3
330
1
100
AcDbSymbolTableRecord
100
AcDbBlockTableRecord
  2
*D38
  0
BLOCK_RECORD
  5
5BB
330
1
100
AcDbSymbolTableRecord
100
AcDbBlockTableRecord
  2
*D39
  0
BLOCK_RECORD
  5
5D3
330
1
100
AcDbSymbolTableRecord
100
AcDbBlockTableRecord
  2
*D40
  0
BLOCK_RECORD
  5
5EB
330
1
100
AcDbSymbolTableRecord
100
AcDbBlockTableRecord
  2
*D41
  0
ENDTAB
  0
ENDSEC
  0
SECTION
  2
BLOCKS
  0
BLOCK
  5
20
330
1F
100
AcDbEntity
  8
0
100
AcDbBlockBegin
  2
*MODEL_SPACE
 70
     0
 10
0.0
 20
0.0
 30
0.0
  3
*MODEL_SPACE
  1

  0
ENDBLK
  5
21
330
1F
100
AcDbEntity
  8
0
100
AcDbBlockEnd
  0
BLOCK
  5
1C
330
1B
100
AcDbEntity
 67
     1
  8
0
100
AcDbBlockBegin
  2
*PAPER_SPACE
 70
     0
 10
0.0
 20
0.0
 30
0.0
  3
*PAPER_SPACE
  1

  0
ENDBLK
  5
1D
330
1B
100
AcDbEntity
 67
     1
  8
0
100
AcDbBlockEnd
  0
BLOCK
  5
50
330
4E
100
AcDbEntity
  8
0
100
AcDbBlockBegin
  2
_NONE
 70
     0
 10
0.0
 20
0.0
 30
0.0
  3
_NONE
  1

  0
CIRCLE
  5
4F
330
4E
100
AcDbEntity
  8
0
  6
BYBLOCK
 62
     0
100
AcDbCircle
 10
0.0
 20
0.0
 30
0.0
 40
0.001
  0
ENDBLK
  5
51
330
4E
100
AcDbEntity
  8
0
100
AcDbBlockEnd
  0
BLOCK
  5
56
330
52
100
AcDbEntity
  8
0
100
AcDbBlockBegin
  2
_OPEN30
 70
     0
 10
0.0
 20
0.0
 30
0.0
  3
_OPEN30
  1

  0
LINE
  5
53
330
52
100
AcDbEntity
  8
0
  6
BYBLOCK
 62
     0
100
AcDbLine
 10
0.0
 20
0.0
 30
0.0
 11
-3.0
 21
-0.9999999799999999
 31
0.0
  0
LINE
  5
54
330
52
100
AcDbEntity
  8
0
  6
BYBLOCK
 62
     0
100
AcDbLine
 10
0.0
 20
0.0
 30
0.0
 11
-3.0
 21
0.9999999799999999
 31
0.0
  0
LINE
  5
55
330
52
100
AcDbEntity
  8
0
  6
BYBLOCK
 62
     0
100
AcDbLine
 10
0.0
 20
0.0
 30
0.0
 11
-3.0
 21
0.0
 31
0.0
  0
ENDBLK
  5
57
330
52
100
AcDbEntity
  8
0
100
AcDbBlockEnd
  0
BLOCK
  5
63
330
58
100
AcDbEntity
  8
0
100
AcDbBlockBegin
  2
*D2
 70
     1
 10
0.0
 20
0.0
 30
0.0
  3
*D2
  1

  0
LINE
  5
59
330
58
100
AcDbEntity
  8
0
  6
CONTINUOUS
 62
     1
100
AcDbLine
 10
-41.080002
 20
16.96512999999999
 30
0.0
 11
-59.524632
 21
16.96512999999999
 31
0.0
  0
LINE
  5
5A
330
58
100
AcDbEntity
  8
0
  6
CONTINUOUS
 62
     1
100
AcDbLine
 10
-35.119999
 20
16.96512999999999
 30
0.0
 11
-41.080002
 21
16.96512999999999
 31
0.0
  0
INSERT
  5
5B
330
58
100
AcDbEntity
  8
0
  6
CONTINUOUS
 62
     1
100
AcDbBlockReference
  2
_OPEN30
 10
-35.119999
 20
16.96512999999999
 30
0.0
 50
180.0
  0
LINE
  5
5C
330
58
100
AcDbEntity
  8
0
  6
CONTINUOUS
 62
     1
100
AcDbLine
 10
-32.119999
 20
16.96512999999999
 30
0.0
 11
-28.76999899999999
 21
16.96512999999999
 31
0.0
  0
INSERT
  5
5D
330
58
100
AcDbEntity
  8
0
  6
CONTINUOUS
 62
     1
100
AcDbBlockReference
  2
_OPEN30
 10
-41.080002
 20
16.96512999999999
 30
0.0
 50
0.0000000000003562
  0
LINE
  5
5E
330
58
100
AcDbEntity
  8
0
  6
CONTINUOUS
 62
     1
100
AcDbLine
 10
-44.080002
 20
16.96512999999999
 30
0.0
 11
-47.43000199999999
 21
16.96512999999999
 31
0.0
  0
TEXT
  5
5F
330
58
100
AcDbEntity
  8
0
  6
CONTINUOUS
 62
     1
100
AcDbText
 10
-59.524632
 20
17.56512999999999
 30
0.0
 40
2.4000001
  1
%%C5.96
 41
1.1251492
100
AcDbText
  0
POINT
  5
60
330
58
100
AcDbEntity
  8
DEFPOINTS
  6
CONTINUOUS
 62
     1
100
AcDbPoint
 10
-35.119999
 20
16.96512999999999
 30
0.0
  0
POINT
  5
61
330
58
100
AcDbEntity
  8
DEFPOINTS
  6
CONTINUOUS
 62
     1
100
AcDbPoint
 10
-41.080002
 20
16.96512999999999
 30
0.0
  0
POINT
  5
62
330
58
100
AcDbEntity
  8
DEFPOINTS
  6
CONTINUOUS
 62
     1
100
AcDbPoint
 10
-41.080002
 20
16.96512999999999
 30
0.0
  0
ENDBLK
  5
64
330
58
100
AcDbEntity
  8
0
100
AcDbBlockEnd
  0
BLOCK
  5
70
330
65
100
AcDbEntity
  8
0
100
AcDbBlockBegin
  2
*D3
 70
     1
 10
0.0
 20
0.0
 30
0.0
  3
*D3
  1

  0
LINE
  5
66
330
65
100
AcDbEntity
  8
0
  6
CONTINUOUS
 62
     1
100
AcDbLine
 10
44.05499999999999
 20
19.67191099999998
 30
0.0
 11
65.55207800000001
 21
19.67191099999998
 31
0.0
  0
LINE
  5
67
330
65
100
AcDbEntity
  8
0
  6
CONTINUOUS
 62
     1
100
AcDbLine
 10
32.145
 20
19.67191099999998
 30
0.0
 11
44.05499999999999
 21
19.67191099999998
 31
0.0
  0
INSERT
  5
68
330
65
100
AcDbEntity
  8
0
  6
CONTINUOUS
 62
     1
100
AcDbBlockReference
  2
_OPEN30
 10
32.145
 20
19.67191099999998
 30
0.0
 50
0.0000000000003562
  0
LINE
  5
69
330
65
100
AcDbEntity
  8
0
  6
CONTINUOUS
 62
     1
100
AcDbLine
 10
29.145001
 20
19.67191099999998
 30
0.0
 11
25.795001
 21
19.67191099999998
 31
0.0
  0
INSERT
  5
6A
330
65
100
AcDbEntity
  8
0
  6
CONTINUOUS
 62
     1
100
AcDbBlockReference
  2
_OPEN30
 10
44.05499999999999
 20
19.67191099999998
 30
0.0
 50
180.0
  0
LINE
  5
6B
330
65
100
AcDbEntity
  8
0
  6
CONTINUOUS
 62
     1
100
AcDbLine
 10
47.05499999999999
 20
19.67191099999998
 30
0.0
 11
50.405
 21
19.67191099999998
 31
0.0
  0
TEXT
  5
6C
330
65
100
AcDbEntity
  8
0
  6
CONTINUOUS
 62
     1
100
AcDbText
 10
51.837578
 20
20.271911
 30
0.0
 40
2.4000001
  1
%%C11.91
 41
1.3285811
100
AcDbText
  0
POINT
  5
6D
330
65
100
AcDbEntity
  8
DEFPOINTS
  6
CONTINUOUS
 62
     1
100
AcDbPoint
 10
32.145
 20
19.67191099999998
 30
0.0
  0
POINT
  5
6E
330
65
100
AcDbEntity
  8
DEFPOINTS
  6
CONTINUOUS
 62
     1
100
AcDbPoint
 10
44.05499999999999
 20
19.67191099999998
 30
0.0
  0
POINT
  5
6F
330
65
100
AcDbEntity
  8
DEFPOINTS
  6
CONTINUOUS
 62
     1
100
AcDbPoint
 10
44.05499999999999
 20
19.67191099999998
 30
0.0
  0
ENDBLK
  5
71
330
65
100
AcDbEntity
  8
0
100
AcDbBlockEnd
  0
BLOCK
  5
7B
330
72
100
AcDbEntity
  8
0
100
AcDbBlockBegin
  2
*D4
 70
     1
 10
0.0
 20
0.0
 30
0.0
  3
*D4
  1

  0
LINE
  5
73
330
72
100
AcDbEntity
  8
0
  6
CONTINUOUS
 62
     1
100
AcDbLine
 10
71.175003
 20
26.200001
 30
0.0
 11
71.175003
 21
19.5
 31
0.0
  0
INSERT
  5
74
330
72
100
AcDbEntity
  8
0
  6
CONTINUOUS
 62
     1
100
AcDbBlockReference
  2
_OPEN30
 10
71.175003
 20
29.200001
 30
0.0
 50
90.0
  0
INSERT
  5
75
330
72
100
AcDbEntity
  8
0
  6
CONTINUOUS
 62
     1
100
AcDbBlockReference
  2
_OPEN30
 10
71.175003
 20
16.5
 30
0.0
 50
270.0
  0
LINE
  5
76
330
72
100
AcDbEntity
  8
0
  6
CONTINUOUS
 62
     1
100
AcDbLine
 10
47.40364699999999
 20
16.5
 30
0.0
 11
73.460999
 21
16.5
 31
0.0
  0
TEXT
  5
77
330
72
100
AcDbEntity
  8
0
  6
CONTINUOUS
 62
     1
100
AcDbText
 10
70.575003
 20
17.066627
 30
0.0
 40
2.4000001
  1
12.70
 50
90.00000300000001
 41
1.325917999999999
100
AcDbText
  0
POINT
  5
78
330
72
100
AcDbEntity
  8
DEFPOINTS
  6
CONTINUOUS
 62
     1
100
AcDbPoint
 10
47.17499899999999
 20
29.200001
 30
0.0
  0
POINT
  5
79
330
72
100
AcDbEntity
  8
DEFPOINTS
  6
CONTINUOUS
 62
     1
100
AcDbPoint
 10
44.863647
 20
16.5
 30
0.0
  0
POINT
  5
7A
330
72
100
AcDbEntity
  8
DEFPOINTS
  6
CONTINUOUS
 62
     1
100
AcDbPoint
 10
71.175003
 20
16.5
 30
0.0
  0
ENDBLK
  5
7C
330
72
100
AcDbEntity
  8
0
100
AcDbBlockEnd
  0
BLOCK
  5
87
330
7D
100
AcDbEntity
  8
0
100
AcDbBlockBegin
  2
*D5
 70
     1
 10
0.0
 20
0.0
 30
0.0
  3
*D5
  1

  0
LINE
  5
7E
330
7D
100
AcDbEntity
  8
0
  6
CONTINUOUS
 62
     1
100
AcDbLine
 10
-57.875
 20
-62.88381999999999
 30
0.0
 11
-57.875
 21
-72.483818
 31
0.0
  0
INSERT
  5
7F
330
7D
100
AcDbEntity
  8
0
  6
CONTINUOUS
 62
     1
100
AcDbBlockReference
  2
_OPEN30
 10
-57.875
 20
-59.88381999999999
 30
0.0
 50
90.0
  0
INSERT
  5
80
330
7D
100
AcDbEntity
  8
0
  6
CONTINUOUS
 62
     1
100
AcDbBlockReference
  2
_OPEN30
 10
-57.875
 20
-75.483818
 30
0.0
 50
270.0
  0
LINE
  5
81
330
7D
100
AcDbEntity
  8
0
  6
CONTINUOUS
 62
     1
100
AcDbLine
 10
-40.61500099999999
 20
-59.88381999999999
 30
0.0
 11
-60.160999
 21
-59.88381999999999
 31
0.0
  0
LINE
  5
82
330
7D
100
AcDbEntity
  8
0
  6
CONTINUOUS
 62
     1
100
AcDbLine
 10
-40.61500099999999
 20
-75.483818
 30
0.0
 11
-60.160999
 21
-75.483818
 31
0.0
  0
TEXT
  5
83
330
7D
100
AcDbEntity
  8
0
  6
CONTINUOUS
 62
     1
100
AcDbText
 10
-58.475
 20
-72.14107299999998
 30
0.0
 40
2.4000001
  1
15.6
 50
90.00000300000001
 41
1.3928906
100
AcDbText
  0
POINT
  5
84
330
7D
100
AcDbEntity
  8
DEFPOINTS
  6
CONTINUOUS
 62
     1
100
AcDbPoint
 10
-38.075001
 20
-59.88381999999999
 30
0.0
  0
POINT
  5
85
330
7D
100
AcDbEntity
  8
DEFPOINTS
  6
CONTINUOUS
 62
     1
100
AcDbPoint
 10
-38.075001
 20
-75.483818
 30
0.0
  0
POINT
  5
86
330
7D
100
AcDbEntity
  8
DEFPOINTS
  6
CONTINUOUS
 62
     1
100
AcDbPoint
 10
-57.875
 20
-75.483818
 30
0.0
  0
ENDBLK
  5
88
330
7D
100
AcDbEntity
  8
0
100
AcDbBlockEnd
  0
BLOCK
  5
93
330
89
100
AcDbEntity
  8
0
100
AcDbBlockBegin
  2
*D6
 70
     1
 10
0.0
 20
0.0
 30
0.0
  3
*D6
  1

  0
LINE
  5
8A
330
89
100
AcDbEntity
  8
0
  6
CONTINUOUS
 62
     1
100
AcDbLine
 10
-35.09999899999999
 20
-88.73378800000002
 30
0.0
 11
-22.049999
 21
-88.73378800000002
 31
0.0
  0
INSERT
  5
8B
330
89
100
AcDbEntity
  8
0
  6
CONTINUOUS
 62
     1
100
AcDbBlockReference
  2
_OPEN30
 10
-38.09999799999999
 20
-88.73378800000002
 30
0.0
 50
180.0
  0
INSERT
  5
8C
330
89
100
AcDbEntity
  8
0
  6
CONTINUOUS
 62
     1
100
AcDbBlockReference
  2
_OPEN30
 10
-19.04999899999999
 20
-88.73378800000002
 30
0.0
  0
LINE
  5
8D
330
89
100
AcDbEntity
  8
0
  6
CONTINUOUS
 62
     1
100
AcDbLine
 10
-38.09999799999999
 20
-82.27381800000001
 30
0.0
 11
-38.09999799999999
 21
-91.01978299999997
 31
0.0
  0
LINE
  5
8E
330
89
100
AcDbEntity
  8
0
  6
CONTINUOUS
 62
     1
100
AcDbLine
 10
-19.04999899999999
 20
-82.27381800000001
 30
0.0
 11
-19.04999899999999
 21
-91.01978299999997
 31
0.0
  0
TEXT
  5
8F
330
89
100
AcDbEntity
  8
0
  6
CONTINUOUS
 62
     1
100
AcDbText
 10
-34.23225099999999
 20
-88.133788
 30
0.0
 40
2.4000001
  1
19.05
 41
1.3469643
100
AcDbText
  0
POINT
  5
90
330
89
100
AcDbEntity
  8
DEFPOINTS
  6
CONTINUOUS
 62
     1
100
AcDbPoint
 10
-38.09999799999999
 20
-79.733818
 30
0.0
  0
POINT
  5
91
330
89
100
AcDbEntity
  8
DEFPOINTS
  6
CONTINUOUS
 62
     1
100
AcDbPoint
 10
-19.04999899999999
 20
-79.733818
 30
0.0
  0
POINT
  5
92
330
89
100
AcDbEntity
  8
DEFPOINTS
  6
CONTINUOUS
 62
     1
100
AcDbPoint
 10
-19.04999899999999
 20
-88.73378800000002
 30
0.0
  0
ENDBLK
  5
94
330
89
100
AcDbEntity
  8
0
100
AcDbBlockEnd
  0
BLOCK
  5
9E
330
95
100
AcDbEntity
  8
0
100
AcDbBlockBegin
  2
*D7
 70
     1
 10
0.0
 20
0.0
 30
0.0
  3
*D7
  1

  0
LINE
  5
96
330
95
100
AcDbEntity
  8
0
  6
CONTINUOUS
 62
     1
100
AcDbLine
 10
-16.049999
 20
-88.73378800000002
 30
0.0
 11
-3.0
 21
-88.73378800000002
 31
0.0
  0
INSERT
  5
97
330
95
100
AcDbEntity
  8
0
  6
CONTINUOUS
 62
     1
100
AcDbBlockReference
  2
_OPEN30
 10
-19.04999899999999
 20
-88.73378800000002
 30
0.0
 50
180.0
  0
INSERT
  5
98
330
95
100
AcDbEntity
  8
0
  6
CONTINUOUS
 62
     1
100
AcDbBlockReference
  2
_OPEN30
 10
-0.0000000000000142
 20
-88.73378800000002
 30
0.0
  0
LINE
  5
99
330
95
100
AcDbEntity
  8
0
  6
CONTINUOUS
 62
     1
100
AcDbLine
 10
0.0000000000000079
 20
-82.27381800000001
 30
0.0
 11
-0.0000000000000142
 21
-91.01978299999997
 31
0.0
  0
TEXT
  5
9A
330
95
100
AcDbEntity
  8
0
  6
CONTINUOUS
 62
     1
100
AcDbText
 10
-15.18225
 20
-88.133788
 30
0.0
 40
2.4000001
  1
19.05
 41
1.3469643
100
AcDbText
  0
POINT
  5
9B
330
95
100
AcDbEntity
  8
DEFPOINTS
  6
CONTINUOUS
 62
     1
100
AcDbPoint
 10
-19.04999899999999
 20
-79.733818
 30
0.0
  0
POINT
  5
9C
330
95
100
AcDbEntity
  8
DEFPOINTS
  6
CONTINUOUS
 62
     1
100
AcDbPoint
 10
-0.0000000000000142
 20
-79.733818
 30
0.0
  0
POINT
  5
9D
330
95
100
AcDbEntity
  8
DEFPOINTS
  6
CONTINUOUS
 62
     1
100
AcDbPoint
 10
-0.0000000000000142
 20
-88.73378800000002
 30
0.0
  0
ENDBLK
  5
9F
330
95
100
AcDbEntity
  8
0
100
AcDbBlockEnd
  0
BLOCK
  5
AA
330
A0
100
AcDbEntity
  8
0
100
AcDbBlockBegin
  2
*D8
 70
     1
 10
0.0
 20
0.0
 30
0.0
  3
*D8
  1

  0
LINE
  5
A1
330
A0
100
AcDbEntity
  8
0
  6
CONTINUOUS
 62
     1
100
AcDbLine
 10
59.174999
 20
-61.63381999999999
 30
0.0
 11
59.174999
 21
-73.733818
 31
0.0
  0
INSERT
  5
A2
330
A0
100
AcDbEntity
  8
0
  6
CONTINUOUS
 62
     1
100
AcDbBlockReference
  2
_OPEN30
 10
59.174999
 20
-58.63381999999999
 30
0.0
 50
90.0
  0
INSERT
  5
A3
330
A0
100
AcDbEntity
  8
0
  6
CONTINUOUS
 62
     1
100
AcDbBlockReference
  2
_OPEN30
 10
59.174999
 20
-76.733818
 30
0.0
 50
270.0
  0
LINE
  5
A4
330
A0
100
AcDbEntity
  8
0
  6
CONTINUOUS
 62
     1
100
AcDbLine
 10
40.665
 20
-58.63381999999999
 30
0.0
 11
61.460999
 21
-58.63381999999999
 31
0.0
  0
LINE
  5
A5
330
A0
100
AcDbEntity
  8
0
  6
CONTINUOUS
 62
     1
100
AcDbLine
 10
40.665
 20
-76.733818
 30
0.0
 11
61.460999
 21
-76.733818
 31
0.0
  0
TEXT
  5
A6
330
A0
100
AcDbEntity
  8
0
  6
CONTINUOUS
 62
     1
100
AcDbText
 10
58.574999
 20
-72.14107299999998
 30
0.0
 40
2.4000001
  1
18.1
 50
90.00000300000001
 41
1.519517
100
AcDbText
  0
POINT
  5
A7
330
A0
100
AcDbEntity
  8
DEFPOINTS
  6
CONTINUOUS
 62
     1
100
AcDbPoint
 10
38.125
 20
-58.63381999999999
 30
0.0
  0
POINT
  5
A8
330
A0
100
AcDbEntity
  8
DEFPOINTS
  6
CONTINUOUS
 62
     1
100
AcDbPoint
 10
38.125
 20
-76.733818
 30
0.0
  0
POINT
  5
A9
330
A0
100
AcDbEntity
  8
DEFPOINTS
  6
CONTINUOUS
 62
     1
100
AcDbPoint
 10
59.174999
 20
-76.733818
 30
0.0
  0
ENDBLK
  5
AB
330
A0
100
AcDbEntity
  8
0
100
AcDbBlockEnd
  0
BLOCK
  5
B7
330
AC
100
AcDbEntity
  8
0
100
AcDbBlockBegin
  2
*D9
 70
     1
 10
0.0
 20
0.0
 30
0.0
  3
*D9
  1

  0
LINE
  5
AD
330
AC
100
AcDbEntity
  8
0
  6
CONTINUOUS
 62
     1
100
AcDbLine
 10
71.175003
 20
32.400002
 30
0.0
 11
71.175003
 21
43.58839399999999
 31
0.0
  0
LINE
  5
AE
330
AC
100
AcDbEntity
  8
0
  6
CONTINUOUS
 62
     1
100
AcDbLine
 10
71.175003
 20
32.400002
 30
0.0
 11
71.175003
 21
29.200001
 31
0.0
  0
INSERT
  5
AF
330
AC
100
AcDbEntity
  8
0
  6
CONTINUOUS
 62
     1
100
AcDbBlockReference
  2
_OPEN30
 10
71.175003
 20
32.400002
 30
0.0
 50
270.0
  0
LINE
  5
B0
330
AC
100
AcDbEntity
  8
0
  6
CONTINUOUS
 62
     1
100
AcDbLine
 10
71.175003
 20
35.400001
 30
0.0
 11
71.175003
 21
38.75000099999999
 31
0.0
  0
LINE
  5
B1
330
AC
100
AcDbEntity
  8
0
  6
CONTINUOUS
 62
     1
100
AcDbLine
 10
47.17499899999999
 20
32.400002
 30
0.0
 11
73.46100600000003
 21
32.400002
 31
0.0
  0
LINE
  5
B2
330
AC
100
AcDbEntity
  8
0
  6
CONTINUOUS
 62
     1
100
AcDbLine
 10
47.17499899999999
 20
29.200001
 30
0.0
 11
73.46100600000003
 21
29.200001
 31
0.0
  0
TEXT
  5
B3
330
AC
100
AcDbEntity
  8
0
  6
CONTINUOUS
 62
     1
100
AcDbText
 10
70.575003
 20
37.073892
 30
0.0
 40
2.4000001
  1
3.2
 50
90.00000300000001
 41
1.357187499999999
100
AcDbText
  0
POINT
  5
B4
330
AC
100
AcDbEntity
  8
DEFPOINTS
  6
CONTINUOUS
 62
     1
100
AcDbPoint
 10
47.17499899999999
 20
32.400002
 30
0.0
  0
POINT
  5
B5
330
AC
100
AcDbEntity
  8
DEFPOINTS
  6
CONTINUOUS
 62
     1
100
AcDbPoint
 10
47.17499899999999
 20
29.200001
 30
0.0
  0
POINT
  5
B6
330
AC
100
AcDbEntity
  8
DEFPOINTS
  6
CONTINUOUS
 62
     1
100
AcDbPoint
 10
71.175003
 20
29.200001
 30
0.0
  0
ENDBLK
  5
B8
330
AC
100
AcDbEntity
  8
0
100
AcDbBlockEnd
  0
BLOCK
  5
C6
330
B9
100
AcDbEntity
  8
0
100
AcDbBlockBegin
  2
*D10
 70
     1
 10
0.0
 20
0.0
 30
0.0
  3
*D10
  1

  0
LINE
  5
BA
330
B9
100
AcDbEntity
  8
0
  6
CONTINUOUS
 62
     1
100
AcDbLine
 10
-57.875
 20
35.849998
 30
0.0
 11
-57.875
 21
45.813927
 31
0.0
  0
LINE
  5
BB
330
B9
100
AcDbEntity
  8
0
  6
CONTINUOUS
 62
     1
100
AcDbLine
 10
-57.875
 20
35.849998
 30
0.0
 11
-57.875
 21
32.650002
 31
0.0
  0
INSERT
  5
BC
330
B9
100
AcDbEntity
  8
0
  6
CONTINUOUS
 62
     1
100
AcDbBlockReference
  2
_OPEN30
 10
-57.875
 20
35.849998
 30
0.0
 50
270.0
  0
LINE
  5
BD
330
B9
100
AcDbEntity
  8
0
  6
CONTINUOUS
 62
     1
100
AcDbLine
 10
-57.875
 20
38.849998
 30
0.0
 11
-57.875
 21
42.199998
 31
0.0
  0
INSERT
  5
BE
330
B9
100
AcDbEntity
  8
0
  6
CONTINUOUS
 62
     1
100
AcDbBlockReference
  2
_OPEN30
 10
-57.875
 20
32.650002
 30
0.0
 50
90.0
  0
LINE
  5
BF
330
B9
100
AcDbEntity
  8
0
  6
CONTINUOUS
 62
     1
100
AcDbLine
 10
-57.875
 20
29.650002
 30
0.0
 11
-57.875
 21
26.300002
 31
0.0
  0
LINE
  5
C0
330
B9
100
AcDbEntity
  8
0
  6
CONTINUOUS
 62
     1
100
AcDbLine
 10
-45.875
 20
35.849998
 30
0.0
 11
-60.160999
 21
35.849998
 31
0.0
  0
LINE
  5
C1
330
B9
100
AcDbEntity
  8
0
  6
CONTINUOUS
 62
     1
100
AcDbLine
 10
-45.875
 20
32.650002
 30
0.0
 11
-60.160999
 21
32.650002
 31
0.0
  0
TEXT
  5
C2
330
B9
100
AcDbEntity
  8
0
  6
CONTINUOUS
 62
     1
100
AcDbText
 10
-58.475
 20
39.29942899999996
 30
0.0
 40
2.4000001
  1
3.2
 50
90.00000300000001
 41
1.357187499999999
100
AcDbText
  0
POINT
  5
C3
330
B9
100
AcDbEntity
  8
DEFPOINTS
  6
CONTINUOUS
 62
     1
100
AcDbPoint
 10
-45.875
 20
35.849998
 30
0.0
  0
POINT
  5
C4
330
B9
100
AcDbEntity
  8
DEFPOINTS
  6
CONTINUOUS
 62
     1
100
AcDbPoint
 10
-45.875
 20
32.650002
 30
0.0
  0
POINT
  5
C5
330
B9
100
AcDbEntity
  8
DEFPOINTS
  6
CONTINUOUS
 62
     1
100
AcDbPoint
 10
-57.875
 20
32.650002
 30
0.0
  0
ENDBLK
  5
C7
330
B9
100
AcDbEntity
  8
0
100
AcDbBlockEnd
  0
BLOCK
  5
D1
330
C8
100
AcDbEntity
  8
0
100
AcDbBlockBegin
  2
*D11
 70
     1
 10
0.0
 20
0.0
 30
0.0
  3
*D11
  1

  0
LINE
  5
C9
330
C8
100
AcDbEntity
  8
0
  6
CONTINUOUS
 62
     1
100
AcDbLine
 10
-63.40295799999999
 20
19.85
 30
0.0
 11
-63.40295799999999
 21
-0.24999957
 31
0.0
  0
INSERT
  5
CA
330
C8
100
AcDbEntity
  8
0
  6
CONTINUOUS
 62
     1
100
AcDbBlockReference
  2
_OPEN30
 10
-63.40295799999999
 20
22.85
 30
0.0
 50
90.0
  0
INSERT
  5
CB
330
C8
100
AcDbEntity
  8
0
  6
CONTINUOUS
 62
     1
100
AcDbBlockReference
  2
_OPEN30
 10
-63.40295799999999
 20
-3.249999499999998
 30
0.0
 50
270.0
  0
LINE
  5
CC
330
C8
100
AcDbEntity
  8
0
  6
CONTINUOUS
 62
     1
100
AcDbLine
 10
-48.875
 20
22.85
 30
0.0
 11
-65.68895699999997
 21
22.85
 31
0.0
  0
TEXT
  5
CD
330
C8
100
AcDbEntity
  8
0
  6
CONTINUOUS
 62
     1
100
AcDbText
 10
-64.00295799999999
 20
5.832638399999999
 30
0.0
 40
2.4000001
  1
26.1
 50
90.00000300000001
 41
1.337175
100
AcDbText
  0
POINT
  5
CE
330
C8
100
AcDbEntity
  8
DEFPOINTS
  6
CONTINUOUS
 62
     1
100
AcDbPoint
 10
-48.875
 20
22.85
 30
0.0
  0
POINT
  5
CF
330
C8
100
AcDbEntity
  8
DEFPOINTS
  6
CONTINUOUS
 62
     1
100
AcDbPoint
 10
-48.875
 20
-3.249999499999998
 30
0.0
  0
POINT
  5
D0
330
C8
100
AcDbEntity
  8
DEFPOINTS
  6
CONTINUOUS
 62
     1
100
AcDbPoint
 10
-63.40295799999999
 20
-3.249999499999998
 30
0.0
  0
ENDBLK
  5
D2
330
C8
100
AcDbEntity
  8
0
100
AcDbBlockEnd
  0
BLOCK
  5
DC
330
D3
100
AcDbEntity
  8
0
100
AcDbBlockBegin
  2
*D12
 70
     1
 10
0.0
 20
0.0
 30
0.0
  3
*D12
  1

  0
LINE
  5
D4
330
D3
100
AcDbEntity
  8
0
  6
CONTINUOUS
 62
     1
100
AcDbLine
 10
-63.40295799999999
 20
-6.2499995
 30
0.0
 11
-63.40295799999999
 21
-26.35
 31
0.0
  0
INSERT
  5
D5
330
D3
100
AcDbEntity
  8
0
  6
CONTINUOUS
 62
     1
100
AcDbBlockReference
  2
_OPEN30
 10
-63.40295799999999
 20
-3.249999499999998
 30
0.0
 50
90.0
  0
INSERT
  5
D6
330
D3
100
AcDbEntity
  8
0
  6
CONTINUOUS
 62
     1
100
AcDbBlockReference
  2
_OPEN30
 10
-63.40295799999999
 20
-29.35
 30
0.0
 50
270.0
  0
LINE
  5
D7
330
D3
100
AcDbEntity
  8
0
  6
CONTINUOUS
 62
     1
100
AcDbLine
 10
-48.875
 20
-29.35
 30
0.0
 11
-65.68895699999997
 21
-29.35
 31
0.0
  0
TEXT
  5
D8
330
D3
100
AcDbEntity
  8
0
  6
CONTINUOUS
 62
     1
100
AcDbText
 10
-64.00295799999999
 20
-20.75724899999998
 30
0.0
 40
2.4000001
  1
26.1
 50
90.00000300000001
 41
1.337175
100
AcDbText
  0
POINT
  5
D9
330
D3
100
AcDbEntity
  8
DEFPOINTS
  6
CONTINUOUS
 62
     1
100
AcDbPoint
 10
-48.875
 20
-3.249999499999998
 30
0.0
  0
POINT
  5
DA
330
D3
100
AcDbEntity
  8
DEFPOINTS
  6
CONTINUOUS
 62
     1
100
AcDbPoint
 10
-48.875
 20
-29.35
 30
0.0
  0
POINT
  5
DB
330
D3
100
AcDbEntity
  8
DEFPOINTS
  6
CONTINUOUS
 62
     1
100
AcDbPoint
 10
-63.40295799999999
 20
-29.35
 30
0.0
  0
ENDBLK
  5
DD
330
D3
100
AcDbEntity
  8
0
100
AcDbBlockEnd
  0
BLOCK
  5
E8
330
DE
100
AcDbEntity
  8
0
100
AcDbBlockBegin
  2
*D13
 70
     1
 10
0.0
 20
0.0
 30
0.0
  3
*D13
  1

  0
LINE
  5
DF
330
DE
100
AcDbEntity
  8
0
  6
CONTINUOUS
 62
     1
100
AcDbLine
 10
-69.464417
 20
-6.2499995
 30
0.0
 11
-69.464417
 21
-43.200001
 31
0.0
  0
INSERT
  5
E0
330
DE
100
AcDbEntity
  8
0
  6
CONTINUOUS
 62
     1
100
AcDbBlockReference
  2
_OPEN30
 10
-69.464417
 20
-3.249999499999998
 30
0.0
 50
90.0
  0
INSERT
  5
E1
330
DE
100
AcDbEntity
  8
0
  6
CONTINUOUS
 62
     1
100
AcDbBlockReference
  2
_OPEN30
 10
-69.464417
 20
-46.200001
 30
0.0
 50
270.0
  0
LINE
  5
E2
330
DE
100
AcDbEntity
  8
0
  6
CONTINUOUS
 62
     1
100
AcDbLine
 10
-48.875
 20
-3.249999499999998
 30
0.0
 11
-71.75041199999999
 21
-3.249999499999998
 31
0.0
  0
LINE
  5
E3
330
DE
100
AcDbEntity
  8
0
  6
CONTINUOUS
 62
     1
100
AcDbLine
 10
-41.080002
 20
-46.200001
 30
0.0
 11
-71.75041199999999
 21
-46.200001
 31
0.0
  0
TEXT
  5
E4
330
DE
100
AcDbEntity
  8
0
  6
CONTINUOUS
 62
     1
100
AcDbText
 10
-70.06441600000001
 20
-30.38225
 30
0.0
 40
2.4000001
  1
42.95
 50
90.00000300000001
 41
1.178593699999997
100
AcDbText
  0
POINT
  5
E5
330
DE
100
AcDbEntity
  8
DEFPOINTS
  6
CONTINUOUS
 62
     1
100
AcDbPoint
 10
-48.875
 20
-3.249999499999998
 30
0.0
  0
POINT
  5
E6
330
DE
100
AcDbEntity
  8
DEFPOINTS
  6
CONTINUOUS
 62
     1
100
AcDbPoint
 10
-41.080002
 20
-46.200001
 30
0.0
  0
POINT
  5
E7
330
DE
100
AcDbEntity
  8
DEFPOINTS
  6
CONTINUOUS
 62
     1
100
AcDbPoint
 10
-69.464417
 20
-46.200001
 30
0.0
  0
ENDBLK
  5
E9
330
DE
100
AcDbEntity
  8
0
100
AcDbBlockEnd
  0
BLOCK
  5
F3
330
EA
100
AcDbEntity
  8
0
100
AcDbBlockBegin
  2
*D14
 70
     1
 10
0.0
 20
0.0
 30
0.0
  3
*D14
  1

  0
LINE
  5
EB
330
EA
100
AcDbEntity
  8
0
  6
CONTINUOUS
 62
     1
100
AcDbLine
 10
-69.464417
 20
-0.24999957
 30
0.0
 11
-69.464417
 21
34.59999899999999
 31
0.0
  0
INSERT
  5
EC
330
EA
100
AcDbEntity
  8
0
  6
CONTINUOUS
 62
     1
100
AcDbBlockReference
  2
_OPEN30
 10
-69.464417
 20
-3.249999499999998
 30
0.0
 50
270.0
  0
INSERT
  5
ED
330
EA
100
AcDbEntity
  8
0
  6
CONTINUOUS
 62
     1
100
AcDbBlockReference
  2
_OPEN30
 10
-69.464417
 20
37.599998
 30
0.0
 50
90.0
  0
LINE
  5
EE
330
EA
100
AcDbEntity
  8
0
  6
CONTINUOUS
 62
     1
100
AcDbLine
 10
-40.20999899999996
 20
37.599998
 30
0.0
 11
-71.75041199999999
 21
37.599998
 31
0.0
  0
TEXT
  5
EF
330
EA
100
AcDbEntity
  8
0
  6
CONTINUOUS
 62
     1
100
AcDbText
 10
-70.06441600000001
 20
11.51775099999998
 30
0.0
 40
2.4000001
  1
40.85
 50
90.00000300000001
 41
1.229836899999998
100
AcDbText
  0
POINT
  5
F0
330
EA
100
AcDbEntity
  8
DEFPOINTS
  6
CONTINUOUS
 62
     1
100
AcDbPoint
 10
-71.75041199999999
 20
-3.249999499999998
 30
0.0
  0
POINT
  5
F1
330
EA
100
AcDbEntity
  8
DEFPOINTS
  6
CONTINUOUS
 62
     1
100
AcDbPoint
 10
-40.20999899999996
 20
37.599998
 30
0.0
  0
POINT
  5
F2
330
EA
100
AcDbEntity
  8
DEFPOINTS
  6
CONTINUOUS
 62
     1
100
AcDbPoint
 10
-69.464417
 20
37.599998
 30
0.0
  0
ENDBLK
  5
F4
330
EA
100
AcDbEntity
  8
0
100
AcDbBlockEnd
  0
BLOCK
  5
37D
330
374
100
AcDbEntity
  8
0
100
AcDbBlockBegin
  2
*D15
 70
     1
 10
0.0
 20
0.0
 30
0.0
  3
*D15
  1

  0
LINE
  5
411
330
374
100
AcDbEntity
  8
0
  6
CONTINUOUS
 62
     0
100
AcDbLine
 10
-42.74999899999999
 20
37.599998
 30
0.0
 11
-72.004417
 21
37.59999800000001
 31
0.0
  0
LINE
  5
412
330
374
100
AcDbEntity
  8
0
  6
CONTINUOUS
 62
     0
100
AcDbLine
 10
-69.46441700000001
 20
-2.249999499999999
 30
0.0
 11
-69.464417
 21
36.599998
 31
0.0
  0
SOLID
  5
413
330
374
100
AcDbEntity
  8
0
  6
CONTINUOUS
 62
     0
100
AcDbTrace
 10
-69.63108366666668
 20
-2.249999499999999
 30
0.0
 11
-69.29775033333334
 21
-2.249999499999999
 31
0.0
 12
-69.46441700000001
 22
-3.249999499999998
 32
0.0
 13
-69.46441700000001
 23
-3.249999499999998
 33
0.0
  0
SOLID
  5
414
330
374
100
AcDbEntity
  8
0
  6
CONTINUOUS
 62
     0
100
AcDbTrace
 10
-69.63108366666665
 20
36.599998
 30
0.0
 11
-69.29775033333332
 21
36.599998
 31
0.0
 12
-69.464417
 22
37.59999800000001
 32
0.0
 13
-69.464417
 23
37.59999800000001
 33
0.0
  0
MTEXT
  5
415
330
374
100
AcDbEntity
  8
0
  6
CONTINUOUS
 62
     0
100
AcDbMText
 10
-72.66441700000001
 20
17.17499924999998
 30
0.0
 40
3.2
 41
0.0
 71
     5
 72
     1
  1
\A1;40.8500
 11
0.0000000000000001
 21
1.0
 31
0.0
1001
ACAD
1000
MTEXTBEGIN
1070
    73
1070
     1
1070
    44
1040
1.0
1070
    74
1070
     0
1000
MTEXTEND
1000
MTEXTBEGIN
1070
    73
1070
     1
1070
    44
1040
1.0
1070
    74
1070
     0
1000
MTEXTEND
  0
POINT
  5
416
330
374
100
AcDbEntity
  8
DEFPOINTS
  6
CONTINUOUS
 62
     0
100
AcDbPoint
 10
-71.75041199999999
 20
-3.249999499999998
 30
0.0
  0
POINT
  5
417
330
374
100
AcDbEntity
  8
DEFPOINTS
  6
CONTINUOUS
 62
     0
100
AcDbPoint
 10
-40.20999899999996
 20
37.599998
 30
0.0
  0
POINT
  5
418
330
374
100
AcDbEntity
  8
DEFPOINTS
  6
CONTINUOUS
 62
     0
100
AcDbPoint
 10
-69.464417
 20
37.59999800000001
 30
0.0
  0
ENDBLK
  5
37E
330
374
100
AcDbEntity
  8
0
100
AcDbBlockEnd
  0
BLOCK
  5
389
330
37F
100
AcDbEntity
  8
0
100
AcDbBlockBegin
  2
*D16
 70
     1
 10
0.0
 20
0.0
 30
0.0
  3
*D16
  1

  0
LINE
  5
419
330
37F
100
AcDbEntity
  8
0
  6
CONTINUOUS
 62
     0
100
AcDbLine
 10
-48.875
 20
-3.249999499999998
 30
0.0
 11
-72.00441699999998
 21
-3.249999499999991
 31
0.0
  0
LINE
  5
41A
330
37F
100
AcDbEntity
  8
0
  6
CONTINUOUS
 62
     0
100
AcDbLine
 10
-41.080002
 20
-46.200001
 30
0.0
 11
-72.004417
 21
-46.20000099999999
 31
0.0
  0
LINE
  5
41B
330
37F
100
AcDbEntity
  8
0
  6
CONTINUOUS
 62
     0
100
AcDbLine
 10
-69.46441699999998
 20
-4.249999499999993
 30
0.0
 11
-69.464417
 21
-45.20000099999999
 31
0.0
  0
SOLID
  5
41C
330
37F
100
AcDbEntity
  8
0
  6
CONTINUOUS
 62
     0
100
AcDbTrace
 10
-69.63108366666665
 20
-4.249999499999993
 30
0.0
 11
-69.29775033333331
 21
-4.249999499999993
 31
0.0
 12
-69.46441699999998
 22
-3.249999499999991
 32
0.0
 13
-69.46441699999998
 23
-3.249999499999991
 33
0.0
  0
SOLID
  5
41D
330
37F
100
AcDbEntity
  8
0
  6
CONTINUOUS
 62
     0
100
AcDbTrace
 10
-69.63108366666665
 20
-45.20000099999999
 30
0.0
 11
-69.29775033333332
 21
-45.20000099999999
 31
0.0
 12
-69.464417
 22
-46.20000099999999
 32
0.0
 13
-69.464417
 23
-46.20000099999999
 33
0.0
  0
MTEXT
  5
41E
330
37F
100
AcDbEntity
  8
0
  6
CONTINUOUS
 62
     0
100
AcDbMText
 10
-72.66441699999998
 20
-24.72500025
 30
0.0
 40
3.2
 41
0.0
 71
     5
 72
     1
  1
\A1;42.9500
 11
0.0000000000000001
 21
1.0
 31
0.0
1001
ACAD
1000
MTEXTBEGIN
1070
    73
1070
     1
1070
    44
1040
1.0
1070
    74
1070
     0
1000
MTEXTEND
1000
MTEXTBEGIN
1070
    73
1070
     1
1070
    44
1040
1.0
1070
    74
1070
     0
1000
MTEXTEND
  0
POINT
  5
41F
330
37F
100
AcDbEntity
  8
DEFPOINTS
  6
CONTINUOUS
 62
     0
100
AcDbPoint
 10
-48.875
 20
-3.249999499999998
 30
0.0
  0
POINT
  5
420
330
37F
100
AcDbEntity
  8
DEFPOINTS
  6
CONTINUOUS
 62
     0
100
AcDbPoint
 10
-41.080002
 20
-46.200001
 30
0.0
  0
POINT
  5
421
330
37F
100
AcDbEntity
  8
DEFPOINTS
  6
CONTINUOUS
 62
     0
100
AcDbPoint
 10
-69.464417
 20
-46.20000099999999
 30
0.0
  0
ENDBLK
  5
38A
330
37F
100
AcDbEntity
  8
0
100
AcDbBlockEnd
  0
BLOCK
  5
394
330
38B
100
AcDbEntity
  8
0
100
AcDbBlockBegin
  2
*D17
 70
     1
 10
0.0
 20
0.0
 30
0.0
  3
*D17
  1

  0
LINE
  5
422
330
38B
100
AcDbEntity
  8
0
  6
CONTINUOUS
 62
     0
100
AcDbLine
 10
-51.415
 20
-29.35
 30
0.0
 11
-65.94295799999997
 21
-29.35
 31
0.0
  0
LINE
  5
423
330
38B
100
AcDbEntity
  8
0
  6
CONTINUOUS
 62
     0
100
AcDbLine
 10
-63.40295799999998
 20
-4.249999499999993
 30
0.0
 11
-63.40295799999999
 21
-28.34999999999999
 31
0.0
  0
SOLID
  5
424
330
38B
100
AcDbEntity
  8
0
  6
CONTINUOUS
 62
     0
100
AcDbTrace
 10
-63.56962466666665
 20
-4.249999499999993
 30
0.0
 11
-63.23629133333332
 21
-4.249999499999993
 31
0.0
 12
-63.40295799999998
 22
-3.249999499999992
 32
0.0
 13
-63.40295799999998
 23
-3.249999499999992
 33
0.0
  0
SOLID
  5
425
330
38B
100
AcDbEntity
  8
0
  6
CONTINUOUS
 62
     0
100
AcDbTrace
 10
-63.56962466666665
 20
-28.34999999999999
 30
0.0
 11
-63.23629133333333
 21
-28.34999999999999
 31
0.0
 12
-63.40295799999999
 22
-29.35
 32
0.0
 13
-63.40295799999999
 23
-29.35
 33
0.0
  0
MTEXT
  5
426
330
38B
100
AcDbEntity
  8
0
  6
CONTINUOUS
 62
     0
100
AcDbMText
 10
-66.60295799999999
 20
-16.29999975
 30
0.0
 40
3.2
 41
0.0
 71
     5
 72
     1
  1
\A1;26.1000
 11
0.0000000000000001
 21
1.0
 31
0.0
1001
ACAD
1000
MTEXTBEGIN
1070
    73
1070
     1
1070
    44
1040
1.0
1070
    74
1070
     0
1000
MTEXTEND
1000
MTEXTBEGIN
1070
    73
1070
     1
1070
    44
1040
1.0
1070
    74
1070
     0
1000
MTEXTEND
  0
POINT
  5
427
330
38B
100
AcDbEntity
  8
DEFPOINTS
  6
CONTINUOUS
 62
     0
100
AcDbPoint
 10
-48.875
 20
-3.249999499999998
 30
0.0
  0
POINT
  5
428
330
38B
100
AcDbEntity
  8
DEFPOINTS
  6
CONTINUOUS
 62
     0
100
AcDbPoint
 10
-48.875
 20
-29.35
 30
0.0
  0
POINT
  5
429
330
38B
100
AcDbEntity
  8
DEFPOINTS
  6
CONTINUOUS
 62
     0
100
AcDbPoint
 10
-63.40295799999999
 20
-29.35
 30
0.0
  0
ENDBLK
  5
395
330
38B
100
AcDbEntity
  8
0
100
AcDbBlockEnd
  0
BLOCK
  5
39F
330
396
100
AcDbEntity
  8
0
100
AcDbBlockBegin
  2
*D18
 70
     1
 10
0.0
 20
0.0
 30
0.0
  3
*D18
  1

  0
LINE
  5
42A
330
396
100
AcDbEntity
  8
0
  6
CONTINUOUS
 62
     0
100
AcDbLine
 10
-51.415
 20
22.85
 30
0.0
 11
-65.94295799999999
 21
22.85
 31
0.0
  0
LINE
  5
42B
330
396
100
AcDbEntity
  8
0
  6
CONTINUOUS
 62
     0
100
AcDbLine
 10
-63.40295799999998
 20
21.85
 30
0.0
 11
-63.40295799999999
 21
-2.249999499999994
 31
0.0
  0
SOLID
  5
42C
330
396
100
AcDbEntity
  8
0
  6
CONTINUOUS
 62
     0
100
AcDbTrace
 10
-63.56962466666665
 20
21.85
 30
0.0
 11
-63.23629133333332
 21
21.85
 31
0.0
 12
-63.40295799999998
 22
22.85
 32
0.0
 13
-63.40295799999998
 23
22.85
 33
0.0
  0
SOLID
  5
42D
330
396
100
AcDbEntity
  8
0
  6
CONTINUOUS
 62
     0
100
AcDbTrace
 10
-63.56962466666665
 20
-2.249999499999994
 30
0.0
 11
-63.23629133333333
 21
-2.249999499999994
 31
0.0
 12
-63.40295799999999
 22
-3.249999499999992
 32
0.0
 13
-63.40295799999999
 23
-3.249999499999992
 33
0.0
  0
MTEXT
  5
42E
330
396
100
AcDbEntity
  8
0
  6
CONTINUOUS
 62
     0
100
AcDbMText
 10
-66.60295799999999
 20
9.800000249999994
 30
0.0
 40
3.2
 41
0.0
 71
     5
 72
     1
  1
\A1;26.1000
 11
0.0000000000000001
 21
1.0
 31
0.0
1001
ACAD
1000
MTEXTBEGIN
1070
    73
1070
     1
1070
    44
1040
1.0
1070
    74
1070
     0
1000
MTEXTEND
1000
MTEXTBEGIN
1070
    73
1070
     1
1070
    44
1040
1.0
1070
    74
1070
     0
1000
MTEXTEND
  0
POINT
  5
42F
330
396
100
AcDbEntity
  8
DEFPOINTS
  6
CONTINUOUS
 62
     0
100
AcDbPoint
 10
-48.875
 20
22.85
 30
0.0
  0
POINT
  5
430
330
396
100
AcDbEntity
  8
DEFPOINTS
  6
CONTINUOUS
 62
     0
100
AcDbPoint
 10
-48.875
 20
-3.249999499999998
 30
0.0
  0
POINT
  5
431
330
396
100
AcDbEntity
  8
DEFPOINTS
  6
CONTINUOUS
 62
     0
100
AcDbPoint
 10
-63.40295799999999
 20
-3.249999499999992
 30
0.0
  0
ENDBLK
  5
3A0
330
396
100
AcDbEntity
  8
0
100
AcDbBlockEnd
  0
BLOCK
  5
3AD
330
3A1
100
AcDbEntity
  8
0
100
AcDbBlockBegin
  2
*D19
 70
     1
 10
0.0
 20
0.0
 30
0.0
  3
*D19
  1

  0
LINE
  5
432
330
3A1
100
AcDbEntity
  8
0
  6
CONTINUOUS
 62
     0
100
AcDbLine
 10
-45.875
 20
35.849998
 30
0.0
 11
-60.415
 21
35.849998
 31
0.0
  0
LINE
  5
433
330
3A1
100
AcDbEntity
  8
0
  6
CONTINUOUS
 62
     0
100
AcDbLine
 10
-45.875
 20
32.650002
 30
0.0
 11
-60.415
 21
32.65000200000001
 31
0.0
  0
LINE
  5
434
330
3A1
100
AcDbEntity
  8
0
  6
CONTINUOUS
 62
     0
100
AcDbLine
 10
-57.875
 20
36.84999799999999
 30
0.0
 11
-57.875
 21
37.849998
 31
0.0
  0
LINE
  5
435
330
3A1
100
AcDbEntity
  8
0
  6
CONTINUOUS
 62
     0
100
AcDbLine
 10
-57.875
 20
31.65000200000001
 30
0.0
 11
-57.87500000000001
 21
13.050002
 31
0.0
  0
LINE
  5
436
330
3A1
100
AcDbEntity
  8
0
  6
CONTINUOUS
 62
     0
100
AcDbLine
 10
-57.875
 20
35.849998
 30
0.0
 11
-57.875
 21
32.65000200000001
 31
0.0
  0
SOLID
  5
437
330
3A1
100
AcDbEntity
  8
0
  6
CONTINUOUS
 62
     0
100
AcDbTrace
 10
-58.04166666666667
 20
36.84999799999999
 30
0.0
 11
-57.70833333333333
 21
36.84999799999999
 31
0.0
 12
-57.875
 22
35.849998
 32
0.0
 13
-57.875
 23
35.849998
 33
0.0
  0
SOLID
  5
438
330
3A1
100
AcDbEntity
  8
0
  6
CONTINUOUS
 62
     0
100
AcDbTrace
 10
-58.04166666666667
 20
31.65000200000001
 30
0.0
 11
-57.70833333333333
 21
31.65000200000001
 31
0.0
 12
-57.875
 22
32.65000200000001
 32
0.0
 13
-57.875
 23
32.65000200000001
 33
0.0
  0
MTEXT
  5
439
330
3A1
100
AcDbEntity
  8
0
  6
CONTINUOUS
 62
     0
100
AcDbMText
 10
-61.07500000000001
 20
21.85000199999997
 30
0.0
 40
3.2
 41
0.0
 71
     5
 72
     1
  1
\A1;3.2000
 11
0.0000000000000001
 21
1.0
 31
0.0
1001
ACAD
1000
MTEXTBEGIN
1070
    73
1070
     1
1070
    44
1040
1.0
1070
    74
1070
     0
1000
MTEXTEND
1000
MTEXTBEGIN
1070
    73
1070
     1
1070
    44
1040
1.0
1070
    74
1070
     0
1000
MTEXTEND
  0
POINT
  5
43A
330
3A1
100
AcDbEntity
  8
DEFPOINTS
  6
CONTINUOUS
 62
     0
100
AcDbPoint
 10
-45.875
 20
35.849998
 30
0.0
  0
POINT
  5
43B
330
3A1
100
AcDbEntity
  8
DEFPOINTS
  6
CONTINUOUS
 62
     0
100
AcDbPoint
 10
-45.875
 20
32.650002
 30
0.0
  0
POINT
  5
43C
330
3A1
100
AcDbEntity
  8
DEFPOINTS
  6
CONTINUOUS
 62
     0
100
AcDbPoint
 10
-57.875
 20
32.65000200000001
 30
0.0
  0
ENDBLK
  5
3AE
330
3A1
100
AcDbEntity
  8
0
100
AcDbBlockEnd
  0
BLOCK
  5
3BA
330
3AF
100
AcDbEntity
  8
0
100
AcDbBlockBegin
  2
*D20
 70
     1
 10
0.0
 20
0.0
 30
0.0
  3
*D20
  1

  0
LINE
  5
43D
330
3AF
100
AcDbEntity
  8
0
  6
CONTINUOUS
 62
     0
100
AcDbLine
 10
47.17499899999999
 20
32.400002
 30
0.0
 11
73.71500300000002
 21
32.40000199999999
 31
0.0
  0
LINE
  5
43E
330
3AF
100
AcDbEntity
  8
0
  6
CONTINUOUS
 62
     0
100
AcDbLine
 10
47.17499899999999
 20
29.200001
 30
0.0
 11
73.715003
 21
29.20000099999999
 31
0.0
  0
LINE
  5
43F
330
3AF
100
AcDbEntity
  8
0
  6
CONTINUOUS
 62
     0
100
AcDbLine
 10
71.17500300000002
 20
33.40000199999999
 30
0.0
 11
71.17500300000002
 21
34.40000199999999
 31
0.0
  0
LINE
  5
440
330
3AF
100
AcDbEntity
  8
0
  6
CONTINUOUS
 62
     0
100
AcDbLine
 10
71.175003
 20
29.20000099999999
 30
0.0
 11
71.175003
 21
9.600000999999991
 31
0.0
  0
LINE
  5
441
330
3AF
100
AcDbEntity
  8
0
  6
CONTINUOUS
 62
     0
100
AcDbLine
 10
71.17500300000002
 20
32.40000199999999
 30
0.0
 11
71.175003
 21
29.20000099999999
 31
0.0
  0
SOLID
  5
442
330
3AF
100
AcDbEntity
  8
0
  6
CONTINUOUS
 62
     0
100
AcDbTrace
 10
71.00833633333334
 20
33.40000199999999
 30
0.0
 11
71.34166966666668
 21
33.40000199999999
 31
0.0
 12
71.17500300000002
 22
32.40000199999999
 32
0.0
 13
71.17500300000002
 23
32.40000199999999
 33
0.0
  0
MTEXT
  5
443
330
3AF
100
AcDbEntity
  8
0
  6
CONTINUOUS
 62
     0
100
AcDbMText
 10
67.975003
 20
18.400001
 30
0.0
 40
3.2
 41
0.0
 71
     5
 72
     1
  1
\A1;3.2000
 11
0.0000000000000001
 21
1.0
 31
0.0
1001
ACAD
1000
MTEXTBEGIN
1070
    73
1070
     1
1070
    44
1040
1.0
1070
    74
1070
     0
1000
MTEXTEND
1000
MTEXTBEGIN
1070
    73
1070
     1
1070
    44
1040
1.0
1070
    74
1070
     0
1000
MTEXTEND
  0
POINT
  5
444
330
3AF
100
AcDbEntity
  8
DEFPOINTS
  6
CONTINUOUS
 62
     0
100
AcDbPoint
 10
47.17499899999999
 20
32.400002
 30
0.0
  0
POINT
  5
445
330
3AF
100
AcDbEntity
  8
DEFPOINTS
  6
CONTINUOUS
 62
     0
100
AcDbPoint
 10
47.17499899999999
 20
29.200001
 30
0.0
  0
POINT
  5
446
330
3AF
100
AcDbEntity
  8
DEFPOINTS
  6
CONTINUOUS
 62
     0
100
AcDbPoint
 10
71.175003
 20
29.20000099999999
 30
0.0
  0
ENDBLK
  5
3BB
330
3AF
100
AcDbEntity
  8
0
100
AcDbBlockEnd
  0
BLOCK
  5
3C7
330
3BC
100
AcDbEntity
  8
0
100
AcDbBlockBegin
  2
*D21
 70
     1
 10
0.0
 20
0.0
 30
0.0
  3
*D21
  1

  0
LINE
  5
447
330
3BC
100
AcDbEntity
  8
0
  6
CONTINUOUS
 62
     0
100
AcDbLine
 10
40.665
 20
-58.63381999999999
 30
0.0
 11
61.714999
 21
-58.63381999999999
 31
0.0
  0
LINE
  5
448
330
3BC
100
AcDbEntity
  8
0
  6
CONTINUOUS
 62
     0
100
AcDbLine
 10
40.665
 20
-76.733818
 30
0.0
 11
61.714999
 21
-76.733818
 31
0.0
  0
LINE
  5
449
330
3BC
100
AcDbEntity
  8
0
  6
CONTINUOUS
 62
     0
100
AcDbLine
 10
59.174999
 20
-59.63381999999999
 30
0.0
 11
59.174999
 21
-75.73381799999999
 31
0.0
  0
LINE
  5
44A
330
3BC
100
AcDbEntity
  8
0
  6
CONTINUOUS
 62
     0
100
AcDbLine
 10
59.174999
 20
-76.733818
 30
0.0
 11
59.17499899999999
 21
-96.40048466666669
 31
0.0
  0
SOLID
  5
44B
330
3BC
100
AcDbEntity
  8
0
  6
CONTINUOUS
 62
     0
100
AcDbTrace
 10
59.00833233333333
 20
-59.63381999999999
 30
0.0
 11
59.34166566666664
 21
-59.63381999999999
 31
0.0
 12
59.174999
 22
-58.63381999999999
 32
0.0
 13
59.174999
 23
-58.63381999999999
 33
0.0
  0
SOLID
  5
44C
330
3BC
100
AcDbEntity
  8
0
  6
CONTINUOUS
 62
     0
100
AcDbTrace
 10
59.00833233333333
 20
-75.73381799999999
 30
0.0
 11
59.34166566666664
 21
-75.73381799999999
 31
0.0
 12
59.174999
 22
-76.733818
 32
0.0
 13
59.174999
 23
-76.733818
 33
0.0
  0
MTEXT
  5
44D
330
3BC
100
AcDbEntity
  8
0
  6
CONTINUOUS
 62
     0
100
AcDbMText
 10
55.97499899999998
 20
-87.06715133333331
 30
0.0
 40
3.2
 41
0.0
 71
     5
 72
     1
  1
\A1;18.1000
 11
0.0000000000000001
 21
1.0
 31
0.0
1001
ACAD
1000
MTEXTBEGIN
1070
    73
1070
     1
1070
    44
1040
1.0
1070
    74
1070
     0
1000
MTEXTEND
1000
MTEXTBEGIN
1070
    73
1070
     1
1070
    44
1040
1.0
1070
    74
1070
     0
1000
MTEXTEND
  0
POINT
  5
44E
330
3BC
100
AcDbEntity
  8
DEFPOINTS
  6
CONTINUOUS
 62
     0
100
AcDbPoint
 10
38.125
 20
-58.63381999999999
 30
0.0
  0
POINT
  5
44F
330
3BC
100
AcDbEntity
  8
DEFPOINTS
  6
CONTINUOUS
 62
     0
100
AcDbPoint
 10
38.125
 20
-76.733818
 30
0.0
  0
POINT
  5
450
330
3BC
100
AcDbEntity
  8
DEFPOINTS
  6
CONTINUOUS
 62
     0
100
AcDbPoint
 10
59.174999
 20
-76.733818
 30
0.0
  0
ENDBLK
  5
3C8
330
3BC
100
AcDbEntity
  8
0
100
AcDbBlockEnd
  0
BLOCK
  5
3D3
330
3C9
100
AcDbEntity
  8
0
100
AcDbBlockBegin
  2
*D22
 70
     1
 10
0.0
 20
0.0
 30
0.0
  3
*D22
  1

  0
LINE
  5
451
330
3C9
100
AcDbEntity
  8
0
  6
CONTINUOUS
 62
     0
100
AcDbLine
 10
-0.0000000000000144
 20
-82.27381800000001
 30
0.0
 11
-0.0000000000000149
 21
-91.27378800000002
 31
0.0
  0
LINE
  5
452
330
3C9
100
AcDbEntity
  8
0
  6
CONTINUOUS
 62
     0
100
AcDbLine
 10
-18.04999899999997
 20
-88.73378800000002
 30
0.0
 11
-1.000000000000011
 21
-88.73378800000002
 31
0.0
  0
LINE
  5
453
330
3C9
100
AcDbEntity
  8
0
  6
CONTINUOUS
 62
     0
100
AcDbLine
 10
-0.0000000000000148
 20
-88.73378800000002
 30
0.0
 11
20.73333333333331
 21
-88.73378800000002
 31
0.0
  0
SOLID
  5
454
330
3C9
100
AcDbEntity
  8
0
  6
CONTINUOUS
 62
     0
100
AcDbTrace
 10
-18.04999899999997
 20
-88.5671213333333
 30
0.0
 11
-18.04999899999997
 21
-88.90045466666668
 31
0.0
 12
-19.04999899999999
 22
-88.73378800000002
 32
0.0
 13
-19.04999899999999
 23
-88.73378800000002
 33
0.0
  0
SOLID
  5
455
330
3C9
100
AcDbEntity
  8
0
  6
CONTINUOUS
 62
     0
100
AcDbTrace
 10
-1.000000000000011
 20
-88.5671213333333
 30
0.0
 11
-1.000000000000011
 21
-88.90045466666668
 31
0.0
 12
-0.0000000000000148
 22
-88.73378800000002
 32
0.0
 13
-0.0000000000000148
 23
-88.73378800000002
 33
0.0
  0
MTEXT
  5
456
330
3C9
100
AcDbEntity
  8
0
  6
CONTINUOUS
 62
     0
100
AcDbMText
 10
10.86666666666664
 20
-85.53378800000002
 30
0.0
 40
3.2
 41
0.0
 71
     5
 72
     1
  1
\A1;19.0500
1001
ACAD
1000
MTEXTBEGIN
1070
    73
1070
     1
1070
    44
1040
1.0
1070
    74
1070
     0
1000
MTEXTEND
1000
MTEXTBEGIN
1070
    73
1070
     1
1070
    44
1040
1.0
1070
    74
1070
     0
1000
MTEXTEND
  0
POINT
  5
457
330
3C9
100
AcDbEntity
  8
DEFPOINTS
  6
CONTINUOUS
 62
     0
100
AcDbPoint
 10
-19.04999899999999
 20
-79.733818
 30
0.0
  0
POINT
  5
458
330
3C9
100
AcDbEntity
  8
DEFPOINTS
  6
CONTINUOUS
 62
     0
100
AcDbPoint
 10
-0.0000000000000142
 20
-79.733818
 30
0.0
  0
POINT
  5
459
330
3C9
100
AcDbEntity
  8
DEFPOINTS
  6
CONTINUOUS
 62
     0
100
AcDbPoint
 10
-0.0000000000000148
 20
-88.73378800000002
 30
0.0
  0
ENDBLK
  5
3D4
330
3C9
100
AcDbEntity
  8
0
100
AcDbBlockEnd
  0
BLOCK
  5
3E0
330
3D5
100
AcDbEntity
  8
0
100
AcDbBlockBegin
  2
*D23
 70
     1
 10
0.0
 20
0.0
 30
0.0
  3
*D23
  1

  0
LINE
  5
45A
330
3D5
100
AcDbEntity
  8
0
  6
CONTINUOUS
 62
     0
100
AcDbLine
 10
-38.09999799999999
 20
-82.27381800000001
 30
0.0
 11
-38.09999799999999
 21
-91.27378800000002
 31
0.0
  0
LINE
  5
45B
330
3D5
100
AcDbEntity
  8
0
  6
CONTINUOUS
 62
     0
100
AcDbLine
 10
-19.04999899999999
 20
-82.27381800000001
 30
0.0
 11
-19.04999899999999
 21
-91.27378800000002
 31
0.0
  0
LINE
  5
45C
330
3D5
100
AcDbEntity
  8
0
  6
CONTINUOUS
 62
     0
100
AcDbLine
 10
-37.09999799999999
 20
-88.73378800000002
 30
0.0
 11
-20.04999899999999
 21
-88.73378800000002
 31
0.0
  0
LINE
  5
45D
330
3D5
100
AcDbEntity
  8
0
  6
CONTINUOUS
 62
     0
100
AcDbLine
 10
-19.04999899999999
 20
-88.73378800000002
 30
0.0
 11
1.683334333333345
 21
-88.73378800000002
 31
0.0
  0
SOLID
  5
45E
330
3D5
100
AcDbEntity
  8
0
  6
CONTINUOUS
 62
     0
100
AcDbTrace
 10
-37.09999799999999
 20
-88.5671213333333
 30
0.0
 11
-37.09999799999999
 21
-88.90045466666668
 31
0.0
 12
-38.09999799999999
 22
-88.73378800000002
 32
0.0
 13
-38.09999799999999
 23
-88.73378800000002
 33
0.0
  0
SOLID
  5
45F
330
3D5
100
AcDbEntity
  8
0
  6
CONTINUOUS
 62
     0
100
AcDbTrace
 10
-20.04999899999999
 20
-88.5671213333333
 30
0.0
 11
-20.04999899999999
 21
-88.90045466666668
 31
0.0
 12
-19.04999899999999
 22
-88.73378800000002
 32
0.0
 13
-19.04999899999999
 23
-88.73378800000002
 33
0.0
  0
MTEXT
  5
460
330
3D5
100
AcDbEntity
  8
0
  6
CONTINUOUS
 62
     0
100
AcDbMText
 10
-8.183332333333321
 20
-85.53378800000002
 30
0.0
 40
3.2
 41
0.0
 71
     5
 72
     1
  1
\A1;19.0500
1001
ACAD
1000
MTEXTBEGIN
1070
    73
1070
     1
1070
    44
1040
1.0
1070
    74
1070
     0
1000
MTEXTEND
1000
MTEXTBEGIN
1070
    73
1070
     1
1070
    44
1040
1.0
1070
    74
1070
     0
1000
MTEXTEND
  0
POINT
  5
461
330
3D5
100
AcDbEntity
  8
DEFPOINTS
  6
CONTINUOUS
 62
     0
100
AcDbPoint
 10
-38.09999799999999
 20
-79.733818
 30
0.0
  0
POINT
  5
462
330
3D5
100
AcDbEntity
  8
DEFPOINTS
  6
CONTINUOUS
 62
     0
100
AcDbPoint
 10
-19.04999899999999
 20
-79.733818
 30
0.0
  0
POINT
  5
463
330
3D5
100
AcDbEntity
  8
DEFPOINTS
  6
CONTINUOUS
 62
     0
100
AcDbPoint
 10
-19.04999899999999
 20
-88.73378800000002
 30
0.0
  0
ENDBLK
  5
3E1
330
3D5
100
AcDbEntity
  8
0
100
AcDbBlockEnd
  0
BLOCK
  5
3ED
330
3E2
100
AcDbEntity
  8
0
100
AcDbBlockBegin
  2
*D24
 70
     1
 10
0.0
 20
0.0
 30
0.0
  3
*D24
  1

  0
LINE
  5
464
330
3E2
100
AcDbEntity
  8
0
  6
CONTINUOUS
 62
     0
100
AcDbLine
 10
-40.61500099999999
 20
-59.88381999999999
 30
0.0
 11
-60.415
 21
-59.88381999999997
 31
0.0
  0
LINE
  5
465
330
3E2
100
AcDbEntity
  8
0
  6
CONTINUOUS
 62
     0
100
AcDbLine
 10
-40.61500099999999
 20
-75.483818
 30
0.0
 11
-60.415
 21
-75.483818
 31
0.0
  0
LINE
  5
466
330
3E2
100
AcDbEntity
  8
0
  6
CONTINUOUS
 62
     0
100
AcDbLine
 10
-57.875
 20
-60.88381999999999
 30
0.0
 11
-57.875
 21
-74.48381799999999
 31
0.0
  0
LINE
  5
467
330
3E2
100
AcDbEntity
  8
0
  6
CONTINUOUS
 62
     0
100
AcDbLine
 10
-57.875
 20
-75.483818
 30
0.0
 11
-57.87500000000001
 21
-96.21715133333331
 31
0.0
  0
SOLID
  5
468
330
3E2
100
AcDbEntity
  8
0
  6
CONTINUOUS
 62
     0
100
AcDbTrace
 10
-58.04166666666667
 20
-60.88381999999999
 30
0.0
 11
-57.70833333333333
 21
-60.88381999999999
 31
0.0
 12
-57.875
 22
-59.88381999999997
 32
0.0
 13
-57.875
 23
-59.88381999999997
 33
0.0
  0
SOLID
  5
469
330
3E2
100
AcDbEntity
  8
0
  6
CONTINUOUS
 62
     0
100
AcDbTrace
 10
-58.04166666666667
 20
-74.48381799999999
 30
0.0
 11
-57.70833333333333
 21
-74.48381799999999
 31
0.0
 12
-57.875
 22
-75.483818
 32
0.0
 13
-57.875
 23
-75.483818
 33
0.0
  0
MTEXT
  5
46A
330
3E2
100
AcDbEntity
  8
0
  6
CONTINUOUS
 62
     0
100
AcDbMText
 10
-61.07499999999999
 20
-86.35048466666667
 30
0.0
 40
3.2
 41
0.0
 71
     5
 72
     1
  1
\A1;15.6000
 11
0.0000000000000001
 21
1.0
 31
0.0
1001
ACAD
1000
MTEXTBEGIN
1070
    73
1070
     1
1070
    44
1040
1.0
1070
    74
1070
     0
1000
MTEXTEND
1000
MTEXTBEGIN
1070
    73
1070
     1
1070
    44
1040
1.0
1070
    74
1070
     0
1000
MTEXTEND
  0
POINT
  5
46B
330
3E2
100
AcDbEntity
  8
DEFPOINTS
  6
CONTINUOUS
 62
     0
100
AcDbPoint
 10
-38.075001
 20
-59.88381999999999
 30
0.0
  0
POINT
  5
46C
330
3E2
100
AcDbEntity
  8
DEFPOINTS
  6
CONTINUOUS
 62
     0
100
AcDbPoint
 10
-38.075001
 20
-75.483818
 30
0.0
  0
POINT
  5
46D
330
3E2
100
AcDbEntity
  8
DEFPOINTS
  6
CONTINUOUS
 62
     0
100
AcDbPoint
 10
-57.875
 20
-75.483818
 30
0.0
  0
ENDBLK
  5
3EE
330
3E2
100
AcDbEntity
  8
0
100
AcDbBlockEnd
  0
BLOCK
  5
3F9
330
3EF
100
AcDbEntity
  8
0
100
AcDbBlockBegin
  2
*D25
 70
     1
 10
0.0
 20
0.0
 30
0.0
  3
*D25
  1

  0
LINE
  5
46E
330
3EF
100
AcDbEntity
  8
0
  6
CONTINUOUS
 62
     0
100
AcDbLine
 10
47.40364699999999
 20
16.5
 30
0.0
 11
73.715003
 21
16.49999999999999
 31
0.0
  0
LINE
  5
46F
330
3EF
100
AcDbEntity
  8
0
  6
CONTINUOUS
 62
     0
100
AcDbLine
 10
71.175003
 20
28.20000099999999
 30
0.0
 11
71.175003
 21
17.49999999999999
 31
0.0
  0
LINE
  5
470
330
3EF
100
AcDbEntity
  8
0
  6
CONTINUOUS
 62
     0
100
AcDbLine
 10
71.175003
 20
16.49999999999999
 30
0.0
 11
71.175003
 21
-4.233333333333336
 31
0.0
  0
SOLID
  5
471
330
3EF
100
AcDbEntity
  8
0
  6
CONTINUOUS
 62
     0
100
AcDbTrace
 10
71.00833633333333
 20
28.20000099999999
 30
0.0
 11
71.34166966666668
 21
28.20000099999999
 31
0.0
 12
71.175003
 22
29.20000099999999
 32
0.0
 13
71.175003
 23
29.20000099999999
 33
0.0
  0
SOLID
  5
472
330
3EF
100
AcDbEntity
  8
0
  6
CONTINUOUS
 62
     0
100
AcDbTrace
 10
71.00833633333333
 20
17.49999999999999
 30
0.0
 11
71.34166966666668
 21
17.49999999999999
 31
0.0
 12
71.175003
 22
16.49999999999999
 32
0.0
 13
71.175003
 23
16.49999999999999
 33
0.0
  0
MTEXT
  5
473
330
3EF
100
AcDbEntity
  8
0
  6
CONTINUOUS
 62
     0
100
AcDbMText
 10
67.975003
 20
5.633333333333337
 30
0.0
 40
3.2
 41
0.0
 71
     5
 72
     1
  1
\A1;12.7000
 11
0.0000000000000001
 21
1.0
 31
0.0
1001
ACAD
1000
MTEXTBEGIN
1070
    73
1070
     1
1070
    44
1040
1.0
1070
    74
1070
     0
1000
MTEXTEND
1000
MTEXTBEGIN
1070
    73
1070
     1
1070
    44
1040
1.0
1070
    74
1070
     0
1000
MTEXTEND
  0
POINT
  5
474
330
3EF
100
AcDbEntity
  8
DEFPOINTS
  6
CONTINUOUS
 62
     0
100
AcDbPoint
 10
47.17499899999999
 20
29.200001
 30
0.0
  0
POINT
  5
475
330
3EF
100
AcDbEntity
  8
DEFPOINTS
  6
CONTINUOUS
 62
     0
100
AcDbPoint
 10
44.863647
 20
16.5
 30
0.0
  0
POINT
  5
476
330
3EF
100
AcDbEntity
  8
DEFPOINTS
  6
CONTINUOUS
 62
     0
100
AcDbPoint
 10
71.175003
 20
16.49999999999999
 30
0.0
  0
ENDBLK
  5
3FA
330
3EF
100
AcDbEntity
  8
0
100
AcDbBlockEnd
  0
BLOCK
  5
404
330
3FB
100
AcDbEntity
  8
0
100
AcDbBlockBegin
  2
*D26
 70
     1
 10
0.0
 20
0.0
 30
0.0
  3
*D26
  1

  0
LINE
  5
477
330
3FB
100
AcDbEntity
  8
0
  6
CONTINUOUS
 62
     0
100
AcDbLine
 10
33.145
 20
19.67191099999998
 30
0.0
 11
43.05499999999999
 21
19.67191099999998
 31
0.0
  0
LINE
  5
478
330
3FB
100
AcDbEntity
  8
0
  6
CONTINUOUS
 62
     0
100
AcDbLine
 10
44.05499999999999
 20
19.67191099999998
 30
0.0
 11
63.18833333333333
 21
19.67191099999998
 31
0.0
  0
SOLID
  5
479
330
3FB
100
AcDbEntity
  8
0
  6
CONTINUOUS
 62
     0
100
AcDbTrace
 10
33.145
 20
19.83857766666664
 30
0.0
 11
33.145
 21
19.5052443333333
 31
0.0
 12
32.145
 22
19.67191099999998
 32
0.0
 13
32.145
 23
19.67191099999998
 33
0.0
  0
SOLID
  5
47A
330
3FB
100
AcDbEntity
  8
0
  6
CONTINUOUS
 62
     0
100
AcDbTrace
 10
43.05499999999999
 20
19.83857766666664
 30
0.0
 11
43.05499999999999
 21
19.5052443333333
 31
0.0
 12
44.05499999999999
 22
19.67191099999998
 32
0.0
 13
44.05499999999999
 23
19.67191099999998
 33
0.0
  0
MTEXT
  5
47B
330
3FB
100
AcDbEntity
  8
0
  6
CONTINUOUS
 62
     0
100
AcDbMText
 10
54.12166666666666
 20
22.87191099999998
 30
0.0
 40
3.2
 41
0.0
 71
     5
 72
     1
  1
\A1;11.9100
1001
ACAD
1000
MTEXTBEGIN
1070
    73
1070
     1
1070
    44
1040
1.0
1070
    74
1070
     0
1000
MTEXTEND
1000
MTEXTBEGIN
1070
    73
1070
     1
1070
    44
1040
1.0
1070
    74
1070
     0
1000
MTEXTEND
  0
POINT
  5
47C
330
3FB
100
AcDbEntity
  8
DEFPOINTS
  6
CONTINUOUS
 62
     0
100
AcDbPoint
 10
32.145
 20
19.67191099999998
 30
0.0
  0
POINT
  5
47D
330
3FB
100
AcDbEntity
  8
DEFPOINTS
  6
CONTINUOUS
 62
     0
100
AcDbPoint
 10
44.05499999999999
 20
19.67191099999998
 30
0.0
  0
POINT
  5
47E
330
3FB
100
AcDbEntity
  8
DEFPOINTS
  6
CONTINUOUS
 62
     0
100
AcDbPoint
 10
44.05499999999999
 20
19.67191099999998
 30
0.0
  0
ENDBLK
  5
405
330
3FB
100
AcDbEntity
  8
0
100
AcDbBlockEnd
  0
BLOCK
  5
40F
330
406
100
AcDbEntity
  8
0
100
AcDbBlockBegin
  2
*D27
 70
     1
 10
0.0
 20
0.0
 30
0.0
  3
*D27
  1

  0
LINE
  5
47F
330
406
100
AcDbEntity
  8
0
  6
CONTINUOUS
 62
     0
100
AcDbLine
 10
-36.119999
 20
16.96512999999999
 30
0.0
 11
-40.080002
 21
16.96512999999999
 31
0.0
  0
LINE
  5
480
330
406
100
AcDbEntity
  8
0
  6
CONTINUOUS
 62
     0
100
AcDbLine
 10
-41.080002
 20
16.96512999999999
 30
0.0
 11
-60.21333533333333
 21
16.96512999999999
 31
0.0
  0
SOLID
  5
481
330
406
100
AcDbEntity
  8
0
  6
CONTINUOUS
 62
     0
100
AcDbTrace
 10
-36.119999
 20
17.13179666666666
 30
0.0
 11
-36.119999
 21
16.79846333333331
 31
0.0
 12
-35.119999
 22
16.96512999999999
 32
0.0
 13
-35.119999
 23
16.96512999999999
 33
0.0
  0
SOLID
  5
482
330
406
100
AcDbEntity
  8
0
  6
CONTINUOUS
 62
     0
100
AcDbTrace
 10
-40.080002
 20
17.13179666666666
 30
0.0
 11
-40.080002
 21
16.79846333333331
 31
0.0
 12
-41.080002
 22
16.96512999999999
 32
0.0
 13
-41.080002
 23
16.96512999999999
 33
0.0
  0
MTEXT
  5
483
330
406
100
AcDbEntity
  8
0
  6
CONTINUOUS
 62
     0
100
AcDbMText
 10
-51.14666866666667
 20
20.16512999999998
 30
0.0
 40
3.2
 41
0.0
 71
     5
 72
     1
  1
\A1;5.9600
1001
ACAD
1000
MTEXTBEGIN
1070
    73
1070
     1
1070
    44
1040
1.0
1070
    74
1070
     0
1000
MTEXTEND
1000
MTEXTBEGIN
1070
    73
1070
     1
1070
    44
1040
1.0
1070
    74
1070
     0
1000
MTEXTEND
  0
POINT
  5
484
330
406
100
AcDbEntity
  8
DEFPOINTS
  6
CONTINUOUS
 62
     0
100
AcDbPoint
 10
-35.119999
 20
16.96512999999999
 30
0.0
  0
POINT
  5
485
330
406
100
AcDbEntity
  8
DEFPOINTS
  6
CONTINUOUS
 62
     0
100
AcDbPoint
 10
-41.080002
 20
16.96512999999999
 30
0.0
  0
POINT
  5
486
330
406
100
AcDbEntity
  8
DEFPOINTS
  6
CONTINUOUS
 62
     0
100
AcDbPoint
 10
-41.080002
 20
16.96512999999999
 30
0.0
  0
ENDBLK
  5
410
330
406
100
AcDbEntity
  8
0
100
AcDbBlockEnd
  0
BLOCK
  5
492
330
488
100
AcDbEntity
  8
0
100
AcDbBlockBegin
  2
*D28
 70
     1
 10
0.0
 20
0.0
 30
0.0
  3
*D28
  1

  0
LINE
  5
626
330
488
100
AcDbEntity
  8
0
 62
     1
100
AcDbLine
 10
32.145
 20
17.700001
 30
0.0
 11
32.145
 21
20.42405198404105
 31
0.0
  0
LINE
  5
627
330
488
100
AcDbEntity
  8
0
 62
     1
100
AcDbLine
 10
44.05499999999999
 20
17.700001
 30
0.0
 11
44.05499999999999
 21
20.42405198404105
 31
0.0
  0
LINE
  5
628
330
488
100
AcDbEntity
  8
0
 62
     1
100
AcDbLine
 10
29.145
 20
18.92405198404105
 30
0.0
 11
26.145
 21
18.92405198404105
 31
0.0
  0
LINE
  5
629
330
488
100
AcDbEntity
  8
0
 62
     1
100
AcDbLine
 10
47.05499999999999
 20
18.92405198404105
 30
0.0
 11
64.05499999999999
 21
18.92405198404105
 31
0.0
  0
LINE
  5
62A
330
488
100
AcDbEntity
  8
0
 62
     1
100
AcDbLine
 10
32.145
 20
18.92405198404105
 30
0.0
 11
44.05499999999999
 21
18.92405198404105
 31
0.0
  0
SOLID
  5
62B
330
488
100
AcDbEntity
  8
0
 62
     1
100
AcDbTrace
 10
29.145
 20
19.42405198404105
 30
0.0
 11
29.145
 21
18.42405198404104
 31
0.0
 12
32.145
 22
18.92405198404105
 32
0.0
 13
32.145
 23
18.92405198404105
 33
0.0
  0
SOLID
  5
62C
330
488
100
AcDbEntity
  8
0
 62
     1
100
AcDbTrace
 10
47.05499999999999
 20
19.42405198404105
 30
0.0
 11
47.05499999999999
 21
18.42405198404104
 31
0.0
 12
44.05499999999999
 22
18.92405198404105
 32
0.0
 13
44.05499999999999
 23
18.92405198404105
 33
0.0
  0
MTEXT
  5
62D
330
488
100
AcDbEntity
  8
0
 62
     1
100
AcDbMText
 10
57.05499999999999
 20
21.42405198404105
 30
0.0
 40
3.0
 41
0.0
 71
     5
 72
     1
  1
φ11.91
1001
ACAD
1000
MTEXTBEGIN
1070
    73
1070
     1
1070
    44
1040
1.0
1070
    74
1070
     0
1000
MTEXTEND
1000
MTEXTBEGIN
1070
    73
1070
     1
1070
    44
1040
1.0
1070
    74
1070
     0
1000
MTEXTEND
  0
POINT
  5
62E
330
488
100
AcDbEntity
  8
DEFPOINTS
 62
     0
100
AcDbPoint
 10
32.145
 20
17.700001
 30
0.0
  0
POINT
  5
62F
330
488
100
AcDbEntity
  8
DEFPOINTS
 62
     0
100
AcDbPoint
 10
44.05499999999999
 20
17.700001
 30
0.0
  0
POINT
  5
630
330
488
100
AcDbEntity
  8
DEFPOINTS
 62
     0
100
AcDbPoint
 10
44.05499999999999
 20
18.92405198404105
 30
0.0
  0
ENDBLK
  5
493
330
488
100
AcDbEntity
  8
0
100
AcDbBlockEnd
  0
BLOCK
  5
4B5
330
4AB
100
AcDbEntity
  8
0
100
AcDbBlockBegin
  2
*D29
 70
     1
 10
0.0
 20
0.0
 30
0.0
  3
*D29
  1

  0
LINE
  5
6A3
330
4AB
100
AcDbEntity
  8
0
 62
     1
100
AcDbLine
 10
47.17499899999999
 20
16.5
 30
0.0
 11
76.46016673820551
 21
16.49999999999999
 31
0.0
  0
LINE
  5
6A4
330
4AB
100
AcDbEntity
  8
0
 62
     1
100
AcDbLine
 10
47.17499899999999
 20
29.200001
 30
0.0
 11
76.46016673820551
 21
29.20000099999999
 31
0.0
  0
LINE
  5
6A5
330
4AB
100
AcDbEntity
  8
0
 62
     1
100
AcDbLine
 10
74.96016673820552
 20
19.49999999999999
 30
0.0
 11
74.96016673820552
 21
26.20000099999999
 31
0.0
  0
SOLID
  5
6A6
330
4AB
100
AcDbEntity
  8
0
 62
     1
100
AcDbTrace
 10
74.46016673820551
 20
19.49999999999999
 30
0.0
 11
75.46016673820552
 21
19.49999999999999
 31
0.0
 12
74.96016673820552
 22
16.49999999999999
 32
0.0
 13
74.96016673820552
 23
16.49999999999999
 33
0.0
  0
SOLID
  5
6A7
330
4AB
100
AcDbEntity
  8
0
 62
     1
100
AcDbTrace
 10
74.46016673820551
 20
26.20000099999999
 30
0.0
 11
75.46016673820552
 21
26.20000099999999
 31
0.0
 12
74.96016673820552
 22
29.20000099999999
 32
0.0
 13
74.96016673820552
 23
29.20000099999999
 33
0.0
  0
MTEXT
  5
6A8
330
4AB
100
AcDbEntity
  8
0
 62
     1
100
AcDbMText
 10
72.46016673820552
 20
22.8500005
 30
0.0
 40
3.0
 41
0.0
 71
     5
 72
     1
  1
12.70
 11
0.0000000000000001
 21
1.0
 31
0.0
1001
ACAD
1000
MTEXTBEGIN
1070
    73
1070
     1
1070
    44
1040
1.0
1070
    74
1070
     0
1000
MTEXTEND
1000
MTEXTBEGIN
1070
    73
1070
     1
1070
    44
1040
1.0
1070
    74
1070
     0
1000
MTEXTEND
  0
POINT
  5
6A9
330
4AB
100
AcDbEntity
  8
DEFPOINTS
 62
     0
100
AcDbPoint
 10
47.17499899999999
 20
16.5
 30
0.0
  0
POINT
  5
6AA
330
4AB
100
AcDbEntity
  8
DEFPOINTS
 62
     0
100
AcDbPoint
 10
47.17499899999999
 20
29.200001
 30
0.0
  0
POINT
  5
6AB
330
4AB
100
AcDbEntity
  8
DEFPOINTS
 62
     0
100
AcDbPoint
 10
74.96016673820552
 20
29.20000099999999
 30
0.0
  0
ENDBLK
  5
4B6
330
4AB
100
AcDbEntity
  8
0
100
AcDbBlockEnd
  0
BLOCK
  5
4D8
330
4CC
100
AcDbEntity
  8
0
100
AcDbBlockBegin
  2
*D30
 70
     1
 10
0.0
 20
0.0
 30
0.0
  3
*D30
  1

  0
LINE
  5
6AC
330
4CC
100
AcDbEntity
  8
0
 62
     1
100
AcDbLine
 10
47.17499899999999
 20
29.200001
 30
0.0
 11
76.46016673820553
 21
29.20000099999999
 31
0.0
  0
LINE
  5
6AD
330
4CC
100
AcDbEntity
  8
0
 62
     1
100
AcDbLine
 10
47.17499899999999
 20
32.400002
 30
0.0
 11
76.46016673820554
 21
32.40000199999999
 31
0.0
  0
LINE
  5
6AE
330
4CC
100
AcDbEntity
  8
0
 62
     1
100
AcDbLine
 10
74.96016673820553
 20
26.20000099999999
 30
0.0
 11
74.96016673820553
 21
23.20000099999999
 31
0.0
  0
LINE
  5
6AF
330
4CC
100
AcDbEntity
  8
0
 62
     1
100
AcDbLine
 10
74.96016673820554
 20
35.40000199999999
 30
0.0
 11
74.96016673820554
 21
46.40000199999999
 31
0.0
  0
LINE
  5
6B0
330
4CC
100
AcDbEntity
  8
0
 62
     1
100
AcDbLine
 10
74.96016673820553
 20
29.20000099999999
 30
0.0
 11
74.96016673820554
 21
32.40000199999999
 31
0.0
  0
SOLID
  5
6B1
330
4CC
100
AcDbEntity
  8
0
 62
     1
100
AcDbTrace
 10
74.46016673820553
 20
26.20000099999999
 30
0.0
 11
75.46016673820552
 21
26.20000099999999
 31
0.0
 12
74.96016673820553
 22
29.20000099999999
 32
0.0
 13
74.96016673820553
 23
29.20000099999999
 33
0.0
  0
SOLID
  5
6B2
330
4CC
100
AcDbEntity
  8
0
 62
     1
100
AcDbTrace
 10
74.46016673820555
 20
35.40000199999999
 30
0.0
 11
75.46016673820554
 21
35.40000199999999
 31
0.0
 12
74.96016673820554
 22
32.40000199999999
 32
0.0
 13
74.96016673820554
 23
32.40000199999999
 33
0.0
  0
MTEXT
  5
6B3
330
4CC
100
AcDbEntity
  8
0
 62
     1
100
AcDbMText
 10
72.46016673820553
 20
42.40000199999999
 30
0.0
 40
3.0
 41
0.0
 71
     5
 72
     1
  1
3.2
 11
0.0000000000000001
 21
1.0
 31
0.0
1001
ACAD
1000
MTEXTBEGIN
1070
    73
1070
     1
1070
    44
1040
1.0
1070
    74
1070
     0
1000
MTEXTEND
1000
MTEXTBEGIN
1070
    73
1070
     1
1070
    44
1040
1.0
1070
    74
1070
     0
1000
MTEXTEND
  0
POINT
  5
6B4
330
4CC
100
AcDbEntity
  8
DEFPOINTS
 62
     0
100
AcDbPoint
 10
47.17499899999999
 20
29.200001
 30
0.0
  0
POINT
  5
6B5
330
4CC
100
AcDbEntity
  8
DEFPOINTS
 62
     0
100
AcDbPoint
 10
47.17499899999999
 20
32.400002
 30
0.0
  0
POINT
  5
6B6
330
4CC
100
AcDbEntity
  8
DEFPOINTS
 62
     0
100
AcDbPoint
 10
74.96016673820554
 20
32.40000199999999
 30
0.0
  0
ENDBLK
  5
4D9
330
4CC
100
AcDbEntity
  8
0
100
AcDbBlockEnd
  0
BLOCK
  5
4F4
330
4E8
100
AcDbEntity
  8
0
100
AcDbBlockBegin
  2
*D31
 70
     1
 10
0.0
 20
0.0
 30
0.0
  3
*D31
  1

  0
LINE
  5
645
330
4E8
100
AcDbEntity
  8
0
 62
     1
100
AcDbLine
 10
-35.119999
 20
13.05
 30
0.0
 11
-35.119999
 21
18.77329221297825
 31
0.0
  0
LINE
  5
646
330
4E8
100
AcDbEntity
  8
0
 62
     1
100
AcDbLine
 10
-41.080002
 20
13.05
 30
0.0
 11
-41.080002
 21
18.77329221297825
 31
0.0
  0
LINE
  5
647
330
4E8
100
AcDbEntity
  8
0
 62
     1
100
AcDbLine
 10
-32.119999
 20
17.27329221297827
 30
0.0
 11
-29.11999899999999
 21
17.27329221297827
 31
0.0
  0
LINE
  5
648
330
4E8
100
AcDbEntity
  8
0
 62
     1
100
AcDbLine
 10
-44.080002
 20
17.27329221297827
 30
0.0
 11
-64.64278919387027
 21
17.27329221297827
 31
0.0
  0
LINE
  5
649
330
4E8
100
AcDbEntity
  8
0
 62
     1
100
AcDbLine
 10
-35.119999
 20
17.27329221297827
 30
0.0
 11
-41.080002
 21
17.27329221297827
 31
0.0
  0
SOLID
  5
64A
330
4E8
100
AcDbEntity
  8
0
 62
     1
100
AcDbTrace
 10
-32.119999
 20
17.77329221297827
 30
0.0
 11
-32.119999
 21
16.77329221297827
 31
0.0
 12
-35.119999
 22
17.27329221297827
 32
0.0
 13
-35.119999
 23
17.27329221297827
 33
0.0
  0
SOLID
  5
64B
330
4E8
100
AcDbEntity
  8
0
 62
     1
100
AcDbTrace
 10
-44.080002
 20
17.77329221297827
 30
0.0
 11
-44.080002
 21
16.77329221297827
 31
0.0
 12
-41.080002
 22
17.27329221297827
 32
0.0
 13
-41.080002
 23
17.27329221297827
 33
0.0
  0
MTEXT
  5
64C
330
4E8
100
AcDbEntity
  8
0
 62
     1
100
AcDbMText
 10
-57.64278919387027
 20
19.77329221297827
 30
0.0
 40
3.0
 41
0.0
 71
     5
 72
     1
  1
φ5.96
1001
ACAD
1000
MTEXTBEGIN
1070
    73
1070
     1
1070
    44
1040
1.0
1070
    74
1070
     0
1000
MTEXTEND
1000
MTEXTBEGIN
1070
    73
1070
     1
1070
    44
1040
1.0
1070
    74
1070
     0
1000
MTEXTEND
  0
POINT
  5
64D
330
4E8
100
AcDbEntity
  8
DEFPOINTS
 62
     0
100
AcDbPoint
 10
-35.119999
 20
13.05
 30
0.0
  0
POINT
  5
64E
330
4E8
100
AcDbEntity
  8
DEFPOINTS
 62
     0
100
AcDbPoint
 10
-41.080002
 20
13.05
 30
0.0
  0
POINT
  5
64F
330
4E8
100
AcDbEntity
  8
DEFPOINTS
 62
     0
100
AcDbPoint
 10
-41.080002
 20
17.27329221297827
 30
0.0
  0
ENDBLK
  5
4F5
330
4E8
100
AcDbEntity
  8
0
100
AcDbBlockEnd
  0
BLOCK
  5
51B
330
50F
100
AcDbEntity
  8
0
100
AcDbBlockBegin
  2
*D32
 70
     1
 10
0.0
 20
0.0
 30
0.0
  3
*D32
  1

  0
LINE
  5
650
330
50F
100
AcDbEntity
  8
0
 62
     1
100
AcDbLine
 10
-45.875
 20
32.700002
 30
0.0
 11
-60.80483917023185
 21
32.70000200000001
 31
0.0
  0
LINE
  5
651
330
50F
100
AcDbEntity
  8
0
 62
     1
100
AcDbLine
 10
-45.875
 20
35.89999799999999
 30
0.0
 11
-60.80483917023185
 21
35.89999799999999
 31
0.0
  0
LINE
  5
652
330
50F
100
AcDbEntity
  8
0
 62
     1
100
AcDbLine
 10
-59.30483917023185
 20
29.70000200000001
 30
0.0
 11
-59.30483917023185
 21
26.700002
 31
0.0
  0
LINE
  5
653
330
50F
100
AcDbEntity
  8
0
 62
     1
100
AcDbLine
 10
-59.30483917023185
 20
38.899998
 30
0.0
 11
-59.30483917023185
 21
49.89999799999999
 31
0.0
  0
LINE
  5
654
330
50F
100
AcDbEntity
  8
0
 62
     1
100
AcDbLine
 10
-59.30483917023185
 20
32.70000200000001
 30
0.0
 11
-59.30483917023185
 21
35.89999799999999
 31
0.0
  0
SOLID
  5
655
330
50F
100
AcDbEntity
  8
0
 62
     1
100
AcDbTrace
 10
-59.80483917023185
 20
29.70000200000001
 30
0.0
 11
-58.80483917023185
 21
29.70000200000001
 31
0.0
 12
-59.30483917023185
 22
32.70000200000001
 32
0.0
 13
-59.30483917023185
 23
32.70000200000001
 33
0.0
  0
SOLID
  5
656
330
50F
100
AcDbEntity
  8
0
 62
     1
100
AcDbTrace
 10
-59.80483917023185
 20
38.899998
 30
0.0
 11
-58.80483917023185
 21
38.899998
 31
0.0
 12
-59.30483917023185
 22
35.89999799999999
 32
0.0
 13
-59.30483917023185
 23
35.89999799999999
 33
0.0
  0
MTEXT
  5
657
330
50F
100
AcDbEntity
  8
0
 62
     1
100
AcDbMText
 10
-61.80483917023186
 20
45.89999799999999
 30
0.0
 40
3.0
 41
0.0
 71
     5
 72
     1
  1
3.2
 11
0.0000000000000001
 21
1.0
 31
0.0
1001
ACAD
1000
MTEXTBEGIN
1070
    73
1070
     1
1070
    44
1040
1.0
1070
    74
1070
     0
1000
MTEXTEND
1000
MTEXTBEGIN
1070
    73
1070
     1
1070
    44
1040
1.0
1070
    74
1070
     0
1000
MTEXTEND
  0
POINT
  5
658
330
50F
100
AcDbEntity
  8
DEFPOINTS
 62
     0
100
AcDbPoint
 10
-45.875
 20
32.700002
 30
0.0
  0
POINT
  5
659
330
50F
100
AcDbEntity
  8
DEFPOINTS
 62
     0
100
AcDbPoint
 10
-45.875
 20
35.89999799999999
 30
0.0
  0
POINT
  5
65A
330
50F
100
AcDbEntity
  8
DEFPOINTS
 62
     0
100
AcDbPoint
 10
-59.30483917023185
 20
35.89999799999999
 30
0.0
  0
ENDBLK
  5
51C
330
50F
100
AcDbEntity
  8
0
100
AcDbBlockEnd
  0
BLOCK
  5
535
330
52B
100
AcDbEntity
  8
0
100
AcDbBlockBegin
  2
*D33
 70
     1
 10
0.0
 20
0.0
 30
0.0
  3
*D33
  1

  0
LINE
  5
65B
330
52B
100
AcDbEntity
  8
0
 62
     1
100
AcDbLine
 10
-48.875
 20
-3.249999499999998
 30
0.0
 11
-69.16870946743201
 21
-3.249999499999991
 31
0.0
  0
LINE
  5
65C
330
52B
100
AcDbEntity
  8
0
 62
     1
100
AcDbLine
 10
-48.875
 20
22.85
 30
0.0
 11
-69.16870946743201
 21
22.85
 31
0.0
  0
LINE
  5
65D
330
52B
100
AcDbEntity
  8
0
 62
     1
100
AcDbLine
 10
-67.66870946743201
 20
-0.2499994999999925
 30
0.0
 11
-67.66870946743201
 21
19.85
 31
0.0
  0
SOLID
  5
65E
330
52B
100
AcDbEntity
  8
0
 62
     1
100
AcDbTrace
 10
-68.168709467432
 20
-0.2499994999999923
 30
0.0
 11
-67.16870946743201
 21
-0.2499994999999926
 31
0.0
 12
-67.66870946743201
 22
-3.249999499999991
 32
0.0
 13
-67.66870946743201
 23
-3.249999499999991
 33
0.0
  0
SOLID
  5
65F
330
52B
100
AcDbEntity
  8
0
 62
     1
100
AcDbTrace
 10
-68.168709467432
 20
19.85
 30
0.0
 11
-67.16870946743201
 21
19.85
 31
0.0
 12
-67.66870946743201
 22
22.85
 32
0.0
 13
-67.66870946743201
 23
22.85
 33
0.0
  0
MTEXT
  5
660
330
52B
100
AcDbEntity
  8
0
 62
     1
100
AcDbMText
 10
-70.16870946743201
 20
9.800000249999994
 30
0.0
 40
3.0
 41
0.0
 71
     5
 72
     1
  1
26.1
 11
0.0000000000000001
 21
1.0
 31
0.0
1001
ACAD
1000
MTEXTBEGIN
1070
    73
1070
     1
1070
    44
1040
1.0
1070
    74
1070
     0
1000
MTEXTEND
1000
MTEXTBEGIN
1070
    73
1070
     1
1070
    44
1040
1.0
1070
    74
1070
     0
1000
MTEXTEND
  0
POINT
  5
661
330
52B
100
AcDbEntity
  8
DEFPOINTS
 62
     0
100
AcDbPoint
 10
-48.875
 20
-3.249999499999998
 30
0.0
  0
POINT
  5
662
330
52B
100
AcDbEntity
  8
DEFPOINTS
 62
     0
100
AcDbPoint
 10
-48.875
 20
22.85
 30
0.0
  0
POINT
  5
663
330
52B
100
AcDbEntity
  8
DEFPOINTS
 62
     0
100
AcDbPoint
 10
-67.66870946743201
 20
22.85
 30
0.0
  0
ENDBLK
  5
536
330
52B
100
AcDbEntity
  8
0
100
AcDbBlockEnd
  0
BLOCK
  5
54D
330
543
100
AcDbEntity
  8
0
100
AcDbBlockBegin
  2
*D34
 70
     1
 10
0.0
 20
0.0
 30
0.0
  3
*D34
  1

  0
LINE
  5
664
330
543
100
AcDbEntity
  8
0
 62
     1
100
AcDbLine
 10
-48.875
 20
-3.249999499999998
 30
0.0
 11
-69.16870946743201
 21
-3.249999499999991
 31
0.0
  0
LINE
  5
665
330
543
100
AcDbEntity
  8
0
 62
     1
100
AcDbLine
 10
-48.875
 20
-29.35
 30
0.0
 11
-69.16870946743201
 21
-29.35
 31
0.0
  0
LINE
  5
666
330
543
100
AcDbEntity
  8
0
 62
     1
100
AcDbLine
 10
-67.66870946743201
 20
-6.24999949999999
 30
0.0
 11
-67.66870946743201
 21
-26.34999999999999
 31
0.0
  0
SOLID
  5
667
330
543
100
AcDbEntity
  8
0
 62
     1
100
AcDbTrace
 10
-68.168709467432
 20
-6.24999949999999
 30
0.0
 11
-67.16870946743201
 21
-6.24999949999999
 31
0.0
 12
-67.66870946743201
 22
-3.249999499999991
 32
0.0
 13
-67.66870946743201
 23
-3.249999499999991
 33
0.0
  0
SOLID
  5
668
330
543
100
AcDbEntity
  8
0
 62
     1
100
AcDbTrace
 10
-68.168709467432
 20
-26.34999999999999
 30
0.0
 11
-67.16870946743201
 21
-26.34999999999999
 31
0.0
 12
-67.66870946743201
 22
-29.35
 32
0.0
 13
-67.66870946743201
 23
-29.35
 33
0.0
  0
MTEXT
  5
669
330
543
100
AcDbEntity
  8
0
 62
     1
100
AcDbMText
 10
-70.16870946743201
 20
-16.29999975
 30
0.0
 40
3.0
 41
0.0
 71
     5
 72
     1
  1
26.1
 11
0.0000000000000001
 21
1.0
 31
0.0
1001
ACAD
1000
MTEXTBEGIN
1070
    73
1070
     1
1070
    44
1040
1.0
1070
    74
1070
     0
1000
MTEXTEND
1000
MTEXTBEGIN
1070
    73
1070
     1
1070
    44
1040
1.0
1070
    74
1070
     0
1000
MTEXTEND
  0
POINT
  5
66A
330
543
100
AcDbEntity
  8
DEFPOINTS
 62
     0
100
AcDbPoint
 10
-48.875
 20
-3.249999499999998
 30
0.0
  0
POINT
  5
66B
330
543
100
AcDbEntity
  8
DEFPOINTS
 62
     0
100
AcDbPoint
 10
-48.875
 20
-29.35
 30
0.0
  0
POINT
  5
66C
330
543
100
AcDbEntity
  8
DEFPOINTS
 62
     0
100
AcDbPoint
 10
-67.66870946743201
 20
-29.35
 30
0.0
  0
ENDBLK
  5
54E
330
543
100
AcDbEntity
  8
0
100
AcDbBlockEnd
  0
BLOCK
  5
565
330
55B
100
AcDbEntity
  8
0
100
AcDbBlockBegin
  2
*D35
 70
     1
 10
0.0
 20
0.0
 30
0.0
  3
*D35
  1

  0
LINE
  5
66D
330
55B
100
AcDbEntity
  8
0
 62
     1
100
AcDbLine
 10
-48.875
 20
-3.249999499999998
 30
0.0
 11
-78.44429956593319
 21
-3.249999499999987
 31
0.0
  0
LINE
  5
66E
330
55B
100
AcDbEntity
  8
0
 62
     1
100
AcDbLine
 10
-40.20999649196762
 20
37.599998
 30
0.0
 11
-78.44429956593316
 21
37.59999800000001
 31
0.0
  0
LINE
  5
66F
330
55B
100
AcDbEntity
  8
0
 62
     1
100
AcDbLine
 10
-76.94429956593316
 20
-0.2499994999999899
 30
0.0
 11
-76.94429956593316
 21
34.599998
 31
0.0
  0
SOLID
  5
670
330
55B
100
AcDbEntity
  8
0
 62
     1
100
AcDbTrace
 10
-77.44429956593319
 20
-0.2499994999999898
 30
0.0
 11
-76.44429956593319
 21
-0.2499994999999901
 31
0.0
 12
-76.94429956593316
 22
-3.24999949999999
 32
0.0
 13
-76.94429956593316
 23
-3.24999949999999
 33
0.0
  0
SOLID
  5
671
330
55B
100
AcDbEntity
  8
0
 62
     1
100
AcDbTrace
 10
-77.44429956593316
 20
34.599998
 30
0.0
 11
-76.44429956593317
 21
34.599998
 31
0.0
 12
-76.94429956593316
 22
37.59999800000001
 32
0.0
 13
-76.94429956593316
 23
37.59999800000001
 33
0.0
  0
MTEXT
  5
672
330
55B
100
AcDbEntity
  8
0
 62
     1
100
AcDbMText
 10
-79.44429956593316
 20
17.17499924999998
 30
0.0
 40
3.0
 41
0.0
 71
     5
 72
     1
  1
40.85
 11
0.0000000000000001
 21
1.0
 31
0.0
1001
ACAD
1000
MTEXTBEGIN
1070
    73
1070
     1
1070
    44
1040
1.0
1070
    74
1070
     0
1000
MTEXTEND
1000
MTEXTBEGIN
1070
    73
1070
     1
1070
    44
1040
1.0
1070
    74
1070
     0
1000
MTEXTEND
  0
POINT
  5
673
330
55B
100
AcDbEntity
  8
DEFPOINTS
 62
     0
100
AcDbPoint
 10
-48.875
 20
-3.249999499999998
 30
0.0
  0
POINT
  5
674
330
55B
100
AcDbEntity
  8
DEFPOINTS
 62
     0
100
AcDbPoint
 10
-40.20999649196762
 20
37.599998
 30
0.0
  0
POINT
  5
675
330
55B
100
AcDbEntity
  8
DEFPOINTS
 62
     0
100
AcDbPoint
 10
-76.94429956593316
 20
37.59999800000001
 30
0.0
  0
ENDBLK
  5
566
330
55B
100
AcDbEntity
  8
0
100
AcDbBlockEnd
  0
BLOCK
  5
57D
330
573
100
AcDbEntity
  8
0
100
AcDbBlockBegin
  2
*D36
 70
     1
 10
0.0
 20
0.0
 30
0.0
  3
*D36
  1

  0
LINE
  5
676
330
573
100
AcDbEntity
  8
0
 62
     1
100
AcDbLine
 10
-48.875
 20
-3.249999499999998
 30
0.0
 11
-78.44429956593319
 21
-3.249999499999987
 31
0.0
  0
LINE
  5
677
330
573
100
AcDbEntity
  8
0
 62
     1
100
AcDbLine
 10
-41.080002
 20
-46.200001
 30
0.0
 11
-78.44429956593319
 21
-46.20000099999999
 31
0.0
  0
LINE
  5
678
330
573
100
AcDbEntity
  8
0
 62
     1
100
AcDbLine
 10
-76.94429956593316
 20
-6.249999499999987
 30
0.0
 11
-76.94429956593319
 21
-43.20000099999999
 31
0.0
  0
SOLID
  5
679
330
573
100
AcDbEntity
  8
0
 62
     1
100
AcDbTrace
 10
-77.44429956593319
 20
-6.249999499999987
 30
0.0
 11
-76.44429956593319
 21
-6.249999499999987
 31
0.0
 12
-76.94429956593316
 22
-3.24999949999999
 32
0.0
 13
-76.94429956593316
 23
-3.24999949999999
 33
0.0
  0
SOLID
  5
67A
330
573
100
AcDbEntity
  8
0
 62
     1
100
AcDbTrace
 10
-77.44429956593319
 20
-43.20000099999999
 30
0.0
 11
-76.44429956593319
 21
-43.20000099999999
 31
0.0
 12
-76.94429956593319
 22
-46.20000099999999
 32
0.0
 13
-76.94429956593319
 23
-46.20000099999999
 33
0.0
  0
MTEXT
  5
67B
330
573
100
AcDbEntity
  8
0
 62
     1
100
AcDbMText
 10
-79.44429956593316
 20
-24.72500025
 30
0.0
 40
3.0
 41
0.0
 71
     5
 72
     1
  1
42.95
 11
0.0000000000000001
 21
1.0
 31
0.0
1001
ACAD
1000
MTEXTBEGIN
1070
    73
1070
     1
1070
    44
1040
1.0
1070
    74
1070
     0
1000
MTEXTEND
1000
MTEXTBEGIN
1070
    73
1070
     1
1070
    44
1040
1.0
1070
    74
1070
     0
1000
MTEXTEND
  0
POINT
  5
67C
330
573
100
AcDbEntity
  8
DEFPOINTS
 62
     0
100
AcDbPoint
 10
-48.875
 20
-3.249999499999998
 30
0.0
  0
POINT
  5
67D
330
573
100
AcDbEntity
  8
DEFPOINTS
 62
     0
100
AcDbPoint
 10
-41.080002
 20
-46.200001
 30
0.0
  0
POINT
  5
67E
330
573
100
AcDbEntity
  8
DEFPOINTS
 62
     0
100
AcDbPoint
 10
-76.94429956593319
 20
-46.20000099999999
 30
0.0
  0
ENDBLK
  5
57E
330
573
100
AcDbEntity
  8
0
100
AcDbBlockEnd
  0
BLOCK
  5
595
330
58B
100
AcDbEntity
  8
0
100
AcDbBlockBegin
  2
*D37
 70
     1
 10
0.0
 20
0.0
 30
0.0
  3
*D37
  1

  0
LINE
  5
67F
330
58B
100
AcDbEntity
  8
0
 62
     1
100
AcDbLine
 10
-38.09999799999999
 20
-59.88386285458958
 30
0.0
 11
-66.54394593296706
 21
-59.88386285458958
 31
0.0
  0
LINE
  5
680
330
58B
100
AcDbEntity
  8
0
 62
     1
100
AcDbLine
 10
-38.09999799999999
 20
-75.48378314541043
 30
0.0
 11
-66.54394593296706
 21
-75.48378314541043
 31
0.0
  0
LINE
  5
681
330
58B
100
AcDbEntity
  8
0
 62
     1
100
AcDbLine
 10
-65.04394593296706
 20
-62.88386285458956
 30
0.0
 11
-65.04394593296706
 21
-72.48378314541041
 31
0.0
  0
SOLID
  5
682
330
58B
100
AcDbEntity
  8
0
 62
     1
100
AcDbTrace
 10
-65.54394593296706
 20
-62.88386285458956
 30
0.0
 11
-64.54394593296706
 21
-62.88386285458956
 31
0.0
 12
-65.04394593296706
 22
-59.88386285458958
 32
0.0
 13
-65.04394593296706
 23
-59.88386285458958
 33
0.0
  0
SOLID
  5
683
330
58B
100
AcDbEntity
  8
0
 62
     1
100
AcDbTrace
 10
-65.54394593296706
 20
-72.48378314541041
 30
0.0
 11
-64.54394593296706
 21
-72.48378314541041
 31
0.0
 12
-65.04394593296706
 22
-75.48378314541043
 32
0.0
 13
-65.04394593296706
 23
-75.48378314541043
 33
0.0
  0
MTEXT
  5
684
330
58B
100
AcDbEntity
  8
0
 62
     1
100
AcDbMText
 10
-67.54394593296705
 20
-67.68382300000002
 30
0.0
 40
3.0
 41
0.0
 71
     5
 72
     1
  1
15.6
 11
0.0000000000000001
 21
1.0
 31
0.0
1001
ACAD
1000
MTEXTBEGIN
1070
    73
1070
     1
1070
    44
1040
1.0
1070
    74
1070
     0
1000
MTEXTEND
1000
MTEXTBEGIN
1070
    73
1070
     1
1070
    44
1040
1.0
1070
    74
1070
     0
1000
MTEXTEND
  0
POINT
  5
685
330
58B
100
AcDbEntity
  8
DEFPOINTS
 62
     0
100
AcDbPoint
 10
-38.09999799999999
 20
-59.88386285458958
 30
0.0
  0
POINT
  5
686
330
58B
100
AcDbEntity
  8
DEFPOINTS
 62
     0
100
AcDbPoint
 10
-38.09999799999999
 20
-75.48378314541043
 30
0.0
  0
POINT
  5
687
330
58B
100
AcDbEntity
  8
DEFPOINTS
 62
     0
100
AcDbPoint
 10
-65.04394593296706
 20
-75.48378314541043
 30
0.0
  0
ENDBLK
  5
596
330
58B
100
AcDbEntity
  8
0
100
AcDbBlockEnd
  0
BLOCK
  5
5AD
330
5A3
100
AcDbEntity
  8
0
100
AcDbBlockBegin
  2
*D38
 70
     1
 10
0.0
 20
0.0
 30
0.0
  3
*D38
  1

  0
LINE
  5
688
330
5A3
100
AcDbEntity
  8
0
 62
     1
100
AcDbLine
 10
-38.09999799999999
 20
-79.733818
 30
0.0
 11
-38.09999799999999
 21
-89.82778840735477
 31
0.0
  0
LINE
  5
689
330
5A3
100
AcDbEntity
  8
0
 62
     1
100
AcDbLine
 10
-19.04999899999999
 20
-79.733818
 30
0.0
 11
-19.04999899999999
 21
-89.82778840735477
 31
0.0
  0
LINE
  5
68A
330
5A3
100
AcDbEntity
  8
0
 62
     1
100
AcDbLine
 10
-35.09999799999999
 20
-88.32778840735477
 30
0.0
 11
-22.04999899999998
 21
-88.32778840735477
 31
0.0
  0
SOLID
  5
68B
330
5A3
100
AcDbEntity
  8
0
 62
     1
100
AcDbTrace
 10
-35.09999799999999
 20
-87.82778840735478
 30
0.0
 11
-35.09999799999999
 21
-88.82778840735477
 31
0.0
 12
-38.09999799999999
 22
-88.32778840735477
 32
0.0
 13
-38.09999799999999
 23
-88.32778840735477
 33
0.0
  0
SOLID
  5
68C
330
5A3
100
AcDbEntity
  8
0
 62
     1
100
AcDbTrace
 10
-22.04999899999998
 20
-87.82778840735478
 30
0.0
 11
-22.04999899999998
 21
-88.82778840735477
 31
0.0
 12
-19.04999899999999
 22
-88.32778840735477
 32
0.0
 13
-19.04999899999999
 23
-88.32778840735477
 33
0.0
  0
MTEXT
  5
68D
330
5A3
100
AcDbEntity
  8
0
 62
     1
100
AcDbMText
 10
-28.57499849999999
 20
-85.82778840735477
 30
0.0
 40
3.0
 41
0.0
 71
     5
 72
     1
  1
19.05
1001
ACAD
1000
MTEXTBEGIN
1070
    73
1070
     1
1070
    44
1040
1.0
1070
    74
1070
     0
1000
MTEXTEND
1000
MTEXTBEGIN
1070
    73
1070
     1
1070
    44
1040
1.0
1070
    74
1070
     0
1000
MTEXTEND
  0
POINT
  5
68E
330
5A3
100
AcDbEntity
  8
DEFPOINTS
 62
     0
100
AcDbPoint
 10
-38.09999799999999
 20
-79.733818
 30
0.0
  0
POINT
  5
68F
330
5A3
100
AcDbEntity
  8
DEFPOINTS
 62
     0
100
AcDbPoint
 10
-19.04999899999999
 20
-79.733818
 30
0.0
  0
POINT
  5
690
330
5A3
100
AcDbEntity
  8
DEFPOINTS
 62
     0
100
AcDbPoint
 10
-19.04999899999999
 20
-88.32778840735477
 30
0.0
  0
ENDBLK
  5
5AE
330
5A3
100
AcDbEntity
  8
0
100
AcDbBlockEnd
  0
BLOCK
  5
5C5
330
5BB
100
AcDbEntity
  8
0
100
AcDbBlockBegin
  2
*D39
 70
     1
 10
0.0
 20
0.0
 30
0.0
  3
*D39
  1

  0
LINE
  5
691
330
5BB
100
AcDbEntity
  8
0
 62
     1
100
AcDbLine
 10
-19.04999899999999
 20
-79.733818
 30
0.0
 11
-19.04999899999999
 21
-89.82778840735477
 31
0.0
  0
LINE
  5
692
330
5BB
100
AcDbEntity
  8
0
 62
     1
100
AcDbLine
 10
-0.0000000000000142
 20
-79.733818
 30
0.0
 11
-0.0000000000000148
 21
-89.82778840735477
 31
0.0
  0
LINE
  5
693
330
5BB
100
AcDbEntity
  8
0
 62
     1
100
AcDbLine
 10
-16.04999899999999
 20
-88.32778840735477
 30
0.0
 11
-3.000000000000012
 21
-88.32778840735477
 31
0.0
  0
SOLID
  5
694
330
5BB
100
AcDbEntity
  8
0
 62
     1
100
AcDbTrace
 10
-16.04999899999999
 20
-87.82778840735478
 30
0.0
 11
-16.04999899999999
 21
-88.82778840735477
 31
0.0
 12
-19.04999899999999
 22
-88.32778840735477
 32
0.0
 13
-19.04999899999999
 23
-88.32778840735477
 33
0.0
  0
SOLID
  5
695
330
5BB
100
AcDbEntity
  8
0
 62
     1
100
AcDbTrace
 10
-3.000000000000012
 20
-87.82778840735478
 30
0.0
 11
-3.000000000000012
 21
-88.82778840735477
 31
0.0
 12
-0.0000000000000147
 22
-88.32778840735477
 32
0.0
 13
-0.0000000000000147
 23
-88.32778840735477
 33
0.0
  0
MTEXT
  5
696
330
5BB
100
AcDbEntity
  8
0
 62
     1
100
AcDbMText
 10
-9.524999499999999
 20
-85.82778840735477
 30
0.0
 40
3.0
 41
0.0
 71
     5
 72
     1
  1
19.05
1001
ACAD
1000
MTEXTBEGIN
1070
    73
1070
     1
1070
    44
1040
1.0
1070
    74
1070
     0
1000
MTEXTEND
1000
MTEXTBEGIN
1070
    73
1070
     1
1070
    44
1040
1.0
1070
    74
1070
     0
1000
MTEXTEND
  0
POINT
  5
697
330
5BB
100
AcDbEntity
  8
DEFPOINTS
 62
     0
100
AcDbPoint
 10
-19.04999899999999
 20
-79.733818
 30
0.0
  0
POINT
  5
698
330
5BB
100
AcDbEntity
  8
DEFPOINTS
 62
     0
100
AcDbPoint
 10
-0.0000000000000142
 20
-79.733818
 30
0.0
  0
POINT
  5
699
330
5BB
100
AcDbEntity
  8
DEFPOINTS
 62
     0
100
AcDbPoint
 10
-0.0000000000000147
 20
-88.32778840735477
 30
0.0
  0
ENDBLK
  5
5C6
330
5BB
100
AcDbEntity
  8
0
100
AcDbBlockEnd
  0
BLOCK
  5
5DD
330
5D3
100
AcDbEntity
  8
0
100
AcDbBlockBegin
  2
*D40
 70
     1
 10
0.0
 20
0.0
 30
0.0
  3
*D40
  1

  0
LINE
  5
69A
330
5D3
100
AcDbEntity
  8
0
 62
     1
100
AcDbLine
 10
38.09999799999999
 20
-76.73378866402305
 30
0.0
 11
61.51085292426738
 21
-76.73378866402305
 31
0.0
  0
LINE
  5
69B
330
5D3
100
AcDbEntity
  8
0
 62
     1
100
AcDbLine
 10
38.09999799999999
 20
-58.63385733597696
 30
0.0
 11
61.51085292426738
 21
-58.63385733597697
 31
0.0
  0
LINE
  5
69C
330
5D3
100
AcDbEntity
  8
0
 62
     1
100
AcDbLine
 10
60.0108529242674
 20
-73.73378866402305
 30
0.0
 11
60.0108529242674
 21
-61.63385733597697
 31
0.0
  0
SOLID
  5
69D
330
5D3
100
AcDbEntity
  8
0
 62
     1
100
AcDbTrace
 10
59.51085292426739
 20
-73.73378866402305
 30
0.0
 11
60.5108529242674
 21
-73.73378866402305
 31
0.0
 12
60.0108529242674
 22
-76.73378866402305
 32
0.0
 13
60.0108529242674
 23
-76.73378866402305
 33
0.0
  0
SOLID
  5
69E
330
5D3
100
AcDbEntity
  8
0
 62
     1
100
AcDbTrace
 10
59.51085292426739
 20
-61.63385733597697
 30
0.0
 11
60.5108529242674
 21
-61.63385733597697
 31
0.0
 12
60.0108529242674
 22
-58.63385733597697
 32
0.0
 13
60.0108529242674
 23
-58.63385733597697
 33
0.0
  0
MTEXT
  5
69F
330
5D3
100
AcDbEntity
  8
0
 62
     1
100
AcDbMText
 10
57.5108529242674
 20
-67.68382299999998
 30
0.0
 40
3.0
 41
0.0
 71
     5
 72
     1
  1
18.1
 11
0.0000000000000001
 21
1.0
 31
0.0
1001
ACAD
1000
MTEXTBEGIN
1070
    73
1070
     1
1070
    44
1040
1.0
1070
    74
1070
     0
1000
MTEXTEND
1000
MTEXTBEGIN
1070
    73
1070
     1
1070
    44
1040
1.0
1070
    74
1070
     0
1000
MTEXTEND
  0
POINT
  5
6A0
330
5D3
100
AcDbEntity
  8
DEFPOINTS
 62
     0
100
AcDbPoint
 10
38.09999799999999
 20
-76.73378866402305
 30
0.0
  0
POINT
  5
6A1
330
5D3
100
AcDbEntity
  8
DEFPOINTS
 62
     0
100
AcDbPoint
 10
38.09999799999999
 20
-58.63385733597696
 30
0.0
  0
POINT
  5
6A2
330
5D3
100
AcDbEntity
  8
DEFPOINTS
 62
     0
100
AcDbPoint
 10
60.0108529242674
 20
-58.63385733597697
 30
0.0
  0
ENDBLK
  5
5DE
330
5D3
100
AcDbEntity
  8
0
100
AcDbBlockEnd
  0
BLOCK
  5
5F5
330
5EB
100
AcDbEntity
  8
0
100
AcDbBlockBegin
  2
*D41
 70
     1
 10
0.0
 20
0.0
 30
0.0
  3
*D41
  1

  0
LINE
  5
60B
330
5EB
100
AcDbEntity
  8
0
 62
     1
100
AcDbLine
 10
-45.875
 20
-42.39999799999996
 30
0.0
 11
-100.1327627941028
 21
-42.39999799999996
 31
0.0
  0
LINE
  5
60C
330
5EB
100
AcDbEntity
  8
0
 62
     1
100
AcDbLine
 10
-45.875
 20
35.89999799999999
 30
0.0
 11
-100.1327627941028
 21
35.89999800000001
 31
0.0
  0
LINE
  5
60D
330
5EB
100
AcDbEntity
  8
0
 62
     1
100
AcDbLine
 10
-98.88276279410288
 20
-39.89999799999996
 30
0.0
 11
-98.88276279410284
 21
33.39999800000001
 31
0.0
  0
SOLID
  5
60E
330
5EB
100
AcDbEntity
  8
0
 62
     1
100
AcDbTrace
 10
-99.29942946076955
 20
-39.89999799999996
 30
0.0
 11
-98.4660961274362
 21
-39.89999799999996
 31
0.0
 12
-98.88276279410288
 22
-42.39999799999996
 32
0.0
 13
-98.88276279410288
 23
-42.39999799999996
 33
0.0
  0
SOLID
  5
60F
330
5EB
100
AcDbEntity
  8
0
 62
     1
100
AcDbTrace
 10
-99.29942946076952
 20
33.39999800000001
 30
0.0
 11
-98.46609612743618
 21
33.39999800000001
 31
0.0
 12
-98.88276279410284
 22
35.89999800000001
 32
0.0
 13
-98.88276279410284
 23
35.89999800000001
 33
0.0
  0
MTEXT
  5
610
330
5EB
100
AcDbEntity
  8
0
 62
     1
100
AcDbMText
 10
-100.7577627941028
 20
-3.249999999999996
 30
0.0
 40
2.5
 41
0.0
 71
     5
 72
     1
  1
78.3
 11
0.0000000000000001
 21
1.0
 31
0.0
1001
ACAD
1000
MTEXTBEGIN
1070
    73
1070
     1
1070
    44
1040
1.0
1070
    74
1070
     0
1000
MTEXTEND
1000
MTEXTBEGIN
1070
    73
1070
     1
1070
    44
1040
1.0
1070
    74
1070
     0
1000
MTEXTEND
  0
POINT
  5
611
330
5EB
100
AcDbEntity
  8
DEFPOINTS
 62
     0
100
AcDbPoint
 10
-45.875
 20
-42.39999799999996
 30
0.0
  0
POINT
  5
612
330
5EB
100
AcDbEntity
  8
DEFPOINTS
 62
     0
100
AcDbPoint
 10
-45.875
 20
35.89999799999999
 30
0.0
  0
POINT
  5
613
330
5EB
100
AcDbEntity
  8
DEFPOINTS
 62
     0
100
AcDbPoint
 10
-98.88276279410284
 20
35.89999800000001
 30
0.0
  0
ENDBLK
  5
5F6
330
5EB
100
AcDbEntity
  8
0
100
AcDbBlockEnd
  0
ENDSEC
  0
SECTION
  2
ENTITIES
  0
TEXT
  5
245
330
1F
100
AcDbEntity
  8
0
  6
CONTINUOUS
 62
     7
100
AcDbText
 10
-21.085872
 20
55.801823
 30
0.0
 40
3.599999899999998
  1

 41
0.8455654
100
AcDbText
  0
ARC
  5
247
330
1F
100
AcDbEntity
  8
0
  6
CONTINUOUS
 62
     7
100
AcDbCircle
 10
42.85499999999998
 20
-34.5
 30
0.0
 40
1.199999999999999
100
AcDbArc
 50
270.0
 51
0.0
  0
ARC
  5
248
330
1F
100
AcDbEntity
  8
0
  6
CONTINUOUS
 62
     7
100
AcDbCircle
 10
33.345001
 20
-34.5
 30
0.0
 40
1.199999999999999
100
AcDbArc
 50
180.0
 51
270.0
  0
ARC
  5
249
330
1F
100
AcDbEntity
  8
0
  6
CONTINUOUS
 62
     7
100
AcDbCircle
 10
42.85499999999998
 20
-24.200001
 30
0.0
 40
1.199999999999999
100
AcDbArc
 50
0.0
 51
90.0
  0
ARC
  5
24A
330
1F
100
AcDbEntity
  8
0
  6
CONTINUOUS
 62
     7
100
AcDbCircle
 10
33.345001
 20
-24.200001
 30
0.0
 40
1.199999999999999
100
AcDbArc
 50
90.0
 51
180.0
  0
ARC
  5
24B
330
1F
100
AcDbEntity
  8
0
  6
CONTINUOUS
 62
     7
100
AcDbCircle
 10
23.805
 20
-34.5
 30
0.0
 40
1.199999999999999
100
AcDbArc
 50
270.0
 51
0.0
  0
ARC
  5
24C
330
1F
100
AcDbEntity
  8
0
  6
CONTINUOUS
 62
     7
100
AcDbCircle
 10
14.29499999999999
 20
-34.5
 30
0.0
 40
1.199999999999999
100
AcDbArc
 50
180.0
 51
270.0
  0
ARC
  5
24D
330
1F
100
AcDbEntity
  8
0
  6
CONTINUOUS
 62
     7
100
AcDbCircle
 10
23.805
 20
-24.200001
 30
0.0
 40
1.199999999999999
100
AcDbArc
 50
0.0
 51
90.0
  0
ARC
  5
24E
330
1F
100
AcDbEntity
  8
0
  6
CONTINUOUS
 62
     7
100
AcDbCircle
 10
14.29499999999999
 20
-24.200001
 30
0.0
 40
1.199999999999999
100
AcDbArc
 50
90.0
 51
180.0
  0
ARC
  5
24F
330
1F
100
AcDbEntity
  8
0
  6
CONTINUOUS
 62
     7
100
AcDbCircle
 10
4.755000099999998
 20
-34.5
 30
0.0
 40
1.199999999999999
100
AcDbArc
 50
270.0
 51
0.0
  0
ARC
  5
250
330
1F
100
AcDbEntity
  8
0
  6
CONTINUOUS
 62
     7
100
AcDbCircle
 10
-4.755000099999998
 20
-34.5
 30
0.0
 40
1.199999999999999
100
AcDbArc
 50
180.0
 51
270.0
  0
ARC
  5
251
330
1F
100
AcDbEntity
  8
0
  6
CONTINUOUS
 62
     7
100
AcDbCircle
 10
4.755000099999998
 20
-24.200001
 30
0.0
 40
1.199999999999999
100
AcDbArc
 50
0.0
 51
90.0
  0
ARC
  5
252
330
1F
100
AcDbEntity
  8
0
  6
CONTINUOUS
 62
     7
100
AcDbCircle
 10
-4.755000099999998
 20
-24.200001
 30
0.0
 40
1.199999999999999
100
AcDbArc
 50
90.0
 51
180.0
  0
ARC
  5
253
330
1F
100
AcDbEntity
  8
0
  6
CONTINUOUS
 62
     7
100
AcDbCircle
 10
-14.29499999999999
 20
-34.5
 30
0.0
 40
1.199999999999999
100
AcDbArc
 50
270.0
 51
0.0
  0
ARC
  5
254
330
1F
100
AcDbEntity
  8
0
  6
CONTINUOUS
 62
     7
100
AcDbCircle
 10
-23.805
 20
-34.5
 30
0.0
 40
1.199999999999999
100
AcDbArc
 50
180.0
 51
270.0
  0
ARC
  5
255
330
1F
100
AcDbEntity
  8
0
  6
CONTINUOUS
 62
     7
100
AcDbCircle
 10
-14.29499999999999
 20
-24.200001
 30
0.0
 40
1.199999999999999
100
AcDbArc
 50
0.0
 51
90.0
  0
ARC
  5
256
330
1F
100
AcDbEntity
  8
0
  6
CONTINUOUS
 62
     7
100
AcDbCircle
 10
-23.805
 20
-24.200001
 30
0.0
 40
1.199999999999999
100
AcDbArc
 50
90.0
 51
180.0
  0
ARC
  5
257
330
1F
100
AcDbEntity
  8
0
  6
CONTINUOUS
 62
     7
100
AcDbCircle
 10
42.85499999999998
 20
-8.399999599999999
 30
0.0
 40
1.199999999999999
100
AcDbArc
 50
270.0
 51
0.0
  0
ARC
  5
258
330
1F
100
AcDbEntity
  8
0
  6
CONTINUOUS
 62
     7
100
AcDbCircle
 10
33.345001
 20
-8.399999599999999
 30
0.0
 40
1.199999999999999
100
AcDbArc
 50
180.0
 51
270.0
  0
ARC
  5
259
330
1F
100
AcDbEntity
  8
0
  6
CONTINUOUS
 62
     7
100
AcDbCircle
 10
42.85499999999998
 20
1.899999999999999
 30
0.0
 40
1.199999999999999
100
AcDbArc
 50
0.0
 51
90.0
  0
ARC
  5
25A
330
1F
100
AcDbEntity
  8
0
  6
CONTINUOUS
 62
     7
100
AcDbCircle
 10
33.345001
 20
1.899999999999999
 30
0.0
 40
1.199999999999999
100
AcDbArc
 50
90.0
 51
180.00001
  0
ARC
  5
25B
330
1F
100
AcDbEntity
  8
0
  6
CONTINUOUS
 62
     7
100
AcDbCircle
 10
23.805
 20
-8.399999599999999
 30
0.0
 40
1.199999999999999
100
AcDbArc
 50
270.0
 51
0.0
  0
ARC
  5
25C
330
1F
100
AcDbEntity
  8
0
  6
CONTINUOUS
 62
     7
100
AcDbCircle
 10
14.29499999999999
 20
-8.399999599999999
 30
0.0
 40
1.199999999999999
100
AcDbArc
 50
180.0
 51
270.0
  0
ARC
  5
25D
330
1F
100
AcDbEntity
  8
0
  6
CONTINUOUS
 62
     7
100
AcDbCircle
 10
23.805
 20
1.899999999999999
 30
0.0
 40
1.199999999999999
100
AcDbArc
 50
0.0
 51
90.0
  0
ARC
  5
25E
330
1F
100
AcDbEntity
  8
0
  6
CONTINUOUS
 62
     7
100
AcDbCircle
 10
14.29499999999999
 20
1.899999999999999
 30
0.0
 40
1.199999999999999
100
AcDbArc
 50
90.0
 51
180.00001
  0
ARC
  5
25F
330
1F
100
AcDbEntity
  8
0
  6
CONTINUOUS
 62
     7
100
AcDbCircle
 10
4.755000099999998
 20
-8.399999599999999
 30
0.0
 40
1.199999999999999
100
AcDbArc
 50
270.0
 51
0.0
  0
ARC
  5
260
330
1F
100
AcDbEntity
  8
0
  6
CONTINUOUS
 62
     7
100
AcDbCircle
 10
-4.755000099999998
 20
-8.399999599999999
 30
0.0
 40
1.199999999999999
100
AcDbArc
 50
180.0
 51
270.0
  0
ARC
  5
261
330
1F
100
AcDbEntity
  8
0
  6
CONTINUOUS
 62
     7
100
AcDbCircle
 10
4.755000099999998
 20
1.899999999999999
 30
0.0
 40
1.199999999999999
100
AcDbArc
 50
0.0
 51
90.0
  0
ARC
  5
262
330
1F
100
AcDbEntity
  8
0
  6
CONTINUOUS
 62
     7
100
AcDbCircle
 10
-4.755000099999998
 20
1.899999999999999
 30
0.0
 40
1.199999999999999
100
AcDbArc
 50
90.0
 51
180.00001
  0
ARC
  5
263
330
1F
100
AcDbEntity
  8
0
  6
CONTINUOUS
 62
     7
100
AcDbCircle
 10
-14.29499999999999
 20
-8.399999599999999
 30
0.0
 40
1.199999999999999
100
AcDbArc
 50
270.0
 51
0.0
  0
ARC
  5
264
330
1F
100
AcDbEntity
  8
0
  6
CONTINUOUS
 62
     7
100
AcDbCircle
 10
-23.805
 20
-8.399999599999999
 30
0.0
 40
1.199999999999999
100
AcDbArc
 50
180.0
 51
270.0
  0
ARC
  5
265
330
1F
100
AcDbEntity
  8
0
  6
CONTINUOUS
 62
     7
100
AcDbCircle
 10
-14.29499999999999
 20
1.899999999999999
 30
0.0
 40
1.199999999999999
100
AcDbArc
 50
0.0
 51
90.0
  0
ARC
  5
266
330
1F
100
AcDbEntity
  8
0
  6
CONTINUOUS
 62
     7
100
AcDbCircle
 10
-23.805
 20
1.899999999999999
 30
0.0
 40
1.199999999999999
100
AcDbArc
 50
90.0
 51
180.00001
  0
ARC
  5
267
330
1F
100
AcDbEntity
  8
0
  6
CONTINUOUS
 62
     7
100
AcDbCircle
 10
19.04999899999999
 20
-45.68665699999999
 30
0.0
 40
2.610252399999998
100
AcDbArc
 50
36.064889
 51
143.93511
  0
ARC
  5
268
330
1F
100
AcDbEntity
  8
0
  6
CONTINUOUS
 62
     7
100
AcDbCircle
 10
0.0
 20
-45.68665699999999
 30
0.0
 40
2.610252399999998
100
AcDbArc
 50
36.06489899999999
 51
143.9351
  0
ARC
  5
269
330
1F
100
AcDbEntity
  8
0
  6
CONTINUOUS
 62
     7
100
AcDbCircle
 10
-19.04999899999999
 20
39.13665799999999
 30
0.0
 40
2.610252399999998
100
AcDbArc
 50
216.0648899999999
 51
323.93511
  0
ARC
  5
26A
102
{ACAD_REACTORS
330
571
102
}
330
1F
100
AcDbEntity
  8
0
  6
CONTINUOUS
 62
     7
100
AcDbCircle
 10
-38.09999799999999
 20
39.13665799999999
 30
0.0
 40
2.610252399999998
100
AcDbArc
 50
216.0648899999999
 51
323.93511
  0
ARC
  5
26B
330
1F
100
AcDbEntity
  8
0
  6
CONTINUOUS
 62
     7
100
AcDbCircle
 10
19.04999899999999
 20
39.13665799999999
 30
0.0
 40
2.610252399999998
100
AcDbArc
 50
216.0648899999999
 51
323.93511
  0
ARC
  5
26C
330
1F
100
AcDbEntity
  8
0
  6
CONTINUOUS
 62
     7
100
AcDbCircle
 10
0.0
 20
39.13665799999999
 30
0.0
 40
2.610252399999998
100
AcDbArc
 50
216.0648999999998
 51
323.9350999999998
  0
CIRCLE
  5
26D
330
1F
100
AcDbEntity
  8
0
  6
CONTINUOUS
 62
     7
100
AcDbCircle
 10
38.09999799999999
 20
-67.683823
 30
0.0
 40
4.1300001
  0
CIRCLE
  5
26E
330
1F
100
AcDbEntity
  8
0
  6
CONTINUOUS
 62
     7
100
AcDbCircle
 10
38.09999799999999
 20
-67.683823
 30
0.0
 40
2.979999999999999
  0
CIRCLE
  5
26F
330
1F
100
AcDbEntity
  8
0
  6
CONTINUOUS
 62
     7
100
AcDbCircle
 10
19.04999899999999
 20
-67.683823
 30
0.0
 40
2.979999999999999
  0
ARC
  5
270
330
1F
100
AcDbEntity
  8
0
  6
CONTINUOUS
 62
     7
100
AcDbCircle
 10
-16.092016
 20
-66.747078
 30
0.0
 40
0.9367387299999998
100
AcDbArc
 50
270.0
 51
325.14563
  0
ARC
  5
271
330
1F
100
AcDbEntity
  8
0
  6
CONTINUOUS
 62
     7
100
AcDbCircle
 10
-14.746949
 20
-67.683823
 30
0.0
 40
1.639292699999999
100
AcDbArc
 50
226.6583
 51
133.3417
  0
ARC
  5
272
330
1F
100
AcDbEntity
  8
0
  6
CONTINUOUS
 62
     7
100
AcDbCircle
 10
-22.030001
 20
-68.62055999999999
 30
0.0
 40
0.9367387299999998
100
AcDbArc
 50
90.0
 51
119.9999099999999
  0
ARC
  5
273
330
1F
100
AcDbEntity
  8
0
  6
CONTINUOUS
 62
     7
100
AcDbCircle
 10
-16.092016
 20
-68.62055999999999
 30
0.0
 40
0.9367387299999998
100
AcDbArc
 50
34.85436899999999
 51
90.0
  0
ARC
  5
274
330
1F
100
AcDbEntity
  8
0
  6
CONTINUOUS
 62
     7
100
AcDbCircle
 10
-22.030001
 20
-66.747078
 30
0.0
 40
0.9367387299999998
100
AcDbArc
 50
240.0000899999998
 51
270.0
  0
ARC
  5
275
330
1F
100
AcDbEntity
  8
0
  6
CONTINUOUS
 62
     7
100
AcDbCircle
 10
-16.515005
 20
-69.55729699999999
 30
0.0
 40
0.9367387299999998
100
AcDbArc
 50
46.658346
 51
72.642217
  0
CIRCLE
  5
276
330
1F
100
AcDbEntity
  8
0
  6
CONTINUOUS
 62
     7
100
AcDbCircle
 10
-19.04999899999999
 20
-67.683823
 30
0.0
 40
2.979999999999999
  0
ARC
  5
277
330
1F
100
AcDbEntity
  8
0
  6
CONTINUOUS
 62
     7
100
AcDbCircle
 10
-16.515005
 20
-65.810341
 30
0.0
 40
0.9367387299999998
100
AcDbArc
 50
287.3577799999998
 51
313.34165
  0
ARC
  5
278
330
1F
100
AcDbEntity
  8
0
  6
CONTINUOUS
 62
     7
100
AcDbCircle
 10
-21.86251799999999
 20
-65.762123
 30
0.0
 40
0.9367387299999998
100
AcDbArc
 50
240.0000899999998
 51
270.0
  0
ARC
  5
279
330
1F
100
AcDbEntity
  8
0
  6
CONTINUOUS
 62
     7
100
AcDbCircle
 10
-14.746949
 20
-67.683823
 30
0.0
 40
0.7023724900000003
100
AcDbArc
 50
214.8541699999999
 51
145.14583
  0
ARC
  5
27A
330
1F
100
AcDbEntity
  8
0
  6
CONTINUOUS
 62
     7
100
AcDbCircle
 10
-21.86251799999999
 20
-69.605515
 30
0.0
 40
0.9367387299999998
100
AcDbArc
 50
90.0
 51
119.9999099999999
  0
CIRCLE
  5
27B
330
1F
100
AcDbEntity
  8
0
  6
CONTINUOUS
 62
     7
100
AcDbCircle
 10
-0.0000000000000142
 20
-67.683823
 30
0.0
 40
2.979999999999999
  0
ARC
  5
27C
330
1F
100
AcDbEntity
  8
0
  6
CONTINUOUS
 62
     7
100
AcDbCircle
 10
-35.287483
 20
-69.605515
 30
0.0
 40
0.9367387299999998
100
AcDbArc
 50
60.00009399999998
 51
90.0
  0
ARC
  5
27D
330
1F
100
AcDbEntity
  8
0
  6
CONTINUOUS
 62
     7
100
AcDbCircle
 10
-35.119999
 20
-68.62055999999999
 30
0.0
 40
0.9367387299999998
100
AcDbArc
 50
60.00009399999998
 51
90.0
  0
ARC
  5
27E
330
1F
100
AcDbEntity
  8
0
  6
CONTINUOUS
 62
     7
100
AcDbCircle
 10
-42.40304899999999
 20
-67.683823
 30
0.0
 40
0.7023724900000003
100
AcDbArc
 50
34.85407700000001
 51
325.1459199999999
  0
ARC
  5
27F
330
1F
100
AcDbEntity
  8
0
  6
CONTINUOUS
 62
     7
100
AcDbCircle
 10
-41.057983
 20
-66.747078
 30
0.0
 40
0.9367387299999998
100
AcDbArc
 50
214.8543399999998
 51
270.0
  0
ARC
  5
280
330
1F
100
AcDbEntity
  8
0
  6
CONTINUOUS
 62
     7
100
AcDbCircle
 10
-42.40304899999999
 20
-67.683823
 30
0.0
 40
1.639292699999999
100
AcDbArc
 50
46.65830099999997
 51
313.3417
  0
ARC
  5
281
330
1F
100
AcDbEntity
  8
0
  6
CONTINUOUS
 62
     7
100
AcDbCircle
 10
-40.634995
 20
-65.810341
 30
0.0
 40
0.9367387299999998
100
AcDbArc
 50
226.65835
 51
252.64222
  0
ARC
  5
282
330
1F
100
AcDbEntity
  8
0
  6
CONTINUOUS
 62
     7
100
AcDbCircle
 10
-40.634995
 20
-69.55729699999999
 30
0.0
 40
0.9367387299999998
100
AcDbArc
 50
107.35778
 51
133.34165
  0
ARC
  5
283
330
1F
100
AcDbEntity
  8
0
  6
CONTINUOUS
 62
     7
100
AcDbCircle
 10
-41.057983
 20
-68.62055999999999
 30
0.0
 40
0.9367387299999998
100
AcDbArc
 50
90.0
 51
145.1456599999999
  0
ARC
  5
284
330
1F
100
AcDbEntity
  8
0
  6
CONTINUOUS
 62
     7
100
AcDbCircle
 10
-35.287483
 20
-65.762123
 30
0.0
 40
0.9367387299999998
100
AcDbArc
 50
270.0
 51
299.99991
  0
ARC
  5
285
330
1F
100
AcDbEntity
  8
0
  6
CONTINUOUS
 62
     7
100
AcDbCircle
 10
-35.119999
 20
-66.747078
 30
0.0
 40
0.9367387299999998
100
AcDbArc
 50
270.0
 51
299.99991
  0
CIRCLE
  5
286
330
1F
100
AcDbEntity
  8
0
  6
CONTINUOUS
 62
     7
100
AcDbCircle
 10
-38.09999799999999
 20
-67.683823
 30
0.0
 40
2.979999999999999
  0
ARC
  5
287
330
1F
100
AcDbEntity
  8
0
  6
CONTINUOUS
 62
     7
100
AcDbCircle
 10
-14.180437
 20
-43.32259399999998
 30
0.0
 40
0.9225932999999999
100
AcDbArc
 50
270.0
 51
90.0
  0
ARC
  5
288
330
1F
100
AcDbEntity
  8
0
  6
CONTINUOUS
 62
     7
100
AcDbCircle
 10
-42.969563
 20
-43.32259399999998
 30
0.0
 40
0.9225932999999999
100
AcDbArc
 50
90.0
 51
270.0
  0
ARC
  5
289
102
{ACAD_REACTORS
330
49E
102
}
330
1F
100
AcDbEntity
  8
0
  6
CONTINUOUS
 62
     7
100
AcDbCircle
 10
42.85499999999998
 20
17.700001
 30
0.0
 40
1.199999999999999
100
AcDbArc
 50
270.0
 51
0.0
  0
ARC
  5
28A
330
1F
100
AcDbEntity
  8
0
  6
CONTINUOUS
 62
     7
100
AcDbCircle
 10
33.345001
 20
17.700001
 30
0.0
 40
1.199999999999999
100
AcDbArc
 50
180.0
 51
270.0
  0
ARC
  5
28B
330
1F
100
AcDbEntity
  8
0
  6
CONTINUOUS
 62
     7
100
AcDbCircle
 10
42.85499999999998
 20
28.0
 30
0.0
 40
1.199999999999999
100
AcDbArc
 50
0.0
 51
90.0
  0
ARC
  5
28C
330
1F
100
AcDbEntity
  8
0
  6
CONTINUOUS
 62
     7
100
AcDbCircle
 10
33.345001
 20
28.0
 30
0.0
 40
1.199999999999999
100
AcDbArc
 50
90.0
 51
180.0
  0
ARC
  5
28D
330
1F
100
AcDbEntity
  8
0
  6
CONTINUOUS
 62
     7
100
AcDbCircle
 10
23.805
 20
17.700001
 30
0.0
 40
1.199999999999999
100
AcDbArc
 50
270.0
 51
0.0
  0
ARC
  5
28E
330
1F
100
AcDbEntity
  8
0
  6
CONTINUOUS
 62
     7
100
AcDbCircle
 10
14.29499999999999
 20
17.700001
 30
0.0
 40
1.199999999999999
100
AcDbArc
 50
180.0
 51
270.0
  0
ARC
  5
28F
330
1F
100
AcDbEntity
  8
0
  6
CONTINUOUS
 62
     7
100
AcDbCircle
 10
23.805
 20
28.0
 30
0.0
 40
1.199999999999999
100
AcDbArc
 50
0.0
 51
90.0
  0
ARC
  5
290
330
1F
100
AcDbEntity
  8
0
  6
CONTINUOUS
 62
     7
100
AcDbCircle
 10
14.29499999999999
 20
28.0
 30
0.0
 40
1.199999999999999
100
AcDbArc
 50
90.0
 51
180.0
  0
ARC
  5
291
330
1F
100
AcDbEntity
  8
0
  6
CONTINUOUS
 62
     7
100
AcDbCircle
 10
4.755000099999998
 20
17.700001
 30
0.0
 40
1.199999999999999
100
AcDbArc
 50
270.0
 51
0.0
  0
ARC
  5
292
330
1F
100
AcDbEntity
  8
0
  6
CONTINUOUS
 62
     7
100
AcDbCircle
 10
-4.755000099999998
 20
17.700001
 30
0.0
 40
1.199999999999999
100
AcDbArc
 50
180.0
 51
270.0
  0
ARC
  5
293
330
1F
100
AcDbEntity
  8
0
  6
CONTINUOUS
 62
     7
100
AcDbCircle
 10
4.755000099999998
 20
28.0
 30
0.0
 40
1.199999999999999
100
AcDbArc
 50
0.0
 51
90.0
  0
ARC
  5
294
330
1F
100
AcDbEntity
  8
0
  6
CONTINUOUS
 62
     7
100
AcDbCircle
 10
-4.755000099999998
 20
28.0
 30
0.0
 40
1.199999999999999
100
AcDbArc
 50
90.0
 51
180.0
  0
ARC
  5
295
330
1F
100
AcDbEntity
  8
0
  6
CONTINUOUS
 62
     7
100
AcDbCircle
 10
-14.29499999999999
 20
17.700001
 30
0.0
 40
1.199999999999999
100
AcDbArc
 50
270.0
 51
0.0
  0
ARC
  5
296
330
1F
100
AcDbEntity
  8
0
  6
CONTINUOUS
 62
     7
100
AcDbCircle
 10
-23.805
 20
17.700001
 30
0.0
 40
1.199999999999999
100
AcDbArc
 50
180.0
 51
270.0
  0
ARC
  5
297
330
1F
100
AcDbEntity
  8
0
  6
CONTINUOUS
 62
     7
100
AcDbCircle
 10
-14.29499999999999
 20
28.0
 30
0.0
 40
1.199999999999999
100
AcDbArc
 50
0.0
 51
90.0
  0
ARC
  5
298
330
1F
100
AcDbEntity
  8
0
  6
CONTINUOUS
 62
     7
100
AcDbCircle
 10
-23.805
 20
28.0
 30
0.0
 40
1.199999999999999
100
AcDbArc
 50
90.0
 51
180.0
  0
ARC
  5
299
330
1F
100
AcDbEntity
  8
0
  6
CONTINUOUS
 62
     7
100
AcDbCircle
 10
-28.575001
 20
-123.6900699999999
 30
0.0
 40
49.006248
100
AcDbArc
 50
80.372897
 51
99.62710000000001
  0
ARC
  5
29A
330
1F
100
AcDbEntity
  8
0
  6
CONTINUOUS
 62
     7
100
AcDbCircle
 10
0.025
 20
-67.683823
 30
0.0
 40
7.8000002
100
AcDbArc
 50
67.380138
 51
292.61987
  0
ARC
  5
29B
330
1F
100
AcDbEntity
  8
0
  6
CONTINUOUS
 62
     7
100
AcDbCircle
 10
-28.575001
 20
-11.67757099999999
 30
0.0
 40
49.006248
100
AcDbArc
 50
260.3729
 51
279.6270999999999
  0
ARC
  5
29C
102
{ACAD_REACTORS
330
5A1
102
}
330
1F
100
AcDbEntity
  8
0
  6
CONTINUOUS
 62
     7
100
AcDbCircle
 10
-38.075001
 20
-67.683823
 30
0.0
 40
7.8000002
100
AcDbArc
 50
80.372888
 51
279.6270799999999
  0
ARC
  5
29D
330
1F
100
AcDbEntity
  8
0
  6
CONTINUOUS
 62
     7
100
AcDbCircle
 10
-19.075001
 20
-67.683823
 30
0.0
 40
7.8000002
100
AcDbArc
 50
260.3729
 51
99.627098
  0
ARC
  5
29E
330
1F
100
AcDbEntity
  8
0
  6
CONTINUOUS
 62
     7
100
AcDbCircle
 10
9.524999599999999
 20
-90.48381799999999
 30
0.0
 40
16.89999999999999
100
AcDbArc
 50
67.380133
 51
112.6198699999996
  0
ARC
  5
29F
330
1F
100
AcDbEntity
  8
0
  6
CONTINUOUS
 62
     7
100
AcDbCircle
 10
0.025
 20
-67.683823
 30
0.0
 40
9.050000199999999
100
AcDbArc
 50
42.639689
 51
113.0809999999996
  0
ARC
  5
2A0
330
1F
100
AcDbEntity
  8
0
  6
CONTINUOUS
 62
     7
100
AcDbCircle
 10
-19.075001
 20
-67.683823
 30
0.0
 40
9.050000199999999
100
AcDbArc
 50
66.919003
 51
127.69831
  0
ARC
  5
2A1
330
1F
100
AcDbEntity
  8
0
  6
CONTINUOUS
 62
     7
100
AcDbCircle
 10
-19.075001
 20
-67.683823
 30
0.0
 40
9.050000199999999
100
AcDbArc
 50
232.3016899999999
 51
293.0809999999999
  0
ARC
  5
2A2
330
1F
100
AcDbEntity
  8
0
  6
CONTINUOUS
 62
     7
100
AcDbCircle
 10
19.02499999999998
 20
-67.683823
 30
0.0
 40
7.8000002
100
AcDbArc
 50
247.3801299999998
 51
112.61986
  0
ARC
  5
2A3
330
1F
100
AcDbEntity
  8
0
  6
CONTINUOUS
 62
     7
100
AcDbCircle
 10
9.524999599999999
 20
-44.88382
 30
0.0
 40
16.89999999999999
100
AcDbArc
 50
247.3801299999998
 51
292.61987
  0
ARC
  5
2A4
330
1F
100
AcDbEntity
  8
0
  6
CONTINUOUS
 62
     7
100
AcDbCircle
 10
0.025
 20
-67.683823
 30
0.0
 40
9.050000199999999
100
AcDbArc
 50
246.919
 51
317.36031
  0
ARC
  5
2A5
330
1F
100
AcDbEntity
  8
0
  6
CONTINUOUS
 62
     7
100
AcDbCircle
 10
28.575001
 20
-45.273563
 30
0.0
 40
15.31025599999999
100
AcDbArc
 50
246.91901
 51
293.0809899999998
  0
ARC
  5
2A6
330
1F
100
AcDbEntity
  8
0
  6
CONTINUOUS
 62
     7
100
AcDbCircle
 10
28.575001
 20
-90.09407799999999
 30
0.0
 40
15.31025599999999
100
AcDbArc
 50
66.91900699999999
 51
113.0809899999998
  0
ARC
  5
2A7
102
{ACAD_REACTORS
330
5E9
102
}
330
1F
100
AcDbEntity
  8
0
  6
CONTINUOUS
 62
     7
100
AcDbCircle
 10
38.125
 20
-67.683823
 30
0.0
 40
9.050000199999999
100
AcDbArc
 50
246.919
 51
113.0809999999996
  0
ARC
  5
2A8
330
1F
100
AcDbEntity
  8
0
  6
CONTINUOUS
 62
     7
100
AcDbCircle
 10
-9.524999599999999
 20
-90.09407799999999
 30
0.0
 40
15.31025599999999
100
AcDbArc
 50
66.919003
 51
113.0809899999998
  0
ARC
  5
2A9
330
1F
100
AcDbEntity
  8
0
  6
CONTINUOUS
 62
     7
100
AcDbCircle
 10
-9.524999599999999
 20
-45.273563
 30
0.0
 40
15.31025599999999
100
AcDbArc
 50
246.91901
 51
293.0809999999999
  0
ARC
  5
2AA
330
1F
100
AcDbEntity
  8
0
  6
CONTINUOUS
 62
     7
100
AcDbCircle
 10
19.02499999999998
 20
-67.683823
 30
0.0
 40
9.050000199999999
100
AcDbArc
 50
222.7463999999999
 51
293.0809999999999
  0
ARC
  5
2AB
330
1F
100
AcDbEntity
  8
0
  6
CONTINUOUS
 62
     7
100
AcDbCircle
 10
19.02499999999998
 20
-67.683823
 30
0.0
 40
9.050000199999999
100
AcDbArc
 50
66.919003
 51
137.25361
  0
LINE
  5
2AC
330
1F
100
AcDbEntity
  8
0
  6
CONTINUOUS
 62
     7
100
AcDbLine
 10
-11.275
 20
-16.35
 30
0.0
 11
-11.275
 21
-19.54999899999998
 31
0.0
  0
LINE
  5
2AD
330
1F
100
AcDbEntity
  8
0
  6
CONTINUOUS
 62
     7
100
AcDbLine
 10
-7.775000099999997
 20
-16.35
 30
0.0
 11
-7.775000099999997
 21
-19.54999899999998
 31
0.0
  0
LINE
  5
2AE
330
1F
100
AcDbEntity
  8
0
  6
CONTINUOUS
 62
     7
100
AcDbLine
 10
-41.080002
 20
-19.54999899999998
 30
0.0
 11
-41.080002
 21
-39.200002
 31
0.0
  0
LINE
  5
2AF
330
1F
100
AcDbEntity
  8
0
  6
CONTINUOUS
 62
     7
100
AcDbLine
 10
-35.119999
 20
-19.54999899999998
 30
0.0
 11
-35.119999
 21
-39.200002
 31
0.0
  0
LINE
  5
2B0
330
1F
100
AcDbEntity
  8
0
  6
CONTINUOUS
 62
     7
100
AcDbLine
 10
44.05499999999999
 20
-24.200001
 30
0.0
 11
44.05499999999999
 21
-34.5
 31
0.0
  0
LINE
  5
2B1
330
1F
100
AcDbEntity
  8
0
  6
CONTINUOUS
 62
     7
100
AcDbLine
 10
32.145
 20
-24.200001
 30
0.0
 11
32.145
 21
-34.5
 31
0.0
  0
LINE
  5
2B2
330
1F
100
AcDbEntity
  8
0
  6
CONTINUOUS
 62
     7
100
AcDbLine
 10
25.00499899999999
 20
-24.200001
 30
0.0
 11
25.00499899999999
 21
-34.5
 31
0.0
  0
LINE
  5
2B3
330
1F
100
AcDbEntity
  8
0
  6
CONTINUOUS
 62
     7
100
AcDbLine
 10
13.095
 20
-24.200001
 30
0.0
 11
13.095
 21
-34.5
 31
0.0
  0
LINE
  5
2B4
330
1F
100
AcDbEntity
  8
0
  6
CONTINUOUS
 62
     7
100
AcDbLine
 10
5.954999899999999
 20
-24.200001
 30
0.0
 11
5.954999899999999
 21
-34.5
 31
0.0
  0
LINE
  5
2B5
330
1F
100
AcDbEntity
  8
0
  6
CONTINUOUS
 62
     7
100
AcDbLine
 10
-5.954999899999999
 20
-24.200001
 30
0.0
 11
-5.954999899999999
 21
-34.5
 31
0.0
  0
LINE
  5
2B6
330
1F
100
AcDbEntity
  8
0
  6
CONTINUOUS
 62
     7
100
AcDbLine
 10
-13.095
 20
-24.200001
 30
0.0
 11
-13.095
 21
-34.5
 31
0.0
  0
LINE
  5
2B7
330
1F
100
AcDbEntity
  8
0
  6
CONTINUOUS
 62
     7
100
AcDbLine
 10
-25.00499899999999
 20
-24.200001
 30
0.0
 11
-25.00499899999999
 21
-34.5
 31
0.0
  0
LINE
  5
2B8
330
1F
100
AcDbEntity
  8
0
  6
CONTINUOUS
 62
     7
100
AcDbLine
 10
-7.775000099999997
 20
-19.54999899999998
 30
0.0
 11
26.825001
 21
-19.54999899999998
 31
0.0
  0
LINE
  5
2B9
330
1F
100
AcDbEntity
  8
0
  6
CONTINUOUS
 62
     7
100
AcDbLine
 10
-45.875
 20
-19.54999899999998
 30
0.0
 11
-11.275
 21
-19.54999899999998
 31
0.0
  0
LINE
  5
2BA
330
1F
100
AcDbEntity
  8
0
  6
CONTINUOUS
 62
     7
100
AcDbLine
 10
-45.875
 20
-16.35
 30
0.0
 11
-45.875
 21
-19.54999899999998
 31
0.0
  0
LINE
  5
2BB
330
1F
100
AcDbEntity
  8
0
  6
CONTINUOUS
 62
     7
100
AcDbLine
 10
9.9750004
 20
-19.799999
 30
0.0
 11
47.17499899999999
 21
-19.799999
 31
0.0
  0
LINE
  5
2BC
330
1F
100
AcDbEntity
  8
0
  6
CONTINUOUS
 62
     7
100
AcDbLine
 10
9.9750004
 20
-23.0
 30
0.0
 11
47.17499899999999
 21
-23.0
 31
0.0
  0
LINE
  5
2BD
330
1F
100
AcDbEntity
  8
0
  6
CONTINUOUS
 62
     7
100
AcDbLine
 10
9.9750004
 20
-19.799999
 30
0.0
 11
9.9750004
 21
-23.0
 31
0.0
  0
LINE
  5
2BE
330
1F
100
AcDbEntity
  8
0
  6
CONTINUOUS
 62
     7
100
AcDbLine
 10
47.17499899999999
 20
-19.799999
 30
0.0
 11
47.17499899999999
 21
-23.0
 31
0.0
  0
LINE
  5
2BF
330
1F
100
AcDbEntity
  8
0
  6
CONTINUOUS
 62
     7
100
AcDbLine
 10
-28.125
 20
-19.799999
 30
0.0
 11
9.0749998
 21
-19.799999
 31
0.0
  0
LINE
  5
2C0
330
1F
100
AcDbEntity
  8
0
  6
CONTINUOUS
 62
     7
100
AcDbLine
 10
-28.125
 20
-19.799999
 30
0.0
 11
-28.125
 21
-23.0
 31
0.0
  0
LINE
  5
2C1
330
1F
100
AcDbEntity
  8
0
  6
CONTINUOUS
 62
     7
100
AcDbLine
 10
-28.125
 20
-23.0
 30
0.0
 11
9.0749998
 21
-23.0
 31
0.0
  0
LINE
  5
2C2
330
1F
100
AcDbEntity
  8
0
  6
CONTINUOUS
 62
     7
100
AcDbLine
 10
26.825001
 20
-16.35
 30
0.0
 11
26.825001
 21
-19.54999899999998
 31
0.0
  0
LINE
  5
2C3
330
1F
100
AcDbEntity
  8
0
  6
CONTINUOUS
 62
     7
100
AcDbLine
 10
9.0749998
 20
-19.799999
 30
0.0
 11
9.0749998
 21
-23.0
 31
0.0
  0
LINE
  5
2C4
330
1F
100
AcDbEntity
  8
0
  6
CONTINUOUS
 62
     7
100
AcDbLine
 10
26.825001
 20
-42.39999799999996
 30
0.0
 11
26.825001
 21
-39.200002
 31
0.0
  0
LINE
  5
2C5
330
1F
100
AcDbEntity
  8
0
  6
CONTINUOUS
 62
     7
100
AcDbLine
 10
-7.775000099999997
 20
-39.200002
 30
0.0
 11
26.825001
 21
-39.200002
 31
0.0
  0
LINE
  5
2C6
330
1F
100
AcDbEntity
  8
0
  6
CONTINUOUS
 62
     7
100
AcDbLine
 10
-7.775000099999997
 20
-42.39999799999996
 30
0.0
 11
-7.775000099999997
 21
-39.200002
 31
0.0
  0
LINE
  5
2C7
330
1F
100
AcDbEntity
  8
0
  6
CONTINUOUS
 62
     7
100
AcDbLine
 10
9.9750004
 20
-35.700001
 30
0.0
 11
47.17499899999999
 21
-35.700001
 31
0.0
  0
LINE
  5
2C8
330
1F
100
AcDbEntity
  8
0
  6
CONTINUOUS
 62
     7
100
AcDbLine
 10
-7.775000099999997
 20
-42.39999799999996
 30
0.0
 11
26.825001
 21
-42.39999799999996
 31
0.0
  0
LINE
  5
2C9
330
1F
100
AcDbEntity
  8
0
  6
CONTINUOUS
 62
     7
100
AcDbLine
 10
9.9750004
 20
-38.900002
 30
0.0
 11
9.9750004
 21
-35.700001
 31
0.0
  0
LINE
  5
2CA
330
1F
100
AcDbEntity
  8
0
  6
CONTINUOUS
 62
     7
100
AcDbLine
 10
9.9750004
 20
-38.900002
 30
0.0
 11
47.17499899999999
 21
-38.900002
 31
0.0
  0
LINE
  5
2CB
330
1F
100
AcDbEntity
  8
0
  6
CONTINUOUS
 62
     7
100
AcDbLine
 10
47.17499899999999
 20
-38.900002
 30
0.0
 11
47.17499899999999
 21
-35.700001
 31
0.0
  0
LINE
  5
2CC
330
1F
100
AcDbEntity
  8
0
  6
CONTINUOUS
 62
     7
100
AcDbLine
 10
-11.275
 20
-42.39999799999996
 30
0.0
 11
-11.275
 21
-39.200002
 31
0.0
  0
LINE
  5
2CD
330
1F
100
AcDbEntity
  8
0
  6
CONTINUOUS
 62
     7
100
AcDbLine
 10
-45.875
 20
-39.200002
 30
0.0
 11
-11.275
 21
-39.200002
 31
0.0
  0
LINE
  5
2CE
330
1F
100
AcDbEntity
  8
0
  6
CONTINUOUS
 62
     7
100
AcDbLine
 10
-45.875
 20
-42.39999799999996
 30
0.0
 11
-45.875
 21
-39.200002
 31
0.0
  0
LINE
  5
2CF
330
1F
100
AcDbEntity
  8
0
  6
CONTINUOUS
 62
     7
100
AcDbLine
 10
-28.125
 20
-35.700001
 30
0.0
 11
9.0749998
 21
-35.700001
 31
0.0
  0
LINE
  5
2D0
330
1F
100
AcDbEntity
  8
0
  6
CONTINUOUS
 62
     7
100
AcDbLine
 10
-45.875
 20
-42.39999799999996
 30
0.0
 11
-11.275
 21
-42.39999799999996
 31
0.0
  0
LINE
  5
2D1
330
1F
100
AcDbEntity
  8
0
  6
CONTINUOUS
 62
     7
100
AcDbLine
 10
-28.125
 20
-38.900002
 30
0.0
 11
-28.125
 21
-35.700001
 31
0.0
  0
LINE
  5
2D2
330
1F
100
AcDbEntity
  8
0
  6
CONTINUOUS
 62
     7
100
AcDbLine
 10
-28.125
 20
-38.900002
 30
0.0
 11
9.0749998
 21
-38.900002
 31
0.0
  0
LINE
  5
2D3
330
1F
100
AcDbEntity
  8
0
  6
CONTINUOUS
 62
     7
100
AcDbLine
 10
9.0749998
 20
-38.900002
 30
0.0
 11
9.0749998
 21
-35.700001
 31
0.0
  0
LINE
  5
2D4
102
{ACAD_REACTORS
330
559
102
}
330
1F
100
AcDbEntity
  8
0
  6
CENTER
 62
     6
100
AcDbLine
 10
-48.875
 20
-29.35
 30
0.0
 11
50.174999
 21
-29.35
 31
0.0
  0
LINE
  5
2D5
330
1F
100
AcDbEntity
  8
0
  6
CONTINUOUS
 62
     7
100
AcDbLine
 10
-11.275
 20
9.75
 30
0.0
 11
-11.275
 21
6.5500002
 31
0.0
  0
LINE
  5
2D6
330
1F
100
AcDbEntity
  8
0
  6
CONTINUOUS
 62
     7
100
AcDbLine
 10
-7.775000099999997
 20
9.75
 30
0.0
 11
-7.775000099999997
 21
6.5500002
 31
0.0
  0
LINE
  5
2D7
330
1F
100
AcDbEntity
  8
0
  6
CONTINUOUS
 62
     7
100
AcDbLine
 10
-41.080002
 20
6.5500002
 30
0.0
 11
-41.080002
 21
-13.049999
 31
0.0
  0
LINE
  5
2D8
330
1F
100
AcDbEntity
  8
0
  6
CONTINUOUS
 62
     7
100
AcDbLine
 10
-35.119999
 20
6.5500002
 30
0.0
 11
-35.119999
 21
-13.049999
 31
0.0
  0
LINE
  5
2D9
330
1F
100
AcDbEntity
  8
0
  6
CONTINUOUS
 62
     7
100
AcDbLine
 10
44.05499999999999
 20
1.899999999999999
 30
0.0
 11
44.05499999999999
 21
-8.399999599999999
 31
0.0
  0
LINE
  5
2DA
330
1F
100
AcDbEntity
  8
0
  6
CONTINUOUS
 62
     7
100
AcDbLine
 10
32.145
 20
1.899999999999999
 30
0.0
 11
32.145
 21
-8.399999599999999
 31
0.0
  0
LINE
  5
2DB
330
1F
100
AcDbEntity
  8
0
  6
CONTINUOUS
 62
     7
100
AcDbLine
 10
25.00499899999999
 20
1.899999999999999
 30
0.0
 11
25.00499899999999
 21
-8.399999599999999
 31
0.0
  0
LINE
  5
2DC
330
1F
100
AcDbEntity
  8
0
  6
CONTINUOUS
 62
     7
100
AcDbLine
 10
13.095
 20
1.899999999999999
 30
0.0
 11
13.095
 21
-8.399999599999999
 31
0.0
  0
LINE
  5
2DD
330
1F
100
AcDbEntity
  8
0
  6
CONTINUOUS
 62
     7
100
AcDbLine
 10
5.954999899999999
 20
1.899999999999999
 30
0.0
 11
5.954999899999999
 21
-8.399999599999999
 31
0.0
  0
LINE
  5
2DE
330
1F
100
AcDbEntity
  8
0
  6
CONTINUOUS
 62
     7
100
AcDbLine
 10
-5.954999899999999
 20
1.899999999999999
 30
0.0
 11
-5.954999899999999
 21
-8.399999599999999
 31
0.0
  0
LINE
  5
2DF
330
1F
100
AcDbEntity
  8
0
  6
CONTINUOUS
 62
     7
100
AcDbLine
 10
-13.095
 20
1.899999999999999
 30
0.0
 11
-13.095
 21
-8.399999599999999
 31
0.0
  0
LINE
  5
2E0
330
1F
100
AcDbEntity
  8
0
  6
CONTINUOUS
 62
     7
100
AcDbLine
 10
-25.00499899999999
 20
1.899999999999999
 30
0.0
 11
-25.00499899999999
 21
-8.399999599999999
 31
0.0
  0
LINE
  5
2E1
330
1F
100
AcDbEntity
  8
0
  6
CONTINUOUS
 62
     7
100
AcDbLine
 10
-7.775000099999997
 20
6.5500002
 30
0.0
 11
26.825001
 21
6.5500002
 31
0.0
  0
LINE
  5
2E2
330
1F
100
AcDbEntity
  8
0
  6
CONTINUOUS
 62
     7
100
AcDbLine
 10
-45.875
 20
6.5500002
 30
0.0
 11
-11.275
 21
6.5500002
 31
0.0
  0
LINE
  5
2E3
330
1F
100
AcDbEntity
  8
0
  6
CONTINUOUS
 62
     7
100
AcDbLine
 10
-45.875
 20
9.75
 30
0.0
 11
-45.875
 21
6.5500002
 31
0.0
  0
LINE
  5
2E4
330
1F
100
AcDbEntity
  8
0
  6
CONTINUOUS
 62
     7
100
AcDbLine
 10
9.9750004
 20
6.3000002
 30
0.0
 11
47.17499899999999
 21
6.3000002
 31
0.0
  0
LINE
  5
2E5
330
1F
100
AcDbEntity
  8
0
  6
CONTINUOUS
 62
     7
100
AcDbLine
 10
9.9750004
 20
3.100000899999998
 30
0.0
 11
47.17499899999999
 21
3.100000899999998
 31
0.0
  0
LINE
  5
2E6
330
1F
100
AcDbEntity
  8
0
  6
CONTINUOUS
 62
     7
100
AcDbLine
 10
9.9750004
 20
6.3000002
 30
0.0
 11
9.9750004
 21
3.100000899999998
 31
0.0
  0
LINE
  5
2E7
330
1F
100
AcDbEntity
  8
0
  6
CONTINUOUS
 62
     7
100
AcDbLine
 10
47.17499899999999
 20
6.3000002
 30
0.0
 11
47.17499899999999
 21
3.100000899999998
 31
0.0
  0
LINE
  5
2E8
330
1F
100
AcDbEntity
  8
0
  6
CONTINUOUS
 62
     7
100
AcDbLine
 10
-28.125
 20
6.3000002
 30
0.0
 11
9.0749998
 21
6.3000002
 31
0.0
  0
LINE
  5
2E9
330
1F
100
AcDbEntity
  8
0
  6
CONTINUOUS
 62
     7
100
AcDbLine
 10
-28.125
 20
6.3000002
 30
0.0
 11
-28.125
 21
3.100000899999998
 31
0.0
  0
LINE
  5
2EA
330
1F
100
AcDbEntity
  8
0
  6
CONTINUOUS
 62
     7
100
AcDbLine
 10
-28.125
 20
3.100000899999998
 30
0.0
 11
9.0749998
 21
3.100000899999998
 31
0.0
  0
LINE
  5
2EB
330
1F
100
AcDbEntity
  8
0
  6
CONTINUOUS
 62
     7
100
AcDbLine
 10
26.825001
 20
9.75
 30
0.0
 11
26.825001
 21
6.5500002
 31
0.0
  0
LINE
  5
2EC
330
1F
100
AcDbEntity
  8
0
  6
CONTINUOUS
 62
     7
100
AcDbLine
 10
9.0749998
 20
6.3000002
 30
0.0
 11
9.0749998
 21
3.100000899999998
 31
0.0
  0
LINE
  5
2ED
330
1F
100
AcDbEntity
  8
0
  6
CONTINUOUS
 62
     7
100
AcDbLine
 10
26.825001
 20
-16.25
 30
0.0
 11
26.825001
 21
-13.049999
 31
0.0
  0
LINE
  5
2EE
330
1F
100
AcDbEntity
  8
0
  6
CONTINUOUS
 62
     7
100
AcDbLine
 10
-7.775000099999997
 20
-13.049999
 30
0.0
 11
26.825001
 21
-13.049999
 31
0.0
  0
LINE
  5
2EF
330
1F
100
AcDbEntity
  8
0
  6
CONTINUOUS
 62
     7
100
AcDbLine
 10
-7.775000099999997
 20
-16.25
 30
0.0
 11
-7.775000099999997
 21
-13.049999
 31
0.0
  0
LINE
  5
2F0
330
1F
100
AcDbEntity
  8
0
  6
CONTINUOUS
 62
     7
100
AcDbLine
 10
9.9750004
 20
-9.6000004
 30
0.0
 11
47.17499899999999
 21
-9.6000004
 31
0.0
  0
LINE
  5
2F1
330
1F
100
AcDbEntity
  8
0
  6
CONTINUOUS
 62
     7
100
AcDbLine
 10
-7.775000099999997
 20
-16.25
 30
0.0
 11
26.825001
 21
-16.25
 31
0.0
  0
LINE
  5
2F2
330
1F
100
AcDbEntity
  8
0
  6
CONTINUOUS
 62
     7
100
AcDbLine
 10
9.9750004
 20
-12.79999899999999
 30
0.0
 11
9.9750004
 21
-9.6000004
 31
0.0
  0
LINE
  5
2F3
330
1F
100
AcDbEntity
  8
0
  6
CONTINUOUS
 62
     7
100
AcDbLine
 10
9.9750004
 20
-12.79999899999999
 30
0.0
 11
47.17499899999999
 21
-12.79999899999999
 31
0.0
  0
LINE
  5
2F4
330
1F
100
AcDbEntity
  8
0
  6
CONTINUOUS
 62
     7
100
AcDbLine
 10
47.17499899999999
 20
-12.79999899999999
 30
0.0
 11
47.17499899999999
 21
-9.6000004
 31
0.0
  0
LINE
  5
2F5
330
1F
100
AcDbEntity
  8
0
  6
CONTINUOUS
 62
     7
100
AcDbLine
 10
-11.275
 20
-16.25
 30
0.0
 11
-11.275
 21
-13.049999
 31
0.0
  0
LINE
  5
2F6
330
1F
100
AcDbEntity
  8
0
  6
CONTINUOUS
 62
     7
100
AcDbLine
 10
-45.875
 20
-13.049999
 30
0.0
 11
-11.275
 21
-13.049999
 31
0.0
  0
LINE
  5
2F7
330
1F
100
AcDbEntity
  8
0
  6
CONTINUOUS
 62
     7
100
AcDbLine
 10
-45.875
 20
-16.25
 30
0.0
 11
-45.875
 21
-13.049999
 31
0.0
  0
LINE
  5
2F8
330
1F
100
AcDbEntity
  8
0
  6
CONTINUOUS
 62
     7
100
AcDbLine
 10
-28.125
 20
-9.6000004
 30
0.0
 11
9.0749998
 21
-9.6000004
 31
0.0
  0
LINE
  5
2F9
330
1F
100
AcDbEntity
  8
0
  6
CONTINUOUS
 62
     7
100
AcDbLine
 10
-45.875
 20
-16.25
 30
0.0
 11
-11.275
 21
-16.25
 31
0.0
  0
LINE
  5
2FA
330
1F
100
AcDbEntity
  8
0
  6
CONTINUOUS
 62
     7
100
AcDbLine
 10
-28.125
 20
-12.79999899999999
 30
0.0
 11
-28.125
 21
-9.6000004
 31
0.0
  0
LINE
  5
2FB
330
1F
100
AcDbEntity
  8
0
  6
CONTINUOUS
 62
     7
100
AcDbLine
 10
-28.125
 20
-12.79999899999999
 30
0.0
 11
9.0749998
 21
-12.79999899999999
 31
0.0
  0
LINE
  5
2FC
330
1F
100
AcDbEntity
  8
0
  6
CONTINUOUS
 62
     7
100
AcDbLine
 10
9.0749998
 20
-12.79999899999999
 30
0.0
 11
9.0749998
 21
-9.6000004
 31
0.0
  0
LINE
  5
2FD
102
{ACAD_REACTORS
330
541
330
559
330
571
330
589
102
}
330
1F
100
AcDbEntity
  8
0
  6
CENTER
 62
     6
100
AcDbLine
 10
-48.875
 20
-3.249999499999998
 30
0.0
 11
50.174999
 21
-3.249999499999998
 31
0.0
  0
LINE
  5
2FE
330
1F
100
AcDbEntity
  8
0
  6
CONTINUOUS
 62
     7
100
AcDbLine
 10
16.07
 20
-43.279999
 30
0.0
 11
16.07
 21
-42.39999799999996
 31
0.0
  0
LINE
  5
2FF
330
1F
100
AcDbEntity
  8
0
  6
CONTINUOUS
 62
     7
100
AcDbLine
 10
16.940001
 20
-44.150002
 30
0.0
 11
16.06999799999999
 21
-43.279999
 31
0.0
  0
LINE
  5
300
330
1F
100
AcDbEntity
  8
0
  6
CONTINUOUS
 62
     7
100
AcDbLine
 10
-2.979999999999999
 20
-43.279999
 30
0.0
 11
-2.979999999999999
 21
-42.39999799999996
 31
0.0
  0
LINE
  5
301
330
1F
100
AcDbEntity
  8
0
  6
CONTINUOUS
 62
     7
100
AcDbLine
 10
16.939999
 20
-44.150002
 30
0.0
 11
21.16
 21
-44.150002
 31
0.0
  0
LINE
  5
302
330
1F
100
AcDbEntity
  8
0
  6
CONTINUOUS
 62
     7
100
AcDbLine
 10
2.979999999999999
 20
-43.279999
 30
0.0
 11
2.979999999999999
 21
-42.39999799999996
 31
0.0
  0
LINE
  5
303
330
1F
100
AcDbEntity
  8
0
  6
CONTINUOUS
 62
     7
100
AcDbLine
 10
-2.1100001
 20
-44.150002
 30
0.0
 11
2.1100001
 21
-44.150002
 31
0.0
  0
LINE
  5
304
330
1F
100
AcDbEntity
  8
0
  6
CONTINUOUS
 62
     7
100
AcDbLine
 10
21.159998
 20
-44.14999799999999
 30
0.0
 11
22.029999
 21
-43.279999
 31
0.0
  0
LINE
  5
305
330
1F
100
AcDbEntity
  8
0
  6
CONTINUOUS
 62
     7
100
AcDbLine
 10
2.1099999
 20
-44.150002
 30
0.0
 11
2.979999799999998
 21
-43.279999
 31
0.0
  0
LINE
  5
306
330
1F
100
AcDbEntity
  8
0
  6
CONTINUOUS
 62
     7
100
AcDbLine
 10
-2.1099999
 20
-44.150002
 30
0.0
 11
-2.979999799999998
 21
-43.279999
 31
0.0
  0
LINE
  5
307
330
1F
100
AcDbEntity
  8
0
  6
CONTINUOUS
 62
     7
100
AcDbLine
 10
22.029999
 20
-43.279999
 30
0.0
 11
22.029999
 21
-42.39999799999996
 31
0.0
  0
LINE
  5
308
330
1F
100
AcDbEntity
  8
0
  6
CONTINUOUS
 62
     7
100
AcDbLine
 10
-22.029999
 20
36.73
 30
0.0
 11
-22.029999
 21
35.89999799999999
 31
0.0
  0
LINE
  5
309
330
1F
100
AcDbEntity
  8
0
  6
CONTINUOUS
 62
     7
100
AcDbLine
 10
-21.16
 20
37.600002
 30
0.0
 11
-22.030001
 21
36.73
 31
0.0
  0
LINE
  5
30A
330
1F
100
AcDbEntity
  8
0
  6
CONTINUOUS
 62
     7
100
AcDbLine
 10
-41.07999799999999
 20
36.73
 30
0.0
 11
-41.07999799999997
 21
35.89999799999999
 31
0.0
  0
LINE
  5
30B
330
1F
100
AcDbEntity
  8
0
  6
CONTINUOUS
 62
     7
100
AcDbLine
 10
-21.16
 20
37.599998
 30
0.0
 11
-16.939999
 21
37.599998
 31
0.0
  0
LINE
  5
30C
330
1F
100
AcDbEntity
  8
0
  6
CONTINUOUS
 62
     7
100
AcDbLine
 10
-35.119999
 20
36.73
 30
0.0
 11
-35.119999
 21
35.89999799999999
 31
0.0
  0
LINE
  5
30D
102
{ACAD_REACTORS
330
571
102
}
330
1F
100
AcDbEntity
  8
0
  6
CONTINUOUS
 62
     7
100
AcDbLine
 10
-40.20999899999996
 20
37.599998
 30
0.0
 11
-35.989998
 21
37.599998
 31
0.0
  0
LINE
  5
30E
330
1F
100
AcDbEntity
  8
0
  6
CONTINUOUS
 62
     7
100
AcDbLine
 10
-16.940001
 20
37.600002
 30
0.0
 11
-16.07
 21
36.73
 31
0.0
  0
LINE
  5
30F
330
1F
100
AcDbEntity
  8
0
  6
CONTINUOUS
 62
     7
100
AcDbLine
 10
-35.989998
 20
37.600002
 30
0.0
 11
-35.119999
 21
36.73
 31
0.0
  0
LINE
  5
310
330
1F
100
AcDbEntity
  8
0
  6
CONTINUOUS
 62
     7
100
AcDbLine
 10
-40.20999899999996
 20
37.599998
 30
0.0
 11
-41.07999799999999
 21
36.73
 31
0.0
  0
LINE
  5
311
330
1F
100
AcDbEntity
  8
0
  6
CONTINUOUS
 62
     7
100
AcDbLine
 10
-16.07
 20
36.73
 30
0.0
 11
-16.07
 21
35.89999799999999
 31
0.0
  0
LINE
  5
312
330
1F
100
AcDbEntity
  8
0
  6
CONTINUOUS
 62
     7
100
AcDbLine
 10
16.07
 20
36.73
 30
0.0
 11
16.06999999999999
 21
35.89999799999999
 31
0.0
  0
LINE
  5
313
330
1F
100
AcDbEntity
  8
0
  6
CONTINUOUS
 62
     7
100
AcDbLine
 10
22.029999
 20
36.73
 30
0.0
 11
22.02999899999999
 21
35.89999799999999
 31
0.0
  0
LINE
  5
314
330
1F
100
AcDbEntity
  8
0
  6
CONTINUOUS
 62
     7
100
AcDbLine
 10
16.939999
 20
37.599998
 30
0.0
 11
21.16
 21
37.599998
 31
0.0
  0
LINE
  5
315
330
1F
100
AcDbEntity
  8
0
  6
CONTINUOUS
 62
     7
100
AcDbLine
 10
21.16
 20
37.600002
 30
0.0
 11
22.030001
 21
36.73
 31
0.0
  0
LINE
  5
316
330
1F
100
AcDbEntity
  8
0
  6
CONTINUOUS
 62
     7
100
AcDbLine
 10
16.940001
 20
37.600002
 30
0.0
 11
16.07
 21
36.73
 31
0.0
  0
LINE
  5
317
330
1F
100
AcDbEntity
  8
0
  6
CONTINUOUS
 62
     7
100
AcDbLine
 10
2.110000799999999
 20
37.600002
 30
0.0
 11
2.980000999999997
 21
36.73
 31
0.0
  0
LINE
  5
318
330
1F
100
AcDbEntity
  8
0
  6
CONTINUOUS
 62
     7
100
AcDbLine
 10
-2.110000799999999
 20
37.600002
 30
0.0
 11
-2.980000999999997
 21
36.73
 31
0.0
  0
LINE
  5
319
330
1F
100
AcDbEntity
  8
0
  6
CONTINUOUS
 62
     7
100
AcDbLine
 10
-22.030001
 20
-46.200001
 30
0.0
 11
-16.07
 21
-46.200001
 31
0.0
  0
LINE
  5
31A
102
{ACAD_REACTORS
330
589
102
}
330
1F
100
AcDbEntity
  8
0
  6
CONTINUOUS
 62
     7
100
AcDbLine
 10
-41.080002
 20
-46.200001
 30
0.0
 11
-35.119999
 21
-46.200001
 31
0.0
  0
LINE
  5
31B
330
1F
100
AcDbEntity
  8
0
  6
CONTINUOUS
 62
     7
100
AcDbLine
 10
21.15717699999998
 20
-65.576645
 30
0.0
 11
21.15717699999998
 21
-69.79099999999999
 31
0.0
  0
LINE
  5
31C
330
1F
100
AcDbEntity
  8
0
  6
CONTINUOUS
 62
     7
100
AcDbLine
 10
21.15717699999998
 20
-69.79099999999999
 30
0.0
 11
16.94282199999999
 21
-69.79099999999999
 31
0.0
  0
LINE
  5
31D
330
1F
100
AcDbEntity
  8
0
  6
CONTINUOUS
 62
     7
100
AcDbLine
 10
16.94282199999999
 20
-65.576645
 30
0.0
 11
16.94282199999999
 21
-69.79099999999999
 31
0.0
  0
LINE
  5
31E
330
1F
100
AcDbEntity
  8
0
  6
CONTINUOUS
 62
     7
100
AcDbLine
 10
21.15717699999998
 20
-65.576645
 30
0.0
 11
16.94282199999999
 21
-65.576645
 31
0.0
  0
LINE
  5
31F
330
1F
100
AcDbEntity
  8
0
  6
CONTINUOUS
 62
     7
100
AcDbLine
 10
2.107178199999999
 20
-65.576645
 30
0.0
 11
2.107178199999999
 21
-69.79099999999999
 31
0.0
  0
LINE
  5
320
330
1F
100
AcDbEntity
  8
0
  6
CONTINUOUS
 62
     7
100
AcDbLine
 10
2.107178199999999
 20
-69.79099999999999
 30
0.0
 11
-2.107178199999999
 21
-69.79099999999999
 31
0.0
  0
LINE
  5
321
330
1F
100
AcDbEntity
  8
0
  6
CONTINUOUS
 62
     7
100
AcDbLine
 10
-2.107178199999999
 20
-65.576645
 30
0.0
 11
-2.107178199999999
 21
-69.79099999999999
 31
0.0
  0
LINE
  5
322
330
1F
100
AcDbEntity
  8
0
  6
CONTINUOUS
 62
     7
100
AcDbLine
 10
2.107178199999999
 20
-65.576645
 30
0.0
 11
-2.107178199999999
 21
-65.576645
 31
0.0
  0
LINE
  5
323
330
1F
100
AcDbEntity
  8
0
  6
CONTINUOUS
 62
     7
100
AcDbLine
 10
-25.72779099999999
 20
-69.673828
 30
0.0
 11
-25.259422
 21
-70.48506899999998
 31
0.0
  0
LINE
  5
324
330
1F
100
AcDbEntity
  8
0
  6
CONTINUOUS
 62
     7
100
AcDbLine
 10
-25.727795
 20
-65.69380999999999
 30
0.0
 11
-25.259426
 21
-64.882576
 31
0.0
  0
LINE
  5
325
330
1F
100
AcDbEntity
  8
0
  6
CONTINUOUS
 62
     7
100
AcDbLine
 10
-31.422205
 20
-69.673828
 30
0.0
 11
-31.890577
 21
-70.48506899999998
 31
0.0
  0
LINE
  5
326
330
1F
100
AcDbEntity
  8
0
  6
CONTINUOUS
 62
     7
100
AcDbLine
 10
-31.422205
 20
-65.69380999999999
 30
0.0
 11
-31.890575
 21
-64.88256800000001
 31
0.0
  0
LINE
  5
327
330
1F
100
AcDbEntity
  8
0
  6
CONTINUOUS
 62
     7
100
AcDbLine
 10
-22.330885
 20
-68.794273
 30
0.0
 11
-25.259422
 21
-70.48506899999998
 31
0.0
  0
LINE
  5
328
330
1F
100
AcDbEntity
  8
0
  6
CONTINUOUS
 62
     7
100
AcDbLine
 10
-22.330891
 20
-66.573364
 30
0.0
 11
-25.259426
 21
-64.882576
 31
0.0
  0
LINE
  5
329
330
1F
100
AcDbEntity
  8
0
  6
CONTINUOUS
 62
     7
100
AcDbLine
 10
-22.498371
 20
-67.558319
 30
0.0
 11
-25.727795
 21
-65.69380999999999
 31
0.0
  0
LINE
  5
32A
330
1F
100
AcDbEntity
  8
0
  6
CONTINUOUS
 62
     7
100
AcDbLine
 10
-22.498365
 20
-67.80931899999997
 30
0.0
 11
-25.72779099999999
 21
-69.673828
 31
0.0
  0
LINE
  5
32B
330
1F
100
AcDbEntity
  8
0
  6
CONTINUOUS
 62
     7
100
AcDbLine
 10
-34.65162999999999
 20
-67.80931899999997
 30
0.0
 11
-31.422205
 21
-69.673828
 31
0.0
  0
LINE
  5
32C
330
1F
100
AcDbEntity
  8
0
  6
CONTINUOUS
 62
     7
100
AcDbLine
 10
-34.65162999999999
 20
-67.558319
 30
0.0
 11
-31.422205
 21
-65.69380999999999
 31
0.0
  0
LINE
  5
32D
330
1F
100
AcDbEntity
  8
0
  6
CONTINUOUS
 62
     7
100
AcDbLine
 10
-34.81911499999999
 20
-68.79428100000001
 30
0.0
 11
-31.890577
 21
-70.48506899999998
 31
0.0
  0
LINE
  5
32E
330
1F
100
AcDbEntity
  8
0
  6
CONTINUOUS
 62
     7
100
AcDbLine
 10
-34.819111
 20
-66.573364
 30
0.0
 11
-31.890575
 21
-64.88256800000001
 31
0.0
  0
LINE
  5
32F
330
1F
100
AcDbEntity
  8
0
  6
CONTINUOUS
 62
     7
100
AcDbLine
 10
-16.07
 20
-42.39999799999996
 30
0.0
 11
-16.07
 21
-46.200001
 31
0.0
  0
LINE
  5
330
330
1F
100
AcDbEntity
  8
0
  6
CONTINUOUS
 62
     7
100
AcDbLine
 10
-22.030001
 20
-42.39999799999996
 30
0.0
 11
-22.030001
 21
-46.200001
 31
0.0
  0
LINE
  5
331
330
1F
100
AcDbEntity
  8
0
  6
CONTINUOUS
 62
     7
100
AcDbLine
 10
-25.072803
 20
-44.24518699999999
 30
0.0
 11
-25.995398
 21
-43.32259399999998
 31
0.0
  0
LINE
  5
332
330
1F
100
AcDbEntity
  8
0
  6
CONTINUOUS
 62
     7
100
AcDbLine
 10
-22.030001
 20
-44.24518699999999
 30
0.0
 11
-25.072805
 21
-44.24518699999999
 31
0.0
  0
LINE
  5
333
330
1F
100
AcDbEntity
  8
0
  6
CONTINUOUS
 62
     7
100
AcDbLine
 10
-14.180437
 20
-44.24518699999999
 30
0.0
 11
-16.07
 21
-44.24518699999999
 31
0.0
  0
LINE
  5
334
330
1F
100
AcDbEntity
  8
0
  6
CONTINUOUS
 62
     7
100
AcDbLine
 10
-25.995398
 20
-43.32259399999998
 30
0.0
 11
-25.072803
 21
-42.39999799999996
 31
0.0
  0
LINE
  5
335
330
1F
100
AcDbEntity
  8
0
  6
CONTINUOUS
 62
     7
100
AcDbLine
 10
-35.119999
 20
-42.39999799999996
 30
0.0
 11
-35.119999
 21
-46.200001
 31
0.0
  0
LINE
  5
336
330
1F
100
AcDbEntity
  8
0
  6
CONTINUOUS
 62
     7
100
AcDbLine
 10
-41.080002
 20
-42.39999799999996
 30
0.0
 11
-41.080002
 21
-46.200001
 31
0.0
  0
LINE
  5
337
330
1F
100
AcDbEntity
  8
0
  6
CONTINUOUS
 62
     7
100
AcDbLine
 10
-31.154602
 20
-43.32259399999998
 30
0.0
 11
-32.07719799999999
 21
-42.39999799999996
 31
0.0
  0
LINE
  5
338
330
1F
100
AcDbEntity
  8
0
  6
CONTINUOUS
 62
     7
100
AcDbLine
 10
-42.969563
 20
-44.24518699999999
 30
0.0
 11
-41.080002
 21
-44.24518699999999
 31
0.0
  0
LINE
  5
339
330
1F
100
AcDbEntity
  8
0
  6
CONTINUOUS
 62
     7
100
AcDbLine
 10
-35.119999
 20
-44.24518699999999
 30
0.0
 11
-32.077194
 21
-44.24518699999999
 31
0.0
  0
LINE
  5
33A
330
1F
100
AcDbEntity
  8
0
  6
CONTINUOUS
 62
     7
100
AcDbLine
 10
-32.07719799999999
 20
-44.24518699999999
 30
0.0
 11
-31.154602
 21
-43.32259399999998
 31
0.0
  0
LINE
  5
33B
330
1F
100
AcDbEntity
  8
0
  6
CONTINUOUS
 62
     7
100
AcDbLine
 10
-11.275
 20
35.89999799999999
 30
0.0
 11
-11.275
 21
32.700002
 31
0.0
  0
LINE
  5
33C
330
1F
100
AcDbEntity
  8
0
  6
CONTINUOUS
 62
     7
100
AcDbLine
 10
-2.979999999999999
 20
36.73
 30
0.0
 11
-2.979999999999999
 21
35.89999799999999
 31
0.0
  0
LINE
  5
33D
330
1F
100
AcDbEntity
  8
0
  6
CONTINUOUS
 62
     7
100
AcDbLine
 10
-7.775000099999997
 20
35.89999799999999
 30
0.0
 11
-7.775000099999997
 21
32.700002
 31
0.0
  0
LINE
  5
33E
102
{ACAD_REACTORS
330
502
102
}
330
1F
100
AcDbEntity
  8
0
  6
CONTINUOUS
 62
     7
100
AcDbLine
 10
-41.080002
 20
32.700002
 30
0.0
 11
-41.080002
 21
13.05
 31
0.0
  0
LINE
  5
33F
102
{ACAD_REACTORS
330
502
102
}
330
1F
100
AcDbEntity
  8
0
  6
CONTINUOUS
 62
     7
100
AcDbLine
 10
-35.119999
 20
32.700002
 30
0.0
 11
-35.119999
 21
13.05
 31
0.0
  0
LINE
  5
340
330
1F
100
AcDbEntity
  8
0
  6
CONTINUOUS
 62
     7
100
AcDbLine
 10
2.979999999999999
 20
36.73
 30
0.0
 11
2.979999999999999
 21
35.89999799999999
 31
0.0
  0
LINE
  5
341
330
1F
100
AcDbEntity
  8
0
  6
CONTINUOUS
 62
     7
100
AcDbLine
 10
44.05499999999999
 20
28.0
 30
0.0
 11
44.05499999999999
 21
17.700001
 31
0.0
  0
LINE
  5
342
102
{ACAD_REACTORS
330
49E
102
}
330
1F
100
AcDbEntity
  8
0
  6
CONTINUOUS
 62
     7
100
AcDbLine
 10
32.145
 20
28.0
 30
0.0
 11
32.145
 21
17.700001
 31
0.0
  0
LINE
  5
343
330
1F
100
AcDbEntity
  8
0
  6
CONTINUOUS
 62
     7
100
AcDbLine
 10
25.00499899999999
 20
28.0
 30
0.0
 11
25.00499899999999
 21
17.700001
 31
0.0
  0
LINE
  5
344
330
1F
100
AcDbEntity
  8
0
  6
CONTINUOUS
 62
     7
100
AcDbLine
 10
13.095
 20
28.0
 30
0.0
 11
13.095
 21
17.700001
 31
0.0
  0
LINE
  5
345
330
1F
100
AcDbEntity
  8
0
  6
CONTINUOUS
 62
     7
100
AcDbLine
 10
5.954999899999999
 20
28.0
 30
0.0
 11
5.954999899999999
 21
17.700001
 31
0.0
  0
LINE
  5
346
330
1F
100
AcDbEntity
  8
0
  6
CONTINUOUS
 62
     7
100
AcDbLine
 10
-5.954999899999999
 20
28.0
 30
0.0
 11
-5.954999899999999
 21
17.700001
 31
0.0
  0
LINE
  5
347
330
1F
100
AcDbEntity
  8
0
  6
CONTINUOUS
 62
     7
100
AcDbLine
 10
-13.095
 20
28.0
 30
0.0
 11
-13.095
 21
17.700001
 31
0.0
  0
LINE
  5
348
330
1F
100
AcDbEntity
  8
0
  6
CONTINUOUS
 62
     7
100
AcDbLine
 10
-25.00499899999999
 20
28.0
 30
0.0
 11
-25.00499899999999
 21
17.700001
 31
0.0
  0
LINE
  5
349
330
1F
100
AcDbEntity
  8
0
  6
CONTINUOUS
 62
     7
100
AcDbLine
 10
-7.775000099999997
 20
32.700002
 30
0.0
 11
26.825001
 21
32.700002
 31
0.0
  0
LINE
  5
34A
330
1F
100
AcDbEntity
  8
0
  6
CONTINUOUS
 62
     7
100
AcDbLine
 10
-7.775000099999997
 20
35.89999799999999
 30
0.0
 11
26.825001
 21
35.89999799999999
 31
0.0
  0
LINE
  5
34B
330
1F
100
AcDbEntity
  8
0
  6
CONTINUOUS
 62
     7
100
AcDbLine
 10
-2.1100001
 20
37.599998
 30
0.0
 11
2.1100001
 21
37.599998
 31
0.0
  0
LINE
  5
34C
102
{ACAD_REACTORS
330
529
102
}
330
1F
100
AcDbEntity
  8
0
  6
CONTINUOUS
 62
     7
100
AcDbLine
 10
-45.875
 20
32.700002
 30
0.0
 11
-11.275
 21
32.700002
 31
0.0
  0
LINE
  5
34D
330
1F
100
AcDbEntity
  8
0
  6
CONTINUOUS
 62
     7
100
AcDbLine
 10
-45.875
 20
35.89999799999999
 30
0.0
 11
-45.875
 21
32.700002
 31
0.0
  0
LINE
  5
34E
102
{ACAD_REACTORS
330
529
102
}
330
1F
100
AcDbEntity
  8
0
  6
CONTINUOUS
 62
     7
100
AcDbLine
 10
-45.875
 20
35.89999799999999
 30
0.0
 11
-11.275
 21
35.89999799999999
 31
0.0
  0
LINE
  5
34F
102
{ACAD_REACTORS
330
4E6
102
}
330
1F
100
AcDbEntity
  8
0
  6
CONTINUOUS
 62
     7
100
AcDbLine
 10
9.9750004
 20
32.400002
 30
0.0
 11
47.17499899999999
 21
32.400002
 31
0.0
  0
LINE
  5
350
102
{ACAD_REACTORS
330
4C1
330
4E6
102
}
330
1F
100
AcDbEntity
  8
0
  6
CONTINUOUS
 62
     7
100
AcDbLine
 10
9.9750004
 20
29.200001
 30
0.0
 11
47.17499899999999
 21
29.200001
 31
0.0
  0
LINE
  5
351
330
1F
100
AcDbEntity
  8
0
  6
CONTINUOUS
 62
     7
100
AcDbLine
 10
9.9750004
 20
32.400002
 30
0.0
 11
9.9750004
 21
29.200001
 31
0.0
  0
LINE
  5
352
330
1F
100
AcDbEntity
  8
0
  6
CONTINUOUS
 62
     7
100
AcDbLine
 10
47.17499899999999
 20
32.400002
 30
0.0
 11
47.17499899999999
 21
29.200001
 31
0.0
  0
LINE
  5
353
330
1F
100
AcDbEntity
  8
0
  6
CONTINUOUS
 62
     7
100
AcDbLine
 10
-28.125
 20
32.400002
 30
0.0
 11
9.0749998
 21
32.400002
 31
0.0
  0
LINE
  5
354
330
1F
100
AcDbEntity
  8
0
  6
CONTINUOUS
 62
     7
100
AcDbLine
 10
-28.125
 20
32.400002
 30
0.0
 11
-28.125
 21
29.200001
 31
0.0
  0
LINE
  5
355
330
1F
100
AcDbEntity
  8
0
  6
CONTINUOUS
 62
     7
100
AcDbLine
 10
-28.125
 20
29.200001
 30
0.0
 11
9.0749998
 21
29.200001
 31
0.0
  0
LINE
  5
356
330
1F
100
AcDbEntity
  8
0
  6
CONTINUOUS
 62
     7
100
AcDbLine
 10
26.825001
 20
35.89999799999999
 30
0.0
 11
26.825001
 21
32.700002
 31
0.0
  0
LINE
  5
357
330
1F
100
AcDbEntity
  8
0
  6
CONTINUOUS
 62
     7
100
AcDbLine
 10
9.0749998
 20
32.400002
 30
0.0
 11
9.0749998
 21
29.200001
 31
0.0
  0
LINE
  5
358
330
1F
100
AcDbEntity
  8
0
  6
CONTINUOUS
 62
     7
100
AcDbLine
 10
26.825001
 20
9.849999399999999
 30
0.0
 11
26.825001
 21
13.05
 31
0.0
  0
LINE
  5
359
330
1F
100
AcDbEntity
  8
0
  6
CONTINUOUS
 62
     7
100
AcDbLine
 10
-7.775000099999997
 20
13.05
 30
0.0
 11
26.825001
 21
13.05
 31
0.0
  0
LINE
  5
35A
330
1F
100
AcDbEntity
  8
0
  6
CONTINUOUS
 62
     7
100
AcDbLine
 10
-7.775000099999997
 20
9.849999399999999
 30
0.0
 11
-7.775000099999997
 21
13.05
 31
0.0
  0
LINE
  5
35B
102
{ACAD_REACTORS
330
4C1
102
}
330
1F
100
AcDbEntity
  8
0
  6
CONTINUOUS
 62
     7
100
AcDbLine
 10
9.9750004
 20
16.5
 30
0.0
 11
47.17499899999999
 21
16.5
 31
0.0
  0
LINE
  5
35C
330
1F
100
AcDbEntity
  8
0
  6
CONTINUOUS
 62
     7
100
AcDbLine
 10
-7.775000099999997
 20
9.849999399999999
 30
0.0
 11
26.825001
 21
9.849999399999999
 31
0.0
  0
LINE
  5
35D
330
1F
100
AcDbEntity
  8
0
  6
CONTINUOUS
 62
     7
100
AcDbLine
 10
9.9750004
 20
13.3
 30
0.0
 11
9.9750004
 21
16.5
 31
0.0
  0
LINE
  5
35E
330
1F
100
AcDbEntity
  8
0
  6
CONTINUOUS
 62
     7
100
AcDbLine
 10
9.9750004
 20
13.3
 30
0.0
 11
47.17499899999999
 21
13.3
 31
0.0
  0
LINE
  5
35F
330
1F
100
AcDbEntity
  8
0
  6
CONTINUOUS
 62
     7
100
AcDbLine
 10
47.17499899999999
 20
13.3
 30
0.0
 11
47.17499899999999
 21
16.5
 31
0.0
  0
LINE
  5
360
330
1F
100
AcDbEntity
  8
0
  6
CONTINUOUS
 62
     7
100
AcDbLine
 10
-11.275
 20
9.849999399999999
 30
0.0
 11
-11.275
 21
13.05
 31
0.0
  0
LINE
  5
361
330
1F
100
AcDbEntity
  8
0
  6
CONTINUOUS
 62
     7
100
AcDbLine
 10
-45.875
 20
13.05
 30
0.0
 11
-11.275
 21
13.05
 31
0.0
  0
LINE
  5
362
330
1F
100
AcDbEntity
  8
0
  6
CONTINUOUS
 62
     7
100
AcDbLine
 10
-45.875
 20
9.849999399999999
 30
0.0
 11
-45.875
 21
13.05
 31
0.0
  0
LINE
  5
363
330
1F
100
AcDbEntity
  8
0
  6
CONTINUOUS
 62
     7
100
AcDbLine
 10
-28.125
 20
16.5
 30
0.0
 11
9.0749998
 21
16.5
 31
0.0
  0
LINE
  5
364
330
1F
100
AcDbEntity
  8
0
  6
CONTINUOUS
 62
     7
100
AcDbLine
 10
-45.875
 20
9.849999399999999
 30
0.0
 11
-11.275
 21
9.849999399999999
 31
0.0
  0
LINE
  5
365
330
1F
100
AcDbEntity
  8
0
  6
CONTINUOUS
 62
     7
100
AcDbLine
 10
-28.125
 20
13.3
 30
0.0
 11
-28.125
 21
16.5
 31
0.0
  0
LINE
  5
366
330
1F
100
AcDbEntity
  8
0
  6
CONTINUOUS
 62
     7
100
AcDbLine
 10
-28.125
 20
13.3
 30
0.0
 11
9.0749998
 21
13.3
 31
0.0
  0
LINE
  5
367
330
1F
100
AcDbEntity
  8
0
  6
CONTINUOUS
 62
     7
100
AcDbLine
 10
9.0749998
 20
13.3
 30
0.0
 11
9.0749998
 21
16.5
 31
0.0
  0
LINE
  5
368
330
1F
100
AcDbEntity
  8
0
  6
CENTER
 62
     6
100
AcDbLine
 10
-38.09999799999999
 20
38.700001
 30
0.0
 11
-38.09999799999999
 21
-47.300632
 31
0.0
  0
LINE
  5
369
330
1F
100
AcDbEntity
  8
0
  6
CENTER
 62
     6
100
AcDbLine
 10
-19.04999899999999
 20
38.700001
 30
0.0
 11
-19.04999899999999
 21
-47.982006
 31
0.0
  0
LINE
  5
36A
330
1F
100
AcDbEntity
  8
0
  6
CENTER
 62
     6
100
AcDbLine
 10
0.0
 20
38.700001
 30
0.0
 11
0.0
 21
-46.15000199999999
 31
0.0
  0
LINE
  5
36B
330
1F
100
AcDbEntity
  8
0
  6
CENTER
 62
     6
100
AcDbLine
 10
38.09999799999999
 20
34.599998
 30
0.0
 11
38.09999799999999
 21
-42.34999799999999
 31
0.0
  0
LINE
  5
36C
330
1F
100
AcDbEntity
  8
0
  6
CENTER
 62
     6
100
AcDbLine
 10
19.04999899999999
 20
38.700001
 30
0.0
 11
19.04999899999999
 21
-46.15000199999999
 31
0.0
  0
LINE
  5
36D
102
{ACAD_REACTORS
330
541
102
}
330
1F
100
AcDbEntity
  8
0
  6
CENTER
 62
     6
100
AcDbLine
 10
-48.875
 20
22.85
 30
0.0
 11
50.174999
 21
22.85
 31
0.0
  0
LINE
  5
36E
102
{ACAD_REACTORS
330
5E9
102
}
330
1F
100
AcDbEntity
  8
0
  6
CENTER
 62
     6
100
AcDbLine
 10
38.09999799999999
 20
-55.63381999999999
 30
0.0
 11
38.09999799999999
 21
-79.733818
 31
0.0
  0
LINE
  5
36F
102
{ACAD_REACTORS
330
5B9
330
5D1
102
}
330
1F
100
AcDbEntity
  8
0
  6
CENTER
 62
     6
100
AcDbLine
 10
-19.04999899999999
 20
-55.63381999999999
 30
0.0
 11
-19.04999899999999
 21
-79.733818
 31
0.0
  0
LINE
  5
370
102
{ACAD_REACTORS
330
5D1
102
}
330
1F
100
AcDbEntity
  8
0
  6
CENTER
 62
     6
100
AcDbLine
 10
-0.0000000000000142
 20
-55.63381999999999
 30
0.0
 11
-0.0000000000000142
 21
-79.733818
 31
0.0
  0
LINE
  5
371
330
1F
100
AcDbEntity
  8
0
  6
CENTER
 62
     6
100
AcDbLine
 10
19.04999899999999
 20
-55.63381999999999
 30
0.0
 11
19.04999899999999
 21
-79.733818
 31
0.0
  0
LINE
  5
372
102
{ACAD_REACTORS
330
5A1
330
5B9
102
}
330
1F
100
AcDbEntity
  8
0
  6
CENTER
 62
     6
100
AcDbLine
 10
-38.09999799999999
 20
-55.63381999999999
 30
0.0
 11
-38.09999799999999
 21
-79.733818
 31
0.0
  0
LINE
  5
373
330
1F
100
AcDbEntity
  8
0
  6
CENTER
 62
     6
100
AcDbLine
 10
-48.875
 20
-67.683823
 30
0.0
 11
50.174999
 21
-67.683823
 31
0.0
  0
DIMENSION
  5
487
102
{ACAD_XDICTIONARY
360
494
102
}
102
{ACAD_REACTORS
330
49E
102
}
330
1F
100
AcDbEntity
  8
0
100
AcDbDimension
  2
*D28
 10
44.05499999999999
 20
18.92405198404105
 30
0.0
 11
57.05499999999999
 21
18.92405198404105
 31
0.0
 70
   160
  1
φ<>
  3
ISO-25
100
AcDbAlignedDimension
 13
32.145
 23
17.700001
 33
0.0
 14
44.05499999999999
 24
17.700001
 34
0.0
100
AcDbRotatedDimension
  0
DIMENSION
  5
4AA
102
{ACAD_XDICTIONARY
360
4B7
102
}
102
{ACAD_REACTORS
330
4C1
102
}
330
1F
100
AcDbEntity
  8
0
100
AcDbDimension
  2
*D29
 10
74.96016673820552
 20
29.20000099999999
 30
0.0
 11
72.46016673820552
 21
22.8500005
 31
0.0
 70
    32
  3
ISO-25
100
AcDbAlignedDimension
 13
47.17499899999999
 23
16.5
 33
0.0
 14
47.17499899999999
 24
29.200001
 34
0.0
 50
90.0
100
AcDbRotatedDimension
1001
ACAD
1000
DSTYLE
1002
{
1070
    78
1070
     0
1002
}
  0
DIMENSION
  5
4CB
102
{ACAD_XDICTIONARY
360
4DA
102
}
102
{ACAD_REACTORS
330
4E6
102
}
330
1F
100
AcDbEntity
  8
0
100
AcDbDimension
  2
*D30
 10
74.96016673820554
 20
32.40000199999999
 30
0.0
 11
72.46016673820553
 21
42.40000199999999
 31
0.0
 70
    32
  3
ISO-25
100
AcDbAlignedDimension
 13
47.17499899999999
 23
29.200001
 33
0.0
 14
47.17499899999999
 24
32.400002
 34
0.0
 50
90.0
100
AcDbRotatedDimension
  0
DIMENSION
  5
4E7
102
{ACAD_XDICTIONARY
360
4F6
102
}
102
{ACAD_REACTORS
330
502
102
}
330
1F
100
AcDbEntity
  8
0
100
AcDbDimension
  2
*D31
 10
-41.080002
 20
17.27329221297827
 30
0.0
 11
-57.64278919387027
 21
17.27329221297827
 31
0.0
 70
   160
  1
φ<>
  3
ISO-25
100
AcDbAlignedDimension
 13
-35.119999
 23
13.05
 33
0.0
 14
-41.080002
 24
13.05
 34
0.0
100
AcDbRotatedDimension
  0
DIMENSION
  5
50E
102
{ACAD_XDICTIONARY
360
51D
102
}
102
{ACAD_REACTORS
330
529
102
}
330
1F
100
AcDbEntity
  8
0
100
AcDbDimension
  2
*D32
 10
-59.30483917023185
 20
35.89999799999999
 30
0.0
 11
-61.80483917023186
 21
45.89999799999999
 31
0.0
 70
    32
  3
ISO-25
100
AcDbAlignedDimension
 13
-45.875
 23
32.700002
 33
0.0
 14
-45.875
 24
35.89999799999999
 34
0.0
 50
90.0
100
AcDbRotatedDimension
  0
DIMENSION
  5
52A
102
{ACAD_XDICTIONARY
360
537
102
}
102
{ACAD_REACTORS
330
541
102
}
330
1F
100
AcDbEntity
  8
0
100
AcDbDimension
  2
*D33
 10
-67.66870946743201
 20
22.85
 30
0.0
 11
-70.16870946743201
 21
9.800000249999994
 31
0.0
 70
    32
  3
ISO-25
100
AcDbAlignedDimension
 13
-48.875
 23
-3.249999499999998
 33
0.0
 14
-48.875
 24
22.85
 34
0.0
 50
90.0
100
AcDbRotatedDimension
  0
DIMENSION
  5
542
102
{ACAD_XDICTIONARY
360
54F
102
}
102
{ACAD_REACTORS
330
559
102
}
330
1F
100
AcDbEntity
  8
0
100
AcDbDimension
  2
*D34
 10
-67.66870946743201
 20
-29.35
 30
0.0
 11
-70.16870946743201
 21
-16.29999975
 31
0.0
 70
    32
  3
ISO-25
100
AcDbAlignedDimension
 13
-48.875
 23
-3.249999499999998
 33
0.0
 14
-48.875
 24
-29.35
 34
0.0
 50
90.0
100
AcDbRotatedDimension
  0
DIMENSION
  5
55A
102
{ACAD_XDICTIONARY
360
567
102
}
102
{ACAD_REACTORS
330
571
102
}
330
1F
100
AcDbEntity
  8
0
100
AcDbDimension
  2
*D35
 10
-76.94429956593316
 20
37.59999800000001
 30
0.0
 11
-79.44429956593316
 21
17.17499924999998
 31
0.0
 70
    32
  3
ISO-25
100
AcDbAlignedDimension
 13
-48.875
 23
-3.249999499999998
 33
0.0
 14
-40.20999649196762
 24
37.599998
 34
0.0
 50
90.0
100
AcDbRotatedDimension
  0
DIMENSION
  5
572
102
{ACAD_XDICTIONARY
360
57F
102
}
102
{ACAD_REACTORS
330
589
102
}
330
1F
100
AcDbEntity
  8
0
100
AcDbDimension
  2
*D36
 10
-76.94429956593319
 20
-46.20000099999999
 30
0.0
 11
-79.44429956593316
 21
-24.72500025
 31
0.0
 70
    32
  3
ISO-25
100
AcDbAlignedDimension
 13
-48.875
 23
-3.249999499999998
 33
0.0
 14
-41.080002
 24
-46.200001
 34
0.0
 50
90.0
100
AcDbRotatedDimension
  0
DIMENSION
  5
58A
102
{ACAD_XDICTIONARY
360
597
102
}
102
{ACAD_REACTORS
330
5A1
102
}
330
1F
100
AcDbEntity
  8
0
100
AcDbDimension
  2
*D37
 10
-65.04394593296706
 20
-75.48378314541043
 30
0.0
 11
-67.54394593296705
 21
-67.68382300000002
 31
0.0
 70
    32
  3
ISO-25
100
AcDbAlignedDimension
 13
-38.09999799999999
 23
-59.88386285458958
 33
0.0
 14
-38.09999799999999
 24
-75.48378314541043
 34
0.0
 50
90.0
100
AcDbRotatedDimension
  0
DIMENSION
  5
5A2
102
{ACAD_XDICTIONARY
360
5AF
102
}
102
{ACAD_REACTORS
330
5B9
102
}
330
1F
100
AcDbEntity
  8
0
100
AcDbDimension
  2
*D38
 10
-19.04999899999999
 20
-88.32778840735477
 30
0.0
 11
-28.57499849999999
 21
-85.82778840735477
 31
0.0
 70
    32
  3
ISO-25
100
AcDbAlignedDimension
 13
-38.09999799999999
 23
-79.733818
 33
0.0
 14
-19.04999899999999
 24
-79.733818
 34
0.0
100
AcDbRotatedDimension
  0
DIMENSION
  5
5BA
102
{ACAD_XDICTIONARY
360
5C7
102
}
102
{ACAD_REACTORS
330
5D1
102
}
330
1F
100
AcDbEntity
  8
0
100
AcDbDimension
  2
*D39
 10
-0.0000000000000147
 20
-88.32778840735477
 30
0.0
 11
-9.524999499999999
 21
-85.82778840735477
 31
0.0
 70
    32
  3
ISO-25
100
AcDbAlignedDimension
 13
-19.04999899999999
 23
-79.733818
 33
0.0
 14
-0.0000000000000142
 24
-79.733818
 34
0.0
100
AcDbRotatedDimension
  0
DIMENSION
  5
5D2
102
{ACAD_XDICTIONARY
360
5DF
102
}
102
{ACAD_REACTORS
330
5E9
102
}
330
1F
100
AcDbEntity
  8
0
100
AcDbDimension
  2
*D40
 10
60.0108529242674
 20
-58.63385733597697
 30
0.0
 11
57.5108529242674
 21
-67.68382299999998
 31
0.0
 70
    32
  3
ISO-25
100
AcDbAlignedDimension
 13
38.09999799999999
 23
-76.73378866402305
 33
0.0
 14
38.09999799999999
 24
-58.63385733597696
 34
0.0
 50
90.0
100
AcDbRotatedDimension
  0
TEXT
  5
6C8
330
1F
100
AcDbEntity
  8
0
100
AcDbText
 10
55.34445958357821
 20
-93.27822922101804
 30
0.0
 40
1.399999999999999
  1
DATE2020.5.1
100
AcDbText
  0
ENDSEC
  0
SECTION
  2
OBJECTS
  0
DICTIONARY
  5
C
330
0
100
AcDbDictionary
  3
ACAD_GROUP
350
D
  3
ACAD_LAYOUT
350
1A
  3
ACAD_MLINESTYLE
350
17
  3
ACAD_PLOTSETTINGS
350
19
  3
ACAD_PLOTSTYLENAME
350
E
  3
ACDBHEADERROUNDTRIPXREC
350
6F9
  3
ACDBVARIABLEDICTIONARY
350
2C
  0
DICTIONARY
  5
6ED
330
1F
100
AcDbDictionary
280
     1
  3
ACAD_LAYOUTSELFREF
360
71B
  0
DICTIONARY
  5
6EB
330
1B
100
AcDbDictionary
280
     1
  3
ACAD_LAYOUTSELFREF
360
71A
  0
DICTIONARY
  5
494
330
487
100
AcDbDictionary
280
     1
  3
ACAD_DIMASSOC
360
49E
  0
DICTIONARY
  5
4B7
330
4AA
100
AcDbDictionary
280
     1
  3
ACAD_DIMASSOC
360
4C1
  0
DICTIONARY
  5
4DA
330
4CB
100
AcDbDictionary
280
     1
  3
ACAD_DIMASSOC
360
4E6
  0
DICTIONARY
  5
4F6
330
4E7
100
AcDbDictionary
280
     1
  3
ACAD_DIMASSOC
360
502
  0
DICTIONARY
  5
51D
330
50E
100
AcDbDictionary
280
     1
  3
ACAD_DIMASSOC
360
529
  0
DICTIONARY
  5
537
330
52A
100
AcDbDictionary
280
     1
  3
ACAD_DIMASSOC
360
541
  0
DICTIONARY
  5
54F
330
542
100
AcDbDictionary
280
     1
  3
ACAD_DIMASSOC
360
559
  0
DICTIONARY
  5
567
330
55A
100
AcDbDictionary
280
     1
  3
ACAD_DIMASSOC
360
571
  0
DICTIONARY
  5
57F
330
572
100
AcDbDictionary
280
     1
  3
ACAD_DIMASSOC
360
589
  0
DICTIONARY
  5
597
330
58A
100
AcDbDictionary
280
     1
  3
ACAD_DIMASSOC
360
5A1
  0
DICTIONARY
  5
5AF
330
5A2
100
AcDbDictionary
280
     1
  3
ACAD_DIMASSOC
360
5B9
  0
DICTIONARY
  5
5C7
330
5BA
100
AcDbDictionary
280
     1
  3
ACAD_DIMASSOC
360
5D1
  0
DICTIONARY
  5
5DF
330
5D2
100
AcDbDictionary
280
     1
  3
ACAD_DIMASSOC
360
5E9
  0
DICTIONARY
  5
D
102
{ACAD_REACTORS
330
C
102
}
330
C
100
AcDbDictionary
  0
DICTIONARY
  5
1A
102
{ACAD_REACTORS
330
C
102
}
330
C
100
AcDbDictionary
  0
DICTIONARY
  5
17
102
{ACAD_REACTORS
330
C
102
}
330
C
100
AcDbDictionary
  3
STANDARD
350
18
  0
DICTIONARY
  5
19
102
{ACAD_REACTORS
330
C
102
}
330
C
100
AcDbDictionary
  0
ACDBDICTIONARYWDFLT
  5
E
102
{ACAD_REACTORS
330
C
102
}
330
C
100
AcDbDictionary
281
     1
  3
Normal
350
F
100
AcDbDictionaryWithDefault
340
F
  0
DICTIONARY
  5
6F9
102
{ACAD_REACTORS
330
C
102
}
330
C
100
AcDbDictionary
  3
CEPSNTYPE
350
703
  3
DIMSTYLEDATA
350
707
  3
FINGERPRINTGUID
350
704
  3
HYPERLINKBASE
350
6FC
  3
INSUNITS
350
702
  3
LAYOUTDICT
350
6FE
  3
LWETCUNION
350
701
  3
PLOTSETDICT
350
6FF
  3
PLOTSTYLNAMDICT
350
700
  3
PSVPSCALE
350
706
  3
PUCSBASE
350
70A
  3
PUCSORGBACK
350
710
  3
PUCSORGBOTTOM
350
70C
  3
PUCSORGFRONT
350
70F
  3
PUCSORGLEFT
350
70D
  3
PUCSORGRIGHT
350
70E
  3
PUCSORGTOP
350
70B
  3
PUCSORTHOREF
350
708
  3
PUCSORTHOVIEW
350
709
  3
STYLESHEET
350
6FD
  3
TSTACKALIGN
350
6FA
  3
TSTACKSIZE
350
6FB
  3
UCSBASE
350
713
  3
UCSORGBACK
350
719
  3
UCSORGBOTTOM
350
715
  3
UCSORGFRONT
350
718
  3
UCSORGLEFT
350
716
  3
UCSORGRIGHT
350
717
  3
UCSORGTOP
350
714
  3
UCSORTHOREF
350
711
  3
UCSORTHOVIEW
350
712
  3
VERSIONGUID
350
705
  0
DICTIONARY
  5
2C
102
{ACAD_REACTORS
330
C
102
}
330
C
100
AcDbDictionary
  3
DIMASSOC
350
2E
  3
HIDETEXT
350
2D
  0
XRECORD
  5
71B
102
{ACAD_REACTORS
330
6ED
102
}
330
6ED
100
AcDbXrecord
340
1F
  0
XRECORD
  5
71A
102
{ACAD_REACTORS
330
6EB
102
}
330
6EB
100
AcDbXrecord
340
1B
  0
DIMASSOC
  5
49E
102
{ACAD_REACTORS
330
494
102
}
330
494
100
AcDbDimAssoc
330
487
 90
        3
 70
     0
 71
     0
  1
AcDbOsnapPointRef
 72
     1
331
342
 73
     2
 91
        0
 40
1.0
 10
32.145
 20
17.700001
 30
0.0
 75
     0
  1
AcDbOsnapPointRef
 72
     1
331
289
 73
     2
 91
        0
 40
6.283185307179583
 10
44.05499999999997
 20
17.700001
 30
0.0
 75
     0
  0
DIMASSOC
  5
4C1
102
{ACAD_REACTORS
330
4B7
102
}
330
4B7
100
AcDbDimAssoc
330
4AA
 90
        3
 70
     0
 71
     0
  1
AcDbOsnapPointRef
 72
     1
331
35B
 73
     2
 91
        0
 40
1.0
 10
47.17499899999999
 20
16.5
 30
0.0
 75
     0
  1
AcDbOsnapPointRef
 72
     1
331
350
 73
     2
 91
        0
 40
1.0
 10
47.17499899999999
 20
29.200001
 30
0.0
 75
     0
  0
DIMASSOC
  5
4E6
102
{ACAD_REACTORS
330
4DA
102
}
330
4DA
100
AcDbDimAssoc
330
4CB
 90
        3
 70
     0
 71
     0
  1
AcDbOsnapPointRef
 72
     1
331
350
 73
     2
 91
        0
 40
1.0
 10
47.17499899999999
 20
29.200001
 30
0.0
 75
     0
  1
AcDbOsnapPointRef
 72
     1
331
34F
 73
     2
 91
        0
 40
1.0
 10
47.17499899999999
 20
32.400002
 30
0.0
 75
     0
  0
DIMASSOC
  5
502
102
{ACAD_REACTORS
330
4F6
102
}
330
4F6
100
AcDbDimAssoc
330
4E7
 90
        3
 70
     0
 71
     0
  1
AcDbOsnapPointRef
 72
     1
331
33F
 73
     2
 91
        0
 40
1.0
 10
-35.119999
 20
13.05
 30
0.0
 75
     0
  1
AcDbOsnapPointRef
 72
     1
331
33E
 73
     2
 91
        0
 40
1.0
 10
-41.080002
 20
13.05
 30
0.0
 75
     0
  0
DIMASSOC
  5
529
102
{ACAD_REACTORS
330
51D
102
}
330
51D
100
AcDbDimAssoc
330
50E
 90
        3
 70
     0
 71
     0
  1
AcDbOsnapPointRef
 72
    13
331
34C
 73
     2
 91
        0
 40
0.0
 10
-45.875
 20
32.700002
 30
0.0
 75
     0
  1
AcDbOsnapPointRef
 72
    13
331
34E
 73
     2
 91
        0
 40
0.0
 10
-45.875
 20
35.89999799999999
 30
0.0
 75
     0
  0
DIMASSOC
  5
541
102
{ACAD_REACTORS
330
537
102
}
330
537
100
AcDbDimAssoc
330
52A
 90
        3
 70
     0
 71
     0
  1
AcDbOsnapPointRef
 72
    13
331
2FD
 73
     2
 91
        0
 40
0.0
 10
-48.875
 20
-3.249999499999998
 30
0.0
 75
     0
  1
AcDbOsnapPointRef
 72
    13
331
36D
 73
     2
 91
        0
 40
0.0
 10
-48.875
 20
22.85
 30
0.0
 75
     0
  0
DIMASSOC
  5
559
102
{ACAD_REACTORS
330
54F
102
}
330
54F
100
AcDbDimAssoc
330
542
 90
        3
 70
     0
 71
     0
  1
AcDbOsnapPointRef
 72
    13
331
2FD
 73
     2
 91
        0
 40
0.0
 10
-48.875
 20
-3.249999499999998
 30
0.0
 75
     0
  1
AcDbOsnapPointRef
 72
    13
331
2D4
 73
     2
 91
        0
 40
0.0
 10
-48.875
 20
-29.35
 30
0.0
 75
     0
  0
DIMASSOC
  5
571
102
{ACAD_REACTORS
330
567
102
}
330
567
100
AcDbDimAssoc
330
55A
 90
        3
 70
     0
 71
     0
  1
AcDbOsnapPointRef
 72
    13
331
2FD
 73
     2
 91
        0
 40
0.0
 10
-48.875
 20
-3.249999499999998
 30
0.0
 75
     0
  1
AcDbOsnapPointRef
 72
     6
331
30D
 73
     2
 91
        0
 40
0.0000005943203218
 10
-40.20999649196762
 20
37.599998
 30
0.0
332
26A
 74
     2
 92
        0
 75
     0
  0
DIMASSOC
  5
589
102
{ACAD_REACTORS
330
57F
102
}
330
57F
100
AcDbDimAssoc
330
572
 90
        3
 70
     0
 71
     0
  1
AcDbOsnapPointRef
 72
    13
331
2FD
 73
     2
 91
        0
 40
0.0
 10
-48.875
 20
-3.249999499999998
 30
0.0
 75
     0
  1
AcDbOsnapPointRef
 72
    13
331
31A
 73
     2
 91
        0
 40
0.0
 10
-41.080002
 20
-46.200001
 30
0.0
 75
     0
  0
DIMASSOC
  5
5A1
102
{ACAD_REACTORS
330
597
102
}
330
597
100
AcDbDimAssoc
330
58A
 90
        3
 70
     0
 71
     0
  1
AcDbOsnapPointRef
 72
    11
331
372
 73
     2
 91
        0
 40
0.1763503405514634
 10
-38.09999799999999
 20
-59.88386285458958
 30
0.0
332
29C
 74
     2
 92
        0
 75
     0
  1
AcDbOsnapPointRef
 72
    11
331
372
 73
     2
 91
        0
 40
0.8236499913987723
 10
-38.09999799999999
 20
-75.48378314541043
 30
0.0
332
29C
 74
     2
 92
        0
 75
     0
  0
DIMASSOC
  5
5B9
102
{ACAD_REACTORS
330
5AF
102
}
330
5AF
100
AcDbDimAssoc
330
5A2
 90
        3
 70
     0
 71
     0
  1
AcDbOsnapPointRef
 72
     1
331
372
 73
     2
 91
        0
 40
1.0
 10
-38.09999799999999
 20
-79.733818
 30
0.0
 75
     0
  1
AcDbOsnapPointRef
 72
     1
331
36F
 73
     2
 91
        0
 40
1.0
 10
-19.04999899999999
 20
-79.733818
 30
0.0
 75
     0
  0
DIMASSOC
  5
5D1
102
{ACAD_REACTORS
330
5C7
102
}
330
5C7
100
AcDbDimAssoc
330
5BA
 90
        3
 70
     0
 71
     0
  1
AcDbOsnapPointRef
 72
     1
331
36F
 73
     2
 91
        0
 40
1.0
 10
-19.04999899999999
 20
-79.733818
 30
0.0
 75
     0
  1
AcDbOsnapPointRef
 72
     1
331
370
 73
     2
 91
        0
 40
1.0
 10
-0.0000000000000142
 20
-79.733818
 30
0.0
 75
     0
  0
DIMASSOC
  5
5E9
102
{ACAD_REACTORS
330
5DF
102
}
330
5DF
100
AcDbDimAssoc
330
5D2
 90
        3
 70
     0
 71
     0
  1
AcDbOsnapPointRef
 72
     6
331
36E
 73
     2
 91
        0
 40
0.8755174446082133
 10
38.09999799999999
 20
-76.73378866402305
 30
0.0
332
2A7
 74
     2
 92
        0
 75
     0
  1
AcDbOsnapPointRef
 72
     6
331
36E
 73
     2
 91
        0
 40
0.1244828873420225
 10
38.09999799999999
 20
-58.63385733597696
 30
0.0
332
2A7
 74
     2
 92
        0
 75
     0
  0
MLINESTYLE
  5
18
102
{ACAD_REACTORS
330
17
102
}
330
17
100
AcDbMlineStyle
  2
STANDARD
 70
     0
  3

 62
   256
 51
90.0
 52
90.0
 71
     2
 49
0.5
 62
   256
  6
BYLAYER
 49
-0.5
 62
   256
  6
BYLAYER
  0
ACDBPLACEHOLDER
  5
F
102
{ACAD_REACTORS
330
E
102
}
330
E
100
AcDbPlaceHolder
280
     0
  0
XRECORD
  5
703
102
{ACAD_REACTORS
330
6F9
102
}
330
6F9
100
AcDbXrecord
 90
        0
  0
XRECORD
  5
707
102
{ACAD_REACTORS
330
6F9
102
}
330
6F9
100
AcDbXrecord
1000
DSTYLE
1002
{
1070
   371
 70
    -1
1070
   372
 70
    -1
1002
}
  0
XRECORD
  5
704
102
{ACAD_REACTORS
330
6F9
102
}
330
6F9
100
AcDbXrecord
  1
{5B0931FC-56BC-4C5C-811F-96A4ED1ECC1B}
  0
XRECORD
  5
6FC
102
{ACAD_REACTORS
330
6F9
102
}
330
6F9
100
AcDbXrecord
  1

  0
XRECORD
  5
702
102
{ACAD_REACTORS
330
6F9
102
}
330
6F9
100
AcDbXrecord
 90
        4
  0
XRECORD
  5
6FE
102
{ACAD_REACTORS
330
6F9
102
}
330
6F9
100
AcDbXrecord
340
1A
  0
XRECORD
  5
701
102
{ACAD_REACTORS
330
6F9
102
}
330
6F9
100
AcDbXrecord
 90
    10781
  0
XRECORD
  5
6FF
102
{ACAD_REACTORS
330
6F9
102
}
330
6F9
100
AcDbXrecord
340
19
  0
XRECORD
  5
700
102
{ACAD_REACTORS
330
6F9
102
}
330
6F9
100
AcDbXrecord
340
E
  0
XRECORD
  5
706
102
{ACAD_REACTORS
330
6F9
102
}
330
6F9
100
AcDbXrecord
 40
0.0
  0
XRECORD
  5
70A
102
{ACAD_REACTORS
330
6F9
102
}
330
6F9
100
AcDbXrecord
340
0
  0
XRECORD
  5
710
102
{ACAD_REACTORS
330
6F9
102
}
330
6F9
100
AcDbXrecord
 10
0.0
 20
0.0
 30
0.0
  0
XRECORD
  5
70C
102
{ACAD_REACTORS
330
6F9
102
}
330
6F9
100
AcDbXrecord
 10
0.0
 20
0.0
 30
0.0
  0
XRECORD
  5
70F
102
{ACAD_REACTORS
330
6F9
102
}
330
6F9
100
AcDbXrecord
 10
0.0
 20
0.0
 30
0.0
  0
XRECORD
  5
70D
102
{ACAD_REACTORS
330
6F9
102
}
330
6F9
100
AcDbXrecord
 10
0.0
 20
0.0
 30
0.0
  0
XRECORD
  5
70E
102
{ACAD_REACTORS
330
6F9
102
}
330
6F9
100
AcDbXrecord
 10
0.0
 20
0.0
 30
0.0
  0
XRECORD
  5
70B
102
{ACAD_REACTORS
330
6F9
102
}
330
6F9
100
AcDbXrecord
 10
0.0
 20
0.0
 30
0.0
  0
XRECORD
  5
708
102
{ACAD_REACTORS
330
6F9
102
}
330
6F9
100
AcDbXrecord
340
0
  0
XRECORD
  5
709
102
{ACAD_REACTORS
330
6F9
102
}
330
6F9
100
AcDbXrecord
 70
     0
  0
XRECORD
  5
6FD
102
{ACAD_REACTORS
330
6F9
102
}
330
6F9
100
AcDbXrecord
  1
monochrome.ctb
  0
XRECORD
  5
6FA
102
{ACAD_REACTORS
330
6F9
102
}
330
6F9
100
AcDbXrecord
 90
        1
  0
XRECORD
  5
6FB
102
{ACAD_REACTORS
330
6F9
102
}
330
6F9
100
AcDbXrecord
 90
       70
  0
XRECORD
  5
713
102
{ACAD_REACTORS
330
6F9
102
}
330
6F9
100
AcDbXrecord
340
0
  0
XRECORD
  5
719
102
{ACAD_REACTORS
330
6F9
102
}
330
6F9
100
AcDbXrecord
 10
0.0
 20
0.0
 30
0.0
  0
XRECORD
  5
715
102
{ACAD_REACTORS
330
6F9
102
}
330
6F9
100
AcDbXrecord
 10
0.0
 20
0.0
 30
0.0
  0
XRECORD
  5
718
102
{ACAD_REACTORS
330
6F9
102
}
330
6F9
100
AcDbXrecord
 10
0.0
 20
0.0
 30
0.0
  0
XRECORD
  5
716
102
{ACAD_REACTORS
330
6F9
102
}
330
6F9
100
AcDbXrecord
 10
0.0
 20
0.0
 30
0.0
  0
XRECORD
  5
717
102
{ACAD_REACTORS
330
6F9
102
}
330
6F9
100
AcDbXrecord
 10
0.0
 20
0.0
 30
0.0
  0
XRECORD
  5
714
102
{ACAD_REACTORS
330
6F9
102
}
330
6F9
100
AcDbXrecord
 10
0.0
 20
0.0
 30
0.0
  0
XRECORD
  5
711
102
{ACAD_REACTORS
330
6F9
102
}
330
6F9
100
AcDbXrecord
340
0
  0
XRECORD
  5
712
102
{ACAD_REACTORS
330
6F9
102
}
330
6F9
100
AcDbXrecord
 70
     0
  0
XRECORD
  5
705
102
{ACAD_REACTORS
330
6F9
102
}
330
6F9
100
AcDbXrecord
  1
{990001D2-2274-43EC-ADB2-AADC7B4A67CC}
  0
DICTIONARYVAR
  5
2E
102
{ACAD_REACTORS
330
2C
102
}
330
2C
100
DictionaryVariables
280
     0
  1
2
  0
DICTIONARYVAR
  5
2D
102
{ACAD_REACTORS
330
2C
102
}
330
2C
100
DictionaryVariables
280
     0
  1
1
  0
ENDSEC
  0
EOF
