  0
SECTION
  2
HEADER
  9
$ACADVER
  1
AC1014
  9
$ACADMAINTVER
 70
     9
  9
$DWGCODEPAGE
  3
ANSI_932
  9
$INSBASE
 10
0.0
 20
0.0
 30
0.0
  9
$EXTMIN
 10
-226.5182355171122
 20
-169.6463697620157
 30
0.0
  9
$EXTMAX
 10
240.8561778286061
 20
167.9036504000006
 30
0.0
  9
$LIMMIN
 10
0.0
 20
0.0
  9
$LIMMAX
 10
420.0
 20
297.0
  9
$ORTHOMODE
 70
     1
  9
$REGENMODE
 70
     1
  9
$FILLMODE
 70
     1
  9
$QTEXTMODE
 70
     0
  9
$MIRRTEXT
 70
     1
  9
$DRAGMODE
 70
     2
  9
$LTSCALE
 40
1.0
  9
$OSMODE
 70
    37
  9
$ATTMODE
 70
     1
  9
$TEXTSIZE
 40
2.5
  9
$TRACEWID
 40
1.0
  9
$TEXTSTYLE
  7
STANDARD
  9
$CLAYER
  8
0
  9
$CELTYPE
  6
BYLAYER
  9
$CECOLOR
 62
   256
  9
$CELTSCALE
 40
1.0
  9
$DELOBJ
 70
     1
  9
$DISPSILH
 70
     0
  9
$DIMSCALE
 40
1.0
  9
$DIMASZ
 40
9.0
  9
$DIMEXO
 40
2.0
  9
$DIMDLI
 40
6.5
  9
$DIMRND
 40
0.0
  9
$DIMDLE
 40
0.0
  9
$DIMEXE
 40
3.0
  9
$DIMTP
 40
0.0
  9
$DIMTM
 40
0.0
  9
$DIMTXT
 40
9.0
  9
$DIMCEN
 40
2.5
  9
$DIMTSZ
 40
0.0
  9
$DIMTOL
 70
     0
  9
$DIMLIM
 70
     0
  9
$DIMTIH
 70
     0
  9
$DIMTOH
 70
     0
  9
$DIMSE1
 70
     0
  9
$DIMSE2
 70
     0
  9
$DIMTAD
 70
     1
  9
$DIMZIN
 70
     8
  9
$DIMBLK
  1

  9
$DIMASO
 70
     1
  9
$DIMSHO
 70
     1
  9
$DIMPOST
  1

  9
$DIMAPOST
  1

  9
$DIMALT
 70
     0
  9
$DIMALTD
 70
     3
  9
$DIMALTF
 40
0.03937007874016
  9
$DIMLFAC
 40
1.0
  9
$DIMTOFL
 70
     1
  9
$DIMTVP
 40
0.0
  9
$DIMTIX
 70
     0
  9
$DIMSOXD
 70
     0
  9
$DIMSAH
 70
     0
  9
$DIMBLK1
  1

  9
$DIMBLK2
  1

  9
$DIMSTYLE
  2
ISO-25
  9
$DIMCLRD
 70
     1
  9
$DIMCLRE
 70
     1
  9
$DIMCLRT
 70
     1
  9
$DIMTFAC
 40
1.0
  9
$DIMGAP
 40
2.5
  9
$DIMJUST
 70
     0
  9
$DIMSD1
 70
     0
  9
$DIMSD2
 70
     0
  9
$DIMTOLJ
 70
     0
  9
$DIMTZIN
 70
     8
  9
$DIMALTZ
 70
     0
  9
$DIMALTTZ
 70
     0
  9
$DIMFIT
 70
     3
  9
$DIMUPT
 70
     0
  9
$DIMUNIT
 70
     2
  9
$DIMDEC
 70
     2
  9
$DIMTDEC
 70
     2
  9
$DIMALTU
 70
     2
  9
$DIMALTTD
 70
     3
  9
$DIMTXSTY
  7
STANDARD
  9
$DIMAUNIT
 70
     0
  9
$LUNITS
 70
     2
  9
$LUPREC
 70
     4
  9
$SKETCHINC
 40
1.0
  9
$FILLETRAD
 40
10.0
  9
$AUNITS
 70
     0
  9
$AUPREC
 70
     0
  9
$MENU
  1
.
  9
$ELEVATION
 40
0.0
  9
$PELEVATION
 40
0.0
  9
$THICKNESS
 40
0.0
  9
$LIMCHECK
 70
     0
  9
$BLIPMODE
 70
     0
  9
$CHAMFERA
 40
10.0
  9
$CHAMFERB
 40
10.0
  9
$CHAMFERC
 40
20.0
  9
$CHAMFERD
 40
0.0
  9
$SKPOLY
 70
     0
  9
$TDCREATE
 40
2453755.379305208
  9
$TDUPDATE
 40
2454530.735892106
  9
$TDINDWG
 40
0.0252763310
  9
$TDUSRTIMER
 40
0.0252759259
  9
$USRTIMER
 70
     1
  9
$ANGBASE
 50
0.0
  9
$ANGDIR
 70
     0
  9
$PDMODE
 70
     0
  9
$PDSIZE
 40
0.0
  9
$PLINEWID
 40
0.0
  9
$COORDS
 70
     1
  9
$SPLFRAME
 70
     0
  9
$SPLINETYPE
 70
     6
  9
$SPLINESEGS
 70
     8
  9
$ATTDIA
 70
     0
  9
$ATTREQ
 70
     1
  9
$HANDLING
 70
     1
  9
$HANDSEED
  5
6D7
  9
$SURFTAB1
 70
     6
  9
$SURFTAB2
 70
     6
  9
$SURFTYPE
 70
     6
  9
$SURFU
 70
     6
  9
$SURFV
 70
     6
  9
$UCSNAME
  2

  9
$UCSORG
 10
0.0
 20
0.0
 30
0.0
  9
$UCSXDIR
 10
1.0
 20
0.0
 30
0.0
  9
$UCSYDIR
 10
0.0
 20
1.0
 30
0.0
  9
$PUCSNAME
  2

  9
$PUCSORG
 10
0.0
 20
0.0
 30
0.0
  9
$PUCSXDIR
 10
1.0
 20
0.0
 30
0.0
  9
$PUCSYDIR
 10
0.0
 20
1.0
 30
0.0
  9
$USERI1
 70
     0
  9
$USERI2
 70
     0
  9
$USERI3
 70
     0
  9
$USERI4
 70
     0
  9
$USERI5
 70
     0
  9
$USERR1
 40
0.0
  9
$USERR2
 40
0.0
  9
$USERR3
 40
0.0
  9
$USERR4
 40
0.0
  9
$USERR5
 40
0.0
  9
$WORLDVIEW
 70
     1
  9
$SHADEDGE
 70
     3
  9
$SHADEDIF
 70
    70
  9
$TILEMODE
 70
     1
  9
$MAXACTVP
 70
    64
  9
$PINSBASE
 10
0.0
 20
0.0
 30
0.0
  9
$PLIMCHECK
 70
     0
  9
$PEXTMIN
 10
1.000000000000000E+20
 20
1.000000000000000E+20
 30
1.000000000000000E+20
  9
$PEXTMAX
 10
-1.000000000000000E+20
 20
-1.000000000000000E+20
 30
-1.000000000000000E+20
  9
$PLIMMIN
 10
0.0
 20
0.0
  9
$PLIMMAX
 10
420.0
 20
297.0
  9
$UNITMODE
 70
     0
  9
$VISRETAIN
 70
     1
  9
$PLINEGEN
 70
     0
  9
$PSLTSCALE
 70
     1
  9
$TREEDEPTH
 70
  3020
  9
$PICKSTYLE
 70
     1
  9
$CMLSTYLE
  2
STANDARD
  9
$CMLJUST
 70
     0
  9
$CMLSCALE
 40
20.0
  9
$PROXYGRAPHICS
 70
     1
  9
$MEASUREMENT
 70
     1
  0
ENDSEC
  0
SECTION
  2
CLASSES
  0
CLASS
  1
ACDBDICTIONARYWDFLT
  2
AcDbDictionaryWithDefault
  3
AutoCAD 2000
 90
        0
280
     0
281
     0
  0
CLASS
  1
ACDBPLACEHOLDER
  2
AcDbPlaceHolder
  3
AutoCAD 2000
 90
        0
280
     0
281
     0
  0
CLASS
  1
LAYOUT
  2
AcDbLayout
  3
AutoCAD 2000
 90
        0
280
     0
281
     0
  0
CLASS
  1
DICTIONARYVAR
  2
AcDbDictionaryVar
  3
AutoCAD 2000
 90
        0
280
     0
281
     0
  0
CLASS
  1
DIMASSOC
  2
AcDbDimAssoc
  3
"AcDbDimAssoc|Product Desc:     AcDim ARX App For Dimension|Company:          Autodesk, Inc.|WEB Address:      www.autodesk.com"
 90
        0
280
     0
281
     0
  0
CLASS
  1
LONG_TRANSACTION
  2
AcDbLongTransaction
  3
AutoCAD 2000
 90
        0
280
     0
281
     0
  0
CLASS
  1
LWPOLYLINE
  2
AcDbPolyline
  3
AutoCAD 2000
 90
        0
280
     0
281
     1
  0
CLASS
  1
HATCH
  2
AcDbHatch
  3
AutoCAD 2000
 90
        0
280
     0
281
     1
  0
CLASS
  1
XRECORD
  2
AcDbXrecord
  3
AutoCAD 2000
 90
        0
280
     0
281
     0
  0
CLASS
  1
LONG_TRANSACTION
  2
AcDbLongTransaction
  3
AutoCAD 2000
 90
        0
280
     0
281
     0
  0
CLASS
  1
LWPOLYLINE
  2
AcDbPolyline
  3
AutoCAD 2000
 90
        0
280
     0
281
     1
  0
CLASS
  1
HATCH
  2
AcDbHatch
  3
AutoCAD 2000
 90
        0
280
     0
281
     1
  0
CLASS
  1
XRECORD
  2
AcDbXrecord
  3
AutoCAD 2000
 90
        0
280
     0
281
     0
  0
ENDSEC
  0
SECTION
  2
TABLES
  0
TABLE
  2
VPORT
  5
8
330
0
100
AcDbSymbolTable
 70
     2
  0
VPORT
  5
6B3
330
8
100
AcDbSymbolTableRecord
100
AcDbViewportTableRecord
  2
*ACTIVE
 70
     0
 10
0.0
 20
0.0
 11
1.0
 21
1.0
 12
7.165908384654411
 22
17.63418100057873
 13
0.0
 23
0.0
 14
10.0
 24
10.0
 15
10.0
 25
10.0
 16
0.0
 26
0.0
 36
1.0
 17
0.0
 27
0.0
 37
0.0
 40
378.5421673283783
 41
1.621593291404612
 42
50.0
 43
0.0
 44
0.0
 50
0.0
 51
0.0
 71
     0
 72
   100
 73
     1
 74
     3
 75
     0
 76
     0
 77
     0
 78
     0
  0
ENDTAB
  0
TABLE
  2
LTYPE
  5
5
330
0
100
AcDbSymbolTable
 70
     2
  0
LTYPE
  5
14
330
5
100
AcDbSymbolTableRecord
100
AcDbLinetypeTableRecord
  2
BYBLOCK
 70
     0
  3

 72
    65
 73
     0
 40
0.0
  0
LTYPE
  5
15
330
5
100
AcDbSymbolTableRecord
100
AcDbLinetypeTableRecord
  2
BYLAYER
 70
     0
  3

 72
    65
 73
     0
 40
0.0
  0
LTYPE
  5
16
330
5
100
AcDbSymbolTableRecord
100
AcDbLinetypeTableRecord
  2
CONTINUOUS
 70
     0
  3
Solid line
 72
    65
 73
     0
 40
0.0
  0
LTYPE
  5
C8
330
5
100
AcDbSymbolTableRecord
100
AcDbLinetypeTableRecord
  2
CENTER
 70
     0
  3
____ _ ____ _ ____ _ ____ _ ____ _ ____ _ ____
 72
    65
 73
     4
 40
17.5
 49
13.0
 74
     0
 49
-1.5
 74
     0
 49
1.5
 74
     0
 49
-1.5
 74
     0
  0
ENDTAB
  0
TABLE
  2
LAYER
  5
2
330
0
100
AcDbSymbolTable
 70
     2
  0
LAYER
  5
10
330
2
100
AcDbSymbolTableRecord
100
AcDbLayerTableRecord
  2
0
 70
     0
 62
     7
  6
CONTINUOUS
  0
LAYER
  5
23A
330
2
100
AcDbSymbolTableRecord
100
AcDbLayerTableRecord
  2
DEFPOINTS
 70
     0
 62
     7
  6
CONTINUOUS
  0
ENDTAB
  0
TABLE
  2
STYLE
  5
3
330
0
100
AcDbSymbolTable
 70
     1
  0
STYLE
  5
11
330
3
100
AcDbSymbolTableRecord
100
AcDbTextStyleTableRecord
  2
STANDARD
 70
     0
 40
0.0
 41
1.0
 50
0.0
 71
     0
 42
2.5
  3
txt.shx
  4
bigfont.shx
  0
ENDTAB
  0
TABLE
  2
VIEW
  5
6
330
0
100
AcDbSymbolTable
 70
     0
  0
ENDTAB
  0
TABLE
  2
UCS
  5
7
330
0
100
AcDbSymbolTable
 70
     0
  0
ENDTAB
  0
TABLE
  2
APPID
  5
9
330
0
100
AcDbSymbolTable
 70
     1
  0
APPID
  5
12
330
9
100
AcDbSymbolTableRecord
100
AcDbRegAppTableRecord
  2
ACAD
 70
     0
  0
ENDTAB
  0
TABLE
  2
DIMSTYLE
  5
A
330
0
100
AcDbSymbolTable
 70
     2
  0
DIMSTYLE
105
27
102
{ACAD_REACTORS
330
338
330
362
330
397
330
3B3
330
3E1
330
3FD
330
415
330
47A
330
492
330
4AA
330
4C2
102
}
330
A
100
AcDbSymbolTableRecord
100
AcDbDimStyleTableRecord
  2
ISO-25
 70
     0
  3

  4

  5

  6

  7

 40
1.0
 41
9.0
 42
2.0
 43
6.5
 44
3.0
 45
0.0
 46
0.0
 47
0.0
 48
0.0
140
9.0
141
2.5
142
0.0
143
0.03937007874016
144
1.0
145
0.0
146
1.0
147
2.5
 71
     0
 72
     0
 73
     0
 74
     0
 75
     0
 76
     0
 77
     1
 78
     8
170
     0
171
     3
172
     1
173
     0
174
     0
175
     0
176
     1
177
     1
178
     1
270
     2
271
     2
272
     2
273
     2
274
     3
340
11
275
     0
280
     0
281
     0
282
     0
283
     0
284
     8
285
     0
286
     0
287
     3
288
     0
  0
DIMSTYLE
105
C9
330
A
100
AcDbSymbolTableRecord
100
AcDbDimStyleTableRecord
  2
STANDARD
 70
     0
  3

  4

  5

  6

  7

 40
1.0
 41
0.18
 42
0.0625
 43
0.38
 44
0.18
 45
0.0
 46
0.0
 47
0.0
 48
0.0
140
0.18
141
0.09
142
0.0
143
25.4
144
1.0
145
0.0
146
1.0
147
0.09
 71
     0
 72
     0
 73
     1
 74
     1
 75
     0
 76
     0
 77
     0
 78
     0
170
     0
171
     2
172
     0
173
     0
174
     0
175
     0
176
     0
177
     0
178
     0
270
     2
271
     4
272
     4
273
     2
274
     2
340
11
275
     0
280
     0
281
     0
282
     0
283
     1
284
     0
285
     0
286
     0
287
     3
288
     0
  0
ENDTAB
  0
TABLE
  2
BLOCK_RECORD
  5
1
330
0
100
AcDbSymbolTable
 70
    11
  0
BLOCK_RECORD
  5
1F
102
{ACAD_XDICTIONARY
360
6A8
102
}
330
1
100
AcDbSymbolTableRecord
100
AcDbBlockTableRecord
  2
*MODEL_SPACE
  0
BLOCK_RECORD
  5
1B
102
{ACAD_XDICTIONARY
360
6A6
102
}
330
1
100
AcDbSymbolTableRecord
100
AcDbBlockTableRecord
  2
*PAPER_SPACE
  0
BLOCK_RECORD
  5
339
330
1
100
AcDbSymbolTableRecord
100
AcDbBlockTableRecord
  2
*D0
  0
BLOCK_RECORD
  5
363
330
1
100
AcDbSymbolTableRecord
100
AcDbBlockTableRecord
  2
*D1
  0
BLOCK_RECORD
  5
398
330
1
100
AcDbSymbolTableRecord
100
AcDbBlockTableRecord
  2
*D2
  0
BLOCK_RECORD
  5
3B4
330
1
100
AcDbSymbolTableRecord
100
AcDbBlockTableRecord
  2
*D3
  0
BLOCK_RECORD
  5
3E2
330
1
100
AcDbSymbolTableRecord
100
AcDbBlockTableRecord
  2
*D4
  0
BLOCK_RECORD
  5
3FE
330
1
100
AcDbSymbolTableRecord
100
AcDbBlockTableRecord
  2
*D5
  0
BLOCK_RECORD
  5
416
330
1
100
AcDbSymbolTableRecord
100
AcDbBlockTableRecord
  2
*D6
  0
BLOCK_RECORD
  5
47B
330
1
100
AcDbSymbolTableRecord
100
AcDbBlockTableRecord
  2
*D7
  0
BLOCK_RECORD
  5
493
330
1
100
AcDbSymbolTableRecord
100
AcDbBlockTableRecord
  2
*D8
  0
BLOCK_RECORD
  5
4AB
330
1
100
AcDbSymbolTableRecord
100
AcDbBlockTableRecord
  2
*D9
  0
BLOCK_RECORD
  5
4C3
330
1
100
AcDbSymbolTableRecord
100
AcDbBlockTableRecord
  2
*D10
  0
ENDTAB
  0
ENDSEC
  0
SECTION
  2
BLOCKS
  0
BLOCK
  5
20
330
1F
100
AcDbEntity
  8
0
100
AcDbBlockBegin
  2
*MODEL_SPACE
 70
     0
 10
0.0
 20
0.0
 30
0.0
  3
*MODEL_SPACE
  1

  0
ENDBLK
  5
21
330
1F
100
AcDbEntity
  8
0
100
AcDbBlockEnd
  0
BLOCK
  5
1C
330
1B
100
AcDbEntity
 67
     1
  8
0
100
AcDbBlockBegin
  2
*PAPER_SPACE
 70
     0
 10
0.0
 20
0.0
 30
0.0
  3
*PAPER_SPACE
  1

  0
ENDBLK
  5
1D
330
1B
100
AcDbEntity
 67
     1
  8
0
100
AcDbBlockEnd
  0
BLOCK
  5
343
330
339
100
AcDbEntity
  8
0
100
AcDbBlockBegin
  2
*D0
 70
     1
 10
0.0
 20
0.0
 30
0.0
  3
*D0
  1

  0
LINE
  5
653
330
339
100
AcDbEntity
  8
0
 62
     1
100
AcDbLine
 10
159.14999
 20
75.07240300000002
 30
0.0
 11
240.8561778286061
 21
75.07240299999998
 31
0.0
  0
LINE
  5
654
330
339
100
AcDbEntity
  8
0
 62
     1
100
AcDbLine
 10
159.14999
 20
36.972404
 30
0.0
 11
240.8561778286061
 21
36.97240399999996
 31
0.0
  0
LINE
  5
655
330
339
100
AcDbEntity
  8
0
 62
     1
100
AcDbLine
 10
237.856177828606
 20
66.07240299999999
 30
0.0
 11
237.8561778286059
 21
45.97240399999996
 31
0.0
  0
SOLID
  5
656
330
339
100
AcDbEntity
  8
0
 62
     1
100
AcDbTrace
 10
236.3561778286061
 20
66.07240299999999
 30
0.0
 11
239.356177828606
 21
66.07240299999999
 31
0.0
 12
237.856177828606
 22
75.07240299999998
 32
0.0
 13
237.856177828606
 23
75.07240299999998
 33
0.0
  0
SOLID
  5
657
330
339
100
AcDbEntity
  8
0
 62
     1
100
AcDbTrace
 10
236.3561778286061
 20
45.97240399999996
 30
0.0
 11
239.356177828606
 21
45.97240399999996
 31
0.0
 12
237.8561778286059
 22
36.97240399999996
 32
0.0
 13
237.8561778286059
 23
36.97240399999996
 33
0.0
  0
MTEXT
  5
658
330
339
100
AcDbEntity
  8
0
 62
     1
100
AcDbMText
 10
230.8561778286061
 20
56.02240350000003
 30
0.0
 40
9.0
 41
0.0
 71
     5
 72
     1
  1
38.10
 11
0.0000000000000001
 21
1.0
 31
0.0
1001
ACAD
1000
MTEXTBEGIN
1070
    73
1070
     1
1070
    44
1040
1.0
1070
    74
1070
     0
1000
MTEXTEND
1000
MTEXTBEGIN
1070
    73
1070
     1
1070
    44
1040
1.0
1070
    74
1070
     0
1000
MTEXTEND
  0
POINT
  5
659
330
339
100
AcDbEntity
  8
DEFPOINTS
 62
     0
100
AcDbPoint
 10
157.14999
 20
75.07240300000002
 30
0.0
  0
POINT
  5
65A
330
339
100
AcDbEntity
  8
DEFPOINTS
 62
     0
100
AcDbPoint
 10
157.14999
 20
36.972404
 30
0.0
  0
POINT
  5
65B
330
339
100
AcDbEntity
  8
DEFPOINTS
 62
     0
100
AcDbPoint
 10
237.8561778286059
 20
36.97240399999996
 30
0.0
  0
ENDBLK
  5
344
330
339
100
AcDbEntity
  8
0
100
AcDbBlockEnd
  0
BLOCK
  5
36D
330
363
100
AcDbEntity
  8
0
100
AcDbBlockBegin
  2
*D1
 70
     1
 10
0.0
 20
0.0
 30
0.0
  3
*D1
  1

  0
LINE
  5
667
330
363
100
AcDbEntity
  8
0
 62
     1
100
AcDbLine
 10
107.1599999999998
 20
39.97240399999999
 30
0.0
 11
107.1599999999998
 21
47.68406964496203
 31
0.0
  0
LINE
  5
668
330
363
100
AcDbEntity
  8
0
 62
     1
100
AcDbLine
 10
146.84
 20
39.97240399999999
 30
0.0
 11
146.84
 21
47.68406964496203
 31
0.0
  0
LINE
  5
669
330
363
100
AcDbEntity
  8
0
 62
     1
100
AcDbLine
 10
98.15999999999993
 20
44.68406964496203
 30
0.0
 11
89.15999999999991
 21
44.68406964496203
 31
0.0
  0
LINE
  5
66A
330
363
100
AcDbEntity
  8
0
 62
     1
100
AcDbLine
 10
155.8399999999998
 20
44.68406964496203
 30
0.0
 11
214.84
 21
44.68406964496203
 31
0.0
  0
LINE
  5
66B
330
363
100
AcDbEntity
  8
0
 62
     1
100
AcDbLine
 10
107.1599999999998
 20
44.68406964496203
 30
0.0
 11
146.84
 21
44.68406964496203
 31
0.0
  0
SOLID
  5
66C
330
363
100
AcDbEntity
  8
0
 62
     1
100
AcDbTrace
 10
98.15999999999993
 20
46.18406964496204
 30
0.0
 11
98.15999999999993
 21
43.18406964496204
 31
0.0
 12
107.1599999999998
 22
44.68406964496203
 32
0.0
 13
107.1599999999998
 23
44.68406964496203
 33
0.0
  0
SOLID
  5
66D
330
363
100
AcDbEntity
  8
0
 62
     1
100
AcDbTrace
 10
155.8399999999998
 20
46.18406964496204
 30
0.0
 11
155.8399999999998
 21
43.18406964496204
 31
0.0
 12
146.84
 22
44.68406964496203
 32
0.0
 13
146.84
 23
44.68406964496203
 33
0.0
  0
MTEXT
  5
66E
330
363
100
AcDbEntity
  8
0
 62
     1
100
AcDbMText
 10
189.84
 20
51.68406964496203
 30
0.0
 40
9.0
 41
0.0
 71
     5
 72
     1
  1
φ39.68
1001
ACAD
1000
MTEXTBEGIN
1070
    73
1070
     1
1070
    44
1040
1.0
1070
    74
1070
     0
1000
MTEXTEND
1000
MTEXTBEGIN
1070
    73
1070
     1
1070
    44
1040
1.0
1070
    74
1070
     0
1000
MTEXTEND
  0
POINT
  5
66F
330
363
100
AcDbEntity
  8
DEFPOINTS
 62
     0
100
AcDbPoint
 10
107.1599999999998
 20
37.97240399999999
 30
0.0
  0
POINT
  5
670
330
363
100
AcDbEntity
  8
DEFPOINTS
 62
     0
100
AcDbPoint
 10
146.84
 20
37.97240399999999
 30
0.0
  0
POINT
  5
671
330
363
100
AcDbEntity
  8
DEFPOINTS
 62
     0
100
AcDbPoint
 10
146.84
 20
44.68406964496203
 30
0.0
  0
ENDBLK
  5
36E
330
363
100
AcDbEntity
  8
0
100
AcDbBlockEnd
  0
BLOCK
  5
3A4
330
398
100
AcDbEntity
  8
0
100
AcDbBlockBegin
  2
*D2
 70
     1
 10
0.0
 20
0.0
 30
0.0
  3
*D2
  1

  0
LINE
  5
65C
330
398
100
AcDbEntity
  8
0
 62
     1
100
AcDbLine
 10
159.14999
 20
75.07240300000002
 30
0.0
 11
240.8561778286061
 21
75.07240299999998
 31
0.0
  0
LINE
  5
65D
330
398
100
AcDbEntity
  8
0
 62
     1
100
AcDbLine
 10
159.14999
 20
83.07240300000001
 30
0.0
 11
240.8561778286061
 21
83.07240300000001
 31
0.0
  0
LINE
  5
65E
330
398
100
AcDbEntity
  8
0
 62
     1
100
AcDbLine
 10
237.856177828606
 20
66.07240299999999
 30
0.0
 11
237.856177828606
 21
57.072403
 31
0.0
  0
LINE
  5
65F
330
398
100
AcDbEntity
  8
0
 62
     1
100
AcDbLine
 10
237.856177828606
 20
92.072403
 30
0.0
 11
237.856177828606
 21
122.572403
 31
0.0
  0
LINE
  5
660
330
398
100
AcDbEntity
  8
0
 62
     1
100
AcDbLine
 10
237.856177828606
 20
75.07240299999998
 30
0.0
 11
237.856177828606
 21
83.07240300000001
 31
0.0
  0
SOLID
  5
661
330
398
100
AcDbEntity
  8
0
 62
     1
100
AcDbTrace
 10
236.3561778286061
 20
66.07240299999999
 30
0.0
 11
239.356177828606
 21
66.07240299999999
 31
0.0
 12
237.856177828606
 22
75.07240299999998
 32
0.0
 13
237.856177828606
 23
75.07240299999998
 33
0.0
  0
SOLID
  5
662
330
398
100
AcDbEntity
  8
0
 62
     1
100
AcDbTrace
 10
236.3561778286061
 20
92.072403
 30
0.0
 11
239.356177828606
 21
92.072403
 31
0.0
 12
237.856177828606
 22
83.07240300000001
 32
0.0
 13
237.856177828606
 23
83.07240300000001
 33
0.0
  0
MTEXT
  5
663
330
398
100
AcDbEntity
  8
0
 62
     1
100
AcDbMText
 10
230.8561778286061
 20
111.8224029999999
 30
0.0
 40
9.0
 41
0.0
 71
     5
 72
     1
  1
8.0
 11
0.0000000000000001
 21
1.0
 31
0.0
1001
ACAD
1000
MTEXTBEGIN
1070
    73
1070
     1
1070
    44
1040
1.0
1070
    74
1070
     0
1000
MTEXTEND
1000
MTEXTBEGIN
1070
    73
1070
     1
1070
    44
1040
1.0
1070
    74
1070
     0
1000
MTEXTEND
  0
POINT
  5
664
330
398
100
AcDbEntity
  8
DEFPOINTS
 62
     0
100
AcDbPoint
 10
157.14999
 20
75.07240300000002
 30
0.0
  0
POINT
  5
665
330
398
100
AcDbEntity
  8
DEFPOINTS
 62
     0
100
AcDbPoint
 10
157.14999
 20
83.07240300000001
 30
0.0
  0
POINT
  5
666
330
398
100
AcDbEntity
  8
DEFPOINTS
 62
     0
100
AcDbPoint
 10
237.856177828606
 20
83.07240300000001
 30
0.0
  0
ENDBLK
  5
3A5
330
398
100
AcDbEntity
  8
0
100
AcDbBlockEnd
  0
BLOCK
  5
3BF
330
3B4
100
AcDbEntity
  8
0
100
AcDbBlockBegin
  2
*D3
 70
     1
 10
0.0
 20
0.0
 30
0.0
  3
*D3
  1

  0
LINE
  5
607
330
3B4
100
AcDbEntity
  8
0
 62
     1
100
AcDbLine
 10
-136.925
 20
30.17240499999999
 30
0.0
 11
-136.925
 21
36.89220838797973
 31
0.0
  0
LINE
  5
608
330
3B4
100
AcDbEntity
  8
0
 62
     1
100
AcDbLine
 10
-117.0749999999999
 20
30.17240499999999
 30
0.0
 11
-117.0749999999999
 21
36.89220838797973
 31
0.0
  0
LINE
  5
609
330
3B4
100
AcDbEntity
  8
0
 62
     1
100
AcDbLine
 10
-108.0749999999996
 20
33.89220838797973
 30
0.0
 11
-99.07499999999991
 21
33.89220838797973
 31
0.0
  0
LINE
  5
60A
330
3B4
100
AcDbEntity
  8
0
 62
     1
100
AcDbLine
 10
-145.925
 20
33.89220838797973
 30
0.0
 11
-204.7208480611234
 21
33.89220838797973
 31
0.0
  0
LINE
  5
60B
330
3B4
100
AcDbEntity
  8
0
 62
     1
100
AcDbLine
 10
-117.0749999999999
 20
33.89220838797973
 30
0.0
 11
-136.925
 21
33.89220838797973
 31
0.0
  0
SOLID
  5
60C
330
3B4
100
AcDbEntity
  8
0
 62
     1
100
AcDbTrace
 10
-108.0749999999996
 20
35.39220838797973
 30
0.0
 11
-108.0749999999996
 21
32.39220838797971
 31
0.0
 12
-117.0749999999999
 22
33.89220838797973
 32
0.0
 13
-117.0749999999999
 23
33.89220838797973
 33
0.0
  0
SOLID
  5
60D
330
3B4
100
AcDbEntity
  8
0
 62
     1
100
AcDbTrace
 10
-145.925
 20
35.39220838797973
 30
0.0
 11
-145.925
 21
32.39220838797971
 31
0.0
 12
-136.925
 22
33.89220838797973
 32
0.0
 13
-136.925
 23
33.89220838797973
 33
0.0
  0
MTEXT
  5
60E
330
3B4
100
AcDbEntity
  8
0
 62
     1
100
AcDbMText
 10
-181.2208480611234
 20
40.89220838797973
 30
0.0
 40
9.0
 41
0.0
 71
     5
 72
     1
  1
φ19.85
1001
ACAD
1000
MTEXTBEGIN
1070
    73
1070
     1
1070
    44
1040
1.0
1070
    74
1070
     0
1000
MTEXTEND
1000
MTEXTBEGIN
1070
    73
1070
     1
1070
    44
1040
1.0
1070
    74
1070
     0
1000
MTEXTEND
  0
POINT
  5
60F
330
3B4
100
AcDbEntity
  8
DEFPOINTS
 62
     0
100
AcDbPoint
 10
-136.925
 20
28.172405
 30
0.0
  0
POINT
  5
610
330
3B4
100
AcDbEntity
  8
DEFPOINTS
 62
     0
100
AcDbPoint
 10
-117.0749999999999
 20
28.172405
 30
0.0
  0
POINT
  5
611
330
3B4
100
AcDbEntity
  8
DEFPOINTS
 62
     0
100
AcDbPoint
 10
-117.0749999999999
 20
33.89220838797973
 30
0.0
  0
ENDBLK
  5
3C0
330
3B4
100
AcDbEntity
  8
0
100
AcDbBlockEnd
  0
BLOCK
  5
3EE
330
3E2
100
AcDbEntity
  8
0
100
AcDbBlockBegin
  2
*D4
 70
     1
 10
0.0
 20
0.0
 30
0.0
  3
*D4
  1

  0
LINE
  5
612
330
3E2
100
AcDbEntity
  8
0
 62
     1
100
AcDbLine
 10
-159.14999
 20
83.82240600000001
 30
0.0
 11
-198.1659914060809
 21
83.82240600000001
 31
0.0
  0
LINE
  5
613
330
3E2
100
AcDbEntity
  8
0
 62
     1
100
AcDbLine
 10
-159.14999
 20
91.822406
 30
0.0
 11
-198.1659914060809
 21
91.822406
 31
0.0
  0
LINE
  5
614
330
3E2
100
AcDbEntity
  8
0
 62
     1
100
AcDbLine
 10
-195.1659914060811
 20
74.82240600000003
 30
0.0
 11
-195.1659914060811
 21
65.82240600000003
 31
0.0
  0
LINE
  5
615
330
3E2
100
AcDbEntity
  8
0
 62
     1
100
AcDbLine
 10
-195.1659914060811
 20
100.822406
 30
0.0
 11
-195.1659914060811
 21
131.322406
 31
0.0
  0
LINE
  5
616
330
3E2
100
AcDbEntity
  8
0
 62
     1
100
AcDbLine
 10
-195.1659914060811
 20
83.82240600000001
 30
0.0
 11
-195.1659914060811
 21
91.822406
 31
0.0
  0
SOLID
  5
617
330
3E2
100
AcDbEntity
  8
0
 62
     1
100
AcDbTrace
 10
-196.6659914060809
 20
74.82240600000003
 30
0.0
 11
-193.665991406081
 21
74.82240600000003
 31
0.0
 12
-195.1659914060811
 22
83.82240600000001
 32
0.0
 13
-195.1659914060811
 23
83.82240600000001
 33
0.0
  0
SOLID
  5
618
330
3E2
100
AcDbEntity
  8
0
 62
     1
100
AcDbTrace
 10
-196.6659914060809
 20
100.822406
 30
0.0
 11
-193.665991406081
 21
100.822406
 31
0.0
 12
-195.1659914060811
 22
91.822406
 32
0.0
 13
-195.1659914060811
 23
91.822406
 33
0.0
  0
MTEXT
  5
619
330
3E2
100
AcDbEntity
  8
0
 62
     1
100
AcDbMText
 10
-202.1659914060812
 20
120.5724059999996
 30
0.0
 40
9.0
 41
0.0
 71
     5
 72
     1
  1
8.0
 11
0.0000000000000001
 21
1.0
 31
0.0
1001
ACAD
1000
MTEXTBEGIN
1070
    73
1070
     1
1070
    44
1040
1.0
1070
    74
1070
     0
1000
MTEXTEND
1000
MTEXTBEGIN
1070
    73
1070
     1
1070
    44
1040
1.0
1070
    74
1070
     0
1000
MTEXTEND
  0
POINT
  5
61A
330
3E2
100
AcDbEntity
  8
DEFPOINTS
 62
     0
100
AcDbPoint
 10
-157.14999
 20
83.82240600000001
 30
0.0
  0
POINT
  5
61B
330
3E2
100
AcDbEntity
  8
DEFPOINTS
 62
     0
100
AcDbPoint
 10
-157.14999
 20
91.822406
 30
0.0
  0
POINT
  5
61C
330
3E2
100
AcDbEntity
  8
DEFPOINTS
 62
     0
100
AcDbPoint
 10
-195.1659914060811
 20
91.822406
 30
0.0
  0
ENDBLK
  5
3EF
330
3E2
100
AcDbEntity
  8
0
100
AcDbBlockEnd
  0
BLOCK
  5
408
330
3FE
100
AcDbEntity
  8
0
100
AcDbBlockBegin
  2
*D5
 70
     1
 10
0.0
 20
0.0
 30
0.0
  3
*D5
  1

  0
LINE
  5
61D
330
3FE
100
AcDbEntity
  8
0
 62
     1
100
AcDbLine
 10
-167.14999
 20
56.022404
 30
0.0
 11
-218.0182355171123
 21
56.02240400000003
 31
0.0
  0
LINE
  5
61E
330
3FE
100
AcDbEntity
  8
0
 62
     1
100
AcDbLine
 10
-136.0180399999999
 20
95.022408
 30
0.0
 11
-218.0182355171123
 21
95.022408
 31
0.0
  0
LINE
  5
61F
330
3FE
100
AcDbEntity
  8
0
 62
     1
100
AcDbLine
 10
-215.0182355171124
 20
65.02240400000001
 30
0.0
 11
-215.0182355171124
 21
86.02240800000002
 31
0.0
  0
SOLID
  5
620
330
3FE
100
AcDbEntity
  8
0
 62
     1
100
AcDbTrace
 10
-216.5182355171124
 20
65.02240400000001
 30
0.0
 11
-213.5182355171123
 21
65.02240400000001
 31
0.0
 12
-215.0182355171124
 22
56.02240400000003
 32
0.0
 13
-215.0182355171124
 23
56.02240400000003
 33
0.0
  0
SOLID
  5
621
330
3FE
100
AcDbEntity
  8
0
 62
     1
100
AcDbTrace
 10
-216.5182355171124
 20
86.02240800000002
 30
0.0
 11
-213.5182355171123
 21
86.02240800000002
 31
0.0
 12
-215.0182355171124
 22
95.022408
 32
0.0
 13
-215.0182355171124
 23
95.022408
 33
0.0
  0
MTEXT
  5
622
330
3FE
100
AcDbEntity
  8
0
 62
     1
100
AcDbMText
 10
-222.0182355171123
 20
75.52240599999997
 30
0.0
 40
9.0
 41
0.0
 71
     5
 72
     1
  1
39.0
 11
0.0000000000000001
 21
1.0
 31
0.0
1001
ACAD
1000
MTEXTBEGIN
1070
    73
1070
     1
1070
    44
1040
1.0
1070
    74
1070
     0
1000
MTEXTEND
1000
MTEXTBEGIN
1070
    73
1070
     1
1070
    44
1040
1.0
1070
    74
1070
     0
1000
MTEXTEND
  0
POINT
  5
623
330
3FE
100
AcDbEntity
  8
DEFPOINTS
 62
     0
100
AcDbPoint
 10
-165.14999
 20
56.022404
 30
0.0
  0
POINT
  5
624
330
3FE
100
AcDbEntity
  8
DEFPOINTS
 62
     0
100
AcDbPoint
 10
-134.0180399999999
 20
95.022408
 30
0.0
  0
POINT
  5
625
330
3FE
100
AcDbEntity
  8
DEFPOINTS
 62
     0
100
AcDbPoint
 10
-215.0182355171124
 20
95.022408
 30
0.0
  0
ENDBLK
  5
409
330
3FE
100
AcDbEntity
  8
0
100
AcDbBlockEnd
  0
BLOCK
  5
420
330
416
100
AcDbEntity
  8
0
100
AcDbBlockBegin
  2
*D6
 70
     1
 10
0.0
 20
0.0
 30
0.0
  3
*D6
  1

  0
LINE
  5
626
330
416
100
AcDbEntity
  8
0
 62
     1
100
AcDbLine
 10
-167.14999
 20
56.022404
 30
0.0
 11
-218.0182355171123
 21
56.02240400000003
 31
0.0
  0
LINE
  5
627
330
416
100
AcDbEntity
  8
0
 62
     1
100
AcDbLine
 10
-138.925
 20
11.22240499999999
 30
0.0
 11
-218.0182355171123
 21
11.22240499999999
 31
0.0
  0
LINE
  5
628
330
416
100
AcDbEntity
  8
0
 62
     1
100
AcDbLine
 10
-215.0182355171124
 20
47.02240399999999
 30
0.0
 11
-215.0182355171124
 21
20.222405
 31
0.0
  0
SOLID
  5
629
330
416
100
AcDbEntity
  8
0
 62
     1
100
AcDbTrace
 10
-216.5182355171124
 20
47.02240399999999
 30
0.0
 11
-213.5182355171123
 21
47.02240399999999
 31
0.0
 12
-215.0182355171124
 22
56.02240400000003
 32
0.0
 13
-215.0182355171124
 23
56.02240400000003
 33
0.0
  0
SOLID
  5
62A
330
416
100
AcDbEntity
  8
0
 62
     1
100
AcDbTrace
 10
-216.5182355171124
 20
20.222405
 30
0.0
 11
-213.5182355171123
 21
20.222405
 31
0.0
 12
-215.0182355171124
 22
11.22240499999999
 32
0.0
 13
-215.0182355171124
 23
11.22240499999999
 33
0.0
  0
MTEXT
  5
62B
330
416
100
AcDbEntity
  8
0
 62
     1
100
AcDbMText
 10
-222.0182355171123
 20
33.62240449999998
 30
0.0
 40
9.0
 41
0.0
 71
     5
 72
     1
  1
44.8
 11
0.0000000000000001
 21
1.0
 31
0.0
1001
ACAD
1000
MTEXTBEGIN
1070
    73
1070
     1
1070
    44
1040
1.0
1070
    74
1070
     0
1000
MTEXTEND
1000
MTEXTBEGIN
1070
    73
1070
     1
1070
    44
1040
1.0
1070
    74
1070
     0
1000
MTEXTEND
  0
POINT
  5
62C
330
416
100
AcDbEntity
  8
DEFPOINTS
 62
     0
100
AcDbPoint
 10
-165.14999
 20
56.022404
 30
0.0
  0
POINT
  5
62D
330
416
100
AcDbEntity
  8
DEFPOINTS
 62
     0
100
AcDbPoint
 10
-136.925
 20
11.22240499999999
 30
0.0
  0
POINT
  5
62E
330
416
100
AcDbEntity
  8
DEFPOINTS
 62
     0
100
AcDbPoint
 10
-215.0182355171124
 20
11.22240499999999
 30
0.0
  0
ENDBLK
  5
421
330
416
100
AcDbEntity
  8
0
100
AcDbBlockEnd
  0
BLOCK
  5
485
330
47B
100
AcDbEntity
  8
0
100
AcDbBlockBegin
  2
*D7
 70
     1
 10
0.0
 20
0.0
 30
0.0
  3
*D7
  1

  0
LINE
  5
62F
330
47B
100
AcDbEntity
  8
0
 62
     1
100
AcDbLine
 10
129.0
 20
-58.06381399999999
 30
0.0
 11
223.8730303418293
 21
-58.06381400000002
 31
0.0
  0
LINE
  5
630
330
47B
100
AcDbEntity
  8
0
 62
     1
100
AcDbLine
 10
129.0
 20
-118.363814
 30
0.0
 11
223.8730303418293
 21
-118.363814
 31
0.0
  0
LINE
  5
631
330
47B
100
AcDbEntity
  8
0
 62
     1
100
AcDbLine
 10
220.8730303418294
 20
-67.06381400000001
 30
0.0
 11
220.8730303418294
 21
-109.3638139999999
 31
0.0
  0
SOLID
  5
632
330
47B
100
AcDbEntity
  8
0
 62
     1
100
AcDbTrace
 10
219.3730303418294
 20
-67.06381400000001
 30
0.0
 11
222.3730303418294
 21
-67.06381400000001
 31
0.0
 12
220.8730303418294
 22
-58.06381400000002
 32
0.0
 13
220.8730303418294
 23
-58.06381400000002
 33
0.0
  0
SOLID
  5
633
330
47B
100
AcDbEntity
  8
0
 62
     1
100
AcDbTrace
 10
219.3730303418294
 20
-109.3638139999999
 30
0.0
 11
222.3730303418294
 21
-109.3638139999999
 31
0.0
 12
220.8730303418294
 22
-118.363814
 32
0.0
 13
220.8730303418294
 23
-118.363814
 33
0.0
  0
MTEXT
  5
634
330
47B
100
AcDbEntity
  8
0
 62
     1
100
AcDbMText
 10
213.8730303418294
 20
-88.21381399999998
 30
0.0
 40
9.0
 41
0.0
 71
     5
 72
     1
  1
60.3
 11
0.0000000000000001
 21
1.0
 31
0.0
1001
ACAD
1000
MTEXTBEGIN
1070
    73
1070
     1
1070
    44
1040
1.0
1070
    74
1070
     0
1000
MTEXTEND
1000
MTEXTBEGIN
1070
    73
1070
     1
1070
    44
1040
1.0
1070
    74
1070
     0
1000
MTEXTEND
  0
POINT
  5
635
330
47B
100
AcDbEntity
  8
DEFPOINTS
 62
     0
100
AcDbPoint
 10
127.0
 20
-58.06381399999999
 30
0.0
  0
POINT
  5
636
330
47B
100
AcDbEntity
  8
DEFPOINTS
 62
     0
100
AcDbPoint
 10
127.0
 20
-118.363814
 30
0.0
  0
POINT
  5
637
330
47B
100
AcDbEntity
  8
DEFPOINTS
 62
     0
100
AcDbPoint
 10
220.8730303418294
 20
-118.363814
 30
0.0
  0
ENDBLK
  5
486
330
47B
100
AcDbEntity
  8
0
100
AcDbBlockEnd
  0
BLOCK
  5
49D
330
493
100
AcDbEntity
  8
0
100
AcDbBlockBegin
  2
*D8
 70
     1
 10
0.0
 20
0.0
 30
0.0
  3
*D8
  1

  0
LINE
  5
638
330
493
100
AcDbEntity
  8
0
 62
     1
100
AcDbLine
 10
-133.14999
 20
-62.21381399999998
 30
0.0
 11
-195.4445604670193
 21
-62.21381399999994
 31
0.0
  0
LINE
  5
639
330
493
100
AcDbEntity
  8
0
 62
     1
100
AcDbLine
 10
-133.14999
 20
-114.2138139999999
 30
0.0
 11
-195.4445604670193
 21
-114.2138139999997
 31
0.0
  0
LINE
  5
63A
330
493
100
AcDbEntity
  8
0
 62
     1
100
AcDbLine
 10
-192.4445604670194
 20
-71.21381399999996
 30
0.0
 11
-192.4445604670194
 21
-105.2138139999996
 31
0.0
  0
SOLID
  5
63B
330
493
100
AcDbEntity
  8
0
 62
     1
100
AcDbTrace
 10
-193.9445604670195
 20
-71.21381399999996
 30
0.0
 11
-190.9445604670193
 21
-71.21381399999996
 31
0.0
 12
-192.4445604670193
 22
-62.21381399999994
 32
0.0
 13
-192.4445604670193
 23
-62.21381399999994
 33
0.0
  0
SOLID
  5
63C
330
493
100
AcDbEntity
  8
0
 62
     1
100
AcDbTrace
 10
-193.9445604670195
 20
-105.2138139999996
 30
0.0
 11
-190.9445604670193
 21
-105.2138139999996
 31
0.0
 12
-192.4445604670194
 22
-114.2138139999997
 32
0.0
 13
-192.4445604670194
 23
-114.2138139999997
 33
0.0
  0
MTEXT
  5
63D
330
493
100
AcDbEntity
  8
0
 62
     1
100
AcDbMText
 10
-199.4445604670193
 20
-88.21381399999994
 30
0.0
 40
9.0
 41
0.0
 71
     5
 72
     1
  1
52.0
 11
0.0000000000000001
 21
1.0
 31
0.0
1001
ACAD
1000
MTEXTBEGIN
1070
    73
1070
     1
1070
    44
1040
1.0
1070
    74
1070
     0
1000
MTEXTEND
1000
MTEXTBEGIN
1070
    73
1070
     1
1070
    44
1040
1.0
1070
    74
1070
     0
1000
MTEXTEND
  0
POINT
  5
63E
330
493
100
AcDbEntity
  8
DEFPOINTS
 62
     0
100
AcDbPoint
 10
-131.14999
 20
-62.21381399999998
 30
0.0
  0
POINT
  5
63F
330
493
100
AcDbEntity
  8
DEFPOINTS
 62
     0
100
AcDbPoint
 10
-131.14999
 20
-114.2138139999999
 30
0.0
  0
POINT
  5
640
330
493
100
AcDbEntity
  8
DEFPOINTS
 62
     0
100
AcDbPoint
 10
-192.4445604670194
 20
-114.2138139999997
 30
0.0
  0
ENDBLK
  5
49E
330
493
100
AcDbEntity
  8
0
100
AcDbBlockEnd
  0
BLOCK
  5
4B5
330
4AB
100
AcDbEntity
  8
0
100
AcDbBlockBegin
  2
*D9
 70
     1
 10
0.0
 20
0.0
 30
0.0
  3
*D9
  1

  0
LINE
  5
641
330
4AB
100
AcDbEntity
  8
0
 62
     1
100
AcDbLine
 10
-127.0
 20
-128.3638199999998
 30
0.0
 11
-127.0
 21
-156.1016349396856
 31
0.0
  0
LINE
  5
642
330
4AB
100
AcDbEntity
  8
0
 62
     1
100
AcDbLine
 10
-63.5
 20
-128.3638199999998
 30
0.0
 11
-63.5
 21
-156.1016349396856
 31
0.0
  0
LINE
  5
643
330
4AB
100
AcDbEntity
  8
0
 62
     1
100
AcDbLine
 10
-118.0
 20
-153.1016349396856
 30
0.0
 11
-72.5
 21
-153.1016349396856
 31
0.0
  0
SOLID
  5
644
330
4AB
100
AcDbEntity
  8
0
 62
     1
100
AcDbTrace
 10
-118.0
 20
-151.6016349396855
 30
0.0
 11
-118.0
 21
-154.6016349396855
 31
0.0
 12
-127.0
 22
-153.1016349396856
 32
0.0
 13
-127.0
 23
-153.1016349396856
 33
0.0
  0
SOLID
  5
645
330
4AB
100
AcDbEntity
  8
0
 62
     1
100
AcDbTrace
 10
-72.5
 20
-151.6016349396855
 30
0.0
 11
-72.5
 21
-154.6016349396855
 31
0.0
 12
-63.5
 22
-153.1016349396856
 32
0.0
 13
-63.5
 23
-153.1016349396856
 33
0.0
  0
MTEXT
  5
646
330
4AB
100
AcDbEntity
  8
0
 62
     1
100
AcDbMText
 10
-95.25
 20
-146.1016349396855
 30
0.0
 40
9.0
 41
0.0
 71
     5
 72
     1
  1
63.50
1001
ACAD
1000
MTEXTBEGIN
1070
    73
1070
     1
1070
    44
1040
1.0
1070
    74
1070
     0
1000
MTEXTEND
1000
MTEXTBEGIN
1070
    73
1070
     1
1070
    44
1040
1.0
1070
    74
1070
     0
1000
MTEXTEND
  0
POINT
  5
647
330
4AB
100
AcDbEntity
  8
DEFPOINTS
 62
     0
100
AcDbPoint
 10
-127.0
 20
-126.3638199999999
 30
0.0
  0
POINT
  5
648
330
4AB
100
AcDbEntity
  8
DEFPOINTS
 62
     0
100
AcDbPoint
 10
-63.5
 20
-126.3638199999999
 30
0.0
  0
POINT
  5
649
330
4AB
100
AcDbEntity
  8
DEFPOINTS
 62
     0
100
AcDbPoint
 10
-63.5
 20
-153.1016349396856
 30
0.0
  0
ENDBLK
  5
4B6
330
4AB
100
AcDbEntity
  8
0
100
AcDbBlockEnd
  0
BLOCK
  5
4CD
330
4C3
100
AcDbEntity
  8
0
100
AcDbBlockBegin
  2
*D10
 70
     1
 10
0.0
 20
0.0
 30
0.0
  3
*D10
  1

  0
LINE
  5
64A
330
4C3
100
AcDbEntity
  8
0
 62
     1
100
AcDbLine
 10
-63.5
 20
-128.3638199999998
 30
0.0
 11
-63.5
 21
-156.1016349396856
 31
0.0
  0
LINE
  5
64B
330
4C3
100
AcDbEntity
  8
0
 62
     1
100
AcDbLine
 10
-0.0000000000000143
 20
-128.3638199999998
 30
0.0
 11
-0.000000000000016
 21
-156.1016349396856
 31
0.0
  0
LINE
  5
64C
330
4C3
100
AcDbEntity
  8
0
 62
     1
100
AcDbLine
 10
-54.5
 20
-153.1016349396856
 30
0.0
 11
-9.000000000000014
 21
-153.1016349396856
 31
0.0
  0
SOLID
  5
64D
330
4C3
100
AcDbEntity
  8
0
 62
     1
100
AcDbTrace
 10
-54.5
 20
-151.6016349396855
 30
0.0
 11
-54.5
 21
-154.6016349396855
 31
0.0
 12
-63.5
 22
-153.1016349396856
 32
0.0
 13
-63.5
 23
-153.1016349396856
 33
0.0
  0
SOLID
  5
64E
330
4C3
100
AcDbEntity
  8
0
 62
     1
100
AcDbTrace
 10
-9.000000000000014
 20
-151.6016349396855
 30
0.0
 11
-9.000000000000014
 21
-154.6016349396855
 31
0.0
 12
-0.0000000000000158
 22
-153.1016349396856
 32
0.0
 13
-0.0000000000000158
 23
-153.1016349396856
 33
0.0
  0
MTEXT
  5
64F
330
4C3
100
AcDbEntity
  8
0
 62
     1
100
AcDbMText
 10
-31.75
 20
-146.1016349396855
 30
0.0
 40
9.0
 41
0.0
 71
     5
 72
     1
  1
63.50
1001
ACAD
1000
MTEXTBEGIN
1070
    73
1070
     1
1070
    44
1040
1.0
1070
    74
1070
     0
1000
MTEXTEND
1000
MTEXTBEGIN
1070
    73
1070
     1
1070
    44
1040
1.0
1070
    74
1070
     0
1000
MTEXTEND
  0
POINT
  5
650
330
4C3
100
AcDbEntity
  8
DEFPOINTS
 62
     0
100
AcDbPoint
 10
-63.5
 20
-126.3638199999999
 30
0.0
  0
POINT
  5
651
330
4C3
100
AcDbEntity
  8
DEFPOINTS
 62
     0
100
AcDbPoint
 10
-0.0000000000000142
 20
-126.3638199999999
 30
0.0
  0
POINT
  5
652
330
4C3
100
AcDbEntity
  8
DEFPOINTS
 62
     0
100
AcDbPoint
 10
-0.0000000000000158
 20
-153.1016349396856
 30
0.0
  0
ENDBLK
  5
4CE
330
4C3
100
AcDbEntity
  8
0
100
AcDbBlockEnd
  0
ENDSEC
  0
SECTION
  2
ENTITIES
  0
TEXT
  5
18F
330
1F
100
AcDbEntity
  8
0
  6
CONTINUOUS
 62
     7
100
AcDbText
 10
-56.22899499999999
 20
158.30365
 30
0.0
 40
9.6000004
  1

 41
0.8455652399999998
100
AcDbText
  0
ARC
  5
191
330
1F
100
AcDbEntity
  8
0
  6
CONTINUOUS
 62
     7
100
AcDbCircle
 10
0.0
 20
-11.484623
 30
0.0
 40
30.185366
100
AcDbArc
 50
74.557484
 51
105.44251
  0
ARC
  5
192
330
1F
100
AcDbEntity
  8
0
  6
CONTINUOUS
 62
     7
100
AcDbCircle
 10
63.5
 20
-11.484623
 30
0.0
 40
30.185366
100
AcDbArc
 50
74.557484
 51
105.44251
  0
CIRCLE
  5
193
330
1F
100
AcDbEntity
  8
0
  6
CONTINUOUS
 62
     7
100
AcDbCircle
 10
-63.5
 20
17.47240499999999
 30
0.0
 40
2.5
  0
CIRCLE
  5
194
330
1F
100
AcDbEntity
  8
0
  6
CONTINUOUS
 62
     7
100
AcDbCircle
 10
-127.0
 20
17.47240499999999
 30
0.0
 40
2.5
  0
CIRCLE
  5
195
330
1F
100
AcDbEntity
  8
0
  6
CONTINUOUS
 62
     7
100
AcDbCircle
 10
127.0
 20
-88.21381399999998
 30
0.0
 40
14.3
  0
CIRCLE
  5
196
330
1F
100
AcDbEntity
  8
0
  6
CONTINUOUS
 62
     7
100
AcDbCircle
 10
127.0
 20
-88.21381399999998
 30
0.0
 40
10.075
  0
CIRCLE
  5
197
330
1F
100
AcDbEntity
  8
0
  6
CONTINUOUS
 62
     7
100
AcDbCircle
 10
63.5
 20
-88.21381399999998
 30
0.0
 40
9.925000199999999
  0
CIRCLE
  5
198
330
1F
100
AcDbEntity
  8
0
  6
CONTINUOUS
 62
     7
100
AcDbCircle
 10
-0.0000000000000142
 20
-88.21381399999998
 30
0.0
 40
9.925000199999999
  0
CIRCLE
  5
199
330
1F
100
AcDbEntity
  8
0
  6
CONTINUOUS
 62
     7
100
AcDbCircle
 10
-63.5
 20
-88.21381399999998
 30
0.0
 40
9.925000199999999
  0
CIRCLE
  5
19A
330
1F
100
AcDbEntity
  8
0
  6
CONTINUOUS
 62
     7
100
AcDbCircle
 10
-127.0
 20
-88.21381399999998
 30
0.0
 40
9.925000199999999
  0
ARC
  5
19B
330
1F
100
AcDbEntity
  8
0
  6
CONTINUOUS
 62
     7
100
AcDbCircle
 10
-0.0000000000000142
 20
-88.21381399999998
 30
0.0
 40
30.15
100
AcDbArc
 50
52.103972
 51
100.79294
  0
ARC
  5
19C
330
1F
100
AcDbEntity
  8
0
  6
CONTINUOUS
 62
     7
100
AcDbCircle
 10
95.25
 20
-254.7645299999998
 30
0.0
 40
139.39999
100
AcDbArc
 50
79.207054
 51
100.79294
  0
ARC
  5
19D
330
1F
100
AcDbEntity
  8
0
  6
CONTINUOUS
 62
     7
100
AcDbCircle
 10
95.25
 20
78.336899
 30
0.0
 40
139.39999
100
AcDbArc
 50
259.20706
 51
280.79295
  0
ARC
  5
19E
102
{ACAD_REACTORS
330
491
102
}
330
1F
100
AcDbEntity
  8
0
  6
CONTINUOUS
 62
     7
100
AcDbCircle
 10
127.0
 20
-88.21381399999998
 30
0.0
 40
30.15
100
AcDbArc
 50
259.20706
 51
100.79294
  0
ARC
  5
19F
330
1F
100
AcDbEntity
  8
0
  6
CONTINUOUS
 62
     7
100
AcDbCircle
 10
63.5
 20
-88.21381399999998
 30
0.0
 40
30.15
100
AcDbArc
 50
232.1039699999999
 51
280.79295
  0
ARC
  5
1A0
330
1F
100
AcDbEntity
  8
0
  6
CONTINUOUS
 62
     7
100
AcDbCircle
 10
-63.5
 20
-88.21381399999998
 30
0.0
 40
30.15
100
AcDbArc
 50
232.1039699999999
 51
280.79295
  0
ARC
  5
1A1
330
1F
100
AcDbEntity
  8
0
  6
CONTINUOUS
 62
     7
100
AcDbCircle
 10
-31.75
 20
-254.7645299999998
 30
0.0
 40
139.39999
100
AcDbArc
 50
79.207054
 51
100.79294
  0
ARC
  5
1A2
330
1F
100
AcDbEntity
  8
0
  6
CONTINUOUS
 62
     7
100
AcDbCircle
 10
-31.75
 20
78.336899
 30
0.0
 40
139.39999
100
AcDbArc
 50
259.20706
 51
280.79295
  0
ARC
  5
1A3
330
1F
100
AcDbEntity
  8
0
  6
CONTINUOUS
 62
     7
100
AcDbCircle
 10
-0.0000000000000142
 20
-88.21381399999998
 30
0.0
 40
30.15
100
AcDbArc
 50
259.20706
 51
307.8960299999998
  0
ARC
  5
1A4
330
1F
100
AcDbEntity
  8
0
  6
CONTINUOUS
 62
     7
100
AcDbCircle
 10
-63.5
 20
-88.21381399999998
 30
0.0
 40
30.15
100
AcDbArc
 50
79.207054
 51
127.89603
  0
ARC
  5
1A5
330
1F
100
AcDbEntity
  8
0
  6
CONTINUOUS
 62
     7
100
AcDbCircle
 10
-95.25
 20
-334.71332
 30
0.0
 40
223.10001
100
AcDbArc
 50
81.71374699999999
 51
98.28625800000001
  0
ARC
  5
1A6
330
1F
100
AcDbEntity
  8
0
  6
CONTINUOUS
 62
     7
100
AcDbCircle
 10
-95.25
 20
158.28568
 30
0.0
 40
223.10001
100
AcDbArc
 50
261.7137399999999
 51
278.28625
  0
ARC
  5
1A7
330
1F
100
AcDbEntity
  8
0
  6
CONTINUOUS
 62
     7
100
AcDbCircle
 10
-59.34999799999999
 20
-88.21381399999998
 30
0.0
 40
26.0
100
AcDbArc
 50
261.7137399999999
 51
98.28625800000001
  0
ARC
  5
1A8
102
{ACAD_REACTORS
330
4A9
102
}
330
1F
100
AcDbEntity
  8
0
  6
CONTINUOUS
 62
     7
100
AcDbCircle
 10
-131.14999
 20
-88.21381399999998
 30
0.0
 40
26.0
100
AcDbArc
 50
81.71374
 51
278.28625
  0
ARC
  5
1A9
330
1F
100
AcDbEntity
  8
0
  6
CONTINUOUS
 62
     7
100
AcDbCircle
 10
63.5
 20
-88.21381399999998
 30
0.0
 40
30.15
100
AcDbArc
 50
79.207054
 51
127.89603
  0
ARC
  5
1AA
330
1F
100
AcDbEntity
  8
0
  6
CONTINUOUS
 62
     7
100
AcDbCircle
 10
31.75
 20
-334.71332
 30
0.0
 40
223.10001
100
AcDbArc
 50
81.71374699999999
 51
98.28625800000001
  0
ARC
  5
1AB
330
1F
100
AcDbEntity
  8
0
  6
CONTINUOUS
 62
     7
100
AcDbCircle
 10
67.650002
 20
-88.21381399999998
 30
0.0
 40
26.0
100
AcDbArc
 50
261.7137399999999
 51
98.28625800000001
  0
ARC
  5
1AC
330
1F
100
AcDbEntity
  8
0
  6
CONTINUOUS
 62
     7
100
AcDbCircle
 10
31.75
 20
158.28568
 30
0.0
 40
223.10001
100
AcDbArc
 50
261.7137399999999
 51
278.28625
  0
ARC
  5
1AD
330
1F
100
AcDbEntity
  8
0
  6
CONTINUOUS
 62
     7
100
AcDbCircle
 10
-4.150000099999999
 20
-88.21381399999998
 30
0.0
 40
26.0
100
AcDbArc
 50
81.71374
 51
278.28625
  0
ARC
  5
1AE
330
1F
100
AcDbEntity
  8
0
  6
CONTINUOUS
 62
     7
100
AcDbCircle
 10
-127.0
 20
123.52943
 30
0.0
 40
30.185366
100
AcDbArc
 50
254.55749
 51
285.44252
  0
ARC
  5
1AF
330
1F
100
AcDbEntity
  8
0
  6
CONTINUOUS
 62
     7
100
AcDbCircle
 10
-63.5
 20
123.52943
 30
0.0
 40
30.185366
100
AcDbArc
 50
254.55749
 51
285.44252
  0
ARC
  5
1B0
330
1F
100
AcDbEntity
  8
0
  6
CONTINUOUS
 62
     7
100
AcDbCircle
 10
0.0
 20
123.52943
 30
0.0
 40
30.185366
100
AcDbArc
 50
254.55749
 51
285.44252
  0
ARC
  5
1B1
330
1F
100
AcDbEntity
  8
0
  6
CONTINUOUS
 62
     7
100
AcDbCircle
 10
63.5
 20
123.52943
 30
0.0
 40
30.185366
100
AcDbArc
 50
254.55749
 51
285.44252
  0
LINE
  5
1B2
330
1F
100
AcDbEntity
  8
0
  6
CENTER
 62
     6
100
AcDbLine
 10
-67.540001
 20
17.47240499999999
 30
0.0
 11
-59.459999
 21
17.47240499999999
 31
0.0
  0
LINE
  5
1B3
330
1F
100
AcDbEntity
  8
0
  6
CENTER
 62
     6
100
AcDbLine
 10
-132.0399899999999
 20
17.47240499999999
 30
0.0
 11
-121.96
 21
17.47240499999999
 31
0.0
  0
LINE
  5
1B4
330
1F
100
AcDbEntity
  8
0
  6
CONTINUOUS
 62
     7
100
AcDbLine
 10
7.018034499999997
 20
17.022406
 30
0.0
 11
9.925000199999999
 21
18.70074299999998
 31
0.0
  0
LINE
  5
1B5
330
1F
100
AcDbEntity
  8
0
  6
CONTINUOUS
 62
     7
100
AcDbLine
 10
-9.925000199999999
 20
18.70074299999998
 30
0.0
 11
-7.018034499999997
 21
17.022406
 31
0.0
  0
LINE
  5
1B6
330
1F
100
AcDbEntity
  8
0
  6
CONTINUOUS
 62
     7
100
AcDbLine
 10
-9.925000199999999
 20
18.70074299999998
 30
0.0
 11
-9.925000199999999
 21
20.22240499999998
 31
0.0
  0
LINE
  5
1B7
330
1F
100
AcDbEntity
  8
0
  6
CONTINUOUS
 62
     7
100
AcDbLine
 10
53.575001
 20
18.70074299999998
 30
0.0
 11
56.48196399999999
 21
17.022406
 31
0.0
  0
LINE
  5
1B8
330
1F
100
AcDbEntity
  8
0
  6
CONTINUOUS
 62
     7
100
AcDbLine
 10
-7.018034899999999
 20
17.022406
 30
0.0
 11
7.018034899999999
 21
17.022406
 31
0.0
  0
LINE
  5
1B9
330
1F
100
AcDbEntity
  8
0
  6
CONTINUOUS
 62
     7
100
AcDbLine
 10
70.51803599999998
 20
17.022406
 30
0.0
 11
73.42499499999998
 21
18.70074299999998
 31
0.0
  0
LINE
  5
1BA
330
1F
100
AcDbEntity
  8
0
  6
CONTINUOUS
 62
     7
100
AcDbLine
 10
73.42500300000001
 20
18.70074299999998
 30
0.0
 11
73.42500300000001
 21
20.22240499999998
 31
0.0
  0
LINE
  5
1BB
330
1F
100
AcDbEntity
  8
0
  6
CONTINUOUS
 62
     7
100
AcDbLine
 10
56.48196399999999
 20
17.022406
 30
0.0
 11
70.51803599999998
 21
17.022406
 31
0.0
  0
LINE
  5
1BC
330
1F
100
AcDbEntity
  8
0
  6
CONTINUOUS
 62
     7
100
AcDbLine
 10
53.575001
 20
18.70074299999998
 30
0.0
 11
53.575001
 21
20.22240499999998
 31
0.0
  0
LINE
  5
1BD
330
1F
100
AcDbEntity
  8
0
  6
CONTINUOUS
 62
     7
100
AcDbLine
 10
9.925000199999999
 20
18.70074299999998
 30
0.0
 11
9.925000199999999
 21
20.22240499999998
 31
0.0
  0
LINE
  5
1BE
330
1F
100
AcDbEntity
  8
0
  6
CONTINUOUS
 62
     7
100
AcDbLine
 10
-73.42500300000001
 20
20.22240499999998
 30
0.0
 11
-73.42500300000001
 21
11.22240499999999
 31
0.0
  0
LINE
  5
1BF
330
1F
100
AcDbEntity
  8
0
  6
CONTINUOUS
 62
     7
100
AcDbLine
 10
-53.575001
 20
20.22240499999998
 30
0.0
 11
-53.575001
 21
11.22240499999999
 31
0.0
  0
LINE
  5
1C0
330
1F
100
AcDbEntity
  8
0
  6
CONTINUOUS
 62
     7
100
AcDbLine
 10
-73.42500300000001
 20
11.22240499999999
 30
0.0
 11
-53.575001
 21
11.22240499999999
 31
0.0
  0
LINE
  5
1C1
330
1F
100
AcDbEntity
  8
0
  6
CONTINUOUS
 62
     7
100
AcDbLine
 10
-136.925
 20
20.22240499999998
 30
0.0
 11
-136.925
 21
11.22240499999999
 31
0.0
  0
LINE
  5
1C2
330
1F
100
AcDbEntity
  8
0
  6
CONTINUOUS
 62
     7
100
AcDbLine
 10
-117.0749999999996
 20
20.22240499999998
 30
0.0
 11
-117.0749999999999
 21
11.22240499999999
 31
0.0
  0
LINE
  5
1C3
102
{ACAD_REACTORS
330
42C
102
}
330
1F
100
AcDbEntity
  8
0
  6
CONTINUOUS
 62
     7
100
AcDbLine
 10
-136.925
 20
11.22240499999999
 30
0.0
 11
-117.0749999999999
 21
11.22240499999999
 31
0.0
  0
LINE
  5
1C4
330
1F
100
AcDbEntity
  8
0
  6
CONTINUOUS
 62
     7
100
AcDbLine
 10
-30.15
 20
20.22240499999998
 30
0.0
 11
93.650002
 21
20.22240499999998
 31
0.0
  0
LINE
  5
1C5
330
1F
100
AcDbEntity
  8
0
  6
CONTINUOUS
 62
     7
100
AcDbLine
 10
-30.15
 20
91.822406
 30
0.0
 11
93.650002
 21
91.822406
 31
0.0
  0
LINE
  5
1C6
330
1F
100
AcDbEntity
  8
0
  6
CONTINUOUS
 62
     7
100
AcDbLine
 10
-157.14999
 20
20.22240499999998
 30
0.0
 11
-33.349998
 21
20.22240499999998
 31
0.0
  0
LINE
  5
1C7
102
{ACAD_REACTORS
330
3FC
102
}
330
1F
100
AcDbEntity
  8
0
  6
CONTINUOUS
 62
     7
100
AcDbLine
 10
-157.14999
 20
91.822406
 30
0.0
 11
-33.349998
 21
91.822406
 31
0.0
  0
LINE
  5
1C8
330
1F
100
AcDbEntity
  8
0
  6
CONTINUOUS
 62
     7
100
AcDbLine
 10
-93.650002
 20
83.07240300000001
 30
0.0
 11
30.15
 21
83.07240300000001
 31
0.0
  0
LINE
  5
1C9
330
1F
100
AcDbEntity
  8
0
  6
CONTINUOUS
 62
     7
100
AcDbLine
 10
30.15
 20
36.972404
 30
0.0
 11
30.15
 21
28.97240399999999
 31
0.0
  0
LINE
  5
1CA
330
1F
100
AcDbEntity
  8
0
  6
CONTINUOUS
 62
     7
100
AcDbLine
 10
-93.650002
 20
36.972404
 30
0.0
 11
-93.650002
 21
28.97240399999999
 31
0.0
  0
LINE
  5
1CB
330
1F
100
AcDbEntity
  8
0
  6
CONTINUOUS
 62
     7
100
AcDbLine
 10
-93.650002
 20
83.07240300000001
 30
0.0
 11
-93.650002
 21
75.07240300000002
 31
0.0
  0
LINE
  5
1CC
330
1F
100
AcDbEntity
  8
0
  6
CONTINUOUS
 62
     7
100
AcDbLine
 10
30.15
 20
83.07240300000001
 30
0.0
 11
30.15
 21
75.07240300000002
 31
0.0
  0
LINE
  5
1CD
330
1F
100
AcDbEntity
  8
0
  6
CONTINUOUS
 62
     7
100
AcDbLine
 10
-93.650002
 20
28.97240399999999
 30
0.0
 11
30.15
 21
28.97240399999999
 31
0.0
  0
LINE
  5
1CE
102
{ACAD_REACTORS
330
3B2
102
}
330
1F
100
AcDbEntity
  8
0
  6
CONTINUOUS
 62
     7
100
AcDbLine
 10
33.349998
 20
83.07240300000001
 30
0.0
 11
157.14999
 21
83.07240300000001
 31
0.0
  0
LINE
  5
1CF
330
1F
100
AcDbEntity
  8
0
  6
CONTINUOUS
 62
     7
100
AcDbLine
 10
33.349998
 20
28.97240399999999
 30
0.0
 11
157.14999
 21
28.97240399999999
 31
0.0
  0
LINE
  5
1D0
330
1F
100
AcDbEntity
  8
0
  6
CONTINUOUS
 62
     7
100
AcDbLine
 10
43.65999999999998
 20
74.07240300000002
 30
0.0
 11
43.65999999999998
 21
37.97240399999999
 31
0.0
  0
LINE
  5
1D1
330
1F
100
AcDbEntity
  8
0
  6
CONTINUOUS
 62
     7
100
AcDbLine
 10
82.34000400000002
 20
75.07240300000002
 30
0.0
 11
83.34000399999998
 21
74.07240300000002
 31
0.0
  0
LINE
  5
1D2
330
1F
100
AcDbEntity
  8
0
  6
CONTINUOUS
 62
     7
100
AcDbLine
 10
82.339996
 20
36.972404
 30
0.0
 11
83.34000399999998
 21
37.97240399999999
 31
0.0
  0
LINE
  5
1D3
330
1F
100
AcDbEntity
  8
0
  6
CONTINUOUS
 62
     7
100
AcDbLine
 10
83.339996
 20
74.07240300000002
 30
0.0
 11
83.339996
 21
37.97240399999999
 31
0.0
  0
LINE
  5
1D4
102
{ACAD_REACTORS
330
34F
330
3B2
102
}
330
1F
100
AcDbEntity
  8
0
  6
CONTINUOUS
 62
     7
100
AcDbLine
 10
33.349998
 20
75.07240300000002
 30
0.0
 11
157.14999
 21
75.07240300000002
 31
0.0
  0
LINE
  5
1D5
330
1F
100
AcDbEntity
  8
0
  6
CONTINUOUS
 62
     7
100
AcDbLine
 10
43.65999999999998
 20
37.97240399999999
 30
0.0
 11
44.66
 21
36.972404
 31
0.0
  0
LINE
  5
1D6
102
{ACAD_REACTORS
330
379
102
}
330
1F
100
AcDbEntity
  8
0
  6
CONTINUOUS
 62
     7
100
AcDbLine
 10
146.84
 20
74.07240300000002
 30
0.0
 11
146.84
 21
37.97240399999999
 31
0.0
  0
LINE
  5
1D7
330
1F
100
AcDbEntity
  8
0
  6
CONTINUOUS
 62
     7
100
AcDbLine
 10
145.84
 20
75.07240300000002
 30
0.0
 11
146.84
 21
74.072411
 31
0.0
  0
LINE
  5
1D8
102
{ACAD_REACTORS
330
379
102
}
330
1F
100
AcDbEntity
  8
0
  6
CONTINUOUS
 62
     7
100
AcDbLine
 10
107.1599999999998
 20
74.07240300000002
 30
0.0
 11
107.1599999999998
 21
37.97240399999999
 31
0.0
  0
LINE
  5
1D9
330
1F
100
AcDbEntity
  8
0
  6
CONTINUOUS
 62
     7
100
AcDbLine
 10
107.1599999999998
 20
37.972408
 30
0.0
 11
108.1599999999999
 21
36.972408
 31
0.0
  0
LINE
  5
1DA
102
{ACAD_REACTORS
330
34F
102
}
330
1F
100
AcDbEntity
  8
0
  6
CONTINUOUS
 62
     7
100
AcDbLine
 10
33.349998
 20
36.972404
 30
0.0
 11
157.14999
 21
36.972404
 31
0.0
  0
LINE
  5
1DB
330
1F
100
AcDbEntity
  8
0
  6
CONTINUOUS
 62
     7
100
AcDbLine
 10
108.1599999999999
 20
75.072411
 30
0.0
 11
107.1599999999998
 21
74.072411
 31
0.0
  0
LINE
  5
1DC
330
1F
100
AcDbEntity
  8
0
  6
CONTINUOUS
 62
     7
100
AcDbLine
 10
145.84
 20
36.972404
 30
0.0
 11
146.84
 21
37.97240399999999
 31
0.0
  0
LINE
  5
1DD
330
1F
100
AcDbEntity
  8
0
  6
CONTINUOUS
 62
     7
100
AcDbLine
 10
33.349998
 20
36.972404
 30
0.0
 11
33.349998
 21
28.97240399999999
 31
0.0
  0
LINE
  5
1DE
330
1F
100
AcDbEntity
  8
0
  6
CONTINUOUS
 62
     7
100
AcDbLine
 10
157.14999
 20
36.972404
 30
0.0
 11
157.14999
 21
28.97240399999999
 31
0.0
  0
LINE
  5
1DF
330
1F
100
AcDbEntity
  8
0
  6
CONTINUOUS
 62
     7
100
AcDbLine
 10
157.14999
 20
83.07240300000001
 30
0.0
 11
157.14999
 21
75.07240300000002
 31
0.0
  0
LINE
  5
1E0
330
1F
100
AcDbEntity
  8
0
  6
CONTINUOUS
 62
     7
100
AcDbLine
 10
33.349998
 20
83.07240300000001
 30
0.0
 11
33.349998
 21
75.07240300000002
 31
0.0
  0
LINE
  5
1E1
330
1F
100
AcDbEntity
  8
0
  6
CONTINUOUS
 62
     7
100
AcDbLine
 10
44.66
 20
75.07240300000002
 30
0.0
 11
43.65999999999998
 21
74.07240300000002
 31
0.0
  0
LINE
  5
1E2
330
1F
100
AcDbEntity
  8
0
  6
CONTINUOUS
 62
     7
100
AcDbLine
 10
-43.65999999999998
 20
74.07240300000002
 30
0.0
 11
-43.65999999999998
 21
37.97240399999999
 31
0.0
  0
LINE
  5
1E3
330
1F
100
AcDbEntity
  8
0
  6
CONTINUOUS
 62
     7
100
AcDbLine
 10
-44.66
 20
75.07240300000002
 30
0.0
 11
-43.65999999999998
 21
74.07240300000002
 31
0.0
  0
LINE
  5
1E4
330
1F
100
AcDbEntity
  8
0
  6
CONTINUOUS
 62
     7
100
AcDbLine
 10
-83.339996
 20
74.07240300000002
 30
0.0
 11
-83.339996
 21
37.97240399999999
 31
0.0
  0
LINE
  5
1E5
330
1F
100
AcDbEntity
  8
0
  6
CONTINUOUS
 62
     7
100
AcDbLine
 10
-83.339996
 20
37.97240399999999
 30
0.0
 11
-82.34000400000002
 21
36.972408
 31
0.0
  0
LINE
  5
1E6
330
1F
100
AcDbEntity
  8
0
  6
CONTINUOUS
 62
     7
100
AcDbLine
 10
-82.34000400000002
 20
75.07240300000002
 30
0.0
 11
-83.34000399999998
 21
74.07240300000002
 31
0.0
  0
LINE
  5
1E7
330
1F
100
AcDbEntity
  8
0
  6
CONTINUOUS
 62
     7
100
AcDbLine
 10
-44.66
 20
36.972404
 30
0.0
 11
-43.65999999999998
 21
37.97240399999999
 31
0.0
  0
LINE
  5
1E8
330
1F
100
AcDbEntity
  8
0
  6
CONTINUOUS
 62
     7
100
AcDbLine
 10
-129.4999999999998
 20
-70.387024
 30
0.0
 11
-129.4999999999998
 21
-78.60883299999997
 31
0.0
  0
LINE
  5
1E9
330
1F
100
AcDbEntity
  8
0
  6
CONTINUOUS
 62
     7
100
AcDbLine
 10
-124.5
 20
-70.387024
 30
0.0
 11
-124.5
 21
-78.60883299999997
 31
0.0
  0
LINE
  5
1EA
330
1F
100
AcDbEntity
  8
0
  6
CONTINUOUS
 62
     7
100
AcDbLine
 10
-129.3999899999998
 20
-106.2138099999999
 30
0.0
 11
-124.5999999999998
 21
-106.2138099999999
 31
0.0
  0
LINE
  5
1EB
330
1F
100
AcDbEntity
  8
0
  6
CONTINUOUS
 62
     7
100
AcDbLine
 10
-124.5999999999998
 20
-106.2138099999999
 30
0.0
 11
-124.5
 21
-106.04061
 31
0.0
  0
LINE
  5
1EC
330
1F
100
AcDbEntity
  8
0
  6
CONTINUOUS
 62
     7
100
AcDbLine
 10
-129.4999999999998
 20
-70.387016
 30
0.0
 11
-129.40001
 21
-70.213814
 31
0.0
  0
LINE
  5
1ED
330
1F
100
AcDbEntity
  8
0
  6
CONTINUOUS
 62
     7
100
AcDbLine
 10
-129.3999899999998
 20
-70.213814
 30
0.0
 11
-124.5999999999998
 21
-70.213814
 31
0.0
  0
LINE
  5
1EE
330
1F
100
AcDbEntity
  8
0
  6
CONTINUOUS
 62
     7
100
AcDbLine
 10
-124.5
 20
-106.04061
 30
0.0
 11
-124.5
 21
-97.81879400000001
 31
0.0
  0
LINE
  5
1EF
330
1F
100
AcDbEntity
  8
0
  6
CONTINUOUS
 62
     7
100
AcDbLine
 10
-66.0
 20
-106.04061
 30
0.0
 11
-65.89999399999999
 21
-106.2138099999999
 31
0.0
  0
LINE
  5
1F0
330
1F
100
AcDbEntity
  8
0
  6
CONTINUOUS
 62
     7
100
AcDbLine
 10
-65.900002
 20
-70.213814
 30
0.0
 11
-61.099998
 21
-70.213814
 31
0.0
  0
LINE
  5
1F1
330
1F
100
AcDbEntity
  8
0
  6
CONTINUOUS
 62
     7
100
AcDbLine
 10
-124.5999999999998
 20
-70.213814
 30
0.0
 11
-124.5
 21
-70.387024
 31
0.0
  0
LINE
  5
1F2
330
1F
100
AcDbEntity
  8
0
  6
CONTINUOUS
 62
     7
100
AcDbLine
 10
-129.4999999999998
 20
-106.04061
 30
0.0
 11
-129.4999999999998
 21
-97.81879400000001
 31
0.0
  0
LINE
  5
1F3
330
1F
100
AcDbEntity
  8
0
  6
CONTINUOUS
 62
     7
100
AcDbLine
 10
-66.0
 20
-106.04061
 30
0.0
 11
-66.0
 21
-97.81879400000001
 31
0.0
  0
LINE
  5
1F4
330
1F
100
AcDbEntity
  8
0
  6
CONTINUOUS
 62
     7
100
AcDbLine
 10
-61.099998
 20
-70.213814
 30
0.0
 11
-60.999996
 21
-70.387016
 31
0.0
  0
LINE
  5
1F5
330
1F
100
AcDbEntity
  8
0
  6
CONTINUOUS
 62
     7
100
AcDbLine
 10
-61.0
 20
-106.04061
 30
0.0
 11
-61.0
 21
-97.81879400000001
 31
0.0
  0
LINE
  5
1F6
330
1F
100
AcDbEntity
  8
0
  6
CONTINUOUS
 62
     7
100
AcDbLine
 10
-66.0
 20
-70.387016
 30
0.0
 11
-65.900002
 21
-70.213814
 31
0.0
  0
LINE
  5
1F7
330
1F
100
AcDbEntity
  8
0
  6
CONTINUOUS
 62
     7
100
AcDbLine
 10
-61.099998
 20
-106.2138099999999
 30
0.0
 11
-61.0
 21
-106.04061
 31
0.0
  0
LINE
  5
1F8
330
1F
100
AcDbEntity
  8
0
  6
CONTINUOUS
 62
     7
100
AcDbLine
 10
-65.900002
 20
-106.2138099999999
 30
0.0
 11
-61.099998
 21
-106.2138099999999
 31
0.0
  0
LINE
  5
1F9
330
1F
100
AcDbEntity
  8
0
  6
CONTINUOUS
 62
     7
100
AcDbLine
 10
-61.0
 20
-70.387024
 30
0.0
 11
-61.0
 21
-78.60883299999997
 31
0.0
  0
LINE
  5
1FA
330
1F
100
AcDbEntity
  8
0
  6
CONTINUOUS
 62
     7
100
AcDbLine
 10
-66.0
 20
-70.387024
 30
0.0
 11
-66.0
 21
-78.60883299999997
 31
0.0
  0
LINE
  5
1FB
330
1F
100
AcDbEntity
  8
0
  6
CONTINUOUS
 62
     7
100
AcDbLine
 10
-7.018034899999999
 20
-81.195778
 30
0.0
 11
-7.018034899999999
 21
-95.23184999999999
 31
0.0
  0
LINE
  5
1FC
330
1F
100
AcDbEntity
  8
0
  6
CONTINUOUS
 62
     7
100
AcDbLine
 10
7.018034899999999
 20
-81.195778
 30
0.0
 11
7.018034899999999
 21
-95.23184999999999
 31
0.0
  0
LINE
  5
1FD
330
1F
100
AcDbEntity
  8
0
  6
CONTINUOUS
 62
     7
100
AcDbLine
 10
56.48196399999999
 20
-81.195778
 30
0.0
 11
70.51803599999998
 21
-81.195778
 31
0.0
  0
LINE
  5
1FE
330
1F
100
AcDbEntity
  8
0
  6
CONTINUOUS
 62
     7
100
AcDbLine
 10
-7.018034899999999
 20
-95.23184999999999
 30
0.0
 11
7.018034899999999
 21
-95.23184999999999
 31
0.0
  0
LINE
  5
1FF
330
1F
100
AcDbEntity
  8
0
  6
CONTINUOUS
 62
     7
100
AcDbLine
 10
56.48196399999999
 20
-95.23184999999999
 30
0.0
 11
70.51803599999998
 21
-95.23184999999999
 31
0.0
  0
LINE
  5
200
330
1F
100
AcDbEntity
  8
0
  6
CONTINUOUS
 62
     7
100
AcDbLine
 10
-7.018034899999999
 20
-81.195778
 30
0.0
 11
7.018034899999999
 21
-81.195778
 31
0.0
  0
LINE
  5
201
330
1F
100
AcDbEntity
  8
0
  6
CONTINUOUS
 62
     7
100
AcDbLine
 10
70.51803599999998
 20
-81.195778
 30
0.0
 11
70.51803599999998
 21
-95.23184999999999
 31
0.0
  0
LINE
  5
202
330
1F
100
AcDbEntity
  8
0
  6
CONTINUOUS
 62
     7
100
AcDbLine
 10
56.48196399999999
 20
-81.195778
 30
0.0
 11
56.48196399999999
 21
-95.23184999999999
 31
0.0
  0
LINE
  5
203
330
1F
100
AcDbEntity
  8
0
  6
CONTINUOUS
 62
     7
100
AcDbLine
 10
-129.4999999999998
 20
-106.04061
 30
0.0
 11
-129.3999899999998
 21
-106.2138099999999
 31
0.0
  0
LINE
  5
204
102
{ACAD_REACTORS
330
491
102
}
330
1F
100
AcDbEntity
  8
0
  6
CENTER
 62
     6
 48
2.0
100
AcDbLine
 10
127.0
 20
-50.063816
 30
0.0
 11
127.0
 21
-126.3638199999999
 31
0.0
  0
LINE
  5
205
102
{ACAD_REACTORS
330
4C1
102
}
330
1F
100
AcDbEntity
  8
0
  6
CENTER
 62
     6
 48
2.0
100
AcDbLine
 10
-127.0
 20
-50.063816
 30
0.0
 11
-127.0
 21
-126.3638199999999
 31
0.0
  0
LINE
  5
206
330
1F
100
AcDbEntity
  8
0
  6
CENTER
 62
     6
 48
2.0
100
AcDbLine
 10
63.5
 20
-50.063816
 30
0.0
 11
63.5
 21
-126.3638199999999
 31
0.0
  0
LINE
  5
207
102
{ACAD_REACTORS
330
4C1
330
4D9
102
}
330
1F
100
AcDbEntity
  8
0
  6
CENTER
 62
     6
 48
2.0
100
AcDbLine
 10
-63.5
 20
-50.063816
 30
0.0
 11
-63.5
 21
-126.3638199999999
 31
0.0
  0
LINE
  5
208
102
{ACAD_REACTORS
330
4D9
102
}
330
1F
100
AcDbEntity
  8
0
  6
CENTER
 62
     6
 48
2.0
100
AcDbLine
 10
-0.0000000000000142
 20
-50.063816
 30
0.0
 11
-0.0000000000000142
 21
-126.3638199999999
 31
0.0
  0
LINE
  5
209
330
1F
100
AcDbEntity
  8
0
  6
CENTER
 62
     6
 48
2.0
100
AcDbLine
 10
-165.14999
 20
-88.21381399999998
 30
0.0
 11
165.14999
 21
-88.21381399999998
 31
0.0
  0
LINE
  5
20A
330
1F
100
AcDbEntity
  8
0
  6
CONTINUOUS
 62
     7
100
AcDbLine
 10
-119.98196
 20
95.0224
 30
0.0
 11
-117.0749899999999
 21
93.34406300000001
 31
0.0
  0
LINE
  5
20B
330
1F
100
AcDbEntity
  8
0
  6
CONTINUOUS
 62
     7
100
AcDbLine
 10
-136.925
 20
93.34406300000001
 30
0.0
 11
-134.0180399999999
 21
95.0224
 31
0.0
  0
LINE
  5
20C
330
1F
100
AcDbEntity
  8
0
  6
CONTINUOUS
 62
     7
100
AcDbLine
 10
-117.0749999999999
 20
93.34407
 30
0.0
 11
-117.0749999999999
 21
91.822406
 31
0.0
  0
LINE
  5
20D
102
{ACAD_REACTORS
330
414
102
}
330
1F
100
AcDbEntity
  8
0
  6
CONTINUOUS
 62
     7
100
AcDbLine
 10
-134.0180399999999
 20
95.022408
 30
0.0
 11
-119.98196
 21
95.022408
 31
0.0
  0
LINE
  5
20E
330
1F
100
AcDbEntity
  8
0
  6
CONTINUOUS
 62
     7
100
AcDbLine
 10
-136.925
 20
93.34407
 30
0.0
 11
-136.925
 21
91.822406
 31
0.0
  0
LINE
  5
20F
330
1F
100
AcDbEntity
  8
0
  6
CONTINUOUS
 62
     7
100
AcDbLine
 10
-56.48196399999999
 20
95.022408
 30
0.0
 11
-53.57499699999999
 21
93.34407
 31
0.0
  0
LINE
  5
210
330
1F
100
AcDbEntity
  8
0
  6
CONTINUOUS
 62
     7
100
AcDbLine
 10
-73.42500300000001
 20
93.34407
 30
0.0
 11
-70.51803599999998
 21
95.022408
 31
0.0
  0
LINE
  5
211
330
1F
100
AcDbEntity
  8
0
  6
CONTINUOUS
 62
     7
100
AcDbLine
 10
7.018035399999999
 20
95.022408
 30
0.0
 11
9.925000199999999
 21
93.34407
 31
0.0
  0
LINE
  5
212
330
1F
100
AcDbEntity
  8
0
  6
CONTINUOUS
 62
     7
100
AcDbLine
 10
-53.575001
 20
93.34407
 30
0.0
 11
-53.575001
 21
91.822406
 31
0.0
  0
LINE
  5
213
330
1F
100
AcDbEntity
  8
0
  6
CONTINUOUS
 62
     7
100
AcDbLine
 10
-9.925000199999999
 20
93.34407
 30
0.0
 11
-7.018035399999999
 21
95.022408
 31
0.0
  0
LINE
  5
214
330
1F
100
AcDbEntity
  8
0
  6
CONTINUOUS
 62
     7
100
AcDbLine
 10
-9.925000199999999
 20
93.34407
 30
0.0
 11
-9.925000199999999
 21
91.822406
 31
0.0
  0
LINE
  5
215
330
1F
100
AcDbEntity
  8
0
  6
CONTINUOUS
 62
     7
100
AcDbLine
 10
53.57499699999999
 20
93.34407
 30
0.0
 11
56.48196399999999
 21
95.022408
 31
0.0
  0
LINE
  5
216
330
1F
100
AcDbEntity
  8
0
  6
CONTINUOUS
 62
     7
100
AcDbLine
 10
-7.018034899999999
 20
95.022408
 30
0.0
 11
7.018034899999999
 21
95.022408
 31
0.0
  0
LINE
  5
217
330
1F
100
AcDbEntity
  8
0
  6
CONTINUOUS
 62
     7
100
AcDbLine
 10
-93.650002
 20
75.07240300000002
 30
0.0
 11
30.15
 21
75.07240300000002
 31
0.0
  0
LINE
  5
218
330
1F
100
AcDbEntity
  8
0
  6
CONTINUOUS
 62
     7
100
AcDbLine
 10
19.83999999999999
 20
74.07240300000002
 30
0.0
 11
19.83999999999999
 21
37.97240399999999
 31
0.0
  0
LINE
  5
219
330
1F
100
AcDbEntity
  8
0
  6
CONTINUOUS
 62
     7
100
AcDbLine
 10
18.84
 20
75.07240300000002
 30
0.0
 11
19.84000199999998
 21
74.07240300000002
 31
0.0
  0
LINE
  5
21A
330
1F
100
AcDbEntity
  8
0
  6
CONTINUOUS
 62
     7
100
AcDbLine
 10
-19.83999999999999
 20
74.07240300000002
 30
0.0
 11
-19.83999999999999
 21
37.97240399999999
 31
0.0
  0
LINE
  5
21B
330
1F
100
AcDbEntity
  8
0
  6
CONTINUOUS
 62
     7
100
AcDbLine
 10
-19.83999999999999
 20
37.97240399999999
 30
0.0
 11
-18.839998
 21
36.972404
 31
0.0
  0
LINE
  5
21C
330
1F
100
AcDbEntity
  8
0
  6
CONTINUOUS
 62
     7
100
AcDbLine
 10
-93.650002
 20
36.972404
 30
0.0
 11
30.15
 21
36.972404
 31
0.0
  0
LINE
  5
21D
330
1F
100
AcDbEntity
  8
0
  6
CONTINUOUS
 62
     7
100
AcDbLine
 10
-18.84
 20
75.07240300000002
 30
0.0
 11
-19.84000199999998
 21
74.07240300000002
 31
0.0
  0
LINE
  5
21E
330
1F
100
AcDbEntity
  8
0
  6
CONTINUOUS
 62
     7
100
AcDbLine
 10
18.84
 20
36.972408
 30
0.0
 11
19.839998
 21
37.97240399999999
 31
0.0
  0
LINE
  5
21F
330
1F
100
AcDbEntity
  8
0
  6
CONTINUOUS
 62
     7
100
AcDbLine
 10
-70.51803599999998
 20
95.022408
 30
0.0
 11
-56.48196399999999
 21
95.022408
 31
0.0
  0
LINE
  5
220
330
1F
100
AcDbEntity
  8
0
  6
CONTINUOUS
 62
     7
100
AcDbLine
 10
70.51803599999998
 20
95.022408
 30
0.0
 11
73.42500300000001
 21
93.34407
 31
0.0
  0
LINE
  5
221
330
1F
100
AcDbEntity
  8
0
  6
CONTINUOUS
 62
     7
100
AcDbLine
 10
73.42500300000001
 20
93.34407
 30
0.0
 11
73.42500300000001
 21
91.822406
 31
0.0
  0
LINE
  5
222
330
1F
100
AcDbEntity
  8
0
  6
CONTINUOUS
 62
     7
100
AcDbLine
 10
-73.42500300000001
 20
93.34407
 30
0.0
 11
-73.42500300000001
 21
91.822406
 31
0.0
  0
LINE
  5
223
330
1F
100
AcDbEntity
  8
0
  6
CONTINUOUS
 62
     7
100
AcDbLine
 10
56.48196399999999
 20
95.022408
 30
0.0
 11
70.51803599999998
 21
95.022408
 31
0.0
  0
LINE
  5
224
330
1F
100
AcDbEntity
  8
0
  6
CONTINUOUS
 62
     7
100
AcDbLine
 10
53.575001
 20
93.34407
 30
0.0
 11
53.57500100000001
 21
91.822406
 31
0.0
  0
LINE
  5
225
330
1F
100
AcDbEntity
  8
0
  6
CENTER
 62
     6
 48
2.0
100
AcDbLine
 10
127.0
 20
91.387405
 30
0.0
 11
127.0
 21
20.972404
 31
0.0
  0
LINE
  5
226
330
1F
100
AcDbEntity
  8
0
  6
CENTER
 62
     6
 48
2.0
100
AcDbLine
 10
63.5
 20
103.0224099999998
 30
0.0
 11
63.5
 21
9.0224056
 31
0.0
  0
LINE
  5
227
330
1F
100
AcDbEntity
  8
0
  6
CONTINUOUS
 62
     7
100
AcDbLine
 10
-30.15
 20
28.22240499999999
 30
0.0
 11
93.650002
 21
28.22240499999999
 31
0.0
  0
LINE
  5
228
330
1F
100
AcDbEntity
  8
0
  6
CONTINUOUS
 62
     7
100
AcDbLine
 10
-30.15
 20
83.82240600000001
 30
0.0
 11
93.650002
 21
83.82240600000001
 31
0.0
  0
LINE
  5
229
330
1F
100
AcDbEntity
  8
0
  6
CONTINUOUS
 62
     7
100
AcDbLine
 10
93.650002
 20
91.822406
 30
0.0
 11
93.650002
 21
83.82240600000001
 31
0.0
  0
LINE
  5
22A
330
1F
100
AcDbEntity
  8
0
  6
CONTINUOUS
 62
     7
100
AcDbLine
 10
-30.15
 20
91.822406
 30
0.0
 11
-30.15
 21
83.82240600000001
 31
0.0
  0
LINE
  5
22B
330
1F
100
AcDbEntity
  8
0
  6
CONTINUOUS
 62
     7
100
AcDbLine
 10
93.650002
 20
28.22240499999999
 30
0.0
 11
93.650002
 21
20.22240499999998
 31
0.0
  0
LINE
  5
22C
330
1F
100
AcDbEntity
  8
0
  6
CONTINUOUS
 62
     7
100
AcDbLine
 10
-30.15
 20
28.22240499999999
 30
0.0
 11
-30.15
 21
20.22240499999998
 31
0.0
  0
LINE
  5
22D
330
1F
100
AcDbEntity
  8
0
  6
CONTINUOUS
 62
     7
100
AcDbLine
 10
9.925000199999999
 20
93.34407
 30
0.0
 11
9.925000199999999
 21
91.822406
 31
0.0
  0
LINE
  5
22E
330
1F
100
AcDbEntity
  8
0
  6
CONTINUOUS
 62
     7
100
AcDbLine
 10
-117.0749999999999
 20
83.82240600000001
 30
0.0
 11
-117.0749999999996
 21
28.22240499999999
 31
0.0
  0
LINE
  5
22F
330
1F
100
AcDbEntity
  8
0
  6
CONTINUOUS
 62
     7
100
AcDbLine
 10
-136.925
 20
83.82240600000001
 30
0.0
 11
-136.925
 21
28.22240499999999
 31
0.0
  0
LINE
  5
230
330
1F
100
AcDbEntity
  8
0
  6
CENTER
 62
     6
 48
2.0
100
AcDbLine
 10
0.0
 20
103.0224099999998
 30
0.0
 11
0.0
 21
9.0224056
 31
0.0
  0
LINE
  5
231
102
{ACAD_REACTORS
330
414
330
42C
102
}
330
1F
100
AcDbEntity
  8
0
  6
CENTER
 62
     6
 48
2.0
100
AcDbLine
 10
-165.14999
 20
56.022404
 30
0.0
 11
165.14999
 21
56.022404
 31
0.0
  0
LINE
  5
232
330
1F
100
AcDbEntity
  8
0
  6
CENTER
 62
     6
 48
2.0
100
AcDbLine
 10
-63.5
 20
103.0224099999998
 30
0.0
 11
-63.5
 21
3.222405199999999
 31
0.0
  0
LINE
  5
233
330
1F
100
AcDbEntity
  8
0
  6
CENTER
 62
     6
 48
2.0
100
AcDbLine
 10
-127.0
 20
103.0224099999998
 30
0.0
 11
-127.0
 21
3.222405199999999
 31
0.0
  0
LINE
  5
234
330
1F
100
AcDbEntity
  8
0
  6
CONTINUOUS
 62
     7
100
AcDbLine
 10
-157.14999
 20
28.22240499999999
 30
0.0
 11
-33.349998
 21
28.22240499999999
 31
0.0
  0
LINE
  5
235
102
{ACAD_REACTORS
330
3FC
102
}
330
1F
100
AcDbEntity
  8
0
  6
CONTINUOUS
 62
     7
100
AcDbLine
 10
-157.14999
 20
83.82240600000001
 30
0.0
 11
-33.349998
 21
83.82240600000001
 31
0.0
  0
LINE
  5
236
330
1F
100
AcDbEntity
  8
0
  6
CONTINUOUS
 62
     7
100
AcDbLine
 10
-33.349998
 20
91.822406
 30
0.0
 11
-33.349998
 21
83.82240600000001
 31
0.0
  0
LINE
  5
237
330
1F
100
AcDbEntity
  8
0
  6
CONTINUOUS
 62
     7
100
AcDbLine
 10
-157.14999
 20
91.822406
 30
0.0
 11
-157.14999
 21
83.82240600000001
 31
0.0
  0
LINE
  5
238
330
1F
100
AcDbEntity
  8
0
  6
CONTINUOUS
 62
     7
100
AcDbLine
 10
-33.349998
 20
28.22240499999999
 30
0.0
 11
-33.349998
 21
20.22240499999998
 31
0.0
  0
LINE
  5
239
330
1F
100
AcDbEntity
  8
0
  6
CONTINUOUS
 62
     7
100
AcDbLine
 10
-157.14999
 20
28.22240499999999
 30
0.0
 11
-157.14999
 21
20.22240499999998
 31
0.0
  0
DIMENSION
  5
338
102
{ACAD_XDICTIONARY
360
345
102
}
102
{ACAD_REACTORS
330
34F
102
}
330
1F
100
AcDbEntity
  8
0
100
AcDbDimension
  2
*D0
 10
237.8561778286059
 20
36.97240399999996
 30
0.0
 11
237.8561778286059
 21
56.02240350000003
 31
0.0
 70
   160
  3
ISO-25
100
AcDbAlignedDimension
 13
157.14999
 23
75.07240300000002
 33
0.0
 14
157.14999
 24
36.972404
 34
0.0
 50
90.0
100
AcDbRotatedDimension
1001
ACAD
1000
DSTYLE
1002
{
1070
    78
1070
     0
1002
}
  0
DIMENSION
  5
362
102
{ACAD_XDICTIONARY
360
36F
102
}
102
{ACAD_REACTORS
330
379
102
}
330
1F
100
AcDbEntity
  8
0
100
AcDbDimension
  2
*D1
 10
146.84
 20
44.68406964496203
 30
0.0
 11
189.84
 21
44.68406964496203
 31
0.0
 70
   160
  1
φ<>
  3
ISO-25
100
AcDbAlignedDimension
 13
107.1599999999998
 23
37.97240399999999
 33
0.0
 14
146.84
 24
37.97240399999999
 34
0.0
100
AcDbRotatedDimension
  0
DIMENSION
  5
397
102
{ACAD_XDICTIONARY
360
3A6
102
}
102
{ACAD_REACTORS
330
3B2
102
}
330
1F
100
AcDbEntity
  8
0
100
AcDbDimension
  2
*D2
 10
237.856177828606
 20
83.07240300000001
 30
0.0
 11
230.8561778286061
 21
111.8224029999999
 31
0.0
 70
    32
  3
ISO-25
100
AcDbAlignedDimension
 13
157.14999
 23
75.07240300000002
 33
0.0
 14
157.14999
 24
83.07240300000001
 34
0.0
 50
90.0
100
AcDbRotatedDimension
1001
ACAD
1000
DSTYLE
1002
{
1070
   271
1070
     1
1070
    78
1070
     0
1002
}
  0
DIMENSION
  5
3B3
330
1F
100
AcDbEntity
  8
0
100
AcDbDimension
  2
*D3
 10
-117.0749999999999
 20
33.89220838797973
 30
0.0
 11
-181.2208480611234
 21
33.89220838797973
 31
0.0
 70
   160
  1
φ<>
  3
ISO-25
100
AcDbAlignedDimension
 13
-136.925
 23
28.172405
 33
0.0
 14
-117.0749999999999
 24
28.172405
 34
0.0
100
AcDbRotatedDimension
  0
DIMENSION
  5
3E1
102
{ACAD_XDICTIONARY
360
3F0
102
}
102
{ACAD_REACTORS
330
3FC
102
}
330
1F
100
AcDbEntity
  8
0
100
AcDbDimension
  2
*D4
 10
-195.1659914060811
 20
91.822406
 30
0.0
 11
-202.1659914060812
 21
120.5724059999996
 31
0.0
 70
    32
  3
ISO-25
100
AcDbAlignedDimension
 13
-157.14999
 23
83.82240600000001
 33
0.0
 14
-157.14999
 24
91.822406
 34
0.0
 50
90.0
100
AcDbRotatedDimension
1001
ACAD
1000
DSTYLE
1002
{
1070
   271
1070
     1
1070
    78
1070
     0
1002
}
  0
DIMENSION
  5
3FD
102
{ACAD_XDICTIONARY
360
40A
102
}
102
{ACAD_REACTORS
330
414
102
}
330
1F
100
AcDbEntity
  8
0
100
AcDbDimension
  2
*D5
 10
-215.0182355171124
 20
95.022408
 30
0.0
 11
-222.0182355171123
 21
75.52240599999997
 31
0.0
 70
    32
  3
ISO-25
100
AcDbAlignedDimension
 13
-165.14999
 23
56.022404
 33
0.0
 14
-134.0180399999999
 24
95.022408
 34
0.0
 50
90.0
100
AcDbRotatedDimension
1001
ACAD
1000
DSTYLE
1002
{
1070
   271
1070
     1
1070
    78
1070
     0
1002
}
  0
DIMENSION
  5
415
102
{ACAD_XDICTIONARY
360
422
102
}
102
{ACAD_REACTORS
330
42C
102
}
330
1F
100
AcDbEntity
  8
0
100
AcDbDimension
  2
*D6
 10
-215.0182355171124
 20
11.22240499999999
 30
0.0
 11
-222.0182355171123
 21
33.62240449999998
 31
0.0
 70
    32
  3
ISO-25
100
AcDbAlignedDimension
 13
-165.14999
 23
56.022404
 33
0.0
 14
-136.925
 24
11.22240499999999
 34
0.0
 50
90.0
100
AcDbRotatedDimension
  0
DIMENSION
  5
47A
102
{ACAD_XDICTIONARY
360
487
102
}
102
{ACAD_REACTORS
330
491
102
}
330
1F
100
AcDbEntity
  8
0
100
AcDbDimension
  2
*D7
 10
220.8730303418294
 20
-118.363814
 30
0.0
 11
213.8730303418294
 21
-88.21381399999998
 31
0.0
 70
    32
  3
ISO-25
100
AcDbAlignedDimension
 13
127.0
 23
-58.06381399999999
 33
0.0
 14
127.0
 24
-118.363814
 34
0.0
 50
90.0
100
AcDbRotatedDimension
  0
DIMENSION
  5
492
102
{ACAD_XDICTIONARY
360
49F
102
}
102
{ACAD_REACTORS
330
4A9
102
}
330
1F
100
AcDbEntity
  8
0
100
AcDbDimension
  2
*D8
 10
-192.4445604670194
 20
-114.2138139999997
 30
0.0
 11
-199.4445604670193
 21
-88.21381399999994
 31
0.0
 70
    32
  3
ISO-25
100
AcDbAlignedDimension
 13
-131.14999
 23
-62.21381399999998
 33
0.0
 14
-131.14999
 24
-114.2138139999999
 34
0.0
 50
90.0
100
AcDbRotatedDimension
1001
ACAD
1000
DSTYLE
1002
{
1070
   271
1070
     1
1070
    78
1070
     0
1002
}
  0
DIMENSION
  5
4AA
102
{ACAD_XDICTIONARY
360
4B7
102
}
102
{ACAD_REACTORS
330
4C1
102
}
330
1F
100
AcDbEntity
  8
0
100
AcDbDimension
  2
*D9
 10
-63.5
 20
-153.1016349396856
 30
0.0
 11
-95.25
 21
-146.1016349396855
 31
0.0
 70
    32
  3
ISO-25
100
AcDbAlignedDimension
 13
-127.0
 23
-126.3638199999999
 33
0.0
 14
-63.5
 24
-126.3638199999999
 34
0.0
100
AcDbRotatedDimension
1001
ACAD
1000
DSTYLE
1002
{
1070
    78
1070
     0
1002
}
  0
DIMENSION
  5
4C2
102
{ACAD_XDICTIONARY
360
4CF
102
}
102
{ACAD_REACTORS
330
4D9
102
}
330
1F
100
AcDbEntity
  8
0
100
AcDbDimension
  2
*D10
 10
-0.0000000000000158
 20
-153.1016349396856
 30
0.0
 11
-31.75
 21
-146.1016349396855
 31
0.0
 70
    32
  3
ISO-25
100
AcDbAlignedDimension
 13
-63.5
 23
-126.3638199999999
 33
0.0
 14
-0.0000000000000142
 24
-126.3638199999999
 34
0.0
100
AcDbRotatedDimension
1001
ACAD
1000
DSTYLE
1002
{
1070
    78
1070
     0
1002
}
  0
TEXT
  5
683
330
1F
100
AcDbEntity
  8
0
100
AcDbText
 10
182.3435221068514
 20
-169.6463697620156
 30
0.0
 40
3.1
  1
DATE2020.5.1
100
AcDbText
  0
ENDSEC
  0
SECTION
  2
OBJECTS
  0
DICTIONARY
  5
C
330
0
100
AcDbDictionary
  3
ACAD_GROUP
350
D
  3
ACAD_LAYOUT
350
1A
  3
ACAD_MLINESTYLE
350
17
  3
ACAD_PLOTSETTINGS
350
19
  3
ACAD_PLOTSTYLENAME
350
E
  3
ACDBHEADERROUNDTRIPXREC
350
6B4
  3
ACDBVARIABLEDICTIONARY
350
2C
  0
DICTIONARY
  5
6A8
330
1F
100
AcDbDictionary
280
     1
  3
ACAD_LAYOUTSELFREF
360
6D6
  0
DICTIONARY
  5
6A6
330
1B
100
AcDbDictionary
280
     1
  3
ACAD_LAYOUTSELFREF
360
6D5
  0
DICTIONARY
  5
345
330
338
100
AcDbDictionary
280
     1
  3
ACAD_DIMASSOC
360
34F
  0
DICTIONARY
  5
36F
330
362
100
AcDbDictionary
280
     1
  3
ACAD_DIMASSOC
360
379
  0
DICTIONARY
  5
3A6
330
397
100
AcDbDictionary
280
     1
  3
ACAD_DIMASSOC
360
3B2
  0
DICTIONARY
  5
3F0
330
3E1
100
AcDbDictionary
280
     1
  3
ACAD_DIMASSOC
360
3FC
  0
DICTIONARY
  5
40A
330
3FD
100
AcDbDictionary
280
     1
  3
ACAD_DIMASSOC
360
414
  0
DICTIONARY
  5
422
330
415
100
AcDbDictionary
280
     1
  3
ACAD_DIMASSOC
360
42C
  0
DICTIONARY
  5
487
330
47A
100
AcDbDictionary
280
     1
  3
ACAD_DIMASSOC
360
491
  0
DICTIONARY
  5
49F
330
492
100
AcDbDictionary
280
     1
  3
ACAD_DIMASSOC
360
4A9
  0
DICTIONARY
  5
4B7
330
4AA
100
AcDbDictionary
280
     1
  3
ACAD_DIMASSOC
360
4C1
  0
DICTIONARY
  5
4CF
330
4C2
100
AcDbDictionary
280
     1
  3
ACAD_DIMASSOC
360
4D9
  0
DICTIONARY
  5
D
102
{ACAD_REACTORS
330
C
102
}
330
C
100
AcDbDictionary
  0
DICTIONARY
  5
1A
102
{ACAD_REACTORS
330
C
102
}
330
C
100
AcDbDictionary
  0
DICTIONARY
  5
17
102
{ACAD_REACTORS
330
C
102
}
330
C
100
AcDbDictionary
  3
STANDARD
350
18
  0
DICTIONARY
  5
19
102
{ACAD_REACTORS
330
C
102
}
330
C
100
AcDbDictionary
  0
ACDBDICTIONARYWDFLT
  5
E
102
{ACAD_REACTORS
330
C
102
}
330
C
100
AcDbDictionary
281
     1
  3
Normal
350
F
100
AcDbDictionaryWithDefault
340
F
  0
DICTIONARY
  5
6B4
102
{ACAD_REACTORS
330
C
102
}
330
C
100
AcDbDictionary
  3
CEPSNTYPE
350
6BE
  3
DIMSTYLEDATA
350
6C2
  3
FINGERPRINTGUID
350
6BF
  3
HYPERLINKBASE
350
6B7
  3
INSUNITS
350
6BD
  3
LAYOUTDICT
350
6B9
  3
LWETCUNION
350
6BC
  3
PLOTSETDICT
350
6BA
  3
PLOTSTYLNAMDICT
350
6BB
  3
PSVPSCALE
350
6C1
  3
PUCSBASE
350
6C5
  3
PUCSORGBACK
350
6CB
  3
PUCSORGBOTTOM
350
6C7
  3
PUCSORGFRONT
350
6CA
  3
PUCSORGLEFT
350
6C8
  3
PUCSORGRIGHT
350
6C9
  3
PUCSORGTOP
350
6C6
  3
PUCSORTHOREF
350
6C3
  3
PUCSORTHOVIEW
350
6C4
  3
STYLESHEET
350
6B8
  3
TSTACKALIGN
350
6B5
  3
TSTACKSIZE
350
6B6
  3
UCSBASE
350
6CE
  3
UCSORGBACK
350
6D4
  3
UCSORGBOTTOM
350
6D0
  3
UCSORGFRONT
350
6D3
  3
UCSORGLEFT
350
6D1
  3
UCSORGRIGHT
350
6D2
  3
UCSORGTOP
350
6CF
  3
UCSORTHOREF
350
6CC
  3
UCSORTHOVIEW
350
6CD
  3
VERSIONGUID
350
6C0
  0
DICTIONARY
  5
2C
102
{ACAD_REACTORS
330
C
102
}
330
C
100
AcDbDictionary
  3
DIMASSOC
350
2E
  3
HIDETEXT
350
2D
  0
XRECORD
  5
6D6
102
{ACAD_REACTORS
330
6A8
102
}
330
6A8
100
AcDbXrecord
340
1F
  0
XRECORD
  5
6D5
102
{ACAD_REACTORS
330
6A6
102
}
330
6A6
100
AcDbXrecord
340
1B
  0
DIMASSOC
  5
34F
102
{ACAD_REACTORS
330
345
102
}
330
345
100
AcDbDimAssoc
330
338
 90
        3
 70
     0
 71
     0
  1
AcDbOsnapPointRef
 72
     1
331
1D4
 73
     2
 91
        0
 40
1.0
 10
157.14999
 20
75.07240300000002
 30
0.0
 75
     0
  1
AcDbOsnapPointRef
 72
     1
331
1DA
 73
     2
 91
        0
 40
1.0
 10
157.14999
 20
36.972404
 30
0.0
 75
     0
  0
DIMASSOC
  5
379
102
{ACAD_REACTORS
330
36F
102
}
330
36F
100
AcDbDimAssoc
330
362
 90
        3
 70
     0
 71
     0
  1
AcDbOsnapPointRef
 72
     1
331
1D8
 73
     2
 91
        0
 40
1.0
 10
107.1599999999998
 20
37.97240399999999
 30
0.0
 75
     0
  1
AcDbOsnapPointRef
 72
     1
331
1D6
 73
     2
 91
        0
 40
1.0
 10
146.84
 20
37.97240399999999
 30
0.0
 75
     0
  0
DIMASSOC
  5
3B2
102
{ACAD_REACTORS
330
3A6
102
}
330
3A6
100
AcDbDimAssoc
330
397
 90
        3
 70
     0
 71
     0
  1
AcDbOsnapPointRef
 72
     1
331
1D4
 73
     2
 91
        0
 40
1.0
 10
157.14999
 20
75.07240300000002
 30
0.0
 75
     0
  1
AcDbOsnapPointRef
 72
     1
331
1CE
 73
     2
 91
        0
 40
1.0
 10
157.14999
 20
83.07240300000001
 30
0.0
 75
     0
  0
DIMASSOC
  5
3FC
102
{ACAD_REACTORS
330
3F0
102
}
330
3F0
100
AcDbDimAssoc
330
3E1
 90
        3
 70
     0
 71
     0
  1
AcDbOsnapPointRef
 72
    13
331
235
 73
     2
 91
        0
 40
0.0
 10
-157.14999
 20
83.82240600000001
 30
0.0
 75
     0
  1
AcDbOsnapPointRef
 72
    13
331
1C7
 73
     2
 91
        0
 40
0.0
 10
-157.14999
 20
91.822406
 30
0.0
 75
     0
  0
DIMASSOC
  5
414
102
{ACAD_REACTORS
330
40A
102
}
330
40A
100
AcDbDimAssoc
330
3FD
 90
        3
 70
     0
 71
     0
  1
AcDbOsnapPointRef
 72
    13
331
231
 73
     2
 91
        0
 40
0.0
 10
-165.14999
 20
56.022404
 30
0.0
 75
     0
  1
AcDbOsnapPointRef
 72
    13
331
20D
 73
     2
 91
        0
 40
0.0
 10
-134.0180399999999
 20
95.022408
 30
0.0
 75
     0
  0
DIMASSOC
  5
42C
102
{ACAD_REACTORS
330
422
102
}
330
422
100
AcDbDimAssoc
330
415
 90
        3
 70
     0
 71
     0
  1
AcDbOsnapPointRef
 72
    13
331
231
 73
     2
 91
        0
 40
0.0
 10
-165.14999
 20
56.022404
 30
0.0
 75
     0
  1
AcDbOsnapPointRef
 72
    13
331
1C3
 73
     2
 91
        0
 40
0.0
 10
-136.925
 20
11.22240499999999
 30
0.0
 75
     0
  0
DIMASSOC
  5
491
102
{ACAD_REACTORS
330
487
102
}
330
487
100
AcDbDimAssoc
330
47A
 90
        3
 70
     0
 71
     0
  1
AcDbOsnapPointRef
 72
     6
331
204
 73
     2
 91
        0
 40
0.104849247452202
 10
127.0
 20
-58.06381399999999
 30
0.0
332
19E
 74
     2
 92
        0
 75
     0
  1
AcDbOsnapPointRef
 72
     6
331
204
 73
     2
 91
        0
 40
0.8951506476985251
 10
127.0
 20
-118.363814
 30
0.0
332
19E
 74
     2
 92
        0
 75
     0
  0
DIMASSOC
  5
4A9
102
{ACAD_REACTORS
330
49F
102
}
330
49F
100
AcDbDimAssoc
330
492
 90
        3
 70
     0
 71
     0
  1
AcDbOsnapPointRef
 72
     5
331
1A8
 73
     2
 91
        0
 40
1.570796326794895
 10
-131.14999
 20
-62.21381399999998
 30
0.0
 75
     0
  1
AcDbOsnapPointRef
 72
     5
331
1A8
 73
     2
 91
        0
 40
4.712388980384687
 10
-131.14999
 20
-114.2138139999999
 30
0.0
 75
     0
  0
DIMASSOC
  5
4C1
102
{ACAD_REACTORS
330
4B7
102
}
330
4B7
100
AcDbDimAssoc
330
4AA
 90
        3
 70
     0
 71
     0
  1
AcDbOsnapPointRef
 72
     1
331
205
 73
     2
 91
        0
 40
1.0
 10
-127.0
 20
-126.3638199999999
 30
0.0
 75
     0
  1
AcDbOsnapPointRef
 72
     1
331
207
 73
     2
 91
        0
 40
1.0
 10
-63.5
 20
-126.3638199999999
 30
0.0
 75
     0
  0
DIMASSOC
  5
4D9
102
{ACAD_REACTORS
330
4CF
102
}
330
4CF
100
AcDbDimAssoc
330
4C2
 90
        3
 70
     0
 71
     0
  1
AcDbOsnapPointRef
 72
     1
331
207
 73
     2
 91
        0
 40
1.0
 10
-63.5
 20
-126.3638199999999
 30
0.0
 75
     0
  1
AcDbOsnapPointRef
 72
     1
331
208
 73
     2
 91
        0
 40
1.0
 10
-0.0000000000000142
 20
-126.3638199999999
 30
0.0
 75
     0
  0
MLINESTYLE
  5
18
102
{ACAD_REACTORS
330
17
102
}
330
17
100
AcDbMlineStyle
  2
STANDARD
 70
     0
  3

 62
   256
 51
90.0
 52
90.0
 71
     2
 49
0.5
 62
   256
  6
BYLAYER
 49
-0.5
 62
   256
  6
BYLAYER
  0
ACDBPLACEHOLDER
  5
F
102
{ACAD_REACTORS
330
E
102
}
330
E
100
AcDbPlaceHolder
280
     0
  0
XRECORD
  5
6BE
102
{ACAD_REACTORS
330
6B4
102
}
330
6B4
100
AcDbXrecord
 90
        0
  0
XRECORD
  5
6C2
102
{ACAD_REACTORS
330
6B4
102
}
330
6B4
100
AcDbXrecord
1000
DSTYLE
1002
{
1070
   371
 70
    -1
1070
   372
 70
    -1
1002
}
  0
XRECORD
  5
6BF
102
{ACAD_REACTORS
330
6B4
102
}
330
6B4
100
AcDbXrecord
  1
{5B0931FC-56BC-4C5C-811F-96A4ED1ECC1B}
  0
XRECORD
  5
6B7
102
{ACAD_REACTORS
330
6B4
102
}
330
6B4
100
AcDbXrecord
  1

  0
XRECORD
  5
6BD
102
{ACAD_REACTORS
330
6B4
102
}
330
6B4
100
AcDbXrecord
 90
        4
  0
XRECORD
  5
6B9
102
{ACAD_REACTORS
330
6B4
102
}
330
6B4
100
AcDbXrecord
340
1A
  0
XRECORD
  5
6BC
102
{ACAD_REACTORS
330
6B4
102
}
330
6B4
100
AcDbXrecord
 90
    10781
  0
XRECORD
  5
6BA
102
{ACAD_REACTORS
330
6B4
102
}
330
6B4
100
AcDbXrecord
340
19
  0
XRECORD
  5
6BB
102
{ACAD_REACTORS
330
6B4
102
}
330
6B4
100
AcDbXrecord
340
E
  0
XRECORD
  5
6C1
102
{ACAD_REACTORS
330
6B4
102
}
330
6B4
100
AcDbXrecord
 40
0.0
  0
XRECORD
  5
6C5
102
{ACAD_REACTORS
330
6B4
102
}
330
6B4
100
AcDbXrecord
340
0
  0
XRECORD
  5
6CB
102
{ACAD_REACTORS
330
6B4
102
}
330
6B4
100
AcDbXrecord
 10
0.0
 20
0.0
 30
0.0
  0
XRECORD
  5
6C7
102
{ACAD_REACTORS
330
6B4
102
}
330
6B4
100
AcDbXrecord
 10
0.0
 20
0.0
 30
0.0
  0
XRECORD
  5
6CA
102
{ACAD_REACTORS
330
6B4
102
}
330
6B4
100
AcDbXrecord
 10
0.0
 20
0.0
 30
0.0
  0
XRECORD
  5
6C8
102
{ACAD_REACTORS
330
6B4
102
}
330
6B4
100
AcDbXrecord
 10
0.0
 20
0.0
 30
0.0
  0
XRECORD
  5
6C9
102
{ACAD_REACTORS
330
6B4
102
}
330
6B4
100
AcDbXrecord
 10
0.0
 20
0.0
 30
0.0
  0
XRECORD
  5
6C6
102
{ACAD_REACTORS
330
6B4
102
}
330
6B4
100
AcDbXrecord
 10
0.0
 20
0.0
 30
0.0
  0
XRECORD
  5
6C3
102
{ACAD_REACTORS
330
6B4
102
}
330
6B4
100
AcDbXrecord
340
0
  0
XRECORD
  5
6C4
102
{ACAD_REACTORS
330
6B4
102
}
330
6B4
100
AcDbXrecord
 70
     0
  0
XRECORD
  5
6B8
102
{ACAD_REACTORS
330
6B4
102
}
330
6B4
100
AcDbXrecord
  1
monochrome.ctb
  0
XRECORD
  5
6B5
102
{ACAD_REACTORS
330
6B4
102
}
330
6B4
100
AcDbXrecord
 90
        1
  0
XRECORD
  5
6B6
102
{ACAD_REACTORS
330
6B4
102
}
330
6B4
100
AcDbXrecord
 90
       70
  0
XRECORD
  5
6CE
102
{ACAD_REACTORS
330
6B4
102
}
330
6B4
100
AcDbXrecord
340
0
  0
XRECORD
  5
6D4
102
{ACAD_REACTORS
330
6B4
102
}
330
6B4
100
AcDbXrecord
 10
0.0
 20
0.0
 30
0.0
  0
XRECORD
  5
6D0
102
{ACAD_REACTORS
330
6B4
102
}
330
6B4
100
AcDbXrecord
 10
0.0
 20
0.0
 30
0.0
  0
XRECORD
  5
6D3
102
{ACAD_REACTORS
330
6B4
102
}
330
6B4
100
AcDbXrecord
 10
0.0
 20
0.0
 30
0.0
  0
XRECORD
  5
6D1
102
{ACAD_REACTORS
330
6B4
102
}
330
6B4
100
AcDbXrecord
 10
0.0
 20
0.0
 30
0.0
  0
XRECORD
  5
6D2
102
{ACAD_REACTORS
330
6B4
102
}
330
6B4
100
AcDbXrecord
 10
0.0
 20
0.0
 30
0.0
  0
XRECORD
  5
6CF
102
{ACAD_REACTORS
330
6B4
102
}
330
6B4
100
AcDbXrecord
 10
0.0
 20
0.0
 30
0.0
  0
XRECORD
  5
6CC
102
{ACAD_REACTORS
330
6B4
102
}
330
6B4
100
AcDbXrecord
340
0
  0
XRECORD
  5
6CD
102
{ACAD_REACTORS
330
6B4
102
}
330
6B4
100
AcDbXrecord
 70
     0
  0
XRECORD
  5
6C0
102
{ACAD_REACTORS
330
6B4
102
}
330
6B4
100
AcDbXrecord
  1
{BC097A2E-933E-432E-B18E-EE0DC7BFC9BD}
  0
DICTIONARYVAR
  5
2E
102
{ACAD_REACTORS
330
2C
102
}
330
2C
100
DictionaryVariables
280
     0
  1
2
  0
DICTIONARYVAR
  5
2D
102
{ACAD_REACTORS
330
2C
102
}
330
2C
100
DictionaryVariables
280
     0
  1
1
  0
ENDSEC
  0
EOF
