  0
SECTION
  2
HEADER
  9
$ACADVER
  1
AC1014
  9
$ACADMAINTVER
 70
     9
  9
$DWGCODEPAGE
  3
ANSI_932
  9
$INSBASE
 10
0.0
 20
0.0
 30
0.0
  9
$EXTMIN
 10
-206.6974262552579
 20
-209.752042274292
 30
0.0
  9
$EXTMAX
 10
196.7021024507832
 20
167.9036504000006
 30
0.0
  9
$LIMMIN
 10
0.0
 20
0.0
  9
$LIMMAX
 10
420.0
 20
297.0
  9
$ORTHOMODE
 70
     0
  9
$REGENMODE
 70
     1
  9
$FILLMODE
 70
     1
  9
$QTEXTMODE
 70
     0
  9
$MIRRTEXT
 70
     1
  9
$DRAGMODE
 70
     2
  9
$LTSCALE
 40
1.0
  9
$OSMODE
 70
    37
  9
$ATTMODE
 70
     1
  9
$TEXTSIZE
 40
2.5
  9
$TRACEWID
 40
1.0
  9
$TEXTSTYLE
  7
STANDARD
  9
$CLAYER
  8
0
  9
$CELTYPE
  6
BYLAYER
  9
$CECOLOR
 62
   256
  9
$CELTSCALE
 40
1.0
  9
$DELOBJ
 70
     1
  9
$DISPSILH
 70
     0
  9
$DIMSCALE
 40
1.0
  9
$DIMASZ
 40
7.0
  9
$DIMEXO
 40
0.0
  9
$DIMDLI
 40
3.75
  9
$DIMRND
 40
0.0
  9
$DIMDLE
 40
0.0
  9
$DIMEXE
 40
2.5
  9
$DIMTP
 40
0.0
  9
$DIMTM
 40
0.0
  9
$DIMTXT
 40
7.0
  9
$DIMCEN
 40
2.5
  9
$DIMTSZ
 40
0.0
  9
$DIMTOL
 70
     0
  9
$DIMLIM
 70
     0
  9
$DIMTIH
 70
     0
  9
$DIMTOH
 70
     0
  9
$DIMSE1
 70
     0
  9
$DIMSE2
 70
     0
  9
$DIMTAD
 70
     1
  9
$DIMZIN
 70
     8
  9
$DIMBLK
  1

  9
$DIMASO
 70
     1
  9
$DIMSHO
 70
     1
  9
$DIMPOST
  1

  9
$DIMAPOST
  1

  9
$DIMALT
 70
     0
  9
$DIMALTD
 70
     3
  9
$DIMALTF
 40
0.03937007874016
  9
$DIMLFAC
 40
1.0
  9
$DIMTOFL
 70
     1
  9
$DIMTVP
 40
0.0
  9
$DIMTIX
 70
     0
  9
$DIMSOXD
 70
     0
  9
$DIMSAH
 70
     0
  9
$DIMBLK1
  1

  9
$DIMBLK2
  1

  9
$DIMSTYLE
  2
ISO-25
  9
$DIMCLRD
 70
     1
  9
$DIMCLRE
 70
     1
  9
$DIMCLRT
 70
     1
  9
$DIMTFAC
 40
1.0
  9
$DIMGAP
 40
2.0
  9
$DIMJUST
 70
     0
  9
$DIMSD1
 70
     0
  9
$DIMSD2
 70
     0
  9
$DIMTOLJ
 70
     0
  9
$DIMTZIN
 70
     8
  9
$DIMALTZ
 70
     0
  9
$DIMALTTZ
 70
     0
  9
$DIMFIT
 70
     3
  9
$DIMUPT
 70
     0
  9
$DIMUNIT
 70
     2
  9
$DIMDEC
 70
     2
  9
$DIMTDEC
 70
     2
  9
$DIMALTU
 70
     2
  9
$DIMALTTD
 70
     3
  9
$DIMTXSTY
  7
STANDARD
  9
$DIMAUNIT
 70
     0
  9
$LUNITS
 70
     2
  9
$LUPREC
 70
     4
  9
$SKETCHINC
 40
1.0
  9
$FILLETRAD
 40
10.0
  9
$AUNITS
 70
     0
  9
$AUPREC
 70
     0
  9
$MENU
  1
.
  9
$ELEVATION
 40
0.0
  9
$PELEVATION
 40
0.0
  9
$THICKNESS
 40
0.0
  9
$LIMCHECK
 70
     0
  9
$BLIPMODE
 70
     0
  9
$CHAMFERA
 40
10.0
  9
$CHAMFERB
 40
10.0
  9
$CHAMFERC
 40
20.0
  9
$CHAMFERD
 40
0.0
  9
$SKPOLY
 70
     0
  9
$TDCREATE
 40
2453755.379305208
  9
$TDUPDATE
 40
2454530.732950845
  9
$TDINDWG
 40
0.0083446065
  9
$TDUSRTIMER
 40
0.0083443750
  9
$USRTIMER
 70
     1
  9
$ANGBASE
 50
0.0
  9
$ANGDIR
 70
     0
  9
$PDMODE
 70
     0
  9
$PDSIZE
 40
0.0
  9
$PLINEWID
 40
0.0
  9
$COORDS
 70
     1
  9
$SPLFRAME
 70
     0
  9
$SPLINETYPE
 70
     6
  9
$SPLINESEGS
 70
     8
  9
$ATTDIA
 70
     0
  9
$ATTREQ
 70
     1
  9
$HANDLING
 70
     1
  9
$HANDSEED
  5
5D6
  9
$SURFTAB1
 70
     6
  9
$SURFTAB2
 70
     6
  9
$SURFTYPE
 70
     6
  9
$SURFU
 70
     6
  9
$SURFV
 70
     6
  9
$UCSNAME
  2

  9
$UCSORG
 10
0.0
 20
0.0
 30
0.0
  9
$UCSXDIR
 10
1.0
 20
0.0
 30
0.0
  9
$UCSYDIR
 10
0.0
 20
1.0
 30
0.0
  9
$PUCSNAME
  2

  9
$PUCSORG
 10
0.0
 20
0.0
 30
0.0
  9
$PUCSXDIR
 10
1.0
 20
0.0
 30
0.0
  9
$PUCSYDIR
 10
0.0
 20
1.0
 30
0.0
  9
$USERI1
 70
     0
  9
$USERI2
 70
     0
  9
$USERI3
 70
     0
  9
$USERI4
 70
     0
  9
$USERI5
 70
     0
  9
$USERR1
 40
0.0
  9
$USERR2
 40
0.0
  9
$USERR3
 40
0.0
  9
$USERR4
 40
0.0
  9
$USERR5
 40
0.0
  9
$WORLDVIEW
 70
     1
  9
$SHADEDGE
 70
     3
  9
$SHADEDIF
 70
    70
  9
$TILEMODE
 70
     1
  9
$MAXACTVP
 70
    64
  9
$PINSBASE
 10
0.0
 20
0.0
 30
0.0
  9
$PLIMCHECK
 70
     0
  9
$PEXTMIN
 10
1.000000000000000E+20
 20
1.000000000000000E+20
 30
1.000000000000000E+20
  9
$PEXTMAX
 10
-1.000000000000000E+20
 20
-1.000000000000000E+20
 30
-1.000000000000000E+20
  9
$PLIMMIN
 10
0.0
 20
0.0
  9
$PLIMMAX
 10
420.0
 20
297.0
  9
$UNITMODE
 70
     0
  9
$VISRETAIN
 70
     1
  9
$PLINEGEN
 70
     0
  9
$PSLTSCALE
 70
     1
  9
$TREEDEPTH
 70
  3020
  9
$PICKSTYLE
 70
     1
  9
$CMLSTYLE
  2
STANDARD
  9
$CMLJUST
 70
     0
  9
$CMLSCALE
 40
20.0
  9
$PROXYGRAPHICS
 70
     1
  9
$MEASUREMENT
 70
     1
  0
ENDSEC
  0
SECTION
  2
CLASSES
  0
CLASS
  1
ACDBDICTIONARYWDFLT
  2
AcDbDictionaryWithDefault
  3
AutoCAD 2000
 90
        0
280
     0
281
     0
  0
CLASS
  1
ACDBPLACEHOLDER
  2
AcDbPlaceHolder
  3
AutoCAD 2000
 90
        0
280
     0
281
     0
  0
CLASS
  1
LAYOUT
  2
AcDbLayout
  3
AutoCAD 2000
 90
        0
280
     0
281
     0
  0
CLASS
  1
DICTIONARYVAR
  2
AcDbDictionaryVar
  3
AutoCAD 2000
 90
        0
280
     0
281
     0
  0
CLASS
  1
DIMASSOC
  2
AcDbDimAssoc
  3
"AcDbDimAssoc|Product Desc:     AcDim ARX App For Dimension|Company:          Autodesk, Inc.|WEB Address:      www.autodesk.com"
 90
        0
280
     0
281
     0
  0
CLASS
  1
LONG_TRANSACTION
  2
AcDbLongTransaction
  3
AutoCAD 2000
 90
        0
280
     0
281
     0
  0
CLASS
  1
LWPOLYLINE
  2
AcDbPolyline
  3
AutoCAD 2000
 90
        0
280
     0
281
     1
  0
CLASS
  1
HATCH
  2
AcDbHatch
  3
AutoCAD 2000
 90
        0
280
     0
281
     1
  0
CLASS
  1
XRECORD
  2
AcDbXrecord
  3
AutoCAD 2000
 90
        0
280
     0
281
     0
  0
CLASS
  1
LONG_TRANSACTION
  2
AcDbLongTransaction
  3
AutoCAD 2000
 90
        0
280
     0
281
     0
  0
CLASS
  1
LWPOLYLINE
  2
AcDbPolyline
  3
AutoCAD 2000
 90
        0
280
     0
281
     1
  0
CLASS
  1
HATCH
  2
AcDbHatch
  3
AutoCAD 2000
 90
        0
280
     0
281
     1
  0
CLASS
  1
XRECORD
  2
AcDbXrecord
  3
AutoCAD 2000
 90
        0
280
     0
281
     0
  0
ENDSEC
  0
SECTION
  2
TABLES
  0
TABLE
  2
VPORT
  5
8
330
0
100
AcDbSymbolTable
 70
     2
  0
VPORT
  5
5B2
330
8
100
AcDbSymbolTableRecord
100
AcDbViewportTableRecord
  2
*ACTIVE
 70
     0
 10
0.0
 20
0.0
 11
1.0
 21
1.0
 12
-4.992578551540208
 22
-0.2253968522647312
 13
0.0
 23
0.0
 14
10.0
 24
10.0
 15
10.0
 25
10.0
 16
0.0
 26
0.0
 36
1.0
 17
0.0
 27
0.0
 37
0.0
 40
423.4799514032425
 41
1.621593291404612
 42
50.0
 43
0.0
 44
0.0
 50
0.0
 51
0.0
 71
     0
 72
   100
 73
     1
 74
     3
 75
     0
 76
     0
 77
     0
 78
     0
  0
ENDTAB
  0
TABLE
  2
LTYPE
  5
5
330
0
100
AcDbSymbolTable
 70
     2
  0
LTYPE
  5
14
330
5
100
AcDbSymbolTableRecord
100
AcDbLinetypeTableRecord
  2
BYBLOCK
 70
     0
  3

 72
    65
 73
     0
 40
0.0
  0
LTYPE
  5
15
330
5
100
AcDbSymbolTableRecord
100
AcDbLinetypeTableRecord
  2
BYLAYER
 70
     0
  3

 72
    65
 73
     0
 40
0.0
  0
LTYPE
  5
16
330
5
100
AcDbSymbolTableRecord
100
AcDbLinetypeTableRecord
  2
CONTINUOUS
 70
     0
  3
Solid line
 72
    65
 73
     0
 40
0.0
  0
LTYPE
  5
105
330
5
100
AcDbSymbolTableRecord
100
AcDbLinetypeTableRecord
  2
CENTER
 70
     0
  3
____ _ ____ _ ____ _ ____ _ ____ _ ____ _ ____
 72
    65
 73
     4
 40
17.5
 49
13.0
 74
     0
 49
-1.5
 74
     0
 49
1.5
 74
     0
 49
-1.5
 74
     0
  0
ENDTAB
  0
TABLE
  2
LAYER
  5
2
330
0
100
AcDbSymbolTable
 70
     2
  0
LAYER
  5
10
330
2
100
AcDbSymbolTableRecord
100
AcDbLayerTableRecord
  2
0
 70
     0
 62
     7
  6
CONTINUOUS
  0
LAYER
  5
106
330
2
100
AcDbSymbolTableRecord
100
AcDbLayerTableRecord
  2
DEFPOINTS
 70
     0
 62
     7
  6
CONTINUOUS
  0
ENDTAB
  0
TABLE
  2
STYLE
  5
3
330
0
100
AcDbSymbolTable
 70
     1
  0
STYLE
  5
11
330
3
100
AcDbSymbolTableRecord
100
AcDbTextStyleTableRecord
  2
STANDARD
 70
     0
 40
0.0
 41
1.0
 50
0.0
 71
     0
 42
2.5
  3
txt.shx
  4
bigfont.shx
  0
ENDTAB
  0
TABLE
  2
VIEW
  5
6
330
0
100
AcDbSymbolTable
 70
     0
  0
ENDTAB
  0
TABLE
  2
UCS
  5
7
330
0
100
AcDbSymbolTable
 70
     0
  0
ENDTAB
  0
TABLE
  2
APPID
  5
9
330
0
100
AcDbSymbolTable
 70
     1
  0
APPID
  5
12
330
9
100
AcDbSymbolTableRecord
100
AcDbRegAppTableRecord
  2
ACAD
 70
     0
  0
ENDTAB
  0
TABLE
  2
DIMSTYLE
  5
A
330
0
100
AcDbSymbolTable
 70
     1
  0
DIMSTYLE
105
27
102
{ACAD_REACTORS
330
40E
330
42A
330
45A
330
476
330
492
330
4AE
330
4C6
330
4DE
330
4FF
330
517
330
52F
330
547
102
}
330
A
100
AcDbSymbolTableRecord
100
AcDbDimStyleTableRecord
  2
ISO-25
 70
     0
  3

  4

  5

  6

  7

 40
1.0
 41
7.0
 42
0.0
 43
3.75
 44
2.5
 45
0.0
 46
0.0
 47
0.0
 48
0.0
140
7.0
141
2.5
142
0.0
143
0.03937007874016
144
1.0
145
0.0
146
1.0
147
2.0
 71
     0
 72
     0
 73
     0
 74
     0
 75
     0
 76
     0
 77
     1
 78
     8
170
     0
171
     3
172
     1
173
     0
174
     0
175
     0
176
     1
177
     1
178
     1
270
     2
271
     2
272
     2
273
     2
274
     3
340
11
275
     0
280
     0
281
     0
282
     0
283
     0
284
     8
285
     0
286
     0
287
     3
288
     0
  0
ENDTAB
  0
TABLE
  2
BLOCK_RECORD
  5
1
330
0
100
AcDbSymbolTable
 70
    12
  0
BLOCK_RECORD
  5
1F
102
{ACAD_XDICTIONARY
360
5A7
102
}
330
1
100
AcDbSymbolTableRecord
100
AcDbBlockTableRecord
  2
*MODEL_SPACE
  0
BLOCK_RECORD
  5
1B
102
{ACAD_XDICTIONARY
360
5A5
102
}
330
1
100
AcDbSymbolTableRecord
100
AcDbBlockTableRecord
  2
*PAPER_SPACE
  0
BLOCK_RECORD
  5
40F
330
1
100
AcDbSymbolTableRecord
100
AcDbBlockTableRecord
  2
*D0
  0
BLOCK_RECORD
  5
42B
330
1
100
AcDbSymbolTableRecord
100
AcDbBlockTableRecord
  2
*D1
  0
BLOCK_RECORD
  5
45B
330
1
100
AcDbSymbolTableRecord
100
AcDbBlockTableRecord
  2
*D2
  0
BLOCK_RECORD
  5
477
330
1
100
AcDbSymbolTableRecord
100
AcDbBlockTableRecord
  2
*D3
  0
BLOCK_RECORD
  5
493
330
1
100
AcDbSymbolTableRecord
100
AcDbBlockTableRecord
  2
*D4
  0
BLOCK_RECORD
  5
4AF
330
1
100
AcDbSymbolTableRecord
100
AcDbBlockTableRecord
  2
*D5
  0
BLOCK_RECORD
  5
4C7
330
1
100
AcDbSymbolTableRecord
100
AcDbBlockTableRecord
  2
*D6
  0
BLOCK_RECORD
  5
4DF
330
1
100
AcDbSymbolTableRecord
100
AcDbBlockTableRecord
  2
*D7
  0
BLOCK_RECORD
  5
500
330
1
100
AcDbSymbolTableRecord
100
AcDbBlockTableRecord
  2
*D8
  0
BLOCK_RECORD
  5
518
330
1
100
AcDbSymbolTableRecord
100
AcDbBlockTableRecord
  2
*D9
  0
BLOCK_RECORD
  5
530
330
1
100
AcDbSymbolTableRecord
100
AcDbBlockTableRecord
  2
*D10
  0
BLOCK_RECORD
  5
548
330
1
100
AcDbSymbolTableRecord
100
AcDbBlockTableRecord
  2
*D11
  0
ENDTAB
  0
ENDSEC
  0
SECTION
  2
BLOCKS
  0
BLOCK
  5
20
330
1F
100
AcDbEntity
  8
0
100
AcDbBlockBegin
  2
*MODEL_SPACE
 70
     0
 10
0.0
 20
0.0
 30
0.0
  3
*MODEL_SPACE
  1

  0
ENDBLK
  5
21
330
1F
100
AcDbEntity
  8
0
100
AcDbBlockEnd
  0
BLOCK
  5
1C
330
1B
100
AcDbEntity
 67
     1
  8
0
100
AcDbBlockBegin
  2
*PAPER_SPACE
 70
     0
 10
0.0
 20
0.0
 30
0.0
  3
*PAPER_SPACE
  1

  0
ENDBLK
  5
1D
330
1B
100
AcDbEntity
 67
     1
  8
0
100
AcDbBlockEnd
  0
BLOCK
  5
41B
330
40F
100
AcDbEntity
  8
0
100
AcDbBlockBegin
  2
*D0
 70
     1
 10
0.0
 20
0.0
 30
0.0
  3
*D0
  1

  0
LINE
  5
446
330
40F
100
AcDbEntity
  8
0
 62
     1
100
AcDbLine
 10
87.30999799999997
 20
35.15225199999999
 30
0.0
 11
87.30999799999997
 21
41.61131977372177
 31
0.0
  0
LINE
  5
447
330
40F
100
AcDbEntity
  8
0
 62
     1
100
AcDbLine
 10
115.89
 20
35.15225199999999
 30
0.0
 11
115.89
 21
41.61131977372177
 31
0.0
  0
LINE
  5
448
330
40F
100
AcDbEntity
  8
0
 62
     1
100
AcDbLine
 10
80.30999799999998
 20
39.11131977372178
 30
0.0
 11
73.30999799999998
 21
39.11131977372178
 31
0.0
  0
LINE
  5
449
330
40F
100
AcDbEntity
  8
0
 62
     1
100
AcDbLine
 10
122.89
 20
39.11131977372178
 30
0.0
 11
168.8899999999996
 21
39.11131977372178
 31
0.0
  0
LINE
  5
44A
330
40F
100
AcDbEntity
  8
0
 62
     1
100
AcDbLine
 10
87.30999799999997
 20
39.11131977372178
 30
0.0
 11
115.89
 21
39.11131977372178
 31
0.0
  0
SOLID
  5
44B
330
40F
100
AcDbEntity
  8
0
 62
     1
100
AcDbTrace
 10
80.30999799999998
 20
40.27798644038845
 30
0.0
 11
80.30999799999998
 21
37.94465310705511
 31
0.0
 12
87.30999799999997
 22
39.11131977372178
 32
0.0
 13
87.30999799999997
 23
39.11131977372178
 33
0.0
  0
SOLID
  5
44C
330
40F
100
AcDbEntity
  8
0
 62
     1
100
AcDbTrace
 10
122.89
 20
40.27798644038845
 30
0.0
 11
122.89
 21
37.94465310705511
 31
0.0
 12
115.89
 22
39.11131977372178
 32
0.0
 13
115.89
 23
39.11131977372178
 33
0.0
  0
MTEXT
  5
44D
330
40F
100
AcDbEntity
  8
0
 62
     1
100
AcDbMText
 10
149.39
 20
44.61131977372178
 30
0.0
 40
7.0
 41
0.0
 71
     5
 72
     1
  1
φ28.58
1001
ACAD
1000
MTEXTBEGIN
1070
    73
1070
     1
1070
    44
1040
1.0
1070
    74
1070
     0
1000
MTEXTEND
1000
MTEXTBEGIN
1070
    73
1070
     1
1070
    44
1040
1.0
1070
    74
1070
     0
1000
MTEXTEND
  0
POINT
  5
44E
330
40F
100
AcDbEntity
  8
DEFPOINTS
 62
     0
100
AcDbPoint
 10
87.30999799999997
 20
35.15225199999999
 30
0.0
  0
POINT
  5
44F
330
40F
100
AcDbEntity
  8
DEFPOINTS
 62
     0
100
AcDbPoint
 10
115.89
 20
35.15225199999999
 30
0.0
  0
POINT
  5
450
330
40F
100
AcDbEntity
  8
DEFPOINTS
 62
     0
100
AcDbPoint
 10
115.89
 20
39.11131977372178
 30
0.0
  0
ENDBLK
  5
41C
330
40F
100
AcDbEntity
  8
0
100
AcDbBlockEnd
  0
BLOCK
  5
437
330
42B
100
AcDbEntity
  8
0
100
AcDbBlockBegin
  2
*D1
 70
     1
 10
0.0
 20
0.0
 30
0.0
  3
*D1
  1

  0
LINE
  5
451
330
42B
100
AcDbEntity
  8
0
 62
     1
100
AcDbLine
 10
125.7
 20
33.15225199999999
 30
0.0
 11
194.4070955182699
 21
33.15225199999998
 31
0.0
  0
LINE
  5
452
330
42B
100
AcDbEntity
  8
0
 62
     1
100
AcDbLine
 10
125.7
 20
64.90225200000001
 30
0.0
 11
194.4070955182699
 21
64.90225199999999
 31
0.0
  0
LINE
  5
453
330
42B
100
AcDbEntity
  8
0
 62
     1
100
AcDbLine
 10
191.9070955182698
 20
40.15225199999997
 30
0.0
 11
191.9070955182698
 21
57.90225199999999
 31
0.0
  0
SOLID
  5
454
330
42B
100
AcDbEntity
  8
0
 62
     1
100
AcDbTrace
 10
190.7404288516032
 20
40.15225199999997
 30
0.0
 11
193.0737621849365
 21
40.15225199999997
 31
0.0
 12
191.9070955182698
 22
33.15225199999998
 32
0.0
 13
191.9070955182698
 23
33.15225199999998
 33
0.0
  0
SOLID
  5
455
330
42B
100
AcDbEntity
  8
0
 62
     1
100
AcDbTrace
 10
190.7404288516032
 20
57.90225199999999
 30
0.0
 11
193.0737621849365
 21
57.90225199999999
 31
0.0
 12
191.9070955182698
 22
64.90225199999999
 32
0.0
 13
191.9070955182698
 23
64.90225199999999
 33
0.0
  0
MTEXT
  5
456
330
42B
100
AcDbEntity
  8
0
 62
     1
100
AcDbMText
 10
186.4070955182699
 20
49.02725200000002
 30
0.0
 40
7.0
 41
0.0
 71
     5
 72
     1
  1
31.75
 11
0.0000000000000001
 21
1.0
 31
0.0
1001
ACAD
1000
MTEXTBEGIN
1070
    73
1070
     1
1070
    44
1040
1.0
1070
    74
1070
     0
1000
MTEXTEND
1000
MTEXTBEGIN
1070
    73
1070
     1
1070
    44
1040
1.0
1070
    74
1070
     0
1000
MTEXTEND
  0
POINT
  5
457
330
42B
100
AcDbEntity
  8
DEFPOINTS
 62
     0
100
AcDbPoint
 10
125.7
 20
33.15225199999999
 30
0.0
  0
POINT
  5
458
330
42B
100
AcDbEntity
  8
DEFPOINTS
 62
     0
100
AcDbPoint
 10
125.7
 20
64.90225200000001
 30
0.0
  0
POINT
  5
459
330
42B
100
AcDbEntity
  8
DEFPOINTS
 62
     0
100
AcDbPoint
 10
191.9070955182698
 20
64.90225199999999
 30
0.0
  0
ENDBLK
  5
438
330
42B
100
AcDbEntity
  8
0
100
AcDbBlockEnd
  0
BLOCK
  5
467
330
45B
100
AcDbEntity
  8
0
100
AcDbBlockBegin
  2
*D2
 70
     1
 10
0.0
 20
0.0
 30
0.0
  3
*D2
  1

  0
LINE
  5
46A
330
45B
100
AcDbEntity
  8
0
 62
     1
100
AcDbLine
 10
125.7
 20
64.90225200000001
 30
0.0
 11
194.4070955182699
 21
64.90225199999999
 31
0.0
  0
LINE
  5
46B
330
45B
100
AcDbEntity
  8
0
 62
     1
100
AcDbLine
 10
125.7
 20
72.052254
 30
0.0
 11
194.4070955182699
 21
72.05225399999998
 31
0.0
  0
LINE
  5
46C
330
45B
100
AcDbEntity
  8
0
 62
     1
100
AcDbLine
 10
191.9070955182698
 20
57.90225199999999
 30
0.0
 11
191.9070955182698
 21
50.90225199999999
 31
0.0
  0
LINE
  5
46D
330
45B
100
AcDbEntity
  8
0
 62
     1
100
AcDbLine
 10
191.9070955182698
 20
79.05225399999998
 30
0.0
 11
191.9070955182698
 21
108.7189206666666
 31
0.0
  0
LINE
  5
46E
330
45B
100
AcDbEntity
  8
0
 62
     1
100
AcDbLine
 10
191.9070955182698
 20
64.90225199999999
 30
0.0
 11
191.9070955182698
 21
72.05225399999998
 31
0.0
  0
SOLID
  5
46F
330
45B
100
AcDbEntity
  8
0
 62
     1
100
AcDbTrace
 10
190.7404288516032
 20
57.90225199999999
 30
0.0
 11
193.0737621849365
 21
57.90225199999999
 31
0.0
 12
191.9070955182698
 22
64.90225199999999
 32
0.0
 13
191.9070955182698
 23
64.90225199999999
 33
0.0
  0
SOLID
  5
470
330
45B
100
AcDbEntity
  8
0
 62
     1
100
AcDbTrace
 10
190.7404288516032
 20
79.05225399999998
 30
0.0
 11
193.0737621849365
 21
79.05225399999998
 31
0.0
 12
191.9070955182698
 22
72.05225399999998
 32
0.0
 13
191.9070955182698
 23
72.05225399999998
 33
0.0
  0
MTEXT
  5
471
330
45B
100
AcDbEntity
  8
0
 62
     1
100
AcDbMText
 10
186.4070955182699
 20
97.38558733333334
 30
0.0
 40
7.0
 41
0.0
 71
     5
 72
     1
  1
7.15
 11
0.0000000000000001
 21
1.0
 31
0.0
1001
ACAD
1000
MTEXTBEGIN
1070
    73
1070
     1
1070
    44
1040
1.0
1070
    74
1070
     0
1000
MTEXTEND
1000
MTEXTBEGIN
1070
    73
1070
     1
1070
    44
1040
1.0
1070
    74
1070
     0
1000
MTEXTEND
  0
POINT
  5
472
330
45B
100
AcDbEntity
  8
DEFPOINTS
 62
     0
100
AcDbPoint
 10
125.7
 20
64.90225200000001
 30
0.0
  0
POINT
  5
473
330
45B
100
AcDbEntity
  8
DEFPOINTS
 62
     0
100
AcDbPoint
 10
125.7
 20
72.052254
 30
0.0
  0
POINT
  5
474
330
45B
100
AcDbEntity
  8
DEFPOINTS
 62
     0
100
AcDbPoint
 10
191.9070955182698
 20
72.05225399999998
 30
0.0
  0
ENDBLK
  5
468
330
45B
100
AcDbEntity
  8
0
100
AcDbBlockEnd
  0
BLOCK
  5
483
330
477
100
AcDbEntity
  8
0
100
AcDbBlockBegin
  2
*D3
 70
     1
 10
0.0
 20
0.0
 30
0.0
  3
*D3
  1

  0
LINE
  5
486
330
477
100
AcDbEntity
  8
0
 62
     1
100
AcDbLine
 10
-122.35
 20
72.827248
 30
0.0
 11
-153.294888857442
 21
72.827248
 31
0.0
  0
LINE
  5
487
330
477
100
AcDbEntity
  8
0
 62
     1
100
AcDbLine
 10
-122.35
 20
79.977249
 30
0.0
 11
-153.294888857442
 21
79.977249
 31
0.0
  0
LINE
  5
488
330
477
100
AcDbEntity
  8
0
 62
     1
100
AcDbLine
 10
-150.794888857442
 20
65.827248
 30
0.0
 11
-150.794888857442
 21
58.827248
 31
0.0
  0
LINE
  5
489
330
477
100
AcDbEntity
  8
0
 62
     1
100
AcDbLine
 10
-150.794888857442
 20
86.977249
 30
0.0
 11
-150.794888857442
 21
116.6439156666666
 31
0.0
  0
LINE
  5
48A
330
477
100
AcDbEntity
  8
0
 62
     1
100
AcDbLine
 10
-150.794888857442
 20
72.827248
 30
0.0
 11
-150.794888857442
 21
79.977249
 31
0.0
  0
SOLID
  5
48B
330
477
100
AcDbEntity
  8
0
 62
     1
100
AcDbTrace
 10
-151.9615555241086
 20
65.827248
 30
0.0
 11
-149.6282221907754
 21
65.827248
 31
0.0
 12
-150.794888857442
 22
72.827248
 32
0.0
 13
-150.794888857442
 23
72.827248
 33
0.0
  0
SOLID
  5
48C
330
477
100
AcDbEntity
  8
0
 62
     1
100
AcDbTrace
 10
-151.9615555241086
 20
86.977249
 30
0.0
 11
-149.6282221907754
 21
86.977249
 31
0.0
 12
-150.794888857442
 22
79.977249
 32
0.0
 13
-150.794888857442
 23
79.977249
 33
0.0
  0
MTEXT
  5
48D
330
477
100
AcDbEntity
  8
0
 62
     1
100
AcDbMText
 10
-156.294888857442
 20
105.3105823333333
 30
0.0
 40
7.0
 41
0.0
 71
     5
 72
     1
  1
7.15
 11
0.0000000000000001
 21
1.0
 31
0.0
1001
ACAD
1000
MTEXTBEGIN
1070
    73
1070
     1
1070
    44
1040
1.0
1070
    74
1070
     0
1000
MTEXTEND
1000
MTEXTBEGIN
1070
    73
1070
     1
1070
    44
1040
1.0
1070
    74
1070
     0
1000
MTEXTEND
  0
POINT
  5
48E
330
477
100
AcDbEntity
  8
DEFPOINTS
 62
     0
100
AcDbPoint
 10
-122.35
 20
72.827248
 30
0.0
  0
POINT
  5
48F
330
477
100
AcDbEntity
  8
DEFPOINTS
 62
     0
100
AcDbPoint
 10
-122.35
 20
79.977249
 30
0.0
  0
POINT
  5
490
330
477
100
AcDbEntity
  8
DEFPOINTS
 62
     0
100
AcDbPoint
 10
-150.794888857442
 20
79.977249
 30
0.0
  0
ENDBLK
  5
484
330
477
100
AcDbEntity
  8
0
100
AcDbBlockEnd
  0
BLOCK
  5
49F
330
493
100
AcDbEntity
  8
0
100
AcDbBlockBegin
  2
*D4
 70
     1
 10
0.0
 20
0.0
 30
0.0
  3
*D4
  1

  0
LINE
  5
4A2
330
493
100
AcDbEntity
  8
0
 62
     1
100
AcDbLine
 10
-94.45500199999999
 20
25.227249
 30
0.0
 11
-94.45500199999999
 21
37.56506215252886
 31
0.0
  0
LINE
  5
4A3
330
493
100
AcDbEntity
  8
0
 62
     1
100
AcDbLine
 10
-108.745
 20
25.227249
 30
0.0
 11
-108.745
 21
37.56506215252886
 31
0.0
  0
LINE
  5
4A4
330
493
100
AcDbEntity
  8
0
 62
     1
100
AcDbLine
 10
-87.455002
 20
35.06506215252886
 30
0.0
 11
-80.45500199999997
 21
35.06506215252886
 31
0.0
  0
LINE
  5
4A5
330
493
100
AcDbEntity
  8
0
 62
     1
100
AcDbLine
 10
-115.745
 20
35.06506215252886
 30
0.0
 11
-159.4116666666666
 21
35.06506215252886
 31
0.0
  0
LINE
  5
4A6
330
493
100
AcDbEntity
  8
0
 62
     1
100
AcDbLine
 10
-94.45500199999999
 20
35.06506215252886
 30
0.0
 11
-108.745
 21
35.06506215252886
 31
0.0
  0
SOLID
  5
4A7
330
493
100
AcDbEntity
  8
0
 62
     1
100
AcDbTrace
 10
-87.455002
 20
36.23172881919553
 30
0.0
 11
-87.455002
 21
33.89839548586218
 31
0.0
 12
-94.45500199999999
 22
35.06506215252886
 32
0.0
 13
-94.45500199999999
 23
35.06506215252886
 33
0.0
  0
SOLID
  5
4A8
330
493
100
AcDbEntity
  8
0
 62
     1
100
AcDbTrace
 10
-115.745
 20
36.23172881919553
 30
0.0
 11
-115.745
 21
33.89839548586218
 31
0.0
 12
-108.745
 22
35.06506215252886
 32
0.0
 13
-108.745
 23
35.06506215252886
 33
0.0
  0
MTEXT
  5
4A9
330
493
100
AcDbEntity
  8
0
 62
     1
100
AcDbMText
 10
-141.0783333333332
 20
40.56506215252887
 30
0.0
 40
7.0
 41
0.0
 71
     5
 72
     1
  1
φ14.29
1001
ACAD
1000
MTEXTBEGIN
1070
    73
1070
     1
1070
    44
1040
1.0
1070
    74
1070
     0
1000
MTEXTEND
1000
MTEXTBEGIN
1070
    73
1070
     1
1070
    44
1040
1.0
1070
    74
1070
     0
1000
MTEXTEND
  0
POINT
  5
4AA
330
493
100
AcDbEntity
  8
DEFPOINTS
 62
     0
100
AcDbPoint
 10
-94.45500199999999
 20
25.227249
 30
0.0
  0
POINT
  5
4AB
330
493
100
AcDbEntity
  8
DEFPOINTS
 62
     0
100
AcDbPoint
 10
-108.745
 20
25.227249
 30
0.0
  0
POINT
  5
4AC
330
493
100
AcDbEntity
  8
DEFPOINTS
 62
     0
100
AcDbPoint
 10
-108.745
 20
35.06506215252886
 30
0.0
  0
ENDBLK
  5
4A0
330
493
100
AcDbEntity
  8
0
100
AcDbBlockEnd
  0
BLOCK
  5
4B9
330
4AF
100
AcDbEntity
  8
0
100
AcDbBlockBegin
  2
*D5
 70
     1
 10
0.0
 20
0.0
 30
0.0
  3
*D5
  1

  0
LINE
  5
4F6
330
4AF
100
AcDbEntity
  8
0
 62
     1
100
AcDbLine
 10
-130.3500099999999
 20
-12.872747
 30
0.0
 11
-177.1071270021664
 21
-12.87274699999998
 31
0.0
  0
LINE
  5
4F7
330
4AF
100
AcDbEntity
  8
0
 62
     1
100
AcDbLine
 10
-130.3500099999999
 20
49.02725199999999
 30
0.0
 11
-177.1071270021664
 21
49.02725200000002
 31
0.0
  0
LINE
  5
4F8
330
4AF
100
AcDbEntity
  8
0
 62
     1
100
AcDbLine
 10
-174.6071270021664
 20
-5.872746999999987
 30
0.0
 11
-174.6071270021664
 21
42.02725200000001
 31
0.0
  0
SOLID
  5
4F9
330
4AF
100
AcDbEntity
  8
0
 62
     1
100
AcDbTrace
 10
-175.7737936688331
 20
-5.872746999999987
 30
0.0
 11
-173.4404603354998
 21
-5.872746999999987
 31
0.0
 12
-174.6071270021664
 22
-12.87274699999998
 32
0.0
 13
-174.6071270021664
 23
-12.87274699999998
 33
0.0
  0
SOLID
  5
4FA
330
4AF
100
AcDbEntity
  8
0
 62
     1
100
AcDbTrace
 10
-175.7737936688331
 20
42.02725200000001
 30
0.0
 11
-173.4404603354998
 21
42.02725200000001
 31
0.0
 12
-174.6071270021664
 22
49.02725200000001
 32
0.0
 13
-174.6071270021664
 23
49.02725200000001
 33
0.0
  0
MTEXT
  5
4FB
330
4AF
100
AcDbEntity
  8
0
 62
     1
100
AcDbMText
 10
-180.1071270021664
 20
29.9199954462623
 30
0.0
 40
7.0
 41
0.0
 71
     5
 72
     1
  1
61.9
 11
0.0000000000000001
 21
1.0
 31
0.0
1001
ACAD
1000
MTEXTBEGIN
1070
    73
1070
     1
1070
    44
1040
1.0
1070
    74
1070
     0
1000
MTEXTEND
1000
MTEXTBEGIN
1070
    73
1070
     1
1070
    44
1040
1.0
1070
    74
1070
     0
1000
MTEXTEND
  0
POINT
  5
4FC
330
4AF
100
AcDbEntity
  8
DEFPOINTS
 62
     0
100
AcDbPoint
 10
-130.3500099999999
 20
-12.872747
 30
0.0
  0
POINT
  5
4FD
330
4AF
100
AcDbEntity
  8
DEFPOINTS
 62
     0
100
AcDbPoint
 10
-130.3500099999999
 20
49.02725199999999
 30
0.0
  0
POINT
  5
4FE
330
4AF
100
AcDbEntity
  8
DEFPOINTS
 62
     0
100
AcDbPoint
 10
-174.6071270021664
 20
49.02725200000001
 30
0.0
  0
ENDBLK
  5
4BA
330
4AF
100
AcDbEntity
  8
0
100
AcDbBlockEnd
  0
BLOCK
  5
4D1
330
4C7
100
AcDbEntity
  8
0
100
AcDbBlockBegin
  2
*D6
 70
     1
 10
0.0
 20
0.0
 30
0.0
  3
*D6
  1

  0
LINE
  5
4D4
330
4C7
100
AcDbEntity
  8
0
 62
     1
100
AcDbLine
 10
-122.35
 20
18.07724999999998
 30
0.0
 11
-200.1974262552578
 21
18.07725000000001
 31
0.0
  0
LINE
  5
4D5
330
4C7
100
AcDbEntity
  8
0
 62
     1
100
AcDbLine
 10
-106.6550000769133
 20
82.97724975041615
 30
0.0
 11
-200.1974262552578
 21
82.97724975041615
 31
0.0
  0
LINE
  5
4D6
330
4C7
100
AcDbEntity
  8
0
 62
     1
100
AcDbLine
 10
-197.6974262552579
 20
25.07725
 30
0.0
 11
-197.6974262552579
 21
75.97724975041618
 31
0.0
  0
SOLID
  5
4D7
330
4C7
100
AcDbEntity
  8
0
 62
     1
100
AcDbTrace
 10
-198.8640929219245
 20
25.07725
 30
0.0
 11
-196.5307595885912
 21
25.07725
 31
0.0
 12
-197.6974262552579
 22
18.07724999999998
 32
0.0
 13
-197.6974262552579
 23
18.07724999999998
 33
0.0
  0
SOLID
  5
4D8
330
4C7
100
AcDbEntity
  8
0
 62
     1
100
AcDbTrace
 10
-198.8640929219245
 20
75.97724975041618
 30
0.0
 11
-196.5307595885912
 21
75.97724975041618
 31
0.0
 12
-197.6974262552579
 22
82.97724975041615
 32
0.0
 13
-197.6974262552579
 23
82.97724975041615
 33
0.0
  0
MTEXT
  5
4D9
330
4C7
100
AcDbEntity
  8
0
 62
     1
100
AcDbMText
 10
-203.1974262552579
 20
50.52724987520807
 30
0.0
 40
7.0
 41
0.0
 71
     5
 72
     1
  1
64.9
 11
0.0000000000000001
 21
1.0
 31
0.0
1001
ACAD
1000
MTEXTBEGIN
1070
    73
1070
     1
1070
    44
1040
1.0
1070
    74
1070
     0
1000
MTEXTEND
1000
MTEXTBEGIN
1070
    73
1070
     1
1070
    44
1040
1.0
1070
    74
1070
     0
1000
MTEXTEND
  0
POINT
  5
4DA
330
4C7
100
AcDbEntity
  8
DEFPOINTS
 62
     0
100
AcDbPoint
 10
-122.35
 20
18.07724999999998
 30
0.0
  0
POINT
  5
4DB
330
4C7
100
AcDbEntity
  8
DEFPOINTS
 62
     0
100
AcDbPoint
 10
-106.6550000769133
 20
82.97724975041615
 30
0.0
  0
POINT
  5
4DC
330
4C7
100
AcDbEntity
  8
DEFPOINTS
 62
     0
100
AcDbPoint
 10
-197.6974262552579
 20
82.97724975041615
 30
0.0
  0
ENDBLK
  5
4D2
330
4C7
100
AcDbEntity
  8
0
100
AcDbBlockEnd
  0
BLOCK
  5
4E9
330
4DF
100
AcDbEntity
  8
0
100
AcDbBlockBegin
  2
*D7
 70
     1
 10
0.0
 20
0.0
 30
0.0
  3
*D7
  1

  0
LINE
  5
4EC
330
4DF
100
AcDbEntity
  8
0
 62
     1
100
AcDbLine
 10
-122.35
 20
18.07724999999998
 30
0.0
 11
-200.1974262552578
 21
18.07725000000001
 31
0.0
  0
LINE
  5
4ED
330
4DF
100
AcDbEntity
  8
0
 62
     1
100
AcDbLine
 10
-108.745
 20
-51.52274699999999
 30
0.0
 11
-200.1974262552578
 21
-51.52274699999995
 31
0.0
  0
LINE
  5
4EE
330
4DF
100
AcDbEntity
  8
0
 62
     1
100
AcDbLine
 10
-197.6974262552579
 20
11.07725
 30
0.0
 11
-197.6974262552579
 21
-44.52274699999995
 31
0.0
  0
SOLID
  5
4EF
330
4DF
100
AcDbEntity
  8
0
 62
     1
100
AcDbTrace
 10
-198.8640929219245
 20
11.07725
 30
0.0
 11
-196.5307595885912
 21
11.07725
 31
0.0
 12
-197.6974262552579
 22
18.07724999999998
 32
0.0
 13
-197.6974262552579
 23
18.07724999999998
 33
0.0
  0
SOLID
  5
4F0
330
4DF
100
AcDbEntity
  8
0
 62
     1
100
AcDbTrace
 10
-198.8640929219245
 20
-44.52274699999995
 30
0.0
 11
-196.5307595885912
 21
-44.52274699999995
 31
0.0
 12
-197.6974262552579
 22
-51.52274699999995
 32
0.0
 13
-197.6974262552579
 23
-51.52274699999995
 33
0.0
  0
MTEXT
  5
4F1
330
4DF
100
AcDbEntity
  8
0
 62
     1
100
AcDbMText
 10
-203.1974262552579
 20
-16.72274849999999
 30
0.0
 40
7.0
 41
0.0
 71
     5
 72
     1
  1
69.6
 11
0.0000000000000001
 21
1.0
 31
0.0
1001
ACAD
1000
MTEXTBEGIN
1070
    73
1070
     1
1070
    44
1040
1.0
1070
    74
1070
     0
1000
MTEXTEND
1000
MTEXTBEGIN
1070
    73
1070
     1
1070
    44
1040
1.0
1070
    74
1070
     0
1000
MTEXTEND
  0
POINT
  5
4F2
330
4DF
100
AcDbEntity
  8
DEFPOINTS
 62
     0
100
AcDbPoint
 10
-122.35
 20
18.07724999999998
 30
0.0
  0
POINT
  5
4F3
330
4DF
100
AcDbEntity
  8
DEFPOINTS
 62
     0
100
AcDbPoint
 10
-108.745
 20
-51.52274699999999
 30
0.0
  0
POINT
  5
4F4
330
4DF
100
AcDbEntity
  8
DEFPOINTS
 62
     0
100
AcDbPoint
 10
-197.6974262552579
 20
-51.52274699999995
 30
0.0
  0
ENDBLK
  5
4EA
330
4DF
100
AcDbEntity
  8
0
100
AcDbBlockEnd
  0
BLOCK
  5
50A
330
500
100
AcDbEntity
  8
0
100
AcDbBlockBegin
  2
*D8
 70
     1
 10
0.0
 20
0.0
 30
0.0
  3
*D8
  1

  0
LINE
  5
50D
330
500
100
AcDbEntity
  8
0
 62
     1
100
AcDbLine
 10
-101.5999999999998
 20
-113.4055310962434
 30
0.0
 11
-168.7631055053125
 21
-113.4055310962434
 31
0.0
  0
LINE
  5
50E
330
500
100
AcDbEntity
  8
0
 62
     1
100
AcDbLine
 10
-101.5999999999998
 20
-155.0054089037564
 30
0.0
 11
-168.7631055053125
 21
-155.0054089037564
 31
0.0
  0
LINE
  5
50F
330
500
100
AcDbEntity
  8
0
 62
     1
100
AcDbLine
 10
-166.2631055053124
 20
-120.4055310962435
 30
0.0
 11
-166.2631055053124
 21
-148.0054089037561
 31
0.0
  0
SOLID
  5
510
330
500
100
AcDbEntity
  8
0
 62
     1
100
AcDbTrace
 10
-167.429772171979
 20
-120.4055310962435
 30
0.0
 11
-165.0964388386458
 21
-120.4055310962435
 31
0.0
 12
-166.2631055053124
 22
-113.4055310962434
 32
0.0
 13
-166.2631055053124
 23
-113.4055310962434
 33
0.0
  0
SOLID
  5
511
330
500
100
AcDbEntity
  8
0
 62
     1
100
AcDbTrace
 10
-167.429772171979
 20
-148.0054089037561
 30
0.0
 11
-165.0964388386458
 21
-148.0054089037561
 31
0.0
 12
-166.2631055053124
 22
-155.0054089037564
 32
0.0
 13
-166.2631055053124
 23
-155.0054089037564
 33
0.0
  0
MTEXT
  5
512
330
500
100
AcDbEntity
  8
0
 62
     1
100
AcDbMText
 10
-171.7631055053125
 20
-134.20547
 30
0.0
 40
7.0
 41
0.0
 71
     5
 72
     1
  1
41.6
 11
0.0000000000000001
 21
1.0
 31
0.0
1001
ACAD
1000
MTEXTBEGIN
1070
    73
1070
     1
1070
    44
1040
1.0
1070
    74
1070
     0
1000
MTEXTEND
1000
MTEXTBEGIN
1070
    73
1070
     1
1070
    44
1040
1.0
1070
    74
1070
     0
1000
MTEXTEND
  0
POINT
  5
513
330
500
100
AcDbEntity
  8
DEFPOINTS
 62
     0
100
AcDbPoint
 10
-101.5999999999998
 20
-113.4055310962434
 30
0.0
  0
POINT
  5
514
330
500
100
AcDbEntity
  8
DEFPOINTS
 62
     0
100
AcDbPoint
 10
-101.5999999999998
 20
-155.0054089037564
 30
0.0
  0
POINT
  5
515
330
500
100
AcDbEntity
  8
DEFPOINTS
 62
     0
100
AcDbPoint
 10
-166.2631055053124
 20
-155.0054089037564
 30
0.0
  0
ENDBLK
  5
50B
330
500
100
AcDbEntity
  8
0
100
AcDbBlockEnd
  0
BLOCK
  5
522
330
518
100
AcDbEntity
  8
0
100
AcDbBlockBegin
  2
*D9
 70
     1
 10
0.0
 20
0.0
 30
0.0
  3
*D9
  1

  0
LINE
  5
55F
330
518
100
AcDbEntity
  8
0
 62
     1
100
AcDbLine
 10
-101.6
 20
-166.3054799999999
 30
0.0
 11
-101.6
 21
-195.4685031408016
 31
0.0
  0
LINE
  5
560
330
518
100
AcDbEntity
  8
0
 62
     1
100
AcDbLine
 10
-50.799999
 20
-166.3054799999999
 30
0.0
 11
-50.799999
 21
-195.4685031408016
 31
0.0
  0
LINE
  5
561
330
518
100
AcDbEntity
  8
0
 62
     1
100
AcDbLine
 10
-94.59999999999999
 20
-192.9685031408018
 30
0.0
 11
-57.79999899999999
 21
-192.9685031408018
 31
0.0
  0
SOLID
  5
562
330
518
100
AcDbEntity
  8
0
 62
     1
100
AcDbTrace
 10
-94.59999999999999
 20
-191.801836474135
 30
0.0
 11
-94.59999999999999
 21
-194.1351698074686
 31
0.0
 12
-101.6
 22
-192.9685031408018
 32
0.0
 13
-101.6
 23
-192.9685031408018
 33
0.0
  0
SOLID
  5
563
330
518
100
AcDbEntity
  8
0
 62
     1
100
AcDbTrace
 10
-57.79999899999999
 20
-191.801836474135
 30
0.0
 11
-57.79999899999999
 21
-194.1351698074686
 31
0.0
 12
-50.799999
 22
-192.9685031408018
 32
0.0
 13
-50.799999
 23
-192.9685031408018
 33
0.0
  0
MTEXT
  5
564
330
518
100
AcDbEntity
  8
0
 62
     1
100
AcDbMText
 10
-76.19999949999997
 20
-187.4685031408018
 30
0.0
 40
7.0
 41
0.0
 71
     5
 72
     1
  1
50.80
1001
ACAD
1000
MTEXTBEGIN
1070
    73
1070
     1
1070
    44
1040
1.0
1070
    74
1070
     0
1000
MTEXTEND
1000
MTEXTBEGIN
1070
    73
1070
     1
1070
    44
1040
1.0
1070
    74
1070
     0
1000
MTEXTEND
  0
POINT
  5
565
330
518
100
AcDbEntity
  8
DEFPOINTS
 62
     0
100
AcDbPoint
 10
-101.6
 20
-166.3054799999999
 30
0.0
  0
POINT
  5
566
330
518
100
AcDbEntity
  8
DEFPOINTS
 62
     0
100
AcDbPoint
 10
-50.799999
 20
-166.3054799999999
 30
0.0
  0
POINT
  5
567
330
518
100
AcDbEntity
  8
DEFPOINTS
 62
     0
100
AcDbPoint
 10
-50.799999
 20
-192.9685031408018
 30
0.0
  0
ENDBLK
  5
523
330
518
100
AcDbEntity
  8
0
100
AcDbBlockEnd
  0
BLOCK
  5
53A
330
530
100
AcDbEntity
  8
0
100
AcDbBlockBegin
  2
*D10
 70
     1
 10
0.0
 20
0.0
 30
0.0
  3
*D10
  1

  0
LINE
  5
568
330
530
100
AcDbEntity
  8
0
 62
     1
100
AcDbLine
 10
-50.799999
 20
-166.3054799999999
 30
0.0
 11
-50.799999
 21
-195.4685031408016
 31
0.0
  0
LINE
  5
569
330
530
100
AcDbEntity
  8
0
 62
     1
100
AcDbLine
 10
-0.0000000000000284
 20
-166.3054799999999
 30
0.0
 11
-0.0000000000000302
 21
-195.4685031408016
 31
0.0
  0
LINE
  5
56A
330
530
100
AcDbEntity
  8
0
 62
     1
100
AcDbLine
 10
-43.799999
 20
-192.9685031408018
 30
0.0
 11
-7.00000000000003
 21
-192.9685031408018
 31
0.0
  0
SOLID
  5
56B
330
530
100
AcDbEntity
  8
0
 62
     1
100
AcDbTrace
 10
-43.799999
 20
-191.801836474135
 30
0.0
 11
-43.799999
 21
-194.1351698074686
 31
0.0
 12
-50.799999
 22
-192.9685031408018
 32
0.0
 13
-50.799999
 23
-192.9685031408018
 33
0.0
  0
SOLID
  5
56C
330
530
100
AcDbEntity
  8
0
 62
     1
100
AcDbTrace
 10
-7.00000000000003
 20
-191.801836474135
 30
0.0
 11
-7.00000000000003
 21
-194.1351698074686
 31
0.0
 12
-0.00000000000003
 22
-192.9685031408018
 32
0.0
 13
-0.00000000000003
 23
-192.9685031408018
 33
0.0
  0
MTEXT
  5
56D
330
530
100
AcDbEntity
  8
0
 62
     1
100
AcDbMText
 10
-25.39999950000001
 20
-187.4685031408018
 30
0.0
 40
7.0
 41
0.0
 71
     5
 72
     1
  1
50.80
1001
ACAD
1000
MTEXTBEGIN
1070
    73
1070
     1
1070
    44
1040
1.0
1070
    74
1070
     0
1000
MTEXTEND
1000
MTEXTBEGIN
1070
    73
1070
     1
1070
    44
1040
1.0
1070
    74
1070
     0
1000
MTEXTEND
  0
POINT
  5
56E
330
530
100
AcDbEntity
  8
DEFPOINTS
 62
     0
100
AcDbPoint
 10
-50.799999
 20
-166.3054799999999
 30
0.0
  0
POINT
  5
56F
330
530
100
AcDbEntity
  8
DEFPOINTS
 62
     0
100
AcDbPoint
 10
-0.0000000000000284
 20
-166.3054799999999
 30
0.0
  0
POINT
  5
570
330
530
100
AcDbEntity
  8
DEFPOINTS
 62
     0
100
AcDbPoint
 10
-0.00000000000003
 20
-192.9685031408018
 30
0.0
  0
ENDBLK
  5
53B
330
530
100
AcDbEntity
  8
0
100
AcDbBlockEnd
  0
BLOCK
  5
552
330
548
100
AcDbEntity
  8
0
100
AcDbBlockBegin
  2
*D11
 70
     1
 10
0.0
 20
0.0
 30
0.0
  3
*D11
  1

  0
LINE
  5
555
330
548
100
AcDbEntity
  8
0
 62
     1
100
AcDbLine
 10
101.6
 20
-110.1054699999999
 30
0.0
 11
162.8919244895314
 21
-110.1054699999999
 31
0.0
  0
LINE
  5
556
330
548
100
AcDbEntity
  8
0
 62
     1
100
AcDbLine
 10
101.6
 20
-158.3054699999999
 30
0.0
 11
162.8919244895314
 21
-158.3054699999999
 31
0.0
  0
LINE
  5
557
330
548
100
AcDbEntity
  8
0
 62
     1
100
AcDbLine
 10
160.3919244895313
 20
-117.10547
 30
0.0
 11
160.3919244895313
 21
-151.3054699999996
 31
0.0
  0
SOLID
  5
558
330
548
100
AcDbEntity
  8
0
 62
     1
100
AcDbTrace
 10
159.2252578228645
 20
-117.10547
 30
0.0
 11
161.5585911561981
 21
-117.10547
 31
0.0
 12
160.3919244895313
 22
-110.1054699999999
 32
0.0
 13
160.3919244895313
 23
-110.1054699999999
 33
0.0
  0
SOLID
  5
559
330
548
100
AcDbEntity
  8
0
 62
     1
100
AcDbTrace
 10
159.2252578228645
 20
-151.3054699999996
 30
0.0
 11
161.5585911561981
 21
-151.3054699999996
 31
0.0
 12
160.3919244895313
 22
-158.3054699999999
 32
0.0
 13
160.3919244895313
 23
-158.3054699999999
 33
0.0
  0
MTEXT
  5
55A
330
548
100
AcDbEntity
  8
0
 62
     1
100
AcDbMText
 10
154.8919244895313
 20
-134.2054699999999
 30
0.0
 40
7.0
 41
0.0
 71
     5
 72
     1
  1
48.2
 11
0.0000000000000001
 21
1.0
 31
0.0
1001
ACAD
1000
MTEXTBEGIN
1070
    73
1070
     1
1070
    44
1040
1.0
1070
    74
1070
     0
1000
MTEXTEND
1000
MTEXTBEGIN
1070
    73
1070
     1
1070
    44
1040
1.0
1070
    74
1070
     0
1000
MTEXTEND
  0
POINT
  5
55B
330
548
100
AcDbEntity
  8
DEFPOINTS
 62
     0
100
AcDbPoint
 10
101.6
 20
-110.1054699999999
 30
0.0
  0
POINT
  5
55C
330
548
100
AcDbEntity
  8
DEFPOINTS
 62
     0
100
AcDbPoint
 10
101.6
 20
-158.3054699999999
 30
0.0
  0
POINT
  5
55D
330
548
100
AcDbEntity
  8
DEFPOINTS
 62
     0
100
AcDbPoint
 10
160.3919244895313
 20
-158.3054699999999
 30
0.0
  0
ENDBLK
  5
553
330
548
100
AcDbEntity
  8
0
100
AcDbBlockEnd
  0
ENDSEC
  0
SECTION
  2
ENTITIES
  0
TEXT
  5
21A
330
1F
100
AcDbEntity
  8
0
  6
CONTINUOUS
 62
     7
100
AcDbText
 10
-56.22899499999999
 20
158.30365
 30
0.0
 40
9.6000004
  1

 41
0.8449618599999999
100
AcDbText
  0
ARC
  5
21C
330
1F
100
AcDbEntity
  8
0
  6
CONTINUOUS
 62
     7
100
AcDbCircle
 10
-63.09000000000001
 20
-26.74774699999999
 30
0.0
 40
2.0
100
AcDbArc
 50
180.0
 51
270.0
  0
ARC
  5
21D
330
1F
100
AcDbEntity
  8
0
  6
CONTINUOUS
 62
     7
100
AcDbCircle
 10
38.50999799999996
 20
-26.74774699999999
 30
0.0
 40
2.0
100
AcDbArc
 50
180.0
 51
270.0
  0
ARC
  5
21E
330
1F
100
AcDbEntity
  8
0
  6
CONTINUOUS
 62
     7
100
AcDbCircle
 10
-38.50999799999996
 20
1.002252199999996
 30
0.0
 40
2.0
100
AcDbArc
 50
0.0
 51
90.0
  0
ARC
  5
21F
330
1F
100
AcDbEntity
  8
0
  6
CONTINUOUS
 62
     7
100
AcDbCircle
 10
-38.50999799999996
 20
-26.74774699999999
 30
0.0
 40
2.0
100
AcDbArc
 50
270.0
 51
0.0
  0
ARC
  5
220
330
1F
100
AcDbEntity
  8
0
  6
CONTINUOUS
 62
     7
100
AcDbCircle
 10
-63.09000000000001
 20
1.002252199999996
 30
0.0
 40
2.0
100
AcDbArc
 50
90.0
 51
180.0
  0
ARC
  5
221
330
1F
100
AcDbEntity
  8
0
  6
CONTINUOUS
 62
     7
100
AcDbCircle
 10
-12.29
 20
-26.74774699999999
 30
0.0
 40
2.0
100
AcDbArc
 50
180.0
 51
270.0
  0
ARC
  5
222
330
1F
100
AcDbEntity
  8
0
  6
CONTINUOUS
 62
     7
100
AcDbCircle
 10
12.29
 20
1.002252199999996
 30
0.0
 40
2.0
100
AcDbArc
 50
0.0
 51
90.0
  0
ARC
  5
223
330
1F
100
AcDbEntity
  8
0
  6
CONTINUOUS
 62
     7
100
AcDbCircle
 10
12.29
 20
-26.74774699999999
 30
0.0
 40
2.0
100
AcDbArc
 50
270.0
 51
0.0
  0
ARC
  5
224
330
1F
100
AcDbEntity
  8
0
  6
CONTINUOUS
 62
     7
100
AcDbCircle
 10
-12.29
 20
1.002252199999996
 30
0.0
 40
2.0
100
AcDbArc
 50
90.0
 51
180.0
  0
ARC
  5
225
330
1F
100
AcDbEntity
  8
0
  6
CONTINUOUS
 62
     7
100
AcDbCircle
 10
63.09000000000001
 20
1.002252199999996
 30
0.0
 40
2.0
100
AcDbArc
 50
0.0
 51
90.0
  0
ARC
  5
226
330
1F
100
AcDbEntity
  8
0
  6
CONTINUOUS
 62
     7
100
AcDbCircle
 10
63.09000000000001
 20
-26.74774699999999
 30
0.0
 40
2.0
100
AcDbArc
 50
270.0
 51
0.0
  0
ARC
  5
227
330
1F
100
AcDbEntity
  8
0
  6
CONTINUOUS
 62
     7
100
AcDbCircle
 10
38.50999799999996
 20
1.002252199999996
 30
0.0
 40
2.0
100
AcDbArc
 50
90.0
 51
180.0
  0
ARC
  5
228
330
1F
100
AcDbEntity
  8
0
  6
CONTINUOUS
 62
     7
100
AcDbCircle
 10
89.309998
 20
-26.74774699999999
 30
0.0
 40
2.0
100
AcDbArc
 50
180.0
 51
270.0
  0
ARC
  5
229
330
1F
100
AcDbEntity
  8
0
  6
CONTINUOUS
 62
     7
100
AcDbCircle
 10
113.89
 20
1.002252199999996
 30
0.0
 40
2.0
100
AcDbArc
 50
0.0
 51
90.0
  0
ARC
  5
22A
330
1F
100
AcDbEntity
  8
0
  6
CONTINUOUS
 62
     7
100
AcDbCircle
 10
113.89
 20
-26.74774699999999
 30
0.0
 40
2.0
100
AcDbArc
 50
270.0
 51
0.0
  0
ARC
  5
22B
330
1F
100
AcDbEntity
  8
0
  6
CONTINUOUS
 62
     7
100
AcDbCircle
 10
89.309998
 20
1.002252199999996
 30
0.0
 40
2.0
100
AcDbArc
 50
90.0
 51
180.0
  0
ARC
  5
22C
330
1F
100
AcDbEntity
  8
0
  6
CONTINUOUS
 62
     7
100
AcDbCircle
 10
0.0000000000000071
 20
-51.444466
 30
0.0
 40
6.849329499999996
100
AcDbArc
 50
42.43625899999999
 51
137.56374
  0
ARC
  5
22D
330
1F
100
AcDbEntity
  8
0
  6
CONTINUOUS
 62
     7
100
AcDbCircle
 10
50.799999
 20
-51.444466
 30
0.0
 40
6.849329499999996
100
AcDbArc
 50
42.43625899999999
 51
137.56374
  0
ARC
  5
22E
102
{ACAD_REACTORS
330
4DD
102
}
330
1F
100
AcDbEntity
  8
0
  6
CONTINUOUS
 62
     7
100
AcDbCircle
 10
-101.6
 20
87.59896899999999
 30
0.0
 40
6.849329499999996
100
AcDbArc
 50
222.43626
 51
317.5637399999998
  0
ARC
  5
22F
330
1F
100
AcDbEntity
  8
0
  6
CONTINUOUS
 62
     7
100
AcDbCircle
 10
-50.799999
 20
87.59896899999999
 30
0.0
 40
6.849329499999996
100
AcDbArc
 50
222.43626
 51
317.5637399999998
  0
ARC
  5
230
330
1F
100
AcDbEntity
  8
0
  6
CONTINUOUS
 62
     7
100
AcDbCircle
 10
0.0000000000000071
 20
87.59896899999999
 30
0.0
 40
6.849329499999996
100
AcDbArc
 50
222.43626
 51
317.5637399999998
  0
ARC
  5
231
330
1F
100
AcDbEntity
  8
0
  6
CONTINUOUS
 62
     7
100
AcDbCircle
 10
50.799999
 20
87.59896899999999
 30
0.0
 40
6.849329499999996
100
AcDbArc
 50
222.43626
 51
317.5637399999998
  0
ARC
  5
232
330
1F
100
AcDbEntity
  8
0
  6
CONTINUOUS
 62
     7
100
AcDbCircle
 10
-113.745
 20
-45.79774899999999
 30
0.0
 40
1.975
100
AcDbArc
 50
90.0
 51
270.0
  0
ARC
  5
233
330
1F
100
AcDbEntity
  8
0
  6
CONTINUOUS
 62
     7
100
AcDbCircle
 10
-38.65499899999999
 20
-45.79774899999999
 30
0.0
 40
1.975
100
AcDbArc
 50
270.0
 51
90.0
  0
ARC
  5
234
330
1F
100
AcDbEntity
  8
0
  6
CONTINUOUS
 62
     7
100
AcDbCircle
 10
-95.45836599999999
 20
-138.81303
 30
0.0
 40
2.245972399999998
100
AcDbArc
 50
59.999998
 51
75.163426
  0
ARC
  5
235
330
1F
100
AcDbEntity
  8
0
  6
CONTINUOUS
 62
     7
100
AcDbCircle
 10
-95.05680799999998
 20
-136.45145
 30
0.0
 40
2.245972399999998
100
AcDbArc
 50
59.999998
 51
74.47022099999998
  0
ARC
  5
236
330
1F
100
AcDbEntity
  8
0
  6
CONTINUOUS
 62
     7
100
AcDbCircle
 10
-111.9172099999999
 20
-134.20547
 30
0.0
 40
1.684044099999999
100
AcDbArc
 50
34.85426499999999
 51
325.1457299999996
  0
ARC
  5
237
330
1F
100
AcDbEntity
  8
0
  6
CONTINUOUS
 62
     7
100
AcDbCircle
 10
-108.6922099999999
 20
-131.9594999999999
 30
0.0
 40
2.245972399999998
100
AcDbArc
 50
214.8542899999998
 51
270.0
  0
ARC
  5
238
330
1F
100
AcDbEntity
  8
0
  6
CONTINUOUS
 62
     7
100
AcDbCircle
 10
-111.9172099999999
 20
-134.20547
 30
0.0
 40
3.930451899999996
100
AcDbArc
 50
46.65816599999998
 51
313.3418299999997
  0
ARC
  5
239
330
1F
100
AcDbEntity
  8
0
  6
CONTINUOUS
 62
     7
100
AcDbCircle
 10
-107.67803
 20
-129.7135299999995
 30
0.0
 40
2.245972399999998
100
AcDbArc
 50
226.6583199999999
 51
252.64219
  0
ARC
  5
23A
330
1F
100
AcDbEntity
  8
0
  6
CONTINUOUS
 62
     7
100
AcDbCircle
 10
-107.67803
 20
-138.69742
 30
0.0
 40
2.245972399999998
100
AcDbArc
 50
107.3578099999999
 51
133.3416799999999
  0
ARC
  5
23B
330
1F
100
AcDbEntity
  8
0
  6
CONTINUOUS
 62
     7
100
AcDbCircle
 10
-108.6922099999999
 20
-136.45145
 30
0.0
 40
2.245972399999998
100
AcDbArc
 50
90.0
 51
145.14571
  0
ARC
  5
23C
330
1F
100
AcDbEntity
  8
0
  6
CONTINUOUS
 62
     7
100
AcDbCircle
 10
-95.45836599999999
 20
-129.5979199999997
 30
0.0
 40
2.245972399999998
100
AcDbArc
 50
284.83657
 51
300.0
  0
ARC
  5
23D
330
1F
100
AcDbEntity
  8
0
  6
CONTINUOUS
 62
     7
100
AcDbCircle
 10
-95.05680799999998
 20
-131.9594999999999
 30
0.0
 40
2.245972399999998
100
AcDbArc
 50
285.5297799999996
 51
300.0
  0
CIRCLE
  5
23E
330
1F
100
AcDbEntity
  8
0
  6
CONTINUOUS
 62
     7
100
AcDbCircle
 10
-101.6
 20
-134.20547
 30
0.0
 40
7.144999999999996
  0
ARC
  5
23F
330
1F
100
AcDbEntity
  8
0
  6
CONTINUOUS
 62
     7
100
AcDbCircle
 10
-56.941631
 20
-138.81303
 30
0.0
 40
2.245972399999998
100
AcDbArc
 50
104.83667
 51
119.9999999999999
  0
ARC
  5
240
330
1F
100
AcDbEntity
  8
0
  6
CONTINUOUS
 62
     7
100
AcDbCircle
 10
-57.34319300000001
 20
-136.45145
 30
0.0
 40
2.245972399999998
100
AcDbArc
 50
105.5298699999997
 51
119.9999999999999
  0
ARC
  5
241
330
1F
100
AcDbEntity
  8
0
  6
CONTINUOUS
 62
     7
100
AcDbCircle
 10
-40.482784
 20
-134.20547
 30
0.0
 40
1.684044099999999
100
AcDbArc
 50
214.8543399999998
 51
145.1456599999999
  0
ARC
  5
242
330
1F
100
AcDbEntity
  8
0
  6
CONTINUOUS
 62
     7
100
AcDbCircle
 10
-43.70778699999998
 20
-131.9594999999999
 30
0.0
 40
2.245972399999998
100
AcDbArc
 50
270.0
 51
325.14571
  0
ARC
  5
243
330
1F
100
AcDbEntity
  8
0
  6
CONTINUOUS
 62
     7
100
AcDbCircle
 10
-44.72196599999999
 20
-129.7135299999995
 30
0.0
 40
2.245972399999998
100
AcDbArc
 50
287.3577199999999
 51
313.34168
  0
ARC
  5
244
330
1F
100
AcDbEntity
  8
0
  6
CONTINUOUS
 62
     7
100
AcDbCircle
 10
-40.482784
 20
-134.20547
 30
0.0
 40
3.930451899999996
100
AcDbArc
 50
226.6582099999999
 51
133.34179
  0
CIRCLE
  5
245
330
1F
100
AcDbEntity
  8
0
  6
CONTINUOUS
 62
     7
100
AcDbCircle
 10
50.799999
 20
-134.20547
 30
0.0
 40
7.144999999999996
  0
CIRCLE
  5
246
330
1F
100
AcDbEntity
  8
0
  6
CONTINUOUS
 62
     7
100
AcDbCircle
 10
101.6
 20
-134.20547
 30
0.0
 40
10.15
  0
CIRCLE
  5
247
330
1F
100
AcDbEntity
  8
0
  6
CONTINUOUS
 62
     7
100
AcDbCircle
 10
-50.799999
 20
-134.20547
 30
0.0
 40
7.144999999999996
  0
CIRCLE
  5
248
330
1F
100
AcDbEntity
  8
0
  6
CONTINUOUS
 62
     7
100
AcDbCircle
 10
-0.0000000000000284
 20
-134.20547
 30
0.0
 40
7.144999999999996
  0
ARC
  5
249
330
1F
100
AcDbEntity
  8
0
  6
CONTINUOUS
 62
     7
100
AcDbCircle
 10
-76.199997
 20
-286.1608299999998
 30
0.0
 40
133.25536
100
AcDbArc
 50
80.528832
 51
99.47116800000001
  0
ARC
  5
24A
330
1F
100
AcDbEntity
  8
0
  6
CONTINUOUS
 62
     7
100
AcDbCircle
 10
-44.72196599999999
 20
-138.69742
 30
0.0
 40
2.245972399999998
100
AcDbArc
 50
46.658321
 51
72.64228299999998
  0
ARC
  5
24B
330
1F
100
AcDbEntity
  8
0
  6
CONTINUOUS
 62
     7
100
AcDbCircle
 10
-56.941631
 20
-129.5979199999997
 30
0.0
 40
2.245972399999998
100
AcDbArc
 50
239.9999999999999
 51
255.16333
  0
ARC
  5
24C
330
1F
100
AcDbEntity
  8
0
  6
CONTINUOUS
 62
     7
100
AcDbCircle
 10
0.050000001
 20
-134.20547
 30
0.0
 40
20.799999
100
AcDbArc
 50
67.249769
 51
292.7502399999998
  0
ARC
  5
24D
330
1F
100
AcDbEntity
  8
0
  6
CONTINUOUS
 62
     7
100
AcDbCircle
 10
-50.799999
 20
-134.20547
 30
0.0
 40
24.1
100
AcDbArc
 50
232.5559
 51
293.1515300313207
  0
ARC
  5
24E
330
1F
100
AcDbEntity
  8
0
  6
CONTINUOUS
 62
     7
100
AcDbCircle
 10
-50.799999
 20
-134.20547
 30
0.0
 40
24.1
100
AcDbArc
 50
66.84846996924784
 51
127.44411
  0
ARC
  5
250
330
1F
100
AcDbEntity
  8
0
  6
CONTINUOUS
 62
     7
100
AcDbCircle
 10
-0.0000000000000284
 20
-134.20547
 30
0.0
 40
24.1
100
AcDbArc
 50
42.783983
 51
113.1399436525756
  0
ARC
  5
251
330
1F
100
AcDbEntity
  8
0
  6
CONTINUOUS
 62
     7
100
AcDbCircle
 10
-0.0000000000000284
 20
-134.20547
 30
0.0
 40
24.1
100
AcDbArc
 50
246.8600563474243
 51
317.216
  0
ARC
  5
253
102
{ACAD_REACTORS
330
516
102
}
330
1F
100
AcDbEntity
  8
0
  6
CONTINUOUS
 62
     7
100
AcDbCircle
 10
-101.55
 20
-134.20547
 30
0.0
 40
20.799999
100
AcDbArc
 50
80.52884699999998
 51
279.4711699999999
  0
ARC
  5
254
330
1F
100
AcDbEntity
  8
0
  6
CONTINUOUS
 62
     7
100
AcDbCircle
 10
-43.70778699999998
 20
-136.45145
 30
0.0
 40
2.245972399999998
100
AcDbArc
 50
34.85428999999999
 51
90.0
  0
ARC
  5
255
330
1F
100
AcDbEntity
  8
0
  6
CONTINUOUS
 62
     7
100
AcDbCircle
 10
-57.34319300000001
 20
-131.9594999999999
 30
0.0
 40
2.245972399999998
100
AcDbArc
 50
239.9999999999999
 51
254.47013
  0
ARC
  5
256
330
1F
100
AcDbEntity
  8
0
  6
CONTINUOUS
 62
     7
100
AcDbCircle
 10
25.4
 20
-194.65768
 30
0.0
 40
44.75220499999998
100
AcDbArc
 50
67.249773
 51
112.7502299999997
  0
ARC
  5
257
330
1F
100
AcDbEntity
  8
0
  6
CONTINUOUS
 62
     7
100
AcDbCircle
 10
50.75
 20
-134.20547
 30
0.0
 40
20.799999
100
AcDbArc
 50
247.2497699999999
 51
112.7502299999997
  0
ARC
  5
258
330
1F
100
AcDbEntity
  8
0
  6
CONTINUOUS
 62
     7
100
AcDbCircle
 10
50.799999
 20
-134.20547
 30
0.0
 40
24.1
100
AcDbArc
 50
222.784
 51
293.1399436525757
  0
CIRCLE
  5
259
330
1F
100
AcDbEntity
  8
0
  6
CONTINUOUS
 62
     7
100
AcDbCircle
 10
101.6
 20
-134.20547
 30
0.0
 40
7.144999999999996
  0
ARC
  5
25A
330
1F
100
AcDbEntity
  8
0
  6
CONTINUOUS
 62
     7
100
AcDbCircle
 10
50.799999
 20
-134.20547
 30
0.0
 40
24.1
100
AcDbArc
 50
66.86005634742433
 51
137.2160199999999
  0
ARC
  5
25C
102
{ACAD_REACTORS
330
55E
102
}
330
1F
100
AcDbEntity
  8
0
  6
CONTINUOUS
 62
     7
100
AcDbCircle
 10
101.6
 20
-134.20547
 30
0.0
 40
24.1
100
AcDbArc
 50
246.8600563474242
 51
113.1399436525756
  0
ARC
  5
25D
330
1F
100
AcDbEntity
  8
0
  6
CONTINUOUS
 62
     7
100
AcDbCircle
 10
25.4
 20
-73.75327299999998
 30
0.0
 40
44.75220499999998
100
AcDbArc
 50
247.2497699999999
 51
292.75023
  0
ARC
  5
25E
330
1F
100
AcDbEntity
  8
0
  6
CONTINUOUS
 62
     7
100
AcDbCircle
 10
-50.849998
 20
-134.20547
 30
0.0
 40
20.799999
100
AcDbArc
 50
260.52884
 51
99.47117400000001
  0
ARC
  5
260
330
1F
100
AcDbEntity
  8
0
  6
CONTINUOUS
 62
     7
100
AcDbCircle
 10
-76.199997
 20
17.749876
 30
0.0
 40
133.25536
100
AcDbArc
 50
260.5288299999999
 51
279.4711699999999
  0
ARC
  5
261
330
1F
100
AcDbEntity
  8
0
  6
CONTINUOUS
 62
     7
100
AcDbCircle
 10
-63.09000000000001
 20
35.15225199999999
 30
0.0
 40
2.0
100
AcDbArc
 50
180.0
 51
270.0
  0
ARC
  5
262
330
1F
100
AcDbEntity
  8
0
  6
CONTINUOUS
 62
     7
100
AcDbCircle
 10
38.50999799999996
 20
35.15225199999999
 30
0.0
 40
2.0
100
AcDbArc
 50
180.0
 51
270.0
  0
ARC
  5
263
330
1F
100
AcDbEntity
  8
0
  6
CONTINUOUS
 62
     7
100
AcDbCircle
 10
-38.50999799999996
 20
62.902252
 30
0.0
 40
2.0
100
AcDbArc
 50
0.0
 51
90.0
  0
ARC
  5
264
330
1F
100
AcDbEntity
  8
0
  6
CONTINUOUS
 62
     7
100
AcDbCircle
 10
-38.50999799999996
 20
35.15225199999999
 30
0.0
 40
2.0
100
AcDbArc
 50
270.0
 51
0.0
  0
ARC
  5
265
330
1F
100
AcDbEntity
  8
0
  6
CONTINUOUS
 62
     7
100
AcDbCircle
 10
-63.09000000000001
 20
62.902252
 30
0.0
 40
2.0
100
AcDbArc
 50
90.0
 51
180.0
  0
ARC
  5
266
330
1F
100
AcDbEntity
  8
0
  6
CONTINUOUS
 62
     7
100
AcDbCircle
 10
-12.29
 20
35.15225199999999
 30
0.0
 40
2.0
100
AcDbArc
 50
180.0
 51
270.0
  0
ARC
  5
267
330
1F
100
AcDbEntity
  8
0
  6
CONTINUOUS
 62
     7
100
AcDbCircle
 10
12.29
 20
62.902252
 30
0.0
 40
2.0
100
AcDbArc
 50
0.0
 51
90.0
  0
ARC
  5
268
330
1F
100
AcDbEntity
  8
0
  6
CONTINUOUS
 62
     7
100
AcDbCircle
 10
12.29
 20
35.15225199999999
 30
0.0
 40
2.0
100
AcDbArc
 50
270.0
 51
0.0
  0
ARC
  5
269
330
1F
100
AcDbEntity
  8
0
  6
CONTINUOUS
 62
     7
100
AcDbCircle
 10
-12.29
 20
62.902252
 30
0.0
 40
2.0
100
AcDbArc
 50
90.0
 51
180.0
  0
ARC
  5
26A
330
1F
100
AcDbEntity
  8
0
  6
CONTINUOUS
 62
     7
100
AcDbCircle
 10
63.09000000000001
 20
62.902252
 30
0.0
 40
2.0
100
AcDbArc
 50
0.0
 51
90.0
  0
ARC
  5
26B
330
1F
100
AcDbEntity
  8
0
  6
CONTINUOUS
 62
     7
100
AcDbCircle
 10
63.09000000000001
 20
35.15225199999999
 30
0.0
 40
2.0
100
AcDbArc
 50
270.0
 51
0.0
  0
ARC
  5
26C
330
1F
100
AcDbEntity
  8
0
  6
CONTINUOUS
 62
     7
100
AcDbCircle
 10
38.50999799999996
 20
62.902252
 30
0.0
 40
2.0
100
AcDbArc
 50
90.0
 51
180.0
  0
ARC
  5
26D
330
1F
100
AcDbEntity
  8
0
  6
CONTINUOUS
 62
     7
100
AcDbCircle
 10
89.309998
 20
35.15225199999999
 30
0.0
 40
2.0
100
AcDbArc
 50
180.0
 51
270.0
  0
ARC
  5
26E
330
1F
100
AcDbEntity
  8
0
  6
CONTINUOUS
 62
     7
100
AcDbCircle
 10
113.89
 20
62.902252
 30
0.0
 40
2.0
100
AcDbArc
 50
0.0
 51
90.0
  0
ARC
  5
26F
330
1F
100
AcDbEntity
  8
0
  6
CONTINUOUS
 62
     7
100
AcDbCircle
 10
113.89
 20
35.15225199999999
 30
0.0
 40
2.0
100
AcDbArc
 50
270.0
 51
0.0
  0
ARC
  5
270
330
1F
100
AcDbEntity
  8
0
  6
CONTINUOUS
 62
     7
100
AcDbCircle
 10
89.309998
 20
62.902252
 30
0.0
 40
2.0
100
AcDbArc
 50
90.0
 51
180.0
  0
LINE
  5
271
330
1F
100
AcDbEntity
  8
0
  6
CONTINUOUS
 62
     7
100
AcDbLine
 10
-65.089996
 20
1.002252199999996
 30
0.0
 11
-65.089996
 21
-26.74774699999999
 31
0.0
  0
LINE
  5
272
102
{ACAD_REACTORS
330
4C5
102
}
330
1F
100
AcDbEntity
  8
0
  6
CENTER
 62
     6
100
AcDbLine
 10
-130.3500099999999
 20
-12.872747
 30
0.0
 11
133.6999999999999
 21
-12.872747
 31
0.0
  0
LINE
  5
273
330
1F
100
AcDbEntity
  8
0
  6
CONTINUOUS
 62
     7
100
AcDbLine
 10
-36.50999799999999
 20
1.002252199999996
 30
0.0
 11
-36.50999799999999
 21
-26.74774699999999
 31
0.0
  0
LINE
  5
274
330
1F
100
AcDbEntity
  8
0
  6
CONTINUOUS
 62
     7
100
AcDbLine
 10
24.1
 20
-28.74774699999999
 30
0.0
 11
24.1
 21
-35.897751
 31
0.0
  0
LINE
  5
275
330
1F
100
AcDbEntity
  8
0
  6
CONTINUOUS
 62
     7
100
AcDbLine
 10
-74.900002
 20
-28.74774699999999
 30
0.0
 11
-74.900002
 21
-35.897751
 31
0.0
  0
LINE
  5
276
330
1F
100
AcDbEntity
  8
0
  6
CONTINUOUS
 62
     7
100
AcDbLine
 10
24.1
 20
10.152254
 30
0.0
 11
24.1
 21
3.0022521
 31
0.0
  0
LINE
  5
277
330
1F
100
AcDbEntity
  8
0
  6
CONTINUOUS
 62
     7
100
AcDbLine
 10
-74.900002
 20
10.152254
 30
0.0
 11
-74.900002
 21
3.0022521
 31
0.0
  0
LINE
  5
278
330
1F
100
AcDbEntity
  8
0
  6
CONTINUOUS
 62
     7
100
AcDbLine
 10
-122.35
 20
-36.67274899999997
 30
0.0
 11
-122.35
 21
-43.82274999999999
 31
0.0
  0
LINE
  5
279
330
1F
100
AcDbEntity
  8
0
  6
CONTINUOUS
 62
     7
100
AcDbLine
 10
-122.35
 20
-36.67274899999997
 30
0.0
 11
-30.049999
 21
-36.67274899999997
 31
0.0
  0
LINE
  5
27A
330
1F
100
AcDbEntity
  8
0
  6
CONTINUOUS
 62
     7
100
AcDbLine
 10
-122.35
 20
10.927251
 30
0.0
 11
-30.049999
 21
10.927251
 31
0.0
  0
LINE
  5
27B
330
1F
100
AcDbEntity
  8
0
  6
CONTINUOUS
 62
     7
100
AcDbLine
 10
-74.900002
 20
10.152254
 30
0.0
 11
24.1
 21
10.152254
 31
0.0
  0
LINE
  5
27C
330
1F
100
AcDbEntity
  8
0
  6
CONTINUOUS
 62
     7
100
AcDbLine
 10
-74.900002
 20
3.0022521
 30
0.0
 11
24.1
 21
3.0022521
 31
0.0
  0
LINE
  5
27D
330
1F
100
AcDbEntity
  8
0
  6
CONTINUOUS
 62
     7
100
AcDbLine
 10
-74.900002
 20
-35.897751
 30
0.0
 11
24.1
 21
-35.897751
 31
0.0
  0
LINE
  5
27E
330
1F
100
AcDbEntity
  8
0
  6
CONTINUOUS
 62
     7
100
AcDbLine
 10
-20.75
 20
18.077251
 30
0.0
 11
-20.75
 21
10.927251
 31
0.0
  0
LINE
  5
27F
330
1F
100
AcDbEntity
  8
0
  6
CONTINUOUS
 62
     7
100
AcDbLine
 10
-14.29
 20
1.002252199999996
 30
0.0
 11
-14.29
 21
-26.74774699999999
 31
0.0
  0
LINE
  5
280
330
1F
100
AcDbEntity
  8
0
  6
CONTINUOUS
 62
     7
100
AcDbLine
 10
14.29
 20
1.002252199999996
 30
0.0
 11
14.29
 21
-26.74774699999999
 31
0.0
  0
LINE
  5
281
330
1F
100
AcDbEntity
  8
0
  6
CONTINUOUS
 62
     7
100
AcDbLine
 10
-20.75
 20
-36.67274899999997
 30
0.0
 11
71.55000300000001
 21
-36.67274899999997
 31
0.0
  0
LINE
  5
282
330
1F
100
AcDbEntity
  8
0
  6
CONTINUOUS
 62
     7
100
AcDbLine
 10
-94.45500199999999
 20
10.927251
 30
0.0
 11
-94.45500199999999
 21
-36.67274899999997
 31
0.0
  0
LINE
  5
283
330
1F
100
AcDbEntity
  8
0
  6
CONTINUOUS
 62
     7
100
AcDbLine
 10
125.7
 20
-28.74774699999999
 30
0.0
 11
125.7
 21
-35.897751
 31
0.0
  0
LINE
  5
284
330
1F
100
AcDbEntity
  8
0
  6
CONTINUOUS
 62
     7
100
AcDbLine
 10
71.55000300000001
 20
18.077251
 30
0.0
 11
71.55000300000001
 21
10.927251
 31
0.0
  0
LINE
  5
285
330
1F
100
AcDbEntity
  8
0
  6
CONTINUOUS
 62
     7
100
AcDbLine
 10
65.089996
 20
1.002252199999996
 30
0.0
 11
65.089996
 21
-26.74774699999999
 31
0.0
  0
LINE
  5
286
330
1F
100
AcDbEntity
  8
0
  6
CONTINUOUS
 62
     7
100
AcDbLine
 10
26.700001
 20
-28.74774699999999
 30
0.0
 11
26.700001
 21
-35.897751
 31
0.0
  0
LINE
  5
287
330
1F
100
AcDbEntity
  8
0
  6
CONTINUOUS
 62
     7
100
AcDbLine
 10
36.50999799999999
 20
1.002252199999996
 30
0.0
 11
36.50999799999999
 21
-26.74774699999999
 31
0.0
  0
LINE
  5
288
330
1F
100
AcDbEntity
  8
0
  6
CONTINUOUS
 62
     7
100
AcDbLine
 10
26.700001
 20
10.152254
 30
0.0
 11
26.700001
 21
3.0022521
 31
0.0
  0
LINE
  5
289
330
1F
100
AcDbEntity
  8
0
  6
CONTINUOUS
 62
     7
100
AcDbLine
 10
26.700001
 20
10.152254
 30
0.0
 11
125.7
 21
10.152254
 31
0.0
  0
LINE
  5
28A
330
1F
100
AcDbEntity
  8
0
  6
CONTINUOUS
 62
     7
100
AcDbLine
 10
26.700001
 20
3.0022521
 30
0.0
 11
125.7
 21
3.0022521
 31
0.0
  0
LINE
  5
28B
330
1F
100
AcDbEntity
  8
0
  6
CONTINUOUS
 62
     7
100
AcDbLine
 10
26.700001
 20
-28.74774699999999
 30
0.0
 11
125.7
 21
-28.74774699999999
 31
0.0
  0
LINE
  5
28C
330
1F
100
AcDbEntity
  8
0
  6
CONTINUOUS
 62
     7
100
AcDbLine
 10
26.700001
 20
-35.897751
 30
0.0
 11
125.7
 21
-35.897751
 31
0.0
  0
LINE
  5
28D
330
1F
100
AcDbEntity
  8
0
  6
CONTINUOUS
 62
     7
100
AcDbLine
 10
115.89
 20
1.002252199999996
 30
0.0
 11
115.89
 21
-26.74774699999999
 31
0.0
  0
LINE
  5
28E
330
1F
100
AcDbEntity
  8
0
  6
CONTINUOUS
 62
     7
100
AcDbLine
 10
87.30999799999997
 20
1.002252199999996
 30
0.0
 11
87.30999799999997
 21
-26.74774699999999
 31
0.0
  0
LINE
  5
28F
330
1F
100
AcDbEntity
  8
0
  6
CONTINUOUS
 62
     7
100
AcDbLine
 10
-108.745
 20
10.927251
 30
0.0
 11
-108.745
 21
-36.67274899999997
 31
0.0
  0
LINE
  5
290
330
1F
100
AcDbEntity
  8
0
  6
CONTINUOUS
 62
     7
100
AcDbLine
 10
-20.75
 20
10.927251
 30
0.0
 11
71.55000300000001
 21
10.927251
 31
0.0
  0
LINE
  5
291
330
1F
100
AcDbEntity
  8
0
  6
CONTINUOUS
 62
     7
100
AcDbLine
 10
71.55000300000001
 20
-36.67274899999997
 30
0.0
 11
71.55000300000001
 21
-43.82274999999999
 31
0.0
  0
LINE
  5
292
330
1F
100
AcDbEntity
  8
0
  6
CONTINUOUS
 62
     7
100
AcDbLine
 10
-20.75
 20
-36.67274899999997
 30
0.0
 11
-20.75
 21
-43.82274999999999
 31
0.0
  0
LINE
  5
293
330
1F
100
AcDbEntity
  8
0
  6
CONTINUOUS
 62
     7
100
AcDbLine
 10
-20.75
 20
-43.82274999999999
 30
0.0
 11
71.55000300000001
 21
-43.82274999999999
 31
0.0
  0
LINE
  5
294
330
1F
100
AcDbEntity
  8
0
  6
CONTINUOUS
 62
     7
100
AcDbLine
 10
-30.049999
 20
-36.67274899999997
 30
0.0
 11
-30.049999
 21
-43.82274999999999
 31
0.0
  0
LINE
  5
295
330
1F
100
AcDbEntity
  8
0
  6
CONTINUOUS
 62
     7
100
AcDbLine
 10
-122.35
 20
-43.82274999999999
 30
0.0
 11
-30.049999
 21
-43.82274999999999
 31
0.0
  0
LINE
  5
296
330
1F
100
AcDbEntity
  8
0
  6
CONTINUOUS
 62
     7
100
AcDbLine
 10
-122.35
 20
18.077251
 30
0.0
 11
-122.35
 21
10.927251
 31
0.0
  0
LINE
  5
297
330
1F
100
AcDbEntity
  8
0
  6
CONTINUOUS
 62
     7
100
AcDbLine
 10
-30.049999
 20
18.077251
 30
0.0
 11
-30.049999
 21
10.927251
 31
0.0
  0
LINE
  5
298
330
1F
100
AcDbEntity
  8
0
  6
CONTINUOUS
 62
     7
100
AcDbLine
 10
125.7
 20
10.152254
 30
0.0
 11
125.7
 21
3.0022521
 31
0.0
  0
LINE
  5
299
330
1F
100
AcDbEntity
  8
0
  6
CONTINUOUS
 62
     7
100
AcDbLine
 10
-74.900002
 20
-28.74774699999999
 30
0.0
 11
24.1
 21
-28.74774699999999
 31
0.0
  0
LINE
  5
29A
330
1F
100
AcDbEntity
  8
0
  6
CONTINUOUS
 62
     7
100
AcDbLine
 10
-5.0549998
 20
-46.822746
 30
0.0
 11
5.0549998
 21
-46.822746
 31
0.0
  0
LINE
  5
29B
330
1F
100
AcDbEntity
  8
0
  6
CONTINUOUS
 62
     7
100
AcDbLine
 10
-7.1450005
 20
-44.73275
 30
0.0
 11
-5.0550008
 21
-46.82274999999999
 31
0.0
  0
LINE
  5
29C
330
1F
100
AcDbEntity
  8
0
  6
CONTINUOUS
 62
     7
100
AcDbLine
 10
7.1450005
 20
-44.73275
 30
0.0
 11
5.0550008
 21
-46.82274999999999
 31
0.0
  0
LINE
  5
29D
330
1F
100
AcDbEntity
  8
0
  6
CONTINUOUS
 62
     7
100
AcDbLine
 10
45.744999
 20
-46.822746
 30
0.0
 11
55.85499999999999
 21
-46.822746
 31
0.0
  0
LINE
  5
29E
330
1F
100
AcDbEntity
  8
0
  6
CONTINUOUS
 62
     7
100
AcDbLine
 10
-7.144999999999996
 20
-43.822746
 30
0.0
 11
-7.144999999999996
 21
-44.73274599999998
 31
0.0
  0
LINE
  5
29F
330
1F
100
AcDbEntity
  8
0
  6
CONTINUOUS
 62
     7
100
AcDbLine
 10
7.144999999999996
 20
-43.822746
 30
0.0
 11
7.144999999999996
 21
-44.73274599999998
 31
0.0
  0
LINE
  5
2A0
330
1F
100
AcDbEntity
  8
0
  6
CONTINUOUS
 62
     7
100
AcDbLine
 10
57.945
 20
-43.822746
 30
0.0
 11
57.945
 21
-44.73274599999998
 31
0.0
  0
LINE
  5
2A1
330
1F
100
AcDbEntity
  8
0
  6
CONTINUOUS
 62
     7
100
AcDbLine
 10
43.65499899999998
 20
-43.822746
 30
0.0
 11
43.65499899999998
 21
-44.73274599999998
 31
0.0
  0
LINE
  5
2A2
330
1F
100
AcDbEntity
  8
0
  6
CONTINUOUS
 62
     7
100
AcDbLine
 10
43.65499899999998
 20
-44.73275
 30
0.0
 11
45.74500299999999
 21
-46.82274999999999
 31
0.0
  0
LINE
  5
2A3
330
1F
100
AcDbEntity
  8
0
  6
CONTINUOUS
 62
     7
100
AcDbLine
 10
57.945
 20
-44.73275
 30
0.0
 11
55.85499999999999
 21
-46.82274999999999
 31
0.0
  0
LINE
  5
2A4
330
1F
100
AcDbEntity
  8
0
  6
CONTINUOUS
 62
     7
100
AcDbLine
 10
57.945
 20
80.887253
 30
0.0
 11
55.85499999999999
 21
82.97725699999999
 31
0.0
  0
LINE
  5
2A5
330
1F
100
AcDbEntity
  8
0
  6
CONTINUOUS
 62
     7
100
AcDbLine
 10
43.65499899999998
 20
80.887253
 30
0.0
 11
45.744999
 21
82.97725699999999
 31
0.0
  0
LINE
  5
2A6
330
1F
100
AcDbEntity
  8
0
  6
CONTINUOUS
 62
     7
100
AcDbLine
 10
7.144999999999996
 20
80.887253
 30
0.0
 11
5.054999399999998
 21
82.977249
 31
0.0
  0
LINE
  5
2A7
330
1F
100
AcDbEntity
  8
0
  6
CONTINUOUS
 62
     7
100
AcDbLine
 10
-7.144999999999996
 20
80.887253
 30
0.0
 11
-5.054999399999998
 21
82.977249
 31
0.0
  0
LINE
  5
2A8
330
1F
100
AcDbEntity
  8
0
  6
CONTINUOUS
 62
     7
100
AcDbLine
 10
-45.744999
 20
82.977249
 30
0.0
 11
-43.65500299999999
 21
80.887253
 31
0.0
  0
LINE
  5
2A9
330
1F
100
AcDbEntity
  8
0
  6
CONTINUOUS
 62
     7
100
AcDbLine
 10
-57.945
 20
80.887253
 30
0.0
 11
-55.85499999999999
 21
82.97725699999999
 31
0.0
  0
LINE
  5
2AA
330
1F
100
AcDbEntity
  8
0
  6
CONTINUOUS
 62
     7
100
AcDbLine
 10
-96.545006
 20
82.97725699999999
 30
0.0
 11
-94.45500199999999
 21
80.887253
 31
0.0
  0
LINE
  5
2AB
330
1F
100
AcDbEntity
  8
0
  6
CONTINUOUS
 62
     7
100
AcDbLine
 10
-106.65501
 20
82.977249
 30
0.0
 11
-108.745
 21
80.887253
 31
0.0
  0
LINE
  5
2AC
330
1F
100
AcDbEntity
  8
0
  6
CONTINUOUS
 62
     7
100
AcDbLine
 10
45.744999
 20
82.977249
 30
0.0
 11
55.85499999999999
 21
82.977249
 31
0.0
  0
LINE
  5
2AD
330
1F
100
AcDbEntity
  8
0
  6
CONTINUOUS
 62
     7
100
AcDbLine
 10
-5.0549998
 20
82.977249
 30
0.0
 11
5.0549998
 21
82.977249
 31
0.0
  0
LINE
  5
2AE
330
1F
100
AcDbEntity
  8
0
  6
CONTINUOUS
 62
     7
100
AcDbLine
 10
-55.85499999999999
 20
82.977249
 30
0.0
 11
-45.744999
 21
82.977249
 31
0.0
  0
LINE
  5
2AF
330
1F
100
AcDbEntity
  8
0
  6
CONTINUOUS
 62
     7
100
AcDbLine
 10
-57.945
 20
-51.52274699999999
 30
0.0
 11
-43.65499899999998
 21
-51.52274699999999
 31
0.0
  0
LINE
  5
2B0
102
{ACAD_REACTORS
330
4F5
102
}
330
1F
100
AcDbEntity
  8
0
  6
CONTINUOUS
 62
     7
100
AcDbLine
 10
-108.745
 20
-51.52274699999999
 30
0.0
 11
-94.45500199999999
 21
-51.52274699999999
 31
0.0
  0
LINE
  5
2B1
330
1F
100
AcDbEntity
  8
0
  6
CONTINUOUS
 62
     7
100
AcDbLine
 10
-106.65501
 20
82.977249
 30
0.0
 11
-96.54499800000001
 21
82.977249
 31
0.0
  0
LINE
  5
2B2
330
1F
100
AcDbEntity
  8
0
  6
CONTINUOUS
 62
     7
100
AcDbLine
 10
55.852276
 20
-129.1531999999999
 30
0.0
 11
55.852276
 21
-139.2577499999999
 31
0.0
  0
LINE
  5
2B3
330
1F
100
AcDbEntity
  8
0
  6
CONTINUOUS
 62
     7
100
AcDbLine
 10
55.852276
 20
-139.2577499999999
 30
0.0
 11
45.747723
 21
-139.2577499999999
 31
0.0
  0
LINE
  5
2B4
330
1F
100
AcDbEntity
  8
0
  6
CONTINUOUS
 62
     7
100
AcDbLine
 10
45.747723
 20
-129.1531999999999
 30
0.0
 11
45.747723
 21
-139.2577499999999
 31
0.0
  0
LINE
  5
2B5
330
1F
100
AcDbEntity
  8
0
  6
CONTINUOUS
 62
     7
100
AcDbLine
 10
55.852276
 20
-129.1531999999999
 30
0.0
 11
45.747723
 21
-129.1531999999999
 31
0.0
  0
LINE
  5
2B6
330
1F
100
AcDbEntity
  8
0
  6
CONTINUOUS
 62
     7
100
AcDbLine
 10
5.052278
 20
-129.1531999999999
 30
0.0
 11
5.052278
 21
-139.2577499999999
 31
0.0
  0
LINE
  5
2B7
330
1F
100
AcDbEntity
  8
0
  6
CONTINUOUS
 62
     7
100
AcDbLine
 10
5.052278
 20
-139.2577499999999
 30
0.0
 11
-5.052278
 21
-139.2577499999999
 31
0.0
  0
LINE
  5
2B8
330
1F
100
AcDbEntity
  8
0
  6
CONTINUOUS
 62
     7
100
AcDbLine
 10
-5.052278
 20
-129.1531999999999
 30
0.0
 11
-5.052278
 21
-139.2577499999999
 31
0.0
  0
LINE
  5
2B9
330
1F
100
AcDbEntity
  8
0
  6
CONTINUOUS
 62
     7
100
AcDbLine
 10
5.052278
 20
-129.1531999999999
 30
0.0
 11
-5.052278
 21
-129.1531999999999
 31
0.0
  0
LINE
  5
2BA
330
1F
100
AcDbEntity
  8
0
  6
CONTINUOUS
 62
     7
100
AcDbLine
 10
-113.745
 20
-47.77275099999999
 30
0.0
 11
-108.745
 21
-47.77275099999999
 31
0.0
  0
LINE
  5
2BB
330
1F
100
AcDbEntity
  8
0
  6
CONTINUOUS
 62
     7
100
AcDbLine
 10
-94.45500199999999
 20
-47.77275099999999
 30
0.0
 11
-87.38393399999997
 21
-47.77275099999999
 31
0.0
  0
LINE
  5
2BC
330
1F
100
AcDbEntity
  8
0
  6
CONTINUOUS
 62
     7
100
AcDbLine
 10
-85.383934
 20
-45.772743
 30
0.0
 11
-87.333931
 21
-43.822746
 31
0.0
  0
LINE
  5
2BD
330
1F
100
AcDbEntity
  8
0
  6
CONTINUOUS
 62
     7
100
AcDbLine
 10
-85.383934
 20
-45.772743
 30
0.0
 11
-87.38393399999997
 21
-47.77274699999998
 31
0.0
  0
LINE
  5
2BE
330
1F
100
AcDbEntity
  8
0
  6
CONTINUOUS
 62
     7
100
AcDbLine
 10
-94.45500199999999
 20
-43.82274999999999
 30
0.0
 11
-94.45500199999999
 21
-51.52274699999999
 31
0.0
  0
LINE
  5
2BF
330
1F
100
AcDbEntity
  8
0
  6
CONTINUOUS
 62
     7
100
AcDbLine
 10
-108.745
 20
-43.82274999999999
 30
0.0
 11
-108.745
 21
-51.52274699999999
 31
0.0
  0
LINE
  5
2C0
330
1F
100
AcDbEntity
  8
0
  6
CONTINUOUS
 62
     7
100
AcDbLine
 10
-84.69224500000001
 20
-139.8420299999999
 30
0.0
 11
-85.81523100000003
 21
-141.7870899999998
 31
0.0
  0
LINE
  5
2C1
330
1F
100
AcDbEntity
  8
0
  6
CONTINUOUS
 62
     7
100
AcDbLine
 10
-93.93383
 20
-134.5063899999999
 30
0.0
 11
-84.69224500000001
 21
-139.8420299999999
 31
0.0
  0
LINE
  5
2C2
330
1F
100
AcDbEntity
  8
0
  6
CONTINUOUS
 62
     7
100
AcDbLine
 10
-84.69223000000003
 20
-128.56894
 30
0.0
 11
-85.815216
 21
-126.6238799999999
 31
0.0
  0
LINE
  5
2C3
330
1F
100
AcDbEntity
  8
0
  6
CONTINUOUS
 62
     7
100
AcDbLine
 10
-93.933815
 20
-133.90457
 30
0.0
 11
-84.69223000000003
 21
-128.56894
 31
0.0
  0
LINE
  5
2C4
330
1F
100
AcDbEntity
  8
0
  6
CONTINUOUS
 62
     7
100
AcDbLine
 10
-94.33538799999999
 20
-136.86798
 30
0.0
 11
-85.81523100000003
 21
-141.7870899999998
 31
0.0
  0
LINE
  5
2C5
330
1F
100
AcDbEntity
  8
0
  6
CONTINUOUS
 62
     7
100
AcDbLine
 10
-58.06460999999998
 20
-136.8679699999999
 30
0.0
 11
-66.58476999999999
 21
-141.7870899999998
 31
0.0
  0
LINE
  5
2C6
330
1F
100
AcDbEntity
  8
0
  6
CONTINUOUS
 62
     7
100
AcDbLine
 10
-58.46618299999999
 20
-133.9045899999999
 30
0.0
 11
-67.70776399999999
 21
-128.5689499999998
 31
0.0
  0
LINE
  5
2C7
330
1F
100
AcDbEntity
  8
0
  6
CONTINUOUS
 62
     7
100
AcDbLine
 10
-67.70776399999999
 20
-128.5689499999998
 30
0.0
 11
-66.584778
 21
-126.6238799999999
 31
0.0
  0
LINE
  5
2C8
330
1F
100
AcDbEntity
  8
0
  6
CONTINUOUS
 62
     7
100
AcDbLine
 10
-67.707756
 20
-139.8420299999999
 30
0.0
 11
-66.58476999999999
 21
-141.7870899999998
 31
0.0
  0
LINE
  5
2C9
330
1F
100
AcDbEntity
  8
0
  6
CONTINUOUS
 62
     7
100
AcDbLine
 10
-58.064621
 20
-131.543
 30
0.0
 11
-66.584778
 21
-126.6238799999999
 31
0.0
  0
LINE
  5
2CA
330
1F
100
AcDbEntity
  8
0
  6
CENTER
 62
     6
100
AcDbLine
 10
50.799999
 20
-102.1054799999999
 30
0.0
 11
50.799999
 21
-166.3054799999999
 31
0.0
  0
LINE
  5
2CB
102
{ACAD_REACTORS
330
546
102
}
330
1F
100
AcDbEntity
  8
0
  6
CENTER
 62
     6
100
AcDbLine
 10
-0.0000000000000284
 20
-102.1054799999999
 30
0.0
 11
-0.0000000000000284
 21
-166.3054799999999
 31
0.0
  0
LINE
  5
2CC
330
1F
100
AcDbEntity
  8
0
  6
CONTINUOUS
 62
     7
100
AcDbLine
 10
-58.46617099999999
 20
-134.5063899999999
 30
0.0
 11
-67.707756
 21
-139.8420299999999
 31
0.0
  0
LINE
  5
2CD
330
1F
100
AcDbEntity
  8
0
  6
CONTINUOUS
 62
     7
100
AcDbLine
 10
-94.33538099999999
 20
-131.543
 30
0.0
 11
-85.815216
 21
-126.6238799999999
 31
0.0
  0
LINE
  5
2CE
102
{ACAD_REACTORS
330
55E
102
}
330
1F
100
AcDbEntity
  8
0
  6
CENTER
 62
     6
100
AcDbLine
 10
101.6
 20
-102.1054799999999
 30
0.0
 11
101.6
 21
-166.3054799999999
 31
0.0
  0
LINE
  5
2CF
102
{ACAD_REACTORS
330
52E
102
}
330
1F
100
AcDbEntity
  8
0
  6
CENTER
 62
     6
100
AcDbLine
 10
-50.799999
 20
-102.1054799999999
 30
0.0
 11
-50.799999
 21
-166.3054799999999
 31
0.0
  0
LINE
  5
2D0
102
{ACAD_REACTORS
330
516
330
52E
102
}
330
1F
100
AcDbEntity
  8
0
  6
CENTER
 62
     6
100
AcDbLine
 10
-101.6
 20
-102.1054799999999
 30
0.0
 11
-101.6
 21
-166.3054799999999
 31
0.0
  0
LINE
  5
2D1
330
1F
100
AcDbEntity
  8
0
  6
CENTER
 62
     6
100
AcDbLine
 10
-130.3500099999999
 20
-134.20547
 30
0.0
 11
133.6999999999999
 21
-134.20547
 31
0.0
  0
LINE
  5
2D2
330
1F
100
AcDbEntity
  8
0
  6
CONTINUOUS
 62
     7
100
AcDbLine
 10
-43.65499899999998
 20
79.977249
 30
0.0
 11
-43.65499899999998
 21
80.887253
 31
0.0
  0
LINE
  5
2D3
330
1F
100
AcDbEntity
  8
0
  6
CONTINUOUS
 62
     7
100
AcDbLine
 10
-57.945
 20
79.977249
 30
0.0
 11
-57.945
 21
80.887253
 31
0.0
  0
LINE
  5
2D4
330
1F
100
AcDbEntity
  8
0
  6
CONTINUOUS
 62
     7
100
AcDbLine
 10
-7.144999999999996
 20
79.977249
 30
0.0
 11
-7.144999999999996
 21
80.887253
 31
0.0
  0
LINE
  5
2D5
330
1F
100
AcDbEntity
  8
0
  6
CONTINUOUS
 62
     7
100
AcDbLine
 10
-65.089996
 20
62.902252
 30
0.0
 11
-65.089996
 21
35.15225199999999
 31
0.0
  0
LINE
  5
2D6
102
{ACAD_REACTORS
330
4C5
102
}
330
1F
100
AcDbEntity
  8
0
  6
CENTER
 62
     6
100
AcDbLine
 10
-130.3500099999999
 20
49.02725199999999
 30
0.0
 11
133.6999999999999
 21
49.02725199999999
 31
0.0
  0
LINE
  5
2D7
330
1F
100
AcDbEntity
  8
0
  6
CONTINUOUS
 62
     7
100
AcDbLine
 10
-36.50999799999999
 20
62.902252
 30
0.0
 11
-36.50999799999999
 21
35.15225199999999
 31
0.0
  0
LINE
  5
2D8
330
1F
100
AcDbEntity
  8
0
  6
CONTINUOUS
 62
     7
100
AcDbLine
 10
24.1
 20
33.15225199999999
 30
0.0
 11
24.1
 21
26.002251
 31
0.0
  0
LINE
  5
2D9
330
1F
100
AcDbEntity
  8
0
  6
CONTINUOUS
 62
     7
100
AcDbLine
 10
-74.900002
 20
33.15225199999999
 30
0.0
 11
-74.900002
 21
26.002251
 31
0.0
  0
LINE
  5
2DA
330
1F
100
AcDbEntity
  8
0
  6
CONTINUOUS
 62
     7
100
AcDbLine
 10
7.144999999999996
 20
79.977249
 30
0.0
 11
7.144999999999996
 21
80.887253
 31
0.0
  0
LINE
  5
2DB
330
1F
100
AcDbEntity
  8
0
  6
CONTINUOUS
 62
     7
100
AcDbLine
 10
24.1
 20
72.052254
 30
0.0
 11
24.1
 21
64.90225200000001
 31
0.0
  0
LINE
  5
2DC
330
1F
100
AcDbEntity
  8
0
  6
CONTINUOUS
 62
     7
100
AcDbLine
 10
-74.900002
 20
72.052254
 30
0.0
 11
-74.900002
 21
64.90225200000001
 31
0.0
  0
LINE
  5
2DD
330
1F
100
AcDbEntity
  8
0
  6
CONTINUOUS
 62
     7
100
AcDbLine
 10
-94.45500199999999
 20
79.977249
 30
0.0
 11
-94.45500199999999
 21
80.887253
 31
0.0
  0
LINE
  5
2DE
330
1F
100
AcDbEntity
  8
0
  6
CONTINUOUS
 62
     7
100
AcDbLine
 10
-122.35
 20
25.227249
 30
0.0
 11
-122.35
 21
18.07724999999998
 31
0.0
  0
LINE
  5
2DF
330
1F
100
AcDbEntity
  8
0
  6
CONTINUOUS
 62
     7
100
AcDbLine
 10
-122.35
 20
25.227249
 30
0.0
 11
-30.049999
 21
25.227249
 31
0.0
  0
LINE
  5
2E0
102
{ACAD_REACTORS
330
491
102
}
330
1F
100
AcDbEntity
  8
0
  6
CONTINUOUS
 62
     7
100
AcDbLine
 10
-122.35
 20
79.977249
 30
0.0
 11
-30.049999
 21
79.977249
 31
0.0
  0
LINE
  5
2E1
102
{ACAD_REACTORS
330
491
102
}
330
1F
100
AcDbEntity
  8
0
  6
CONTINUOUS
 62
     7
100
AcDbLine
 10
-122.35
 20
72.827248
 30
0.0
 11
-30.049999
 21
72.827248
 31
0.0
  0
LINE
  5
2E2
330
1F
100
AcDbEntity
  8
0
  6
CONTINUOUS
 62
     7
100
AcDbLine
 10
-74.900002
 20
72.052254
 30
0.0
 11
24.1
 21
72.052254
 31
0.0
  0
LINE
  5
2E3
330
1F
100
AcDbEntity
  8
0
  6
CONTINUOUS
 62
     7
100
AcDbLine
 10
-74.900002
 20
64.90225200000001
 30
0.0
 11
24.1
 21
64.90225200000001
 31
0.0
  0
LINE
  5
2E4
330
1F
100
AcDbEntity
  8
0
  6
CONTINUOUS
 62
     7
100
AcDbLine
 10
-74.900002
 20
26.002251
 30
0.0
 11
24.1
 21
26.002251
 31
0.0
  0
LINE
  5
2E5
330
1F
100
AcDbEntity
  8
0
  6
CONTINUOUS
 62
     7
100
AcDbLine
 10
-20.75
 20
79.977249
 30
0.0
 11
-20.75
 21
72.827248
 31
0.0
  0
LINE
  5
2E6
330
1F
100
AcDbEntity
  8
0
  6
CONTINUOUS
 62
     7
100
AcDbLine
 10
-14.29
 20
62.902252
 30
0.0
 11
-14.29
 21
35.15225199999999
 31
0.0
  0
LINE
  5
2E7
330
1F
100
AcDbEntity
  8
0
  6
CONTINUOUS
 62
     7
100
AcDbLine
 10
14.29
 20
62.902252
 30
0.0
 11
14.29
 21
35.15225199999999
 31
0.0
  0
LINE
  5
2E8
330
1F
100
AcDbEntity
  8
0
  6
CONTINUOUS
 62
     7
100
AcDbLine
 10
-20.75
 20
79.977249
 30
0.0
 11
71.55000300000001
 21
79.977249
 31
0.0
  0
LINE
  5
2E9
330
1F
100
AcDbEntity
  8
0
  6
CONTINUOUS
 62
     7
100
AcDbLine
 10
-20.75
 20
25.227249
 30
0.0
 11
71.55000300000001
 21
25.227249
 31
0.0
  0
LINE
  5
2EA
102
{ACAD_REACTORS
330
4AD
102
}
330
1F
100
AcDbEntity
  8
0
  6
CONTINUOUS
 62
     7
100
AcDbLine
 10
-94.45500199999999
 20
72.827248
 30
0.0
 11
-94.45500199999999
 21
25.227249
 31
0.0
  0
LINE
  5
2EB
330
1F
100
AcDbEntity
  8
0
  6
CONTINUOUS
 62
     7
100
AcDbLine
 10
125.7
 20
33.15225199999999
 30
0.0
 11
125.7
 21
26.002251
 31
0.0
  0
LINE
  5
2EC
330
1F
100
AcDbEntity
  8
0
  6
CONTINUOUS
 62
     7
100
AcDbLine
 10
71.55000300000001
 20
79.977249
 30
0.0
 11
71.55000300000001
 21
72.827248
 31
0.0
  0
LINE
  5
2ED
330
1F
100
AcDbEntity
  8
0
  6
CONTINUOUS
 62
     7
100
AcDbLine
 10
65.089996
 20
62.902252
 30
0.0
 11
65.089996
 21
35.15225199999999
 31
0.0
  0
LINE
  5
2EE
330
1F
100
AcDbEntity
  8
0
  6
CONTINUOUS
 62
     7
100
AcDbLine
 10
26.700001
 20
33.15225199999999
 30
0.0
 11
26.700001
 21
26.002251
 31
0.0
  0
LINE
  5
2EF
330
1F
100
AcDbEntity
  8
0
  6
CONTINUOUS
 62
     7
100
AcDbLine
 10
36.50999799999999
 20
62.902252
 30
0.0
 11
36.50999799999999
 21
35.15225199999999
 31
0.0
  0
LINE
  5
2F0
330
1F
100
AcDbEntity
  8
0
  6
CONTINUOUS
 62
     7
100
AcDbLine
 10
26.700001
 20
72.052254
 30
0.0
 11
26.700001
 21
64.90225200000001
 31
0.0
  0
LINE
  5
2F1
102
{ACAD_REACTORS
330
475
102
}
330
1F
100
AcDbEntity
  8
0
  6
CONTINUOUS
 62
     7
100
AcDbLine
 10
26.700001
 20
72.052254
 30
0.0
 11
125.7
 21
72.052254
 31
0.0
  0
LINE
  5
2F2
102
{ACAD_REACTORS
330
445
330
475
102
}
330
1F
100
AcDbEntity
  8
0
  6
CONTINUOUS
 62
     7
100
AcDbLine
 10
26.700001
 20
64.90225200000001
 30
0.0
 11
125.7
 21
64.90225200000001
 31
0.0
  0
LINE
  5
2F3
102
{ACAD_REACTORS
330
445
102
}
330
1F
100
AcDbEntity
  8
0
  6
CONTINUOUS
 62
     7
100
AcDbLine
 10
26.700001
 20
33.15225199999999
 30
0.0
 11
125.7
 21
33.15225199999999
 31
0.0
  0
LINE
  5
2F4
330
1F
100
AcDbEntity
  8
0
  6
CONTINUOUS
 62
     7
100
AcDbLine
 10
26.700001
 20
26.002251
 30
0.0
 11
125.7
 21
26.002251
 31
0.0
  0
LINE
  5
2F5
102
{ACAD_REACTORS
330
429
102
}
330
1F
100
AcDbEntity
  8
0
  6
CONTINUOUS
 62
     7
100
AcDbLine
 10
115.89
 20
62.902252
 30
0.0
 11
115.89
 21
35.15225199999999
 31
0.0
  0
LINE
  5
2F6
102
{ACAD_REACTORS
330
429
102
}
330
1F
100
AcDbEntity
  8
0
  6
CONTINUOUS
 62
     7
100
AcDbLine
 10
87.30999799999997
 20
62.902252
 30
0.0
 11
87.30999799999997
 21
35.15225199999999
 31
0.0
  0
LINE
  5
2F7
330
1F
100
AcDbEntity
  8
0
  6
CONTINUOUS
 62
     7
100
AcDbLine
 10
57.945
 20
79.977249
 30
0.0
 11
57.945
 21
80.887253
 31
0.0
  0
LINE
  5
2F8
330
1F
100
AcDbEntity
  8
0
  6
CONTINUOUS
 62
     7
100
AcDbLine
 10
43.65499899999998
 20
79.977249
 30
0.0
 11
43.65499899999998
 21
80.887253
 31
0.0
  0
LINE
  5
2F9
102
{ACAD_REACTORS
330
4AD
102
}
330
1F
100
AcDbEntity
  8
0
  6
CONTINUOUS
 62
     7
100
AcDbLine
 10
-108.745
 20
72.827248
 30
0.0
 11
-108.745
 21
25.227249
 31
0.0
  0
LINE
  5
2FA
330
1F
100
AcDbEntity
  8
0
  6
CONTINUOUS
 62
     7
100
AcDbLine
 10
-108.745
 20
79.977249
 30
0.0
 11
-108.745
 21
80.887253
 31
0.0
  0
LINE
  5
2FB
330
1F
100
AcDbEntity
  8
0
  6
CONTINUOUS
 62
     7
100
AcDbLine
 10
-38.65499899999999
 20
-47.77275099999999
 30
0.0
 11
-43.65499899999998
 21
-47.77275099999999
 31
0.0
  0
LINE
  5
2FC
330
1F
100
AcDbEntity
  8
0
  6
CONTINUOUS
 62
     7
100
AcDbLine
 10
-57.945
 20
-47.77275099999999
 30
0.0
 11
-65.01606800000001
 21
-47.77275099999999
 31
0.0
  0
LINE
  5
2FD
330
1F
100
AcDbEntity
  8
0
  6
CONTINUOUS
 62
     7
100
AcDbLine
 10
-67.016068
 20
-45.772751
 30
0.0
 11
-65.066063
 21
-43.822746
 31
0.0
  0
LINE
  5
2FE
330
1F
100
AcDbEntity
  8
0
  6
CENTER
 62
     6
100
AcDbLine
 10
-50.799999
 20
88.92725400000001
 30
0.0
 11
-50.799999
 21
-58.82274999999999
 31
0.0
  0
LINE
  5
2FF
330
1F
100
AcDbEntity
  8
0
  6
CONTINUOUS
 62
     7
100
AcDbLine
 10
-67.016068
 20
-45.772751
 30
0.0
 11
-65.01606800000001
 21
-47.77275099999999
 31
0.0
  0
LINE
  5
300
330
1F
100
AcDbEntity
  8
0
  6
CENTER
 62
     6
100
AcDbLine
 10
50.799999
 20
88.92725400000001
 30
0.0
 11
50.799999
 21
-51.322746
 31
0.0
  0
LINE
  5
301
330
1F
100
AcDbEntity
  8
0
  6
CONTINUOUS
 62
     7
100
AcDbLine
 10
-20.75
 20
72.827248
 30
0.0
 11
71.55000300000001
 21
72.827248
 31
0.0
  0
LINE
  5
302
330
1F
100
AcDbEntity
  8
0
  6
CONTINUOUS
 62
     7
100
AcDbLine
 10
71.55000300000001
 20
25.227249
 30
0.0
 11
71.55000300000001
 21
18.07724999999998
 31
0.0
  0
LINE
  5
303
330
1F
100
AcDbEntity
  8
0
  6
CONTINUOUS
 62
     7
100
AcDbLine
 10
-20.75
 20
25.227249
 30
0.0
 11
-20.75
 21
18.07724999999998
 31
0.0
  0
LINE
  5
304
330
1F
100
AcDbEntity
  8
0
  6
CENTER
 62
     6
100
AcDbLine
 10
101.6
 20
79.30225400000002
 30
0.0
 11
101.6
 21
-43.82274999999999
 31
0.0
  0
LINE
  5
305
330
1F
100
AcDbEntity
  8
0
  6
CONTINUOUS
 62
     7
100
AcDbLine
 10
-57.945
 20
-43.82274999999999
 30
0.0
 11
-57.945
 21
-51.52274699999999
 31
0.0
  0
LINE
  5
306
330
1F
100
AcDbEntity
  8
0
  6
CONTINUOUS
 62
     7
100
AcDbLine
 10
-43.65499899999998
 20
-43.82274999999999
 30
0.0
 11
-43.65499899999998
 21
-51.52274699999999
 31
0.0
  0
LINE
  5
307
330
1F
100
AcDbEntity
  8
0
  6
CONTINUOUS
 62
     7
100
AcDbLine
 10
-20.75
 20
18.07724999999998
 30
0.0
 11
71.55000300000001
 21
18.07724999999998
 31
0.0
  0
LINE
  5
308
330
1F
100
AcDbEntity
  8
0
  6
CONTINUOUS
 62
     7
100
AcDbLine
 10
-30.049999
 20
25.227249
 30
0.0
 11
-30.049999
 21
18.07724999999998
 31
0.0
  0
LINE
  5
309
102
{ACAD_REACTORS
330
4DD
330
4F5
102
}
330
1F
100
AcDbEntity
  8
0
  6
CONTINUOUS
 62
     7
100
AcDbLine
 10
-122.35
 20
18.07724999999998
 30
0.0
 11
-30.049999
 21
18.07724999999998
 31
0.0
  0
LINE
  5
30A
330
1F
100
AcDbEntity
  8
0
  6
CONTINUOUS
 62
     7
100
AcDbLine
 10
-122.35
 20
79.977249
 30
0.0
 11
-122.35
 21
72.827248
 31
0.0
  0
LINE
  5
30B
330
1F
100
AcDbEntity
  8
0
  6
CONTINUOUS
 62
     7
100
AcDbLine
 10
-30.049999
 20
79.977249
 30
0.0
 11
-30.049999
 21
72.827248
 31
0.0
  0
LINE
  5
30C
330
1F
100
AcDbEntity
  8
0
  6
CENTER
 62
     6
100
AcDbLine
 10
-101.6
 20
88.92725400000001
 30
0.0
 11
-101.6
 21
-58.82274999999999
 31
0.0
  0
LINE
  5
30D
330
1F
100
AcDbEntity
  8
0
  6
CENTER
 62
     6
100
AcDbLine
 10
0.0
 20
88.92725400000001
 30
0.0
 11
0.0
 21
-51.322746
 31
0.0
  0
LINE
  5
30E
330
1F
100
AcDbEntity
  8
0
  6
CONTINUOUS
 62
     7
100
AcDbLine
 10
125.7
 20
72.052254
 30
0.0
 11
125.7
 21
64.90225200000001
 31
0.0
  0
LINE
  5
30F
330
1F
100
AcDbEntity
  8
0
  6
CONTINUOUS
 62
     7
100
AcDbLine
 10
-74.900002
 20
33.15225199999999
 30
0.0
 11
24.1
 21
33.15225199999999
 31
0.0
  0
ARC
  5
40A
330
1F
100
AcDbEntity
  8
0
100
AcDbCircle
 10
76.19999949999997
 20
-74.7708521730768
 30
0.0
 40
40.5346178269231
100
AcDbArc
 50
246.8600563474243
 51
293.1399436525755
  0
ARC
  5
40B
330
1F
100
AcDbEntity
  8
0
100
AcDbCircle
 10
76.19999949999997
 20
-193.6400878269229
 30
0.0
 40
40.5346178269231
100
AcDbArc
 50
66.86005634742442
 51
113.1399436525754
  0
ARC
  5
40C
330
1F
100
AcDbEntity
  8
0
100
AcDbCircle
 10
-25.40000050000003
 20
-74.7708521730768
 30
0.0
 40
40.5346178269231
100
AcDbArc
 50
246.8600563474243
 51
293.1399436525755
  0
ARC
  5
40D
330
1F
100
AcDbEntity
  8
0
100
AcDbCircle
 10
-25.40000050000003
 20
-193.6400878269229
 30
0.0
 40
40.5346178269231
100
AcDbArc
 50
66.86005634742442
 51
113.1399436525754
  0
DIMENSION
  5
40E
102
{ACAD_XDICTIONARY
360
41D
102
}
102
{ACAD_REACTORS
330
429
102
}
330
1F
100
AcDbEntity
  8
0
100
AcDbDimension
  2
*D0
 10
115.89
 20
39.11131977372178
 30
0.0
 11
149.39
 21
44.61131977372178
 31
0.0
 70
    32
  1
φ<>
  3
ISO-25
100
AcDbAlignedDimension
 13
87.30999799999997
 23
35.15225199999999
 33
0.0
 14
115.89
 24
35.15225199999999
 34
0.0
100
AcDbRotatedDimension
  0
DIMENSION
  5
42A
102
{ACAD_XDICTIONARY
360
439
102
}
102
{ACAD_REACTORS
330
445
102
}
330
1F
100
AcDbEntity
  8
0
100
AcDbDimension
  2
*D1
 10
191.9070955182698
 20
64.90225199999999
 30
0.0
 11
186.4070955182699
 21
49.02725200000002
 31
0.0
 70
    32
  3
ISO-25
100
AcDbAlignedDimension
 13
125.7
 23
33.15225199999999
 33
0.0
 14
125.7
 24
64.90225200000001
 34
0.0
 50
90.0
100
AcDbRotatedDimension
  0
DIMENSION
  5
45A
102
{ACAD_XDICTIONARY
360
469
102
}
102
{ACAD_REACTORS
330
475
102
}
330
1F
100
AcDbEntity
  8
0
100
AcDbDimension
  2
*D2
 10
191.9070955182698
 20
72.05225399999998
 30
0.0
 11
186.4070955182699
 21
97.38558733333334
 31
0.0
 70
    32
  3
ISO-25
100
AcDbAlignedDimension
 13
125.7
 23
64.90225200000001
 33
0.0
 14
125.7
 24
72.052254
 34
0.0
 50
90.0
100
AcDbRotatedDimension
  0
DIMENSION
  5
476
102
{ACAD_XDICTIONARY
360
485
102
}
102
{ACAD_REACTORS
330
491
102
}
330
1F
100
AcDbEntity
  8
0
100
AcDbDimension
  2
*D3
 10
-150.794888857442
 20
79.977249
 30
0.0
 11
-156.294888857442
 21
105.3105823333333
 31
0.0
 70
    32
  3
ISO-25
100
AcDbAlignedDimension
 13
-122.35
 23
72.827248
 33
0.0
 14
-122.35
 24
79.977249
 34
0.0
 50
90.0
100
AcDbRotatedDimension
  0
DIMENSION
  5
492
102
{ACAD_XDICTIONARY
360
4A1
102
}
102
{ACAD_REACTORS
330
4AD
102
}
330
1F
100
AcDbEntity
  8
0
100
AcDbDimension
  2
*D4
 10
-108.745
 20
35.06506215252886
 30
0.0
 11
-141.0783333333332
 21
40.56506215252887
 31
0.0
 70
    32
  1
φ<>
  3
ISO-25
100
AcDbAlignedDimension
 13
-94.45500199999999
 23
25.227249
 33
0.0
 14
-108.745
 24
25.227249
 34
0.0
100
AcDbRotatedDimension
  0
DIMENSION
  5
4AE
102
{ACAD_XDICTIONARY
360
4BB
102
}
102
{ACAD_REACTORS
330
4C5
102
}
330
1F
100
AcDbEntity
  8
0
100
AcDbDimension
  2
*D5
 10
-174.6071270021664
 20
49.02725200000001
 30
0.0
 11
-174.6071270021664
 21
29.9199954462623
 31
0.0
 70
   160
  3
ISO-25
100
AcDbAlignedDimension
 13
-130.3500099999999
 23
-12.872747
 33
0.0
 14
-130.3500099999999
 24
49.02725199999999
 34
0.0
 50
90.0
100
AcDbRotatedDimension
  0
DIMENSION
  5
4C6
102
{ACAD_XDICTIONARY
360
4D3
102
}
102
{ACAD_REACTORS
330
4DD
102
}
330
1F
100
AcDbEntity
  8
0
100
AcDbDimension
  2
*D6
 10
-197.6974262552579
 20
82.97724975041615
 30
0.0
 11
-203.1974262552579
 21
50.52724987520807
 31
0.0
 70
    32
  3
ISO-25
100
AcDbAlignedDimension
 13
-122.35
 23
18.07724999999998
 33
0.0
 14
-106.6550000769133
 24
82.97724975041615
 34
0.0
 50
90.0
100
AcDbRotatedDimension
  0
DIMENSION
  5
4DE
102
{ACAD_XDICTIONARY
360
4EB
102
}
102
{ACAD_REACTORS
330
4F5
102
}
330
1F
100
AcDbEntity
  8
0
100
AcDbDimension
  2
*D7
 10
-197.6974262552579
 20
-51.52274699999995
 30
0.0
 11
-203.1974262552579
 21
-16.72274849999999
 31
0.0
 70
    32
  3
ISO-25
100
AcDbAlignedDimension
 13
-122.35
 23
18.07724999999998
 33
0.0
 14
-108.745
 24
-51.52274699999999
 34
0.0
 50
90.0
100
AcDbRotatedDimension
  0
DIMENSION
  5
4FF
102
{ACAD_XDICTIONARY
360
50C
102
}
102
{ACAD_REACTORS
330
516
102
}
330
1F
100
AcDbEntity
  8
0
100
AcDbDimension
  2
*D8
 10
-166.2631055053124
 20
-155.0054089037564
 30
0.0
 11
-171.7631055053125
 21
-134.20547
 31
0.0
 70
    32
  3
ISO-25
100
AcDbAlignedDimension
 13
-101.5999999999998
 23
-113.4055310962434
 33
0.0
 14
-101.5999999999998
 24
-155.0054089037564
 34
0.0
 50
90.0
100
AcDbRotatedDimension
  0
DIMENSION
  5
517
102
{ACAD_XDICTIONARY
360
524
102
}
102
{ACAD_REACTORS
330
52E
102
}
330
1F
100
AcDbEntity
  8
0
100
AcDbDimension
  2
*D9
 10
-50.799999
 20
-192.9685031408018
 30
0.0
 11
-76.19999949999997
 21
-187.4685031408018
 31
0.0
 70
    32
  3
ISO-25
100
AcDbAlignedDimension
 13
-101.6
 23
-166.3054799999999
 33
0.0
 14
-50.799999
 24
-166.3054799999999
 34
0.0
100
AcDbRotatedDimension
1001
ACAD
1000
DSTYLE
1002
{
1070
    78
1070
     0
1002
}
  0
DIMENSION
  5
52F
102
{ACAD_XDICTIONARY
360
53C
102
}
102
{ACAD_REACTORS
330
546
102
}
330
1F
100
AcDbEntity
  8
0
100
AcDbDimension
  2
*D10
 10
-0.00000000000003
 20
-192.9685031408018
 30
0.0
 11
-25.39999950000001
 21
-187.4685031408018
 31
0.0
 70
    32
  3
ISO-25
100
AcDbAlignedDimension
 13
-50.799999
 23
-166.3054799999999
 33
0.0
 14
-0.0000000000000284
 24
-166.3054799999999
 34
0.0
100
AcDbRotatedDimension
1001
ACAD
1000
DSTYLE
1002
{
1070
    78
1070
     0
1002
}
  0
DIMENSION
  5
547
102
{ACAD_XDICTIONARY
360
554
102
}
102
{ACAD_REACTORS
330
55E
102
}
330
1F
100
AcDbEntity
  8
0
100
AcDbDimension
  2
*D11
 10
160.3919244895313
 20
-158.3054699999999
 30
0.0
 11
154.8919244895313
 21
-134.2054699999999
 31
0.0
 70
    32
  3
ISO-25
100
AcDbAlignedDimension
 13
101.6
 23
-110.1054699999999
 33
0.0
 14
101.6
 24
-158.3054699999999
 34
0.0
 50
90.0
100
AcDbRotatedDimension
  0
TEXT
  5
582
330
1F
100
AcDbEntity
  8
0
100
AcDbText
 10
154.4621024507833
 20
-209.752042274292
 30
0.0
 40
3.299999999999998
  1
DATE2020.5.1
100
AcDbText
  0
ENDSEC
  0
SECTION
  2
OBJECTS
  0
DICTIONARY
  5
C
330
0
100
AcDbDictionary
  3
ACAD_GROUP
350
D
  3
ACAD_LAYOUT
350
1A
  3
ACAD_MLINESTYLE
350
17
  3
ACAD_PLOTSETTINGS
350
19
  3
ACAD_PLOTSTYLENAME
350
E
  3
ACDBHEADERROUNDTRIPXREC
350
5B3
  3
ACDBVARIABLEDICTIONARY
350
2C
  0
DICTIONARY
  5
5A7
330
1F
100
AcDbDictionary
280
     1
  3
ACAD_LAYOUTSELFREF
360
5D5
  0
DICTIONARY
  5
5A5
330
1B
100
AcDbDictionary
280
     1
  3
ACAD_LAYOUTSELFREF
360
5D4
  0
DICTIONARY
  5
41D
330
40E
100
AcDbDictionary
280
     1
  3
ACAD_DIMASSOC
360
429
  0
DICTIONARY
  5
439
330
42A
100
AcDbDictionary
280
     1
  3
ACAD_DIMASSOC
360
445
  0
DICTIONARY
  5
469
330
45A
100
AcDbDictionary
280
     1
  3
ACAD_DIMASSOC
360
475
  0
DICTIONARY
  5
485
330
476
100
AcDbDictionary
280
     1
  3
ACAD_DIMASSOC
360
491
  0
DICTIONARY
  5
4A1
330
492
100
AcDbDictionary
280
     1
  3
ACAD_DIMASSOC
360
4AD
  0
DICTIONARY
  5
4BB
330
4AE
100
AcDbDictionary
280
     1
  3
ACAD_DIMASSOC
360
4C5
  0
DICTIONARY
  5
4D3
330
4C6
100
AcDbDictionary
280
     1
  3
ACAD_DIMASSOC
360
4DD
  0
DICTIONARY
  5
4EB
330
4DE
100
AcDbDictionary
280
     1
  3
ACAD_DIMASSOC
360
4F5
  0
DICTIONARY
  5
50C
330
4FF
100
AcDbDictionary
280
     1
  3
ACAD_DIMASSOC
360
516
  0
DICTIONARY
  5
524
330
517
100
AcDbDictionary
280
     1
  3
ACAD_DIMASSOC
360
52E
  0
DICTIONARY
  5
53C
330
52F
100
AcDbDictionary
280
     1
  3
ACAD_DIMASSOC
360
546
  0
DICTIONARY
  5
554
330
547
100
AcDbDictionary
280
     1
  3
ACAD_DIMASSOC
360
55E
  0
DICTIONARY
  5
D
102
{ACAD_REACTORS
330
C
102
}
330
C
100
AcDbDictionary
  0
DICTIONARY
  5
1A
102
{ACAD_REACTORS
330
C
102
}
330
C
100
AcDbDictionary
  0
DICTIONARY
  5
17
102
{ACAD_REACTORS
330
C
102
}
330
C
100
AcDbDictionary
  3
STANDARD
350
18
  0
DICTIONARY
  5
19
102
{ACAD_REACTORS
330
C
102
}
330
C
100
AcDbDictionary
  0
ACDBDICTIONARYWDFLT
  5
E
102
{ACAD_REACTORS
330
C
102
}
330
C
100
AcDbDictionary
281
     1
  3
Normal
350
F
100
AcDbDictionaryWithDefault
340
F
  0
DICTIONARY
  5
5B3
102
{ACAD_REACTORS
330
C
102
}
330
C
100
AcDbDictionary
  3
CEPSNTYPE
350
5BD
  3
DIMSTYLEDATA
350
5C1
  3
FINGERPRINTGUID
350
5BE
  3
HYPERLINKBASE
350
5B6
  3
INSUNITS
350
5BC
  3
LAYOUTDICT
350
5B8
  3
LWETCUNION
350
5BB
  3
PLOTSETDICT
350
5B9
  3
PLOTSTYLNAMDICT
350
5BA
  3
PSVPSCALE
350
5C0
  3
PUCSBASE
350
5C4
  3
PUCSORGBACK
350
5CA
  3
PUCSORGBOTTOM
350
5C6
  3
PUCSORGFRONT
350
5C9
  3
PUCSORGLEFT
350
5C7
  3
PUCSORGRIGHT
350
5C8
  3
PUCSORGTOP
350
5C5
  3
PUCSORTHOREF
350
5C2
  3
PUCSORTHOVIEW
350
5C3
  3
STYLESHEET
350
5B7
  3
TSTACKALIGN
350
5B4
  3
TSTACKSIZE
350
5B5
  3
UCSBASE
350
5CD
  3
UCSORGBACK
350
5D3
  3
UCSORGBOTTOM
350
5CF
  3
UCSORGFRONT
350
5D2
  3
UCSORGLEFT
350
5D0
  3
UCSORGRIGHT
350
5D1
  3
UCSORGTOP
350
5CE
  3
UCSORTHOREF
350
5CB
  3
UCSORTHOVIEW
350
5CC
  3
VERSIONGUID
350
5BF
  0
DICTIONARY
  5
2C
102
{ACAD_REACTORS
330
C
102
}
330
C
100
AcDbDictionary
  3
DIMASSOC
350
2E
  3
HIDETEXT
350
2D
  0
XRECORD
  5
5D5
102
{ACAD_REACTORS
330
5A7
102
}
330
5A7
100
AcDbXrecord
340
1F
  0
XRECORD
  5
5D4
102
{ACAD_REACTORS
330
5A5
102
}
330
5A5
100
AcDbXrecord
340
1B
  0
DIMASSOC
  5
429
102
{ACAD_REACTORS
330
41D
102
}
330
41D
100
AcDbDimAssoc
330
40E
 90
        3
 70
     0
 71
     0
  1
AcDbOsnapPointRef
 72
     1
331
2F6
 73
     2
 91
        0
 40
1.0
 10
87.30999799999997
 20
35.15225199999999
 30
0.0
 75
     0
  1
AcDbOsnapPointRef
 72
     1
331
2F5
 73
     2
 91
        0
 40
1.0
 10
115.89
 20
35.15225199999999
 30
0.0
 75
     0
  0
DIMASSOC
  5
445
102
{ACAD_REACTORS
330
439
102
}
330
439
100
AcDbDimAssoc
330
42A
 90
        3
 70
     0
 71
     0
  1
AcDbOsnapPointRef
 72
     1
331
2F3
 73
     2
 91
        0
 40
1.0
 10
125.7
 20
33.15225199999999
 30
0.0
 75
     0
  1
AcDbOsnapPointRef
 72
     1
331
2F2
 73
     2
 91
        0
 40
1.0
 10
125.7
 20
64.90225200000001
 30
0.0
 75
     0
  0
DIMASSOC
  5
475
102
{ACAD_REACTORS
330
469
102
}
330
469
100
AcDbDimAssoc
330
45A
 90
        3
 70
     0
 71
     0
  1
AcDbOsnapPointRef
 72
     1
331
2F2
 73
     2
 91
        0
 40
1.0
 10
125.7
 20
64.90225200000001
 30
0.0
 75
     0
  1
AcDbOsnapPointRef
 72
     1
331
2F1
 73
     2
 91
        0
 40
1.0
 10
125.7
 20
72.052254
 30
0.0
 75
     0
  0
DIMASSOC
  5
491
102
{ACAD_REACTORS
330
485
102
}
330
485
100
AcDbDimAssoc
330
476
 90
        3
 70
     0
 71
     0
  1
AcDbOsnapPointRef
 72
    13
331
2E1
 73
     2
 91
        0
 40
0.0
 10
-122.35
 20
72.827248
 30
0.0
 75
     0
  1
AcDbOsnapPointRef
 72
    13
331
2E0
 73
     2
 91
        0
 40
0.0
 10
-122.35
 20
79.977249
 30
0.0
 75
     0
  0
DIMASSOC
  5
4AD
102
{ACAD_REACTORS
330
4A1
102
}
330
4A1
100
AcDbDimAssoc
330
492
 90
        3
 70
     0
 71
     0
  1
AcDbOsnapPointRef
 72
     1
331
2EA
 73
     2
 91
        0
 40
1.0
 10
-94.45500199999999
 20
25.227249
 30
0.0
 75
     0
  1
AcDbOsnapPointRef
 72
     1
331
2F9
 73
     2
 91
        0
 40
1.0
 10
-108.745
 20
25.227249
 30
0.0
 75
     0
  0
DIMASSOC
  5
4C5
102
{ACAD_REACTORS
330
4BB
102
}
330
4BB
100
AcDbDimAssoc
330
4AE
 90
        3
 70
     0
 71
     0
  1
AcDbOsnapPointRef
 72
    13
331
272
 73
     2
 91
        0
 40
0.0
 10
-130.3500099999999
 20
-12.872747
 30
0.0
 75
     0
  1
AcDbOsnapPointRef
 72
    13
331
2D6
 73
     2
 91
        0
 40
0.0
 10
-130.3500099999999
 20
49.02725199999999
 30
0.0
 75
     0
  0
DIMASSOC
  5
4DD
102
{ACAD_REACTORS
330
4D3
102
}
330
4D3
100
AcDbDimAssoc
330
4C6
 90
        3
 70
     0
 71
     0
  1
AcDbOsnapPointRef
 72
    13
331
309
 73
     2
 91
        0
 40
0.0
 10
-122.35
 20
18.07724999999998
 30
0.0
 75
     0
  1
AcDbOsnapPointRef
 72
    13
331
22E
 73
     2
 91
        0
 40
3.882245112822161
 10
-106.6550000769133
 20
82.97724975041615
 30
0.0
 75
     0
  0
DIMASSOC
  5
4F5
102
{ACAD_REACTORS
330
4EB
102
}
330
4EB
100
AcDbDimAssoc
330
4DE
 90
        3
 70
     0
 71
     0
  1
AcDbOsnapPointRef
 72
    13
331
309
 73
     2
 91
        0
 40
0.0
 10
-122.35
 20
18.07724999999998
 30
0.0
 75
     0
  1
AcDbOsnapPointRef
 72
    13
331
2B0
 73
     2
 91
        0
 40
0.0
 10
-108.745
 20
-51.52274699999999
 30
0.0
 75
     0
  0
DIMASSOC
  5
516
102
{ACAD_REACTORS
330
50C
102
}
330
50C
100
AcDbDimAssoc
330
4FF
 90
        3
 70
     0
 71
     0
  1
AcDbOsnapPointRef
 72
     6
331
2D0
 73
     2
 91
        0
 40
0.1760132569508353
 10
-101.5999999999998
 20
-113.4055310962434
 30
0.0
332
253
 74
     2
 92
        0
 75
     0
  1
AcDbOsnapPointRef
 72
     6
331
2D0
 73
     2
 91
        0
 40
0.8239864315226858
 10
-101.5999999999998
 20
-155.0054089037564
 30
0.0
332
253
 74
     2
 92
        0
 75
     0
  0
DIMASSOC
  5
52E
102
{ACAD_REACTORS
330
524
102
}
330
524
100
AcDbDimAssoc
330
517
 90
        3
 70
     0
 71
     0
  1
AcDbOsnapPointRef
 72
     1
331
2D0
 73
     2
 91
        0
 40
1.0
 10
-101.6
 20
-166.3054799999999
 30
0.0
 75
     0
  1
AcDbOsnapPointRef
 72
     1
331
2CF
 73
     2
 91
        0
 40
1.0
 10
-50.799999
 20
-166.3054799999999
 30
0.0
 75
     0
  0
DIMASSOC
  5
546
102
{ACAD_REACTORS
330
53C
102
}
330
53C
100
AcDbDimAssoc
330
52F
 90
        2
 70
     0
 71
     0
  1
AcDbOsnapPointRef
 72
     1
331
2CB
 73
     2
 91
        0
 40
1.0
 10
-0.0000000000000284
 20
-166.3054799999999
 30
0.0
 75
     0
  0
DIMASSOC
  5
55E
102
{ACAD_REACTORS
330
554
102
}
330
554
100
AcDbDimAssoc
330
547
 90
        3
 70
     0
 71
     0
  1
AcDbOsnapPointRef
 72
     6
331
2CE
 73
     2
 91
        0
 40
0.1246104361370729
 10
101.6
 20
-110.1054699999999
 30
0.0
332
25C
 74
     2
 92
        0
 75
     0
  1
AcDbOsnapPointRef
 72
     6
331
2CE
 73
     2
 91
        0
 40
0.8753892523364484
 10
101.6
 20
-158.3054699999999
 30
0.0
332
25C
 74
     2
 92
        0
 75
     0
  0
MLINESTYLE
  5
18
102
{ACAD_REACTORS
330
17
102
}
330
17
100
AcDbMlineStyle
  2
STANDARD
 70
     0
  3

 62
   256
 51
90.0
 52
90.0
 71
     2
 49
0.5
 62
   256
  6
BYLAYER
 49
-0.5
 62
   256
  6
BYLAYER
  0
ACDBPLACEHOLDER
  5
F
102
{ACAD_REACTORS
330
E
102
}
330
E
100
AcDbPlaceHolder
280
     0
  0
XRECORD
  5
5BD
102
{ACAD_REACTORS
330
5B3
102
}
330
5B3
100
AcDbXrecord
 90
        0
  0
XRECORD
  5
5C1
102
{ACAD_REACTORS
330
5B3
102
}
330
5B3
100
AcDbXrecord
1000
DSTYLE
1002
{
1070
   371
 70
    -1
1070
   372
 70
    -1
1002
}
  0
XRECORD
  5
5BE
102
{ACAD_REACTORS
330
5B3
102
}
330
5B3
100
AcDbXrecord
  1
{5B0931FC-56BC-4C5C-811F-96A4ED1ECC1B}
  0
XRECORD
  5
5B6
102
{ACAD_REACTORS
330
5B3
102
}
330
5B3
100
AcDbXrecord
  1

  0
XRECORD
  5
5BC
102
{ACAD_REACTORS
330
5B3
102
}
330
5B3
100
AcDbXrecord
 90
        4
  0
XRECORD
  5
5B8
102
{ACAD_REACTORS
330
5B3
102
}
330
5B3
100
AcDbXrecord
340
1A
  0
XRECORD
  5
5BB
102
{ACAD_REACTORS
330
5B3
102
}
330
5B3
100
AcDbXrecord
 90
    10781
  0
XRECORD
  5
5B9
102
{ACAD_REACTORS
330
5B3
102
}
330
5B3
100
AcDbXrecord
340
19
  0
XRECORD
  5
5BA
102
{ACAD_REACTORS
330
5B3
102
}
330
5B3
100
AcDbXrecord
340
E
  0
XRECORD
  5
5C0
102
{ACAD_REACTORS
330
5B3
102
}
330
5B3
100
AcDbXrecord
 40
0.0
  0
XRECORD
  5
5C4
102
{ACAD_REACTORS
330
5B3
102
}
330
5B3
100
AcDbXrecord
340
0
  0
XRECORD
  5
5CA
102
{ACAD_REACTORS
330
5B3
102
}
330
5B3
100
AcDbXrecord
 10
0.0
 20
0.0
 30
0.0
  0
XRECORD
  5
5C6
102
{ACAD_REACTORS
330
5B3
102
}
330
5B3
100
AcDbXrecord
 10
0.0
 20
0.0
 30
0.0
  0
XRECORD
  5
5C9
102
{ACAD_REACTORS
330
5B3
102
}
330
5B3
100
AcDbXrecord
 10
0.0
 20
0.0
 30
0.0
  0
XRECORD
  5
5C7
102
{ACAD_REACTORS
330
5B3
102
}
330
5B3
100
AcDbXrecord
 10
0.0
 20
0.0
 30
0.0
  0
XRECORD
  5
5C8
102
{ACAD_REACTORS
330
5B3
102
}
330
5B3
100
AcDbXrecord
 10
0.0
 20
0.0
 30
0.0
  0
XRECORD
  5
5C5
102
{ACAD_REACTORS
330
5B3
102
}
330
5B3
100
AcDbXrecord
 10
0.0
 20
0.0
 30
0.0
  0
XRECORD
  5
5C2
102
{ACAD_REACTORS
330
5B3
102
}
330
5B3
100
AcDbXrecord
340
0
  0
XRECORD
  5
5C3
102
{ACAD_REACTORS
330
5B3
102
}
330
5B3
100
AcDbXrecord
 70
     0
  0
XRECORD
  5
5B7
102
{ACAD_REACTORS
330
5B3
102
}
330
5B3
100
AcDbXrecord
  1
monochrome.ctb
  0
XRECORD
  5
5B4
102
{ACAD_REACTORS
330
5B3
102
}
330
5B3
100
AcDbXrecord
 90
        1
  0
XRECORD
  5
5B5
102
{ACAD_REACTORS
330
5B3
102
}
330
5B3
100
AcDbXrecord
 90
       70
  0
XRECORD
  5
5CD
102
{ACAD_REACTORS
330
5B3
102
}
330
5B3
100
AcDbXrecord
340
0
  0
XRECORD
  5
5D3
102
{ACAD_REACTORS
330
5B3
102
}
330
5B3
100
AcDbXrecord
 10
0.0
 20
0.0
 30
0.0
  0
XRECORD
  5
5CF
102
{ACAD_REACTORS
330
5B3
102
}
330
5B3
100
AcDbXrecord
 10
0.0
 20
0.0
 30
0.0
  0
XRECORD
  5
5D2
102
{ACAD_REACTORS
330
5B3
102
}
330
5B3
100
AcDbXrecord
 10
0.0
 20
0.0
 30
0.0
  0
XRECORD
  5
5D0
102
{ACAD_REACTORS
330
5B3
102
}
330
5B3
100
AcDbXrecord
 10
0.0
 20
0.0
 30
0.0
  0
XRECORD
  5
5D1
102
{ACAD_REACTORS
330
5B3
102
}
330
5B3
100
AcDbXrecord
 10
0.0
 20
0.0
 30
0.0
  0
XRECORD
  5
5CE
102
{ACAD_REACTORS
330
5B3
102
}
330
5B3
100
AcDbXrecord
 10
0.0
 20
0.0
 30
0.0
  0
XRECORD
  5
5CB
102
{ACAD_REACTORS
330
5B3
102
}
330
5B3
100
AcDbXrecord
340
0
  0
XRECORD
  5
5CC
102
{ACAD_REACTORS
330
5B3
102
}
330
5B3
100
AcDbXrecord
 70
     0
  0
XRECORD
  5
5BF
102
{ACAD_REACTORS
330
5B3
102
}
330
5B3
100
AcDbXrecord
  1
{27FBCA29-E971-42DC-9BA0-CBB83CC1F411}
  0
DICTIONARYVAR
  5
2E
102
{ACAD_REACTORS
330
2C
102
}
330
2C
100
DictionaryVariables
280
     0
  1
2
  0
DICTIONARYVAR
  5
2D
102
{ACAD_REACTORS
330
2C
102
}
330
2C
100
DictionaryVariables
280
     0
  1
1
  0
ENDSEC
  0
EOF
