  0
SECTION
  2
HEADER
  9
$ACADVER
  1
AC1014
  9
$ACADMAINTVER
 70
     9
  9
$DWGCODEPAGE
  3
ANSI_932
  9
$INSBASE
 10
0.0
 20
0.0
 30
0.0
  9
$EXTMIN
 10
-164.4140481399977
 20
-213.8361730037019
 30
0.0
  9
$EXTMAX
 10
155.1860041842684
 20
118.8036497999999
 30
0.0
  9
$LIMMIN
 10
0.0
 20
0.0
  9
$LIMMAX
 10
420.0
 20
297.0
  9
$ORTHOMODE
 70
     1
  9
$REGENMODE
 70
     1
  9
$FILLMODE
 70
     1
  9
$QTEXTMODE
 70
     0
  9
$MIRRTEXT
 70
     1
  9
$DRAGMODE
 70
     2
  9
$LTSCALE
 40
1.0
  9
$OSMODE
 70
    37
  9
$ATTMODE
 70
     1
  9
$TEXTSIZE
 40
2.5
  9
$TRACEWID
 40
1.0
  9
$TEXTSTYLE
  7
STANDARD
  9
$CLAYER
  8
0
  9
$CELTYPE
  6
BYLAYER
  9
$CECOLOR
 62
   256
  9
$CELTSCALE
 40
1.0
  9
$DELOBJ
 70
     1
  9
$DISPSILH
 70
     0
  9
$DIMSCALE
 40
1.0
  9
$DIMASZ
 40
5.0
  9
$DIMEXO
 40
0.0
  9
$DIMDLI
 40
3.75
  9
$DIMRND
 40
0.0
  9
$DIMDLE
 40
0.0
  9
$DIMEXE
 40
2.0
  9
$DIMTP
 40
0.0
  9
$DIMTM
 40
0.0
  9
$DIMTXT
 40
5.0
  9
$DIMCEN
 40
2.5
  9
$DIMTSZ
 40
0.0
  9
$DIMTOL
 70
     0
  9
$DIMLIM
 70
     0
  9
$DIMTIH
 70
     0
  9
$DIMTOH
 70
     0
  9
$DIMSE1
 70
     0
  9
$DIMSE2
 70
     0
  9
$DIMTAD
 70
     1
  9
$DIMZIN
 70
     8
  9
$DIMBLK
  1

  9
$DIMASO
 70
     1
  9
$DIMSHO
 70
     1
  9
$DIMPOST
  1

  9
$DIMAPOST
  1

  9
$DIMALT
 70
     0
  9
$DIMALTD
 70
     3
  9
$DIMALTF
 40
0.03937007874016
  9
$DIMLFAC
 40
1.0
  9
$DIMTOFL
 70
     1
  9
$DIMTVP
 40
0.0
  9
$DIMTIX
 70
     0
  9
$DIMSOXD
 70
     0
  9
$DIMSAH
 70
     0
  9
$DIMBLK1
  1

  9
$DIMBLK2
  1

  9
$DIMSTYLE
  2
ISO-25
  9
$DIMCLRD
 70
     1
  9
$DIMCLRE
 70
     1
  9
$DIMCLRT
 70
     1
  9
$DIMTFAC
 40
1.0
  9
$DIMGAP
 40
1.5
  9
$DIMJUST
 70
     0
  9
$DIMSD1
 70
     0
  9
$DIMSD2
 70
     0
  9
$DIMTOLJ
 70
     0
  9
$DIMTZIN
 70
     8
  9
$DIMALTZ
 70
     0
  9
$DIMALTTZ
 70
     0
  9
$DIMFIT
 70
     3
  9
$DIMUPT
 70
     0
  9
$DIMUNIT
 70
     2
  9
$DIMDEC
 70
     2
  9
$DIMTDEC
 70
     2
  9
$DIMALTU
 70
     2
  9
$DIMALTTD
 70
     3
  9
$DIMTXSTY
  7
STANDARD
  9
$DIMAUNIT
 70
     0
  9
$LUNITS
 70
     2
  9
$LUPREC
 70
     4
  9
$SKETCHINC
 40
1.0
  9
$FILLETRAD
 40
10.0
  9
$AUNITS
 70
     0
  9
$AUPREC
 70
     0
  9
$MENU
  1
.
  9
$ELEVATION
 40
0.0
  9
$PELEVATION
 40
0.0
  9
$THICKNESS
 40
0.0
  9
$LIMCHECK
 70
     0
  9
$BLIPMODE
 70
     0
  9
$CHAMFERA
 40
10.0
  9
$CHAMFERB
 40
10.0
  9
$CHAMFERC
 40
20.0
  9
$CHAMFERD
 40
0.0
  9
$SKPOLY
 70
     0
  9
$TDCREATE
 40
2453755.379305208
  9
$TDUPDATE
 40
2454530.730985058
  9
$TDINDWG
 40
0.0082323148
  9
$TDUSRTIMER
 40
0.0082320833
  9
$USRTIMER
 70
     1
  9
$ANGBASE
 50
0.0
  9
$ANGDIR
 70
     0
  9
$PDMODE
 70
     0
  9
$PDSIZE
 40
0.0
  9
$PLINEWID
 40
0.0
  9
$COORDS
 70
     1
  9
$SPLFRAME
 70
     0
  9
$SPLINETYPE
 70
     6
  9
$SPLINESEGS
 70
     8
  9
$ATTDIA
 70
     0
  9
$ATTREQ
 70
     1
  9
$HANDLING
 70
     1
  9
$HANDSEED
  5
6CD
  9
$SURFTAB1
 70
     6
  9
$SURFTAB2
 70
     6
  9
$SURFTYPE
 70
     6
  9
$SURFU
 70
     6
  9
$SURFV
 70
     6
  9
$UCSNAME
  2

  9
$UCSORG
 10
0.0
 20
0.0
 30
0.0
  9
$UCSXDIR
 10
1.0
 20
0.0
 30
0.0
  9
$UCSYDIR
 10
0.0
 20
1.0
 30
0.0
  9
$PUCSNAME
  2

  9
$PUCSORG
 10
0.0
 20
0.0
 30
0.0
  9
$PUCSXDIR
 10
1.0
 20
0.0
 30
0.0
  9
$PUCSYDIR
 10
0.0
 20
1.0
 30
0.0
  9
$USERI1
 70
     0
  9
$USERI2
 70
     0
  9
$USERI3
 70
     0
  9
$USERI4
 70
     0
  9
$USERI5
 70
     0
  9
$USERR1
 40
0.0
  9
$USERR2
 40
0.0
  9
$USERR3
 40
0.0
  9
$USERR4
 40
0.0
  9
$USERR5
 40
0.0
  9
$WORLDVIEW
 70
     1
  9
$SHADEDGE
 70
     3
  9
$SHADEDIF
 70
    70
  9
$TILEMODE
 70
     1
  9
$MAXACTVP
 70
    64
  9
$PINSBASE
 10
0.0
 20
0.0
 30
0.0
  9
$PLIMCHECK
 70
     0
  9
$PEXTMIN
 10
1.000000000000000E+20
 20
1.000000000000000E+20
 30
1.000000000000000E+20
  9
$PEXTMAX
 10
-1.000000000000000E+20
 20
-1.000000000000000E+20
 30
-1.000000000000000E+20
  9
$PLIMMIN
 10
0.0
 20
0.0
  9
$PLIMMAX
 10
420.0
 20
297.0
  9
$UNITMODE
 70
     0
  9
$VISRETAIN
 70
     1
  9
$PLINEGEN
 70
     0
  9
$PSLTSCALE
 70
     1
  9
$TREEDEPTH
 70
  3020
  9
$PICKSTYLE
 70
     1
  9
$CMLSTYLE
  2
STANDARD
  9
$CMLJUST
 70
     0
  9
$CMLSCALE
 40
20.0
  9
$PROXYGRAPHICS
 70
     1
  9
$MEASUREMENT
 70
     1
  0
ENDSEC
  0
SECTION
  2
CLASSES
  0
CLASS
  1
ACDBDICTIONARYWDFLT
  2
AcDbDictionaryWithDefault
  3
AutoCAD 2000
 90
        0
280
     0
281
     0
  0
CLASS
  1
ACDBPLACEHOLDER
  2
AcDbPlaceHolder
  3
AutoCAD 2000
 90
        0
280
     0
281
     0
  0
CLASS
  1
LAYOUT
  2
AcDbLayout
  3
AutoCAD 2000
 90
        0
280
     0
281
     0
  0
CLASS
  1
DICTIONARYVAR
  2
AcDbDictionaryVar
  3
AutoCAD 2000
 90
        0
280
     0
281
     0
  0
CLASS
  1
DIMASSOC
  2
AcDbDimAssoc
  3
"AcDbDimAssoc|Product Desc:     AcDim ARX App For Dimension|Company:          Autodesk, Inc.|WEB Address:      www.autodesk.com"
 90
        0
280
     0
281
     0
  0
CLASS
  1
LONG_TRANSACTION
  2
AcDbLongTransaction
  3
AutoCAD 2000
 90
        0
280
     0
281
     0
  0
CLASS
  1
LWPOLYLINE
  2
AcDbPolyline
  3
AutoCAD 2000
 90
        0
280
     0
281
     1
  0
CLASS
  1
HATCH
  2
AcDbHatch
  3
AutoCAD 2000
 90
        0
280
     0
281
     1
  0
CLASS
  1
XRECORD
  2
AcDbXrecord
  3
AutoCAD 2000
 90
        0
280
     0
281
     0
  0
CLASS
  1
LONG_TRANSACTION
  2
AcDbLongTransaction
  3
AutoCAD 2000
 90
        0
280
     0
281
     0
  0
CLASS
  1
LWPOLYLINE
  2
AcDbPolyline
  3
AutoCAD 2000
 90
        0
280
     0
281
     1
  0
CLASS
  1
HATCH
  2
AcDbHatch
  3
AutoCAD 2000
 90
        0
280
     0
281
     1
  0
CLASS
  1
XRECORD
  2
AcDbXrecord
  3
AutoCAD 2000
 90
        0
280
     0
281
     0
  0
ENDSEC
  0
SECTION
  2
TABLES
  0
TABLE
  2
VPORT
  5
8
330
0
100
AcDbSymbolTable
 70
     2
  0
VPORT
  5
6A9
330
8
100
AcDbSymbolTableRecord
100
AcDbViewportTableRecord
  2
*ACTIVE
 70
     0
 10
0.0
 20
0.0
 11
1.0
 21
1.0
 12
-4.608871919815314
 22
-29.28524490784155
 13
0.0
 23
0.0
 14
10.0
 24
10.0
 15
10.0
 25
10.0
 16
0.0
 26
0.0
 36
1.0
 17
0.0
 27
0.0
 37
0.0
 40
373.0086598292478
 41
1.621593291404612
 42
50.0
 43
0.0
 44
0.0
 50
0.0
 51
0.0
 71
     0
 72
   100
 73
     1
 74
     3
 75
     0
 76
     0
 77
     0
 78
     0
  0
ENDTAB
  0
TABLE
  2
LTYPE
  5
5
330
0
100
AcDbSymbolTable
 70
     2
  0
LTYPE
  5
14
330
5
100
AcDbSymbolTableRecord
100
AcDbLinetypeTableRecord
  2
BYBLOCK
 70
     0
  3

 72
    65
 73
     0
 40
0.0
  0
LTYPE
  5
15
330
5
100
AcDbSymbolTableRecord
100
AcDbLinetypeTableRecord
  2
BYLAYER
 70
     0
  3

 72
    65
 73
     0
 40
0.0
  0
LTYPE
  5
16
330
5
100
AcDbSymbolTableRecord
100
AcDbLinetypeTableRecord
  2
CONTINUOUS
 70
     0
  3
Solid line
 72
    65
 73
     0
 40
0.0
  0
LTYPE
  5
10E
330
5
100
AcDbSymbolTableRecord
100
AcDbLinetypeTableRecord
  2
CENTER
 70
     0
  3
____ _ ____ _ ____ _ ____ _ ____ _ ____ _ ____
 72
    65
 73
     4
 40
17.5
 49
13.0
 74
     0
 49
-1.5
 74
     0
 49
1.5
 74
     0
 49
-1.5
 74
     0
  0
ENDTAB
  0
TABLE
  2
LAYER
  5
2
330
0
100
AcDbSymbolTable
 70
     2
  0
LAYER
  5
10
330
2
100
AcDbSymbolTableRecord
100
AcDbLayerTableRecord
  2
0
 70
     0
 62
     7
  6
CONTINUOUS
  0
LAYER
  5
10F
330
2
100
AcDbSymbolTableRecord
100
AcDbLayerTableRecord
  2
DEFPOINTS
 70
     0
 62
     7
  6
CONTINUOUS
  0
ENDTAB
  0
TABLE
  2
STYLE
  5
3
330
0
100
AcDbSymbolTable
 70
     1
  0
STYLE
  5
11
330
3
100
AcDbSymbolTableRecord
100
AcDbTextStyleTableRecord
  2
STANDARD
 70
     0
 40
0.0
 41
1.0
 50
0.0
 71
     0
 42
2.5
  3
txt.shx
  4
bigfont.shx
  0
ENDTAB
  0
TABLE
  2
VIEW
  5
6
330
0
100
AcDbSymbolTable
 70
     0
  0
ENDTAB
  0
TABLE
  2
UCS
  5
7
330
0
100
AcDbSymbolTable
 70
     0
  0
ENDTAB
  0
TABLE
  2
APPID
  5
9
330
0
100
AcDbSymbolTable
 70
     1
  0
APPID
  5
12
330
9
100
AcDbSymbolTableRecord
100
AcDbRegAppTableRecord
  2
ACAD
 70
     0
  0
ENDTAB
  0
TABLE
  2
DIMSTYLE
  5
A
330
0
100
AcDbSymbolTable
 70
     1
  0
DIMSTYLE
105
27
102
{ACAD_REACTORS
330
490
330
4DF
330
523
330
570
330
58C
330
5A8
330
5C0
330
5D8
330
5F0
330
608
330
620
330
638
330
650
102
}
330
A
100
AcDbSymbolTableRecord
100
AcDbDimStyleTableRecord
  2
ISO-25
 70
     0
  3

  4

  5

  6

  7

 40
1.0
 41
5.0
 42
0.0
 43
3.75
 44
2.0
 45
0.0
 46
0.0
 47
0.0
 48
0.0
140
5.0
141
2.5
142
0.0
143
0.03937007874016
144
1.0
145
0.0
146
1.0
147
1.5
 71
     0
 72
     0
 73
     0
 74
     0
 75
     0
 76
     0
 77
     1
 78
     8
170
     0
171
     3
172
     1
173
     0
174
     0
175
     0
176
     1
177
     1
178
     1
270
     2
271
     2
272
     2
273
     2
274
     3
340
11
275
     0
280
     0
281
     0
282
     0
283
     0
284
     8
285
     0
286
     0
287
     3
288
     0
  0
ENDTAB
  0
TABLE
  2
BLOCK_RECORD
  5
1
330
0
100
AcDbSymbolTable
 70
    13
  0
BLOCK_RECORD
  5
1F
102
{ACAD_XDICTIONARY
360
69E
102
}
330
1
100
AcDbSymbolTableRecord
100
AcDbBlockTableRecord
  2
*MODEL_SPACE
  0
BLOCK_RECORD
  5
1B
102
{ACAD_XDICTIONARY
360
69C
102
}
330
1
100
AcDbSymbolTableRecord
100
AcDbBlockTableRecord
  2
*PAPER_SPACE
  0
BLOCK_RECORD
  5
491
330
1
100
AcDbSymbolTableRecord
100
AcDbBlockTableRecord
  2
*D0
  0
BLOCK_RECORD
  5
4E0
330
1
100
AcDbSymbolTableRecord
100
AcDbBlockTableRecord
  2
*D1
  0
BLOCK_RECORD
  5
524
330
1
100
AcDbSymbolTableRecord
100
AcDbBlockTableRecord
  2
*D2
  0
BLOCK_RECORD
  5
571
330
1
100
AcDbSymbolTableRecord
100
AcDbBlockTableRecord
  2
*D3
  0
BLOCK_RECORD
  5
58D
330
1
100
AcDbSymbolTableRecord
100
AcDbBlockTableRecord
  2
*D4
  0
BLOCK_RECORD
  5
5A9
330
1
100
AcDbSymbolTableRecord
100
AcDbBlockTableRecord
  2
*D5
  0
BLOCK_RECORD
  5
5C1
330
1
100
AcDbSymbolTableRecord
100
AcDbBlockTableRecord
  2
*D6
  0
BLOCK_RECORD
  5
5D9
330
1
100
AcDbSymbolTableRecord
100
AcDbBlockTableRecord
  2
*D7
  0
BLOCK_RECORD
  5
5F1
330
1
100
AcDbSymbolTableRecord
100
AcDbBlockTableRecord
  2
*D8
  0
BLOCK_RECORD
  5
609
330
1
100
AcDbSymbolTableRecord
100
AcDbBlockTableRecord
  2
*D9
  0
BLOCK_RECORD
  5
621
330
1
100
AcDbSymbolTableRecord
100
AcDbBlockTableRecord
  2
*D10
  0
BLOCK_RECORD
  5
639
330
1
100
AcDbSymbolTableRecord
100
AcDbBlockTableRecord
  2
*D11
  0
BLOCK_RECORD
  5
651
330
1
100
AcDbSymbolTableRecord
100
AcDbBlockTableRecord
  2
*D12
  0
ENDTAB
  0
ENDSEC
  0
SECTION
  2
BLOCKS
  0
BLOCK
  5
20
330
1F
100
AcDbEntity
  8
0
100
AcDbBlockBegin
  2
*MODEL_SPACE
 70
     0
 10
0.0
 20
0.0
 30
0.0
  3
*MODEL_SPACE
  1

  0
ENDBLK
  5
21
330
1F
100
AcDbEntity
  8
0
100
AcDbBlockEnd
  0
BLOCK
  5
1C
330
1B
100
AcDbEntity
 67
     1
  8
0
100
AcDbBlockBegin
  2
*PAPER_SPACE
 70
     0
 10
0.0
 20
0.0
 30
0.0
  3
*PAPER_SPACE
  1

  0
ENDBLK
  5
1D
330
1B
100
AcDbEntity
 67
     1
  8
0
100
AcDbBlockEnd
  0
BLOCK
  5
49D
330
491
100
AcDbEntity
  8
0
100
AcDbBlockBegin
  2
*D0
 70
     1
 10
0.0
 20
0.0
 30
0.0
  3
*D0
  1

  0
LINE
  5
567
330
491
100
AcDbEntity
  8
0
 62
     1
100
AcDbLine
 10
110.025
 20
34.642857
 30
0.0
 11
155.1860041842684
 21
34.64285699999997
 31
0.0
  0
LINE
  5
568
330
491
100
AcDbEntity
  8
0
 62
     1
100
AcDbLine
 10
110.025
 20
60.04285799999999
 30
0.0
 11
155.1860041842684
 21
60.04285799999998
 31
0.0
  0
LINE
  5
569
330
491
100
AcDbEntity
  8
0
 62
     1
100
AcDbLine
 10
153.1860041842683
 20
39.64285699999997
 30
0.0
 11
153.1860041842683
 21
55.04285799999998
 31
0.0
  0
SOLID
  5
56A
330
491
100
AcDbEntity
  8
0
 62
     1
100
AcDbTrace
 10
152.3526708509352
 20
39.64285699999997
 30
0.0
 11
154.0193375176017
 21
39.64285699999997
 31
0.0
 12
153.1860041842683
 22
34.64285699999997
 32
0.0
 13
153.1860041842683
 23
34.64285699999997
 33
0.0
  0
SOLID
  5
56B
330
491
100
AcDbEntity
  8
0
 62
     1
100
AcDbTrace
 10
152.3526708509352
 20
55.04285799999998
 30
0.0
 11
154.0193375176017
 21
55.04285799999998
 31
0.0
 12
153.1860041842683
 22
60.04285799999998
 32
0.0
 13
153.1860041842683
 23
60.04285799999998
 33
0.0
  0
MTEXT
  5
56C
330
491
100
AcDbEntity
  8
0
 62
     1
100
AcDbMText
 10
149.1860041842683
 20
47.3428575
 30
0.0
 40
5.0
 41
0.0
 71
     5
 72
     1
  1
25.40
 11
0.0000000000000001
 21
1.0
 31
0.0
1001
ACAD
1000
MTEXTBEGIN
1070
    73
1070
     1
1070
    44
1040
1.0
1070
    74
1070
     0
1000
MTEXTEND
1000
MTEXTBEGIN
1070
    73
1070
     1
1070
    44
1040
1.0
1070
    74
1070
     0
1000
MTEXTEND
  0
POINT
  5
56D
330
491
100
AcDbEntity
  8
DEFPOINTS
 62
     0
100
AcDbPoint
 10
110.025
 20
34.642857
 30
0.0
  0
POINT
  5
56E
330
491
100
AcDbEntity
  8
DEFPOINTS
 62
     0
100
AcDbPoint
 10
110.025
 20
60.04285799999999
 30
0.0
  0
POINT
  5
56F
330
491
100
AcDbEntity
  8
DEFPOINTS
 62
     0
100
AcDbPoint
 10
153.1860041842683
 20
60.04285799999998
 30
0.0
  0
ENDBLK
  5
49E
330
491
100
AcDbEntity
  8
0
100
AcDbBlockEnd
  0
BLOCK
  5
4EC
330
4E0
100
AcDbEntity
  8
0
100
AcDbBlockBegin
  2
*D1
 70
     1
 10
0.0
 20
0.0
 30
0.0
  3
*D1
  1

  0
LINE
  5
55C
330
4E0
100
AcDbEntity
  8
0
 62
     1
100
AcDbLine
 10
110.025
 20
60.04285799999999
 30
0.0
 11
155.1860041842684
 21
60.04285799999998
 31
0.0
  0
LINE
  5
55D
330
4E0
100
AcDbEntity
  8
0
 62
     1
100
AcDbLine
 10
110.025
 20
66.442856
 30
0.0
 11
155.1860041842684
 21
66.442856
 31
0.0
  0
LINE
  5
55E
330
4E0
100
AcDbEntity
  8
0
 62
     1
100
AcDbLine
 10
153.1860041842683
 20
55.04285799999998
 30
0.0
 11
153.1860041842683
 21
50.04285799999998
 31
0.0
  0
LINE
  5
55F
330
4E0
100
AcDbEntity
  8
0
 62
     1
100
AcDbLine
 10
153.1860041842683
 20
71.442856
 30
0.0
 11
153.1860041842683
 21
89.442856
 31
0.0
  0
LINE
  5
560
330
4E0
100
AcDbEntity
  8
0
 62
     1
100
AcDbLine
 10
153.1860041842683
 20
60.04285799999998
 30
0.0
 11
153.1860041842683
 21
66.442856
 31
0.0
  0
SOLID
  5
561
330
4E0
100
AcDbEntity
  8
0
 62
     1
100
AcDbTrace
 10
152.3526708509352
 20
55.04285799999998
 30
0.0
 11
154.0193375176017
 21
55.04285799999998
 31
0.0
 12
153.1860041842683
 22
60.04285799999998
 32
0.0
 13
153.1860041842683
 23
60.04285799999998
 33
0.0
  0
SOLID
  5
562
330
4E0
100
AcDbEntity
  8
0
 62
     1
100
AcDbTrace
 10
152.3526708509352
 20
71.442856
 30
0.0
 11
154.0193375176019
 21
71.442856
 31
0.0
 12
153.1860041842683
 22
66.442856
 32
0.0
 13
153.1860041842683
 23
66.442856
 33
0.0
  0
MTEXT
  5
563
330
4E0
100
AcDbEntity
  8
0
 62
     1
100
AcDbMText
 10
149.1860041842683
 20
82.94285600000002
 30
0.0
 40
5.0
 41
0.0
 71
     5
 72
     1
  1
6.4
 11
0.0000000000000001
 21
1.0
 31
0.0
1001
ACAD
1000
MTEXTBEGIN
1070
    73
1070
     1
1070
    44
1040
1.0
1070
    74
1070
     0
1000
MTEXTEND
1000
MTEXTBEGIN
1070
    73
1070
     1
1070
    44
1040
1.0
1070
    74
1070
     0
1000
MTEXTEND
  0
POINT
  5
564
330
4E0
100
AcDbEntity
  8
DEFPOINTS
 62
     0
100
AcDbPoint
 10
110.025
 20
60.04285799999999
 30
0.0
  0
POINT
  5
565
330
4E0
100
AcDbEntity
  8
DEFPOINTS
 62
     0
100
AcDbPoint
 10
110.025
 20
66.442856
 30
0.0
  0
POINT
  5
566
330
4E0
100
AcDbEntity
  8
DEFPOINTS
 62
     0
100
AcDbPoint
 10
153.1860041842683
 20
66.442856
 30
0.0
  0
ENDBLK
  5
4ED
330
4E0
100
AcDbEntity
  8
0
100
AcDbBlockEnd
  0
BLOCK
  5
52E
330
524
100
AcDbEntity
  8
0
100
AcDbBlockBegin
  2
*D2
 70
     1
 10
0.0
 20
0.0
 30
0.0
  3
*D2
  1

  0
LINE
  5
551
330
524
100
AcDbEntity
  8
0
 62
     1
100
AcDbLine
 10
76.199997
 20
36.042858
 30
0.0
 11
76.199997
 21
41.80915880284738
 31
0.0
  0
LINE
  5
552
330
524
100
AcDbEntity
  8
0
 62
     1
100
AcDbLine
 10
101.6
 20
36.042858
 30
0.0
 11
101.6
 21
41.80915880284738
 31
0.0
  0
LINE
  5
553
330
524
100
AcDbEntity
  8
0
 62
     1
100
AcDbLine
 10
71.199997
 20
39.80915880284735
 30
0.0
 11
66.199997
 21
39.80915880284735
 31
0.0
  0
LINE
  5
554
330
524
100
AcDbEntity
  8
0
 62
     1
100
AcDbLine
 10
106.6
 20
39.80915880284735
 30
0.0
 11
138.7666666666665
 21
39.80915880284735
 31
0.0
  0
LINE
  5
555
330
524
100
AcDbEntity
  8
0
 62
     1
100
AcDbLine
 10
76.199997
 20
39.80915880284735
 30
0.0
 11
101.6
 21
39.80915880284735
 31
0.0
  0
SOLID
  5
556
330
524
100
AcDbEntity
  8
0
 62
     1
100
AcDbTrace
 10
71.199997
 20
40.64249213618071
 30
0.0
 11
71.199997
 21
38.97582546951404
 31
0.0
 12
76.199997
 22
39.80915880284735
 32
0.0
 13
76.199997
 23
39.80915880284735
 33
0.0
  0
SOLID
  5
557
330
524
100
AcDbEntity
  8
0
 62
     1
100
AcDbTrace
 10
106.6
 20
40.64249213618071
 30
0.0
 11
106.6
 21
38.97582546951404
 31
0.0
 12
101.6
 22
39.80915880284735
 32
0.0
 13
101.6
 23
39.80915880284735
 33
0.0
  0
MTEXT
  5
558
330
524
100
AcDbEntity
  8
0
 62
     1
100
AcDbMText
 10
125.1833333333332
 20
43.80915880284738
 30
0.0
 40
5.0
 41
0.0
 71
     5
 72
     1
  1
φ25.40
1001
ACAD
1000
MTEXTBEGIN
1070
    73
1070
     1
1070
    44
1040
1.0
1070
    74
1070
     0
1000
MTEXTEND
1000
MTEXTBEGIN
1070
    73
1070
     1
1070
    44
1040
1.0
1070
    74
1070
     0
1000
MTEXTEND
  0
POINT
  5
559
330
524
100
AcDbEntity
  8
DEFPOINTS
 62
     0
100
AcDbPoint
 10
76.199997
 20
36.042858
 30
0.0
  0
POINT
  5
55A
330
524
100
AcDbEntity
  8
DEFPOINTS
 62
     0
100
AcDbPoint
 10
101.6
 20
36.042858
 30
0.0
  0
POINT
  5
55B
330
524
100
AcDbEntity
  8
DEFPOINTS
 62
     0
100
AcDbPoint
 10
101.6
 20
39.80915880284735
 30
0.0
  0
ENDBLK
  5
52F
330
524
100
AcDbEntity
  8
0
100
AcDbBlockEnd
  0
BLOCK
  5
57D
330
571
100
AcDbEntity
  8
0
100
AcDbBlockBegin
  2
*D3
 70
     1
 10
0.0
 20
0.0
 30
0.0
  3
*D3
  1

  0
LINE
  5
580
330
571
100
AcDbEntity
  8
0
 62
     1
100
AcDbLine
 10
-82.54499799999996
 20
27.642857
 30
0.0
 11
-82.54499799999996
 21
36.46343816153864
 31
0.0
  0
LINE
  5
581
330
571
100
AcDbEntity
  8
0
 62
     1
100
AcDbLine
 10
-95.25500499999999
 20
27.642857
 30
0.0
 11
-95.25500499999999
 21
36.46343816153864
 31
0.0
  0
LINE
  5
582
330
571
100
AcDbEntity
  8
0
 62
     1
100
AcDbLine
 10
-77.54499799999996
 20
34.46343816153865
 30
0.0
 11
-72.54499799999996
 21
34.46343816153865
 31
0.0
  0
LINE
  5
583
330
571
100
AcDbEntity
  8
0
 62
     1
100
AcDbLine
 10
-100.2550049999999
 20
34.46343816153865
 30
0.0
 11
-129.9216716666666
 21
34.46343816153865
 31
0.0
  0
LINE
  5
584
330
571
100
AcDbEntity
  8
0
 62
     1
100
AcDbLine
 10
-82.54499799999996
 20
34.46343816153865
 30
0.0
 11
-95.25500499999999
 21
34.46343816153865
 31
0.0
  0
SOLID
  5
585
330
571
100
AcDbEntity
  8
0
 62
     1
100
AcDbTrace
 10
-77.54499799999996
 20
35.29677149487197
 30
0.0
 11
-77.54499799999996
 21
33.63010482820531
 31
0.0
 12
-82.54499799999996
 22
34.46343816153865
 32
0.0
 13
-82.54499799999996
 23
34.46343816153865
 33
0.0
  0
SOLID
  5
586
330
571
100
AcDbEntity
  8
0
 62
     1
100
AcDbTrace
 10
-100.2550049999999
 20
35.29677149487197
 30
0.0
 11
-100.2550049999999
 21
33.63010482820531
 31
0.0
 12
-95.25500499999999
 22
34.46343816153865
 32
0.0
 13
-95.25500499999999
 23
34.46343816153865
 33
0.0
  0
MTEXT
  5
587
330
571
100
AcDbEntity
  8
0
 62
     1
100
AcDbMText
 10
-117.5883383333333
 20
38.46343816153865
 30
0.0
 40
5.0
 41
0.0
 71
     5
 72
     1
  1
φ12.71
1001
ACAD
1000
MTEXTBEGIN
1070
    73
1070
     1
1070
    44
1040
1.0
1070
    74
1070
     0
1000
MTEXTEND
1000
MTEXTBEGIN
1070
    73
1070
     1
1070
    44
1040
1.0
1070
    74
1070
     0
1000
MTEXTEND
  0
POINT
  5
588
330
571
100
AcDbEntity
  8
DEFPOINTS
 62
     0
100
AcDbPoint
 10
-82.54499799999996
 20
27.642857
 30
0.0
  0
POINT
  5
589
330
571
100
AcDbEntity
  8
DEFPOINTS
 62
     0
100
AcDbPoint
 10
-95.25500499999999
 20
27.642857
 30
0.0
  0
POINT
  5
58A
330
571
100
AcDbEntity
  8
DEFPOINTS
 62
     0
100
AcDbPoint
 10
-95.25500499999999
 20
34.46343816153865
 30
0.0
  0
ENDBLK
  5
57E
330
571
100
AcDbEntity
  8
0
100
AcDbBlockEnd
  0
BLOCK
  5
599
330
58D
100
AcDbEntity
  8
0
100
AcDbBlockBegin
  2
*D4
 70
     1
 10
0.0
 20
0.0
 30
0.0
  3
*D4
  1

  0
LINE
  5
59C
330
58D
100
AcDbEntity
  8
0
 62
     1
100
AcDbLine
 10
-107.075
 20
67.042854
 30
0.0
 11
-126.429259131581
 21
67.042854
 31
0.0
  0
LINE
  5
59D
330
58D
100
AcDbEntity
  8
0
 62
     1
100
AcDbLine
 10
-107.075
 20
73.442856
 30
0.0
 11
-126.429259131581
 21
73.442856
 31
0.0
  0
LINE
  5
59E
330
58D
100
AcDbEntity
  8
0
 62
     1
100
AcDbLine
 10
-124.429259131581
 20
62.04285399999999
 30
0.0
 11
-124.429259131581
 21
57.04285399999999
 31
0.0
  0
LINE
  5
59F
330
58D
100
AcDbEntity
  8
0
 62
     1
100
AcDbLine
 10
-124.429259131581
 20
78.442856
 30
0.0
 11
-124.429259131581
 21
96.44285600000001
 31
0.0
  0
LINE
  5
5A0
330
58D
100
AcDbEntity
  8
0
 62
     1
100
AcDbLine
 10
-124.429259131581
 20
67.042854
 30
0.0
 11
-124.429259131581
 21
73.442856
 31
0.0
  0
SOLID
  5
5A1
330
58D
100
AcDbEntity
  8
0
 62
     1
100
AcDbTrace
 10
-125.2625924649143
 20
62.04285399999999
 30
0.0
 11
-123.5959257982477
 21
62.04285399999999
 31
0.0
 12
-124.429259131581
 22
67.042854
 32
0.0
 13
-124.429259131581
 23
67.042854
 33
0.0
  0
SOLID
  5
5A2
330
58D
100
AcDbEntity
  8
0
 62
     1
100
AcDbTrace
 10
-125.2625924649143
 20
78.442856
 30
0.0
 11
-123.5959257982477
 21
78.442856
 31
0.0
 12
-124.429259131581
 22
73.442856
 32
0.0
 13
-124.429259131581
 23
73.442856
 33
0.0
  0
MTEXT
  5
5A3
330
58D
100
AcDbEntity
  8
0
 62
     1
100
AcDbMText
 10
-128.429259131581
 20
89.94285599999995
 30
0.0
 40
5.0
 41
0.0
 71
     5
 72
     1
  1
6.4
 11
0.0000000000000001
 21
1.0
 31
0.0
1001
ACAD
1000
MTEXTBEGIN
1070
    73
1070
     1
1070
    44
1040
1.0
1070
    74
1070
     0
1000
MTEXTEND
1000
MTEXTBEGIN
1070
    73
1070
     1
1070
    44
1040
1.0
1070
    74
1070
     0
1000
MTEXTEND
  0
POINT
  5
5A4
330
58D
100
AcDbEntity
  8
DEFPOINTS
 62
     0
100
AcDbPoint
 10
-107.075
 20
67.042854
 30
0.0
  0
POINT
  5
5A5
330
58D
100
AcDbEntity
  8
DEFPOINTS
 62
     0
100
AcDbPoint
 10
-107.075
 20
73.442856
 30
0.0
  0
POINT
  5
5A6
330
58D
100
AcDbEntity
  8
DEFPOINTS
 62
     0
100
AcDbPoint
 10
-124.429259131581
 20
73.442856
 30
0.0
  0
ENDBLK
  5
59A
330
58D
100
AcDbEntity
  8
0
100
AcDbBlockEnd
  0
BLOCK
  5
5B3
330
5A9
100
AcDbEntity
  8
0
100
AcDbBlockBegin
  2
*D5
 70
     1
 10
0.0
 20
0.0
 30
0.0
  3
*D5
  1

  0
LINE
  5
5B6
330
5A9
100
AcDbEntity
  8
0
 62
     1
100
AcDbLine
 10
-113.1
 20
-4.857142399999998
 30
0.0
 11
-142.6822349962918
 21
-4.85714239999999
 31
0.0
  0
LINE
  5
5B7
330
5A9
100
AcDbEntity
  8
0
 62
     1
100
AcDbLine
 10
-113.1
 20
47.342857
 30
0.0
 11
-142.6822349962918
 21
47.342857
 31
0.0
  0
LINE
  5
5B8
330
5A9
100
AcDbEntity
  8
0
 62
     1
100
AcDbLine
 10
-140.6822349962918
 20
0.1428576000000074
 30
0.0
 11
-140.6822349962918
 21
42.342857
 31
0.0
  0
SOLID
  5
5B9
330
5A9
100
AcDbEntity
  8
0
 62
     1
100
AcDbTrace
 10
-141.5155683296253
 20
0.1428576000000076
 30
0.0
 11
-139.8489016629586
 21
0.1428576000000072
 31
0.0
 12
-140.6822349962918
 22
-4.85714239999999
 32
0.0
 13
-140.6822349962918
 23
-4.85714239999999
 33
0.0
  0
SOLID
  5
5BA
330
5A9
100
AcDbEntity
  8
0
 62
     1
100
AcDbTrace
 10
-141.5155683296253
 20
42.342857
 30
0.0
 11
-139.8489016629586
 21
42.342857
 31
0.0
 12
-140.6822349962918
 22
47.342857
 32
0.0
 13
-140.6822349962918
 23
47.342857
 33
0.0
  0
MTEXT
  5
5BB
330
5A9
100
AcDbEntity
  8
0
 62
     1
100
AcDbMText
 10
-144.6822349962918
 20
21.24285729999998
 30
0.0
 40
5.0
 41
0.0
 71
     5
 72
     1
  1
52.2
 11
0.0000000000000001
 21
1.0
 31
0.0
1001
ACAD
1000
MTEXTBEGIN
1070
    73
1070
     1
1070
    44
1040
1.0
1070
    74
1070
     0
1000
MTEXTEND
1000
MTEXTBEGIN
1070
    73
1070
     1
1070
    44
1040
1.0
1070
    74
1070
     0
1000
MTEXTEND
  0
POINT
  5
5BC
330
5A9
100
AcDbEntity
  8
DEFPOINTS
 62
     0
100
AcDbPoint
 10
-113.1
 20
-4.857142399999998
 30
0.0
  0
POINT
  5
5BD
330
5A9
100
AcDbEntity
  8
DEFPOINTS
 62
     0
100
AcDbPoint
 10
-113.1
 20
47.342857
 30
0.0
  0
POINT
  5
5BE
330
5A9
100
AcDbEntity
  8
DEFPOINTS
 62
     0
100
AcDbPoint
 10
-140.6822349962918
 20
47.342857
 30
0.0
  0
ENDBLK
  5
5B4
330
5A9
100
AcDbEntity
  8
0
100
AcDbBlockEnd
  0
BLOCK
  5
5CB
330
5C1
100
AcDbEntity
  8
0
100
AcDbBlockBegin
  2
*D6
 70
     1
 10
0.0
 20
0.0
 30
0.0
  3
*D6
  1

  0
LINE
  5
5CE
330
5C1
100
AcDbEntity
  8
0
 62
     1
100
AcDbLine
 10
-113.1
 20
-4.857142399999998
 30
0.0
 11
-142.6822349962918
 21
-4.85714239999999
 31
0.0
  0
LINE
  5
5CF
330
5C1
100
AcDbEntity
  8
0
 62
     1
100
AcDbLine
 10
-113.1
 20
-57.05714399999997
 30
0.0
 11
-142.6822349962918
 21
-57.05714399999997
 31
0.0
  0
LINE
  5
5D0
330
5C1
100
AcDbEntity
  8
0
 62
     1
100
AcDbLine
 10
-140.6822349962918
 20
-9.857142399999991
 30
0.0
 11
-140.6822349962918
 21
-52.05714399999997
 31
0.0
  0
SOLID
  5
5D1
330
5C1
100
AcDbEntity
  8
0
 62
     1
100
AcDbTrace
 10
-141.5155683296253
 20
-9.857142399999991
 30
0.0
 11
-139.8489016629586
 21
-9.857142399999991
 31
0.0
 12
-140.6822349962918
 22
-4.85714239999999
 32
0.0
 13
-140.6822349962918
 23
-4.85714239999999
 33
0.0
  0
SOLID
  5
5D2
330
5C1
100
AcDbEntity
  8
0
 62
     1
100
AcDbTrace
 10
-141.5155683296253
 20
-52.05714399999997
 30
0.0
 11
-139.8489016629586
 21
-52.05714399999997
 31
0.0
 12
-140.6822349962918
 22
-57.05714399999997
 32
0.0
 13
-140.6822349962918
 23
-57.05714399999997
 33
0.0
  0
MTEXT
  5
5D3
330
5C1
100
AcDbEntity
  8
0
 62
     1
100
AcDbMText
 10
-144.6822349962918
 20
-30.9571432
 30
0.0
 40
5.0
 41
0.0
 71
     5
 72
     1
  1
52.2
 11
0.0000000000000001
 21
1.0
 31
0.0
1001
ACAD
1000
MTEXTBEGIN
1070
    73
1070
     1
1070
    44
1040
1.0
1070
    74
1070
     0
1000
MTEXTEND
1000
MTEXTBEGIN
1070
    73
1070
     1
1070
    44
1040
1.0
1070
    74
1070
     0
1000
MTEXTEND
  0
POINT
  5
5D4
330
5C1
100
AcDbEntity
  8
DEFPOINTS
 62
     0
100
AcDbPoint
 10
-113.1
 20
-4.857142399999998
 30
0.0
  0
POINT
  5
5D5
330
5C1
100
AcDbEntity
  8
DEFPOINTS
 62
     0
100
AcDbPoint
 10
-113.1
 20
-57.05714399999997
 30
0.0
  0
POINT
  5
5D6
330
5C1
100
AcDbEntity
  8
DEFPOINTS
 62
     0
100
AcDbPoint
 10
-140.6822349962918
 20
-57.05714399999997
 30
0.0
  0
ENDBLK
  5
5CC
330
5C1
100
AcDbEntity
  8
0
100
AcDbBlockEnd
  0
BLOCK
  5
5E3
330
5D9
100
AcDbEntity
  8
0
100
AcDbBlockBegin
  2
*D7
 70
     1
 10
0.0
 20
0.0
 30
0.0
  3
*D7
  1

  0
LINE
  5
5E6
330
5D9
100
AcDbEntity
  8
0
 62
     1
100
AcDbLine
 10
-113.1
 20
-4.857142399999998
 30
0.0
 11
-159.9140481399975
 21
-4.857142399999987
 31
0.0
  0
LINE
  5
5E7
330
5D9
100
AcDbEntity
  8
0
 62
     1
100
AcDbLine
 10
-93.38833657808526
 20
76.29285503301352
 30
0.0
 11
-159.9140481399975
 21
76.29285503301357
 31
0.0
  0
LINE
  5
5E8
330
5D9
100
AcDbEntity
  8
0
 62
     1
100
AcDbLine
 10
-157.9140481399973
 20
0.1428576000000121
 30
0.0
 11
-157.9140481399973
 21
71.29285503301357
 31
0.0
  0
SOLID
  5
5E9
330
5D9
100
AcDbEntity
  8
0
 62
     1
100
AcDbTrace
 10
-158.7473814733309
 20
0.1428576000000123
 30
0.0
 11
-157.0807148066641
 21
0.1428576000000119
 31
0.0
 12
-157.9140481399973
 22
-4.857142399999988
 32
0.0
 13
-157.9140481399973
 23
-4.857142399999988
 33
0.0
  0
SOLID
  5
5EA
330
5D9
100
AcDbEntity
  8
0
 62
     1
100
AcDbTrace
 10
-158.7473814733309
 20
71.29285503301357
 30
0.0
 11
-157.0807148066641
 21
71.29285503301357
 31
0.0
 12
-157.9140481399973
 22
76.29285503301357
 32
0.0
 13
-157.9140481399973
 23
76.29285503301357
 33
0.0
  0
MTEXT
  5
5EB
330
5D9
100
AcDbEntity
  8
0
 62
     1
100
AcDbMText
 10
-161.9140481399977
 20
35.71785631650675
 30
0.0
 40
5.0
 41
0.0
 71
     5
 72
     1
  1
81.15
 11
0.0000000000000001
 21
1.0
 31
0.0
1001
ACAD
1000
MTEXTBEGIN
1070
    73
1070
     1
1070
    44
1040
1.0
1070
    74
1070
     0
1000
MTEXTEND
1000
MTEXTBEGIN
1070
    73
1070
     1
1070
    44
1040
1.0
1070
    74
1070
     0
1000
MTEXTEND
  0
POINT
  5
5EC
330
5D9
100
AcDbEntity
  8
DEFPOINTS
 62
     0
100
AcDbPoint
 10
-113.1
 20
-4.857142399999998
 30
0.0
  0
POINT
  5
5ED
330
5D9
100
AcDbEntity
  8
DEFPOINTS
 62
     0
100
AcDbPoint
 10
-93.38833657808526
 20
76.29285503301352
 30
0.0
  0
POINT
  5
5EE
330
5D9
100
AcDbEntity
  8
DEFPOINTS
 62
     0
100
AcDbPoint
 10
-157.9140481399973
 20
76.29285503301357
 30
0.0
  0
ENDBLK
  5
5E4
330
5D9
100
AcDbEntity
  8
0
100
AcDbBlockEnd
  0
BLOCK
  5
5FB
330
5F1
100
AcDbEntity
  8
0
100
AcDbBlockBegin
  2
*D8
 70
     1
 10
0.0
 20
0.0
 30
0.0
  3
*D8
  1

  0
LINE
  5
5FE
330
5F1
100
AcDbEntity
  8
0
 62
     1
100
AcDbLine
 10
-113.1
 20
-4.857142399999998
 30
0.0
 11
-159.9140481399975
 21
-4.857142399999987
 31
0.0
  0
LINE
  5
5FF
330
5F1
100
AcDbEntity
  8
0
 62
     1
100
AcDbLine
 10
-95.25500499999999
 20
-90.10714
 30
0.0
 11
-159.9140481399975
 21
-90.10713999999998
 31
0.0
  0
LINE
  5
600
330
5F1
100
AcDbEntity
  8
0
 62
     1
100
AcDbLine
 10
-157.9140481399973
 20
-9.857142399999986
 30
0.0
 11
-157.9140481399974
 21
-85.10713999999998
 31
0.0
  0
SOLID
  5
601
330
5F1
100
AcDbEntity
  8
0
 62
     1
100
AcDbTrace
 10
-158.7473814733309
 20
-9.857142399999986
 30
0.0
 11
-157.0807148066641
 21
-9.857142399999986
 31
0.0
 12
-157.9140481399973
 22
-4.857142399999988
 32
0.0
 13
-157.9140481399973
 23
-4.857142399999988
 33
0.0
  0
SOLID
  5
602
330
5F1
100
AcDbEntity
  8
0
 62
     1
100
AcDbTrace
 10
-158.7473814733309
 20
-85.10713999999998
 30
0.0
 11
-157.0807148066641
 21
-85.10713999999998
 31
0.0
 12
-157.9140481399974
 22
-90.10713999999998
 32
0.0
 13
-157.9140481399974
 23
-90.10713999999998
 33
0.0
  0
MTEXT
  5
603
330
5F1
100
AcDbEntity
  8
0
 62
     1
100
AcDbMText
 10
-161.9140481399977
 20
-47.4821412
 30
0.0
 40
5.0
 41
0.0
 71
     5
 72
     1
  1
85.25
 11
0.0000000000000001
 21
1.0
 31
0.0
1001
ACAD
1000
MTEXTBEGIN
1070
    73
1070
     1
1070
    44
1040
1.0
1070
    74
1070
     0
1000
MTEXTEND
1000
MTEXTBEGIN
1070
    73
1070
     1
1070
    44
1040
1.0
1070
    74
1070
     0
1000
MTEXTEND
  0
POINT
  5
604
330
5F1
100
AcDbEntity
  8
DEFPOINTS
 62
     0
100
AcDbPoint
 10
-113.1
 20
-4.857142399999998
 30
0.0
  0
POINT
  5
605
330
5F1
100
AcDbEntity
  8
DEFPOINTS
 62
     0
100
AcDbPoint
 10
-95.25500499999999
 20
-90.10714
 30
0.0
  0
POINT
  5
606
330
5F1
100
AcDbEntity
  8
DEFPOINTS
 62
     0
100
AcDbPoint
 10
-157.9140481399974
 20
-90.10713999999998
 30
0.0
  0
ENDBLK
  5
5FC
330
5F1
100
AcDbEntity
  8
0
100
AcDbBlockEnd
  0
BLOCK
  5
613
330
609
100
AcDbEntity
  8
0
100
AcDbBlockBegin
  2
*D9
 70
     1
 10
0.0
 20
0.0
 30
0.0
  3
*D9
  1

  0
LINE
  5
616
330
609
100
AcDbEntity
  8
0
 62
     1
100
AcDbLine
 10
-88.90000200000001
 20
-137.912259
 30
0.0
 11
-131.1116189748104
 21
-137.912259
 31
0.0
  0
LINE
  5
617
330
609
100
AcDbEntity
  8
0
 62
     1
100
AcDbLine
 10
-88.90000200000001
 20
-174.312261
 30
0.0
 11
-131.1116189748104
 21
-174.312261
 31
0.0
  0
LINE
  5
618
330
609
100
AcDbEntity
  8
0
 62
     1
100
AcDbLine
 10
-129.1116189748104
 20
-142.912259
 30
0.0
 11
-129.1116189748104
 21
-169.312261
 31
0.0
  0
SOLID
  5
619
330
609
100
AcDbEntity
  8
0
 62
     1
100
AcDbTrace
 10
-129.9449523081437
 20
-142.912259
 30
0.0
 11
-128.278285641477
 21
-142.912259
 31
0.0
 12
-129.1116189748104
 22
-137.912259
 32
0.0
 13
-129.1116189748104
 23
-137.912259
 33
0.0
  0
SOLID
  5
61A
330
609
100
AcDbEntity
  8
0
 62
     1
100
AcDbTrace
 10
-129.9449523081437
 20
-169.312261
 30
0.0
 11
-128.278285641477
 21
-169.312261
 31
0.0
 12
-129.1116189748104
 22
-174.312261
 32
0.0
 13
-129.1116189748104
 23
-174.312261
 33
0.0
  0
MTEXT
  5
61B
330
609
100
AcDbEntity
  8
0
 62
     1
100
AcDbMText
 10
-133.1116189748104
 20
-156.11226
 30
0.0
 40
5.0
 41
0.0
 71
     5
 72
     1
  1
36.4
 11
0.0000000000000001
 21
1.0
 31
0.0
1001
ACAD
1000
MTEXTBEGIN
1070
    73
1070
     1
1070
    44
1040
1.0
1070
    74
1070
     0
1000
MTEXTEND
1000
MTEXTBEGIN
1070
    73
1070
     1
1070
    44
1040
1.0
1070
    74
1070
     0
1000
MTEXTEND
  0
POINT
  5
61C
330
609
100
AcDbEntity
  8
DEFPOINTS
 62
     0
100
AcDbPoint
 10
-88.90000200000001
 20
-137.912259
 30
0.0
  0
POINT
  5
61D
330
609
100
AcDbEntity
  8
DEFPOINTS
 62
     0
100
AcDbPoint
 10
-88.90000200000001
 20
-174.312261
 30
0.0
  0
POINT
  5
61E
330
609
100
AcDbEntity
  8
DEFPOINTS
 62
     0
100
AcDbPoint
 10
-129.1116189748104
 20
-174.312261
 30
0.0
  0
ENDBLK
  5
614
330
609
100
AcDbEntity
  8
0
100
AcDbBlockEnd
  0
BLOCK
  5
62B
330
621
100
AcDbEntity
  8
0
100
AcDbBlockBegin
  2
*D10
 70
     1
 10
0.0
 20
0.0
 30
0.0
  3
*D10
  1

  0
LINE
  5
62E
330
621
100
AcDbEntity
  8
0
 62
     1
100
AcDbLine
 10
-88.90000200000001
 20
-183.2122699999999
 30
0.0
 11
-88.90000200000001
 21
-205.5131164694178
 31
0.0
  0
LINE
  5
62F
330
621
100
AcDbEntity
  8
0
 62
     1
100
AcDbLine
 10
-44.450001
 20
-183.2122699999999
 30
0.0
 11
-44.450001
 21
-205.5131164694178
 31
0.0
  0
LINE
  5
630
330
621
100
AcDbEntity
  8
0
 62
     1
100
AcDbLine
 10
-83.90000200000001
 20
-203.5131164694178
 30
0.0
 11
-49.450001
 21
-203.5131164694178
 31
0.0
  0
SOLID
  5
631
330
621
100
AcDbEntity
  8
0
 62
     1
100
AcDbTrace
 10
-83.90000200000001
 20
-202.6797831360844
 30
0.0
 11
-83.90000200000001
 21
-204.346449802751
 31
0.0
 12
-88.90000200000001
 22
-203.5131164694178
 32
0.0
 13
-88.90000200000001
 23
-203.5131164694178
 33
0.0
  0
SOLID
  5
632
330
621
100
AcDbEntity
  8
0
 62
     1
100
AcDbTrace
 10
-49.450001
 20
-202.6797831360844
 30
0.0
 11
-49.450001
 21
-204.346449802751
 31
0.0
 12
-44.450001
 22
-203.5131164694178
 32
0.0
 13
-44.450001
 23
-203.5131164694178
 33
0.0
  0
MTEXT
  5
633
330
621
100
AcDbEntity
  8
0
 62
     1
100
AcDbMText
 10
-66.67500150000001
 20
-199.5131164694178
 30
0.0
 40
5.0
 41
0.0
 71
     5
 72
     1
  1
44.45
1001
ACAD
1000
MTEXTBEGIN
1070
    73
1070
     1
1070
    44
1040
1.0
1070
    74
1070
     0
1000
MTEXTEND
1000
MTEXTBEGIN
1070
    73
1070
     1
1070
    44
1040
1.0
1070
    74
1070
     0
1000
MTEXTEND
  0
POINT
  5
634
330
621
100
AcDbEntity
  8
DEFPOINTS
 62
     0
100
AcDbPoint
 10
-88.90000200000001
 20
-183.2122699999999
 30
0.0
  0
POINT
  5
635
330
621
100
AcDbEntity
  8
DEFPOINTS
 62
     0
100
AcDbPoint
 10
-44.450001
 20
-183.2122699999999
 30
0.0
  0
POINT
  5
636
330
621
100
AcDbEntity
  8
DEFPOINTS
 62
     0
100
AcDbPoint
 10
-44.450001
 20
-203.5131164694178
 30
0.0
  0
ENDBLK
  5
62C
330
621
100
AcDbEntity
  8
0
100
AcDbBlockEnd
  0
BLOCK
  5
643
330
639
100
AcDbEntity
  8
0
100
AcDbBlockBegin
  2
*D11
 70
     1
 10
0.0
 20
0.0
 30
0.0
  3
*D11
  1

  0
LINE
  5
646
330
639
100
AcDbEntity
  8
0
 62
     1
100
AcDbLine
 10
-44.450001
 20
-183.2122699999999
 30
0.0
 11
-44.450001
 21
-205.5131164694178
 31
0.0
  0
LINE
  5
647
330
639
100
AcDbEntity
  8
0
 62
     1
100
AcDbLine
 10
-0.0000000000000284
 20
-183.2122699999999
 30
0.0
 11
-0.0000000000000298
 21
-205.5131164694178
 31
0.0
  0
LINE
  5
648
330
639
100
AcDbEntity
  8
0
 62
     1
100
AcDbLine
 10
-39.450001
 20
-203.5131164694178
 30
0.0
 11
-5.000000000000028
 21
-203.5131164694178
 31
0.0
  0
SOLID
  5
649
330
639
100
AcDbEntity
  8
0
 62
     1
100
AcDbTrace
 10
-39.450001
 20
-202.6797831360844
 30
0.0
 11
-39.450001
 21
-204.346449802751
 31
0.0
 12
-44.450001
 22
-203.5131164694178
 32
0.0
 13
-44.450001
 23
-203.5131164694178
 33
0.0
  0
SOLID
  5
64A
330
639
100
AcDbEntity
  8
0
 62
     1
100
AcDbTrace
 10
-5.000000000000028
 20
-202.6797831360844
 30
0.0
 11
-5.000000000000028
 21
-204.346449802751
 31
0.0
 12
-0.0000000000000296
 22
-203.5131164694178
 32
0.0
 13
-0.0000000000000296
 23
-203.5131164694178
 33
0.0
  0
MTEXT
  5
64B
330
639
100
AcDbEntity
  8
0
 62
     1
100
AcDbMText
 10
-22.22500050000001
 20
-199.5131164694178
 30
0.0
 40
5.0
 41
0.0
 71
     5
 72
     1
  1
44.45
1001
ACAD
1000
MTEXTBEGIN
1070
    73
1070
     1
1070
    44
1040
1.0
1070
    74
1070
     0
1000
MTEXTEND
1000
MTEXTBEGIN
1070
    73
1070
     1
1070
    44
1040
1.0
1070
    74
1070
     0
1000
MTEXTEND
  0
POINT
  5
64C
330
639
100
AcDbEntity
  8
DEFPOINTS
 62
     0
100
AcDbPoint
 10
-44.450001
 20
-183.2122699999999
 30
0.0
  0
POINT
  5
64D
330
639
100
AcDbEntity
  8
DEFPOINTS
 62
     0
100
AcDbPoint
 10
-0.0000000000000284
 20
-183.2122699999999
 30
0.0
  0
POINT
  5
64E
330
639
100
AcDbEntity
  8
DEFPOINTS
 62
     0
100
AcDbPoint
 10
-0.0000000000000296
 20
-203.5131164694178
 30
0.0
  0
ENDBLK
  5
644
330
639
100
AcDbEntity
  8
0
100
AcDbBlockEnd
  0
BLOCK
  5
65B
330
651
100
AcDbEntity
  8
0
100
AcDbBlockBegin
  2
*D12
 70
     1
 10
0.0
 20
0.0
 30
0.0
  3
*D12
  1

  0
LINE
  5
65E
330
651
100
AcDbEntity
  8
0
 62
     1
100
AcDbLine
 10
88.90000200000001
 20
-135.0122599999999
 30
0.0
 11
143.1112272114321
 21
-135.0122599999999
 31
0.0
  0
LINE
  5
65F
330
651
100
AcDbEntity
  8
0
 62
     1
100
AcDbLine
 10
88.90000200000001
 20
-177.2122599999998
 30
0.0
 11
143.1112272114321
 21
-177.2122599999998
 31
0.0
  0
LINE
  5
660
330
651
100
AcDbEntity
  8
0
 62
     1
100
AcDbLine
 10
141.111227211432
 20
-140.0122599999999
 30
0.0
 11
141.111227211432
 21
-172.2122599999998
 31
0.0
  0
SOLID
  5
661
330
651
100
AcDbEntity
  8
0
 62
     1
100
AcDbTrace
 10
140.2778938780989
 20
-140.0122599999999
 30
0.0
 11
141.9445605447654
 21
-140.0122599999999
 31
0.0
 12
141.111227211432
 22
-135.0122599999999
 32
0.0
 13
141.111227211432
 23
-135.0122599999999
 33
0.0
  0
SOLID
  5
662
330
651
100
AcDbEntity
  8
0
 62
     1
100
AcDbTrace
 10
140.2778938780989
 20
-172.2122599999998
 30
0.0
 11
141.9445605447654
 21
-172.2122599999998
 31
0.0
 12
141.111227211432
 22
-177.2122599999998
 32
0.0
 13
141.111227211432
 23
-177.2122599999998
 33
0.0
  0
MTEXT
  5
663
330
651
100
AcDbEntity
  8
0
 62
     1
100
AcDbMText
 10
137.1112272114322
 20
-156.11226
 30
0.0
 40
5.0
 41
0.0
 71
     5
 72
     1
  1
42.2
 11
0.0000000000000001
 21
1.0
 31
0.0
1001
ACAD
1000
MTEXTBEGIN
1070
    73
1070
     1
1070
    44
1040
1.0
1070
    74
1070
     0
1000
MTEXTEND
1000
MTEXTBEGIN
1070
    73
1070
     1
1070
    44
1040
1.0
1070
    74
1070
     0
1000
MTEXTEND
  0
POINT
  5
664
330
651
100
AcDbEntity
  8
DEFPOINTS
 62
     0
100
AcDbPoint
 10
88.90000200000001
 20
-135.0122599999999
 30
0.0
  0
POINT
  5
665
330
651
100
AcDbEntity
  8
DEFPOINTS
 62
     0
100
AcDbPoint
 10
88.90000200000001
 20
-177.2122599999998
 30
0.0
  0
POINT
  5
666
330
651
100
AcDbEntity
  8
DEFPOINTS
 62
     0
100
AcDbPoint
 10
141.111227211432
 20
-177.2122599999998
 30
0.0
  0
ENDBLK
  5
65C
330
651
100
AcDbEntity
  8
0
100
AcDbBlockEnd
  0
ENDSEC
  0
SECTION
  2
ENTITIES
  0
TEXT
  5
25E
330
1F
100
AcDbEntity
  8
0
  6
CONTINUOUS
 62
     7
100
AcDbText
 10
-42.171744
 20
111.60365
 30
0.0
 40
7.199999799999996
  1

 41
0.8449619099999999
100
AcDbText
  0
ARC
  5
260
330
1F
100
AcDbEntity
  8
0
  6
CONTINUOUS
 62
     7
100
AcDbCircle
 10
-55.75
 20
-45.75714099999999
 30
0.0
 40
1.399999999999999
100
AcDbArc
 50
90.0
 51
180.0
  0
ARC
  5
261
330
1F
100
AcDbEntity
  8
0
  6
CONTINUOUS
 62
     7
100
AcDbCircle
 10
-55.75
 20
-68.35714
 30
0.0
 40
1.399999999999999
100
AcDbArc
 50
180.0
 51
270.0
  0
ARC
  5
262
330
1F
100
AcDbEntity
  8
0
  6
CONTINUOUS
 62
     7
100
AcDbCircle
 10
-33.150002
 20
-68.35714
 30
0.0
 40
1.399999999999999
100
AcDbArc
 50
270.0
 51
0.0
  0
ARC
  5
263
330
1F
100
AcDbEntity
  8
0
  6
CONTINUOUS
 62
     7
100
AcDbCircle
 10
-33.150002
 20
-45.75714099999999
 30
0.0
 40
1.399999999999999
100
AcDbArc
 50
0.0
 51
90.0
  0
ARC
  5
264
330
1F
100
AcDbEntity
  8
0
  6
CONTINUOUS
 62
     7
100
AcDbCircle
 10
11.29999799999999
 20
-45.75714099999999
 30
0.0
 40
1.399999999999999
100
AcDbArc
 50
0.0
 51
90.0
  0
ARC
  5
265
330
1F
100
AcDbEntity
  8
0
  6
CONTINUOUS
 62
     7
100
AcDbCircle
 10
-11.30000099999999
 20
-45.75714099999999
 30
0.0
 40
1.399999999999999
100
AcDbArc
 50
90.0
 51
180.0
  0
ARC
  5
266
330
1F
100
AcDbEntity
  8
0
  6
CONTINUOUS
 62
     7
100
AcDbCircle
 10
11.29999799999999
 20
-68.35714
 30
0.0
 40
1.399999999999999
100
AcDbArc
 50
270.0
 51
0.0
  0
ARC
  5
267
330
1F
100
AcDbEntity
  8
0
  6
CONTINUOUS
 62
     7
100
AcDbCircle
 10
-11.30000099999999
 20
-68.35714
 30
0.0
 40
1.399999999999999
100
AcDbArc
 50
180.0
 51
270.0
  0
ARC
  5
268
330
1F
100
AcDbEntity
  8
0
  6
CONTINUOUS
 62
     7
100
AcDbCircle
 10
33.14999799999998
 20
-45.75714099999999
 30
0.0
 40
1.399999999999999
100
AcDbArc
 50
90.0
 51
180.0
  0
ARC
  5
269
330
1F
100
AcDbEntity
  8
0
  6
CONTINUOUS
 62
     7
100
AcDbCircle
 10
55.75
 20
-45.75714099999999
 30
0.0
 40
1.399999999999999
100
AcDbArc
 50
0.0
 51
90.0
  0
ARC
  5
26A
330
1F
100
AcDbEntity
  8
0
  6
CONTINUOUS
 62
     7
100
AcDbCircle
 10
33.14999799999998
 20
-68.35714
 30
0.0
 40
1.399999999999999
100
AcDbArc
 50
180.0
 51
270.0
  0
ARC
  5
26B
330
1F
100
AcDbEntity
  8
0
  6
CONTINUOUS
 62
     7
100
AcDbCircle
 10
55.75
 20
-68.35714
 30
0.0
 40
1.399999999999999
100
AcDbArc
 50
270.0
 51
0.0
  0
ARC
  5
26C
330
1F
100
AcDbEntity
  8
0
  6
CONTINUOUS
 62
     7
100
AcDbCircle
 10
77.599998
 20
-45.75714099999999
 30
0.0
 40
1.399999999999999
100
AcDbArc
 50
90.0
 51
180.0
  0
ARC
  5
26D
330
1F
100
AcDbEntity
  8
0
  6
CONTINUOUS
 62
     7
100
AcDbCircle
 10
100.2
 20
-45.75714099999999
 30
0.0
 40
1.399999999999999
100
AcDbArc
 50
0.0
 51
90.0
  0
ARC
  5
26E
330
1F
100
AcDbEntity
  8
0
  6
CONTINUOUS
 62
     7
100
AcDbCircle
 10
100.2
 20
-68.35714
 30
0.0
 40
1.399999999999999
100
AcDbArc
 50
270.0
 51
0.0
  0
ARC
  5
26F
330
1F
100
AcDbEntity
  8
0
  6
CONTINUOUS
 62
     7
100
AcDbCircle
 10
77.599998
 20
-68.35714
 30
0.0
 40
1.399999999999999
100
AcDbArc
 50
180.0
 51
270.0
  0
ARC
  5
270
330
1F
100
AcDbEntity
  8
0
  6
CONTINUOUS
 62
     7
100
AcDbCircle
 10
-55.75
 20
6.4428573
 30
0.0
 40
1.399999999999999
100
AcDbArc
 50
90.0
 51
180.0
  0
ARC
  5
271
330
1F
100
AcDbEntity
  8
0
  6
CONTINUOUS
 62
     7
100
AcDbCircle
 10
-55.75
 20
-16.15714299999999
 30
0.0
 40
1.399999999999999
100
AcDbArc
 50
180.0
 51
270.0
  0
ARC
  5
272
330
1F
100
AcDbEntity
  8
0
  6
CONTINUOUS
 62
     7
100
AcDbCircle
 10
-33.150002
 20
-16.15714299999999
 30
0.0
 40
1.399999999999999
100
AcDbArc
 50
270.0
 51
0.0
  0
ARC
  5
273
330
1F
100
AcDbEntity
  8
0
  6
CONTINUOUS
 62
     7
100
AcDbCircle
 10
-33.150002
 20
6.4428573
 30
0.0
 40
1.399999999999999
100
AcDbArc
 50
0.0
 51
90.0
  0
ARC
  5
274
330
1F
100
AcDbEntity
  8
0
  6
CONTINUOUS
 62
     7
100
AcDbCircle
 10
11.29999799999999
 20
6.4428573
 30
0.0
 40
1.399999999999999
100
AcDbArc
 50
0.0
 51
90.0
  0
ARC
  5
275
330
1F
100
AcDbEntity
  8
0
  6
CONTINUOUS
 62
     7
100
AcDbCircle
 10
-11.30000099999999
 20
6.4428573
 30
0.0
 40
1.399999999999999
100
AcDbArc
 50
90.0
 51
180.0
  0
ARC
  5
276
330
1F
100
AcDbEntity
  8
0
  6
CONTINUOUS
 62
     7
100
AcDbCircle
 10
11.29999799999999
 20
-16.15714299999999
 30
0.0
 40
1.399999999999999
100
AcDbArc
 50
270.0
 51
0.0
  0
ARC
  5
277
330
1F
100
AcDbEntity
  8
0
  6
CONTINUOUS
 62
     7
100
AcDbCircle
 10
-11.30000099999999
 20
-16.15714299999999
 30
0.0
 40
1.399999999999999
100
AcDbArc
 50
180.0
 51
270.0
  0
ARC
  5
278
330
1F
100
AcDbEntity
  8
0
  6
CONTINUOUS
 62
     7
100
AcDbCircle
 10
33.14999799999998
 20
6.4428573
 30
0.0
 40
1.399999999999999
100
AcDbArc
 50
90.0
 51
180.0
  0
ARC
  5
279
330
1F
100
AcDbEntity
  8
0
  6
CONTINUOUS
 62
     7
100
AcDbCircle
 10
55.75
 20
6.4428573
 30
0.0
 40
1.399999999999999
100
AcDbArc
 50
0.0
 51
90.0
  0
ARC
  5
27A
330
1F
100
AcDbEntity
  8
0
  6
CONTINUOUS
 62
     7
100
AcDbCircle
 10
33.14999799999998
 20
-16.15714299999999
 30
0.0
 40
1.399999999999999
100
AcDbArc
 50
180.0
 51
270.0
  0
ARC
  5
27B
330
1F
100
AcDbEntity
  8
0
  6
CONTINUOUS
 62
     7
100
AcDbCircle
 10
55.75
 20
-16.15714299999999
 30
0.0
 40
1.399999999999999
100
AcDbArc
 50
270.0
 51
0.0
  0
ARC
  5
27C
330
1F
100
AcDbEntity
  8
0
  6
CONTINUOUS
 62
     7
100
AcDbCircle
 10
77.599998
 20
6.4428573
 30
0.0
 40
1.399999999999999
100
AcDbArc
 50
90.0
 51
180.0
  0
ARC
  5
27D
330
1F
100
AcDbEntity
  8
0
  6
CONTINUOUS
 62
     7
100
AcDbCircle
 10
100.2
 20
6.4428573
 30
0.0
 40
1.399999999999999
100
AcDbArc
 50
0.0
 51
90.0
  0
ARC
  5
27E
330
1F
100
AcDbEntity
  8
0
  6
CONTINUOUS
 62
     7
100
AcDbCircle
 10
100.2
 20
-16.15714299999999
 30
0.0
 40
1.399999999999999
100
AcDbArc
 50
270.0
 51
0.0
  0
ARC
  5
27F
330
1F
100
AcDbEntity
  8
0
  6
CONTINUOUS
 62
     7
100
AcDbCircle
 10
77.599998
 20
-16.15714299999999
 30
0.0
 40
1.399999999999999
100
AcDbArc
 50
180.0
 51
270.0
  0
ARC
  5
280
330
1F
100
AcDbEntity
  8
0
  6
CONTINUOUS
 62
     7
100
AcDbCircle
 10
44.44999699999999
 20
-90.41983
 30
0.0
 40
6.329351899999998
100
AcDbArc
 50
44.835814
 51
135.1641899999999
  0
ARC
  5
281
330
1F
100
AcDbEntity
  8
0
  6
CONTINUOUS
 62
     7
100
AcDbCircle
 10
-0.0000015258789
 20
-90.41983
 30
0.0
 40
6.329351899999998
100
AcDbArc
 50
44.83582199999999
 51
135.1641799999999
  0
ARC
  5
282
330
1F
100
AcDbEntity
  8
0
  6
CONTINUOUS
 62
     7
100
AcDbCircle
 10
44.44999699999999
 20
80.755539
 30
0.0
 40
6.329351899999998
100
AcDbArc
 50
224.8358099999999
 51
315.1641899999999
  0
ARC
  5
283
330
1F
100
AcDbEntity
  8
0
  6
CONTINUOUS
 62
     7
100
AcDbCircle
 10
-0.0000015258789
 20
80.755539
 30
0.0
 40
6.329351899999998
100
AcDbArc
 50
224.83582
 51
315.16418
  0
ARC
  5
284
330
1F
100
AcDbEntity
  8
0
  6
CONTINUOUS
 62
     7
100
AcDbCircle
 10
-44.450001
 20
80.755539
 30
0.0
 40
6.329351899999998
100
AcDbArc
 50
224.8358099999999
 51
315.1641899999999
  0
ARC
  5
285
102
{ACAD_REACTORS
330
5EF
102
}
330
1F
100
AcDbEntity
  8
0
  6
CONTINUOUS
 62
     7
100
AcDbCircle
 10
-88.90000200000001
 20
80.755539
 30
0.0
 40
6.329351899999998
100
AcDbArc
 50
224.8358099999999
 51
315.1641899999999
  0
ARC
  5
286
330
1F
100
AcDbEntity
  8
0
  6
CONTINUOUS
 62
     7
100
AcDbCircle
 10
-33.906197
 20
-85.154785
 30
0.0
 40
1.997642399999999
100
AcDbArc
 50
270.0
 51
90.0
  0
ARC
  5
287
330
1F
100
AcDbEntity
  8
0
  6
CONTINUOUS
 62
     7
100
AcDbCircle
 10
-99.44380999999999
 20
-85.154785
 30
0.0
 40
1.997642399999999
100
AcDbArc
 50
90.0
 51
270.0
  0
ARC
  5
288
330
1F
100
AcDbEntity
  8
0
  6
CONTINUOUS
 62
     7
100
AcDbCircle
 10
-55.75
 20
58.64285699999999
 30
0.0
 40
1.399999999999999
100
AcDbArc
 50
90.0
 51
180.0
  0
ARC
  5
289
330
1F
100
AcDbEntity
  8
0
  6
CONTINUOUS
 62
     7
100
AcDbCircle
 10
-55.75
 20
36.042858
 30
0.0
 40
1.399999999999999
100
AcDbArc
 50
180.0
 51
270.0
  0
ARC
  5
28A
330
1F
100
AcDbEntity
  8
0
  6
CONTINUOUS
 62
     7
100
AcDbCircle
 10
-33.150002
 20
36.042858
 30
0.0
 40
1.399999999999999
100
AcDbArc
 50
270.0
 51
0.0
  0
ARC
  5
28B
330
1F
100
AcDbEntity
  8
0
  6
CONTINUOUS
 62
     7
100
AcDbCircle
 10
-33.150002
 20
58.64285699999999
 30
0.0
 40
1.399999999999999
100
AcDbArc
 50
0.0
 51
90.0
  0
ARC
  5
28C
330
1F
100
AcDbEntity
  8
0
  6
CONTINUOUS
 62
     7
100
AcDbCircle
 10
11.29999799999999
 20
58.64285699999999
 30
0.0
 40
1.399999999999999
100
AcDbArc
 50
0.0
 51
90.0
  0
ARC
  5
28D
330
1F
100
AcDbEntity
  8
0
  6
CONTINUOUS
 62
     7
100
AcDbCircle
 10
-11.30000099999999
 20
58.64285699999999
 30
0.0
 40
1.399999999999999
100
AcDbArc
 50
90.0
 51
180.0
  0
ARC
  5
28E
330
1F
100
AcDbEntity
  8
0
  6
CONTINUOUS
 62
     7
100
AcDbCircle
 10
11.29999799999999
 20
36.042858
 30
0.0
 40
1.399999999999999
100
AcDbArc
 50
270.0
 51
0.0
  0
ARC
  5
28F
330
1F
100
AcDbEntity
  8
0
  6
CONTINUOUS
 62
     7
100
AcDbCircle
 10
-11.30000099999999
 20
36.042858
 30
0.0
 40
1.399999999999999
100
AcDbArc
 50
180.0
 51
270.0
  0
ARC
  5
290
330
1F
100
AcDbEntity
  8
0
  6
CONTINUOUS
 62
     7
100
AcDbCircle
 10
33.14999799999998
 20
58.64285699999999
 30
0.0
 40
1.399999999999999
100
AcDbArc
 50
90.0
 51
180.0
  0
ARC
  5
291
330
1F
100
AcDbEntity
  8
0
  6
CONTINUOUS
 62
     7
100
AcDbCircle
 10
55.75
 20
58.64285699999999
 30
0.0
 40
1.399999999999999
100
AcDbArc
 50
0.0
 51
90.0
  0
ARC
  5
292
330
1F
100
AcDbEntity
  8
0
  6
CONTINUOUS
 62
     7
100
AcDbCircle
 10
33.14999799999998
 20
36.042858
 30
0.0
 40
1.399999999999999
100
AcDbArc
 50
180.0
 51
270.0
  0
ARC
  5
293
330
1F
100
AcDbEntity
  8
0
  6
CONTINUOUS
 62
     7
100
AcDbCircle
 10
55.75
 20
36.042858
 30
0.0
 40
1.399999999999999
100
AcDbArc
 50
270.0
 51
0.0
  0
ARC
  5
294
330
1F
100
AcDbEntity
  8
0
  6
CONTINUOUS
 62
     7
100
AcDbCircle
 10
77.599998
 20
58.64285699999999
 30
0.0
 40
1.399999999999999
100
AcDbArc
 50
90.0
 51
180.0
  0
ARC
  5
295
330
1F
100
AcDbEntity
  8
0
  6
CONTINUOUS
 62
     7
100
AcDbCircle
 10
100.2
 20
58.64285699999999
 30
0.0
 40
1.399999999999999
100
AcDbArc
 50
0.0
 51
90.0
  0
ARC
  5
296
102
{ACAD_REACTORS
330
53A
102
}
330
1F
100
AcDbEntity
  8
0
  6
CONTINUOUS
 62
     7
100
AcDbCircle
 10
100.2
 20
36.042858
 30
0.0
 40
1.399999999999999
100
AcDbArc
 50
270.0
 51
0.0
  0
ARC
  5
297
330
1F
100
AcDbEntity
  8
0
  6
CONTINUOUS
 62
     7
100
AcDbCircle
 10
77.599998
 20
36.042858
 30
0.0
 40
1.399999999999999
100
AcDbArc
 50
180.0
 51
270.0
  0
ARC
  5
298
330
1F
100
AcDbEntity
  8
0
  6
CONTINUOUS
 62
     7
100
AcDbCircle
 10
66.675003
 20
-104.1069699999999
 30
0.0
 40
35.455288
100
AcDbArc
 50
246.86006
 51
293.1399399999999
  0
ARC
  5
299
330
1F
100
AcDbEntity
  8
0
  6
CONTINUOUS
 62
     7
100
AcDbCircle
 10
-22.225
 20
-104.1069699999999
 30
0.0
 40
35.455288
100
AcDbArc
 50
246.86006
 51
293.1399399999999
  0
ARC
  5
29A
330
1F
100
AcDbEntity
  8
0
  6
CONTINUOUS
 62
     7
100
AcDbCircle
 10
-66.675003
 20
-292.4207799999998
 30
0.0
 40
119.90851
100
AcDbArc
 50
80.73945400000003
 51
99.26054399999998
  0
ARC
  5
29B
330
1F
100
AcDbEntity
  8
0
  6
CONTINUOUS
 62
     7
100
AcDbCircle
 10
-94.30600699999999
 20
-152.11697
 30
0.0
 40
1.997642399999999
100
AcDbArc
 50
226.65834
 51
252.6423199999999
  0
ARC
  5
29C
330
1F
100
AcDbEntity
  8
0
  6
CONTINUOUS
 62
     7
100
AcDbCircle
 10
-39.043995
 20
-152.11697
 30
0.0
 40
1.997642399999999
100
AcDbArc
 50
287.3576799999998
 51
313.3416599999998
  0
ARC
  5
29D
330
1F
100
AcDbEntity
  8
0
  6
CONTINUOUS
 62
     7
100
AcDbCircle
 10
-50.269733
 20
-158.10991
 30
0.0
 40
1.997642399999999
100
AcDbArc
 50
105.52977
 51
119.99997
  0
ARC
  5
29E
330
1F
100
AcDbEntity
  8
0
  6
CONTINUOUS
 62
     7
100
AcDbCircle
 10
-49.912571
 20
-160.2103699999998
 30
0.0
 40
1.997642399999999
100
AcDbArc
 50
104.8366
 51
119.99997
  0
ARC
  5
29F
330
1F
100
AcDbEntity
  8
0
  6
CONTINUOUS
 62
     7
100
AcDbCircle
 10
-35.27352899999999
 20
-156.11226
 30
0.0
 40
3.495874199999998
100
AcDbArc
 50
226.6582099999999
 51
133.34179
  0
CIRCLE
  5
2A0
330
1F
100
AcDbEntity
  8
0
  6
CONTINUOUS
 62
     7
100
AcDbCircle
 10
-88.90000200000001
 20
-156.11226
 30
0.0
 40
6.355
  0
ARC
  5
2A1
330
1F
100
AcDbEntity
  8
0
  6
CONTINUOUS
 62
     7
100
AcDbCircle
 10
-35.27352899999999
 20
-156.11226
 30
0.0
 40
1.497844699999999
100
AcDbArc
 50
214.85426
 51
145.14574
  0
ARC
  5
2A2
330
1F
100
AcDbEntity
  8
0
  6
CONTINUOUS
 62
     7
100
AcDbCircle
 10
-39.043995
 20
-160.10754
 30
0.0
 40
1.997642399999999
100
AcDbArc
 50
46.65833700000002
 51
72.64231999999998
  0
ARC
  5
2A3
330
1F
100
AcDbEntity
  8
0
  6
CONTINUOUS
 62
     7
100
AcDbCircle
 10
-83.08026899999999
 20
-154.11462
 30
0.0
 40
1.997642399999999
100
AcDbArc
 50
285.52987
 51
299.9998799999999
  0
ARC
  5
2A4
330
1F
100
AcDbEntity
  8
0
  6
CONTINUOUS
 62
     7
100
AcDbCircle
 10
-83.43743100000002
 20
-152.0141399999999
 30
0.0
 40
1.997642399999999
100
AcDbArc
 50
284.8367099999998
 51
299.9998799999999
  0
ARC
  5
2A5
330
1F
100
AcDbEntity
  8
0
  6
CONTINUOUS
 62
     7
100
AcDbCircle
 10
-94.30600699999999
 20
-160.10754
 30
0.0
 40
1.997642399999999
100
AcDbArc
 50
107.3576799999998
 51
133.3416599999999
  0
ARC
  5
2A6
330
1F
100
AcDbEntity
  8
0
  6
CONTINUOUS
 62
     7
100
AcDbCircle
 10
-95.20804599999999
 20
-158.10991
 30
0.0
 40
1.997642399999999
100
AcDbArc
 50
90.0
 51
145.1458
  0
CIRCLE
  5
2A7
330
1F
100
AcDbEntity
  8
0
  6
CONTINUOUS
 62
     7
100
AcDbCircle
 10
-44.450001
 20
-156.11226
 30
0.0
 40
6.355
  0
ARC
  5
2A8
330
1F
100
AcDbEntity
  8
0
  6
CONTINUOUS
 62
     7
100
AcDbCircle
 10
-50.269733
 20
-154.11462
 30
0.0
 40
1.997642399999999
100
AcDbArc
 50
240.00003
 51
254.4702299999999
  0
ARC
  5
2A9
330
1F
100
AcDbEntity
  8
0
  6
CONTINUOUS
 62
     7
100
AcDbCircle
 10
-49.912571
 20
-152.0141399999999
 30
0.0
 40
1.997642399999999
100
AcDbArc
 50
240.00003
 51
255.1634
  0
ARC
  5
2AA
330
1F
100
AcDbEntity
  8
0
  6
CONTINUOUS
 62
     7
100
AcDbCircle
 10
-38.141953
 20
-158.10991
 30
0.0
 40
1.997642399999999
100
AcDbArc
 50
34.854199
 51
90.0
  0
ARC
  5
2AB
330
1F
100
AcDbEntity
  8
0
  6
CONTINUOUS
 62
     7
100
AcDbCircle
 10
-98.07646900000001
 20
-156.11226
 30
0.0
 40
3.495874199999998
100
AcDbArc
 50
46.65816300000001
 51
313.34184
  0
ARC
  5
2AC
330
1F
100
AcDbEntity
  8
0
  6
CONTINUOUS
 62
     7
100
AcDbCircle
 10
-95.20804599999999
 20
-154.11462
 30
0.0
 40
1.997642399999999
100
AcDbArc
 50
214.8541999999999
 51
270.0
  0
ARC
  5
2AD
330
1F
100
AcDbEntity
  8
0
  6
CONTINUOUS
 62
     7
100
AcDbCircle
 10
-98.07646900000001
 20
-156.11226
 30
0.0
 40
1.497844699999999
100
AcDbArc
 50
34.854259
 51
325.14574
  0
ARC
  5
2AE
330
1F
100
AcDbEntity
  8
0
  6
CONTINUOUS
 62
     7
100
AcDbCircle
 10
-83.08026899999999
 20
-158.10991
 30
0.0
 40
1.997642399999999
100
AcDbArc
 50
60.00012099999999
 51
74.470126
  0
ARC
  5
2AF
330
1F
100
AcDbEntity
  8
0
  6
CONTINUOUS
 62
     7
100
AcDbCircle
 10
-83.43743100000002
 20
-160.2103699999998
 30
0.0
 40
1.997642399999999
100
AcDbArc
 50
60.00012099999999
 51
75.163292
  0
ARC
  5
2B0
330
1F
100
AcDbEntity
  8
0
  6
CONTINUOUS
 62
     7
100
AcDbCircle
 10
-38.141953
 20
-154.11462
 30
0.0
 40
1.997642399999999
100
AcDbArc
 50
270.0
 51
325.1457999999999
  0
ARC
  5
2B1
330
1F
100
AcDbEntity
  8
0
  6
CONTINUOUS
 62
     7
100
AcDbCircle
 10
-44.450001
 20
-156.11226
 30
0.0
 40
21.1
100
AcDbArc
 50
66.86007
 51
127.3620799999999
  0
ARC
  5
2B2
330
1F
100
AcDbEntity
  8
0
  6
CONTINUOUS
 62
     7
100
AcDbCircle
 10
-44.450001
 20
-156.11226
 30
0.0
 40
18.200001
100
AcDbArc
 50
260.7394499999999
 51
99.26054599999996
  0
ARC
  5
2B3
330
1F
100
AcDbEntity
  8
0
  6
CONTINUOUS
 62
     7
100
AcDbCircle
 10
-0.0000000000000284
 20
-156.11226
 30
0.0
 40
21.1
100
AcDbArc
 50
246.8600499999998
 51
317.2296499999998
  0
ARC
  5
2B4
330
1F
100
AcDbEntity
  8
0
  6
CONTINUOUS
 62
     7
100
AcDbCircle
 10
44.450001
 20
-156.11226
 30
0.0
 40
21.1
100
AcDbArc
 50
222.77035
 51
293.1399299999998
  0
ARC
  5
2B5
330
1F
100
AcDbEntity
  8
0
  6
CONTINUOUS
 62
     7
100
AcDbCircle
 10
66.675003
 20
-208.11755
 30
0.0
 40
35.455288
100
AcDbArc
 50
66.860054
 51
113.1399499999997
  0
ARC
  5
2B6
102
{ACAD_REACTORS
330
667
102
}
330
1F
100
AcDbEntity
  8
0
  6
CONTINUOUS
 62
     7
100
AcDbCircle
 10
88.90000200000001
 20
-156.11226
 30
0.0
 40
21.1
100
AcDbArc
 50
246.8600499999998
 51
113.1399499999997
  0
ARC
  5
2B7
330
1F
100
AcDbEntity
  8
0
  6
CONTINUOUS
 62
     7
100
AcDbCircle
 10
-0.0000000000000284
 20
-156.11226
 30
0.0
 40
21.1
100
AcDbArc
 50
42.77035
 51
113.1399499999997
  0
ARC
  5
2B8
330
1F
100
AcDbEntity
  8
0
  6
CONTINUOUS
 62
     7
100
AcDbCircle
 10
44.450001
 20
-156.11226
 30
0.0
 40
21.1
100
AcDbArc
 50
66.86007
 51
137.22965
  0
ARC
  5
2B9
330
1F
100
AcDbEntity
  8
0
  6
CONTINUOUS
 62
     7
100
AcDbCircle
 10
-44.450001
 20
-156.11226
 30
0.0
 40
21.1
100
AcDbArc
 50
232.63792
 51
293.1399299999998
  0
ARC
  5
2BA
330
1F
100
AcDbEntity
  8
0
  6
CONTINUOUS
 62
     7
100
AcDbCircle
 10
-0.0000000000000284
 20
-156.11226
 30
0.0
 40
18.200001
100
AcDbArc
 50
67.35534499999999
 51
292.64465
  0
CIRCLE
  5
2BB
330
1F
100
AcDbEntity
  8
0
  6
CONTINUOUS
 62
     7
100
AcDbCircle
 10
0.0
 20
-156.11226
 30
0.0
 40
6.355
  0
ARC
  5
2BC
330
1F
100
AcDbEntity
  8
0
  6
CONTINUOUS
 62
     7
100
AcDbCircle
 10
22.225
 20
-102.83719
 30
0.0
 40
39.52507
100
AcDbArc
 50
247.3553499999999
 51
292.64465
  0
CIRCLE
  5
2BD
330
1F
100
AcDbEntity
  8
0
  6
CONTINUOUS
 62
     7
100
AcDbCircle
 10
44.450001
 20
-156.11226
 30
0.0
 40
6.355
  0
ARC
  5
2BE
330
1F
100
AcDbEntity
  8
0
  6
CONTINUOUS
 62
     7
100
AcDbCircle
 10
44.450001
 20
-156.11226
 30
0.0
 40
18.200001
100
AcDbArc
 50
247.3553399999999
 51
112.6446599999999
  0
ARC
  5
2BF
330
1F
100
AcDbEntity
  8
0
  6
CONTINUOUS
 62
     7
100
AcDbCircle
 10
-22.225
 20
-208.11755
 30
0.0
 40
35.455288
100
AcDbArc
 50
66.860058
 51
113.1399499999997
  0
CIRCLE
  5
2C0
330
1F
100
AcDbEntity
  8
0
  6
CONTINUOUS
 62
     7
100
AcDbCircle
 10
88.90000200000001
 20
-156.11226
 30
0.0
 40
6.355
  0
CIRCLE
  5
2C1
330
1F
100
AcDbEntity
  8
0
  6
CONTINUOUS
 62
     7
100
AcDbCircle
 10
88.90000200000001
 20
-156.11226
 30
0.0
 40
8.9499998
  0
ARC
  5
2C2
330
1F
100
AcDbEntity
  8
0
  6
CONTINUOUS
 62
     7
100
AcDbCircle
 10
-66.675003
 20
-19.803755
 30
0.0
 40
119.90851
100
AcDbArc
 50
260.73946
 51
279.26055
  0
ARC
  5
2C3
330
1F
100
AcDbEntity
  8
0
  6
CONTINUOUS
 62
     7
100
AcDbCircle
 10
22.225
 20
-209.3873299999998
 30
0.0
 40
39.52507
100
AcDbArc
 50
67.355354
 51
112.6446499999999
  0
ARC
  5
2C4
102
{ACAD_REACTORS
330
61F
102
}
330
1F
100
AcDbEntity
  8
0
  6
CONTINUOUS
 62
     7
100
AcDbCircle
 10
-88.90000200000001
 20
-156.11226
 30
0.0
 40
18.200001
100
AcDbArc
 50
80.73946600000004
 51
279.2605299999999
  0
LINE
  5
2C5
330
1F
100
AcDbEntity
  8
0
  6
CONTINUOUS
 62
     7
100
AcDbLine
 10
23.32499899999999
 20
-76.157143
 30
0.0
 11
23.32499899999999
 21
-69.75714100000001
 31
0.0
  0
LINE
  5
2C6
330
1F
100
AcDbEntity
  8
0
  6
CONTINUOUS
 62
     7
100
AcDbLine
 10
23.32499899999999
 20
-44.35714299999999
 30
0.0
 11
23.32499899999999
 21
-37.95714199999999
 31
0.0
  0
LINE
  5
2C7
330
1F
100
AcDbEntity
  8
0
  6
CONTINUOUS
 62
     7
100
AcDbLine
 10
23.32499899999999
 20
-44.35714299999999
 30
0.0
 11
110.025
 21
-44.35714299999999
 31
0.0
  0
LINE
  5
2C8
330
1F
100
AcDbEntity
  8
0
  6
CONTINUOUS
 62
     7
100
AcDbLine
 10
110.025
 20
-76.157143
 30
0.0
 11
110.025
 21
-69.75714100000001
 31
0.0
  0
LINE
  5
2C9
330
1F
100
AcDbEntity
  8
0
  6
CONTINUOUS
 62
     7
100
AcDbLine
 10
23.32499899999999
 20
-69.75714100000001
 30
0.0
 11
110.025
 21
-69.75714100000001
 31
0.0
  0
LINE
  5
2CA
330
1F
100
AcDbEntity
  8
0
  6
CONTINUOUS
 62
     7
100
AcDbLine
 10
23.32499899999999
 20
-37.95714199999999
 30
0.0
 11
110.025
 21
-37.95714199999999
 31
0.0
  0
LINE
  5
2CB
330
1F
100
AcDbEntity
  8
0
  6
CONTINUOUS
 62
     7
100
AcDbLine
 10
23.32499899999999
 20
-76.157143
 30
0.0
 11
110.025
 21
-76.157143
 31
0.0
  0
LINE
  5
2CC
330
1F
100
AcDbEntity
  8
0
  6
CONTINUOUS
 62
     7
100
AcDbLine
 10
76.199997
 20
-68.35714
 30
0.0
 11
76.199997
 21
-45.75714099999999
 31
0.0
  0
LINE
  5
2CD
330
1F
100
AcDbEntity
  8
0
  6
CONTINUOUS
 62
     7
100
AcDbLine
 10
101.6
 20
-68.35714
 30
0.0
 11
101.6
 21
-45.75714099999999
 31
0.0
  0
LINE
  5
2CE
330
1F
100
AcDbEntity
  8
0
  6
CONTINUOUS
 62
     7
100
AcDbLine
 10
57.149998
 20
-68.35714
 30
0.0
 11
57.149998
 21
-45.75714099999999
 31
0.0
  0
LINE
  5
2CF
330
1F
100
AcDbEntity
  8
0
  6
CONTINUOUS
 62
     7
100
AcDbLine
 10
31.749998
 20
-68.35714
 30
0.0
 11
31.749998
 21
-45.75714099999999
 31
0.0
  0
LINE
  5
2D0
330
1F
100
AcDbEntity
  8
0
  6
CONTINUOUS
 62
     7
100
AcDbLine
 10
-12.700002
 20
-68.35714
 30
0.0
 11
-12.700002
 21
-45.75714099999999
 31
0.0
  0
LINE
  5
2D1
330
1F
100
AcDbEntity
  8
0
  6
CONTINUOUS
 62
     7
100
AcDbLine
 10
12.699999
 20
-68.35714
 30
0.0
 11
12.699999
 21
-45.75714099999999
 31
0.0
  0
LINE
  5
2D2
330
1F
100
AcDbEntity
  8
0
  6
CONTINUOUS
 62
     7
100
AcDbLine
 10
-57.150002
 20
-68.35714
 30
0.0
 11
-57.150002
 21
-45.75714099999999
 31
0.0
  0
LINE
  5
2D3
330
1F
100
AcDbEntity
  8
0
  6
CONTINUOUS
 62
     7
100
AcDbLine
 10
-18.175001
 20
-37.357143
 30
0.0
 11
62.625
 21
-37.357143
 31
0.0
  0
LINE
  5
2D4
330
1F
100
AcDbEntity
  8
0
  6
CONTINUOUS
 62
     7
100
AcDbLine
 10
-18.175001
 20
-76.757141
 30
0.0
 11
62.625
 21
-76.757141
 31
0.0
  0
LINE
  5
2D5
330
1F
100
AcDbEntity
  8
0
  6
CONTINUOUS
 62
     7
100
AcDbLine
 10
-31.75000199999999
 20
-68.35714
 30
0.0
 11
-31.75000199999999
 21
-45.75714099999999
 31
0.0
  0
LINE
  5
2D6
330
1F
100
AcDbEntity
  8
0
  6
CONTINUOUS
 62
     7
100
AcDbLine
 10
-18.175001
 20
-83.15714300000001
 30
0.0
 11
-18.175001
 21
-76.757141
 31
0.0
  0
LINE
  5
2D7
330
1F
100
AcDbEntity
  8
0
  6
CONTINUOUS
 62
     7
100
AcDbLine
 10
-26.275002
 20
-83.15714300000001
 30
0.0
 11
-26.275002
 21
-76.757141
 31
0.0
  0
LINE
  5
2D8
330
1F
100
AcDbEntity
  8
0
  6
CONTINUOUS
 62
     7
100
AcDbLine
 10
-107.075
 20
-37.357143
 30
0.0
 11
-107.075
 21
-30.95714199999999
 31
0.0
  0
LINE
  5
2D9
330
1F
100
AcDbEntity
  8
0
  6
CONTINUOUS
 62
     7
100
AcDbLine
 10
-95.25500499999999
 20
-37.357143
 30
0.0
 11
-95.25500499999999
 21
-76.757141
 31
0.0
  0
LINE
  5
2DA
330
1F
100
AcDbEntity
  8
0
  6
CONTINUOUS
 62
     7
100
AcDbLine
 10
-82.54499799999996
 20
-37.357143
 30
0.0
 11
-82.54499799999996
 21
-76.757141
 31
0.0
  0
LINE
  5
2DB
330
1F
100
AcDbEntity
  8
0
  6
CONTINUOUS
 62
     7
100
AcDbLine
 10
-65.575005
 20
-44.35714299999999
 30
0.0
 11
21.124998
 21
-44.35714299999999
 31
0.0
  0
LINE
  5
2DC
330
1F
100
AcDbEntity
  8
0
  6
CONTINUOUS
 62
     7
100
AcDbLine
 10
-65.575005
 20
-37.95714199999999
 30
0.0
 11
21.124998
 21
-37.95714199999999
 31
0.0
  0
LINE
  5
2DD
330
1F
100
AcDbEntity
  8
0
  6
CONTINUOUS
 62
     7
100
AcDbLine
 10
-65.575005
 20
-76.157143
 30
0.0
 11
21.124998
 21
-76.157143
 31
0.0
  0
LINE
  5
2DE
330
1F
100
AcDbEntity
  8
0
  6
CONTINUOUS
 62
     7
100
AcDbLine
 10
-65.575005
 20
-76.157143
 30
0.0
 11
-65.575005
 21
-69.75714100000001
 31
0.0
  0
LINE
  5
2DF
330
1F
100
AcDbEntity
  8
0
  6
CONTINUOUS
 62
     7
100
AcDbLine
 10
-65.575005
 20
-44.35714299999999
 30
0.0
 11
-65.575005
 21
-37.95714199999999
 31
0.0
  0
LINE
  5
2E0
330
1F
100
AcDbEntity
  8
0
  6
CONTINUOUS
 62
     7
100
AcDbLine
 10
62.625
 20
-37.357143
 30
0.0
 11
62.625
 21
-30.95714199999999
 31
0.0
  0
LINE
  5
2E1
330
1F
100
AcDbEntity
  8
0
  6
CONTINUOUS
 62
     7
100
AcDbLine
 10
-18.175001
 20
-83.15714300000001
 30
0.0
 11
62.625
 21
-83.15714300000001
 31
0.0
  0
LINE
  5
2E2
330
1F
100
AcDbEntity
  8
0
  6
CONTINUOUS
 62
     7
100
AcDbLine
 10
-18.175001
 20
-37.357143
 30
0.0
 11
-18.175001
 21
-30.95714199999999
 31
0.0
  0
LINE
  5
2E3
330
1F
100
AcDbEntity
  8
0
  6
CONTINUOUS
 62
     7
100
AcDbLine
 10
-65.575005
 20
-69.75714100000001
 30
0.0
 11
21.124998
 21
-69.75714100000001
 31
0.0
  0
LINE
  5
2E4
330
1F
100
AcDbEntity
  8
0
  6
CONTINUOUS
 62
     7
100
AcDbLine
 10
-107.075
 20
-37.357143
 30
0.0
 11
-26.275002
 21
-37.357143
 31
0.0
  0
LINE
  5
2E5
330
1F
100
AcDbEntity
  8
0
  6
CONTINUOUS
 62
     7
100
AcDbLine
 10
-107.075
 20
-83.15714300000001
 30
0.0
 11
-26.275002
 21
-83.15714300000001
 31
0.0
  0
LINE
  5
2E6
330
1F
100
AcDbEntity
  8
0
  6
CONTINUOUS
 62
     7
100
AcDbLine
 10
-107.075
 20
-76.757141
 30
0.0
 11
-26.275002
 21
-76.757141
 31
0.0
  0
LINE
  5
2E7
330
1F
100
AcDbEntity
  8
0
  6
CONTINUOUS
 62
     7
100
AcDbLine
 10
21.124998
 20
-76.157143
 30
0.0
 11
21.124998
 21
-69.75714100000001
 31
0.0
  0
LINE
  5
2E8
330
1F
100
AcDbEntity
  8
0
  6
CONTINUOUS
 62
     7
100
AcDbLine
 10
-107.075
 20
-83.15714300000001
 30
0.0
 11
-107.075
 21
-76.757141
 31
0.0
  0
LINE
  5
2E9
330
1F
100
AcDbEntity
  8
0
  6
CONTINUOUS
 62
     7
100
AcDbLine
 10
62.625
 20
-83.15714300000001
 30
0.0
 11
62.625
 21
-76.757141
 31
0.0
  0
LINE
  5
2EA
330
1F
100
AcDbEntity
  8
0
  6
CONTINUOUS
 62
     7
100
AcDbLine
 10
21.124998
 20
-44.35714299999999
 30
0.0
 11
21.124998
 21
-37.95714199999999
 31
0.0
  0
LINE
  5
2EB
330
1F
100
AcDbEntity
  8
0
  6
CONTINUOUS
 62
     7
100
AcDbLine
 10
-26.275002
 20
-37.357143
 30
0.0
 11
-26.275002
 21
-30.95714199999999
 31
0.0
  0
LINE
  5
2EC
330
1F
100
AcDbEntity
  8
0
  6
CONTINUOUS
 62
     7
100
AcDbLine
 10
110.025
 20
-44.35714299999999
 30
0.0
 11
110.025
 21
-37.95714199999999
 31
0.0
  0
LINE
  5
2ED
102
{ACAD_REACTORS
330
5D7
102
}
330
1F
100
AcDbEntity
  8
0
  6
CENTER
 62
     6
100
AcDbLine
 10
-113.1
 20
-57.05714399999997
 30
0.0
 11
113.0484299999998
 21
-57.05714399999997
 31
0.0
  0
LINE
  5
2EE
330
1F
100
AcDbEntity
  8
0
  6
CONTINUOUS
 62
     7
100
AcDbLine
 10
23.32499899999999
 20
-23.957142
 30
0.0
 11
23.32499899999999
 21
-17.55714199999999
 31
0.0
  0
LINE
  5
2EF
330
1F
100
AcDbEntity
  8
0
  6
CONTINUOUS
 62
     7
100
AcDbLine
 10
23.32499899999999
 20
7.842857399999998
 30
0.0
 11
23.32499899999999
 21
14.242857
 31
0.0
  0
LINE
  5
2F0
330
1F
100
AcDbEntity
  8
0
  6
CONTINUOUS
 62
     7
100
AcDbLine
 10
23.32499899999999
 20
7.842857399999998
 30
0.0
 11
110.025
 21
7.842857399999998
 31
0.0
  0
LINE
  5
2F1
330
1F
100
AcDbEntity
  8
0
  6
CONTINUOUS
 62
     7
100
AcDbLine
 10
110.025
 20
-23.957142
 30
0.0
 11
110.025
 21
-17.55714199999999
 31
0.0
  0
LINE
  5
2F2
330
1F
100
AcDbEntity
  8
0
  6
CONTINUOUS
 62
     7
100
AcDbLine
 10
23.32499899999999
 20
-17.55714199999999
 30
0.0
 11
110.025
 21
-17.55714199999999
 31
0.0
  0
LINE
  5
2F3
330
1F
100
AcDbEntity
  8
0
  6
CONTINUOUS
 62
     7
100
AcDbLine
 10
23.32499899999999
 20
14.242857
 30
0.0
 11
110.025
 21
14.242857
 31
0.0
  0
LINE
  5
2F4
330
1F
100
AcDbEntity
  8
0
  6
CONTINUOUS
 62
     7
100
AcDbLine
 10
23.32499899999999
 20
-23.957142
 30
0.0
 11
110.025
 21
-23.957142
 31
0.0
  0
LINE
  5
2F5
330
1F
100
AcDbEntity
  8
0
  6
CONTINUOUS
 62
     7
100
AcDbLine
 10
76.199997
 20
-16.15714299999999
 30
0.0
 11
76.199997
 21
6.4428573
 31
0.0
  0
LINE
  5
2F6
330
1F
100
AcDbEntity
  8
0
  6
CONTINUOUS
 62
     7
100
AcDbLine
 10
101.6
 20
-16.15714299999999
 30
0.0
 11
101.6
 21
6.4428573
 31
0.0
  0
LINE
  5
2F7
330
1F
100
AcDbEntity
  8
0
  6
CONTINUOUS
 62
     7
100
AcDbLine
 10
57.149998
 20
-16.15714299999999
 30
0.0
 11
57.149998
 21
6.4428573
 31
0.0
  0
LINE
  5
2F8
330
1F
100
AcDbEntity
  8
0
  6
CONTINUOUS
 62
     7
100
AcDbLine
 10
31.749998
 20
-16.15714299999999
 30
0.0
 11
31.749998
 21
6.4428573
 31
0.0
  0
LINE
  5
2F9
330
1F
100
AcDbEntity
  8
0
  6
CONTINUOUS
 62
     7
100
AcDbLine
 10
-12.700002
 20
-16.15714299999999
 30
0.0
 11
-12.700002
 21
6.4428573
 31
0.0
  0
LINE
  5
2FA
330
1F
100
AcDbEntity
  8
0
  6
CONTINUOUS
 62
     7
100
AcDbLine
 10
12.699999
 20
-16.15714299999999
 30
0.0
 11
12.699999
 21
6.4428573
 31
0.0
  0
LINE
  5
2FB
330
1F
100
AcDbEntity
  8
0
  6
CONTINUOUS
 62
     7
100
AcDbLine
 10
-57.150002
 20
-16.15714299999999
 30
0.0
 11
-57.150002
 21
6.4428573
 31
0.0
  0
LINE
  5
2FC
330
1F
100
AcDbEntity
  8
0
  6
CONTINUOUS
 62
     7
100
AcDbLine
 10
-18.175001
 20
14.842857
 30
0.0
 11
62.625
 21
14.842857
 31
0.0
  0
LINE
  5
2FD
330
1F
100
AcDbEntity
  8
0
  6
CONTINUOUS
 62
     7
100
AcDbLine
 10
-18.175001
 20
-24.557142
 30
0.0
 11
62.625
 21
-24.557142
 31
0.0
  0
LINE
  5
2FE
330
1F
100
AcDbEntity
  8
0
  6
CONTINUOUS
 62
     7
100
AcDbLine
 10
-31.75000199999999
 20
-16.15714299999999
 30
0.0
 11
-31.75000199999999
 21
6.4428573
 31
0.0
  0
LINE
  5
2FF
330
1F
100
AcDbEntity
  8
0
  6
CONTINUOUS
 62
     7
100
AcDbLine
 10
-18.175001
 20
-30.95714199999999
 30
0.0
 11
-18.175001
 21
-24.557142
 31
0.0
  0
LINE
  5
300
330
1F
100
AcDbEntity
  8
0
  6
CONTINUOUS
 62
     7
100
AcDbLine
 10
-26.275002
 20
-30.95714199999999
 30
0.0
 11
-26.275002
 21
-24.557142
 31
0.0
  0
LINE
  5
301
330
1F
100
AcDbEntity
  8
0
  6
CONTINUOUS
 62
     7
100
AcDbLine
 10
-107.075
 20
14.842857
 30
0.0
 11
-107.075
 21
21.242857
 31
0.0
  0
LINE
  5
302
330
1F
100
AcDbEntity
  8
0
  6
CONTINUOUS
 62
     7
100
AcDbLine
 10
-95.25500499999999
 20
14.842857
 30
0.0
 11
-95.25500499999999
 21
-24.557142
 31
0.0
  0
LINE
  5
303
330
1F
100
AcDbEntity
  8
0
  6
CONTINUOUS
 62
     7
100
AcDbLine
 10
-82.54499799999996
 20
14.842857
 30
0.0
 11
-82.54499799999996
 21
-24.557142
 31
0.0
  0
LINE
  5
304
330
1F
100
AcDbEntity
  8
0
  6
CONTINUOUS
 62
     7
100
AcDbLine
 10
-65.575005
 20
7.842857399999998
 30
0.0
 11
21.124998
 21
7.842857399999998
 31
0.0
  0
LINE
  5
305
330
1F
100
AcDbEntity
  8
0
  6
CONTINUOUS
 62
     7
100
AcDbLine
 10
-65.575005
 20
14.242857
 30
0.0
 11
21.124998
 21
14.242857
 31
0.0
  0
LINE
  5
306
330
1F
100
AcDbEntity
  8
0
  6
CONTINUOUS
 62
     7
100
AcDbLine
 10
-65.575005
 20
-23.957142
 30
0.0
 11
21.124998
 21
-23.957142
 31
0.0
  0
LINE
  5
307
330
1F
100
AcDbEntity
  8
0
  6
CONTINUOUS
 62
     7
100
AcDbLine
 10
-65.575005
 20
-23.957142
 30
0.0
 11
-65.575005
 21
-17.55714199999999
 31
0.0
  0
LINE
  5
308
330
1F
100
AcDbEntity
  8
0
  6
CONTINUOUS
 62
     7
100
AcDbLine
 10
-65.575005
 20
7.842857399999998
 30
0.0
 11
-65.575005
 21
14.242857
 31
0.0
  0
LINE
  5
309
330
1F
100
AcDbEntity
  8
0
  6
CONTINUOUS
 62
     7
100
AcDbLine
 10
62.625
 20
14.842857
 30
0.0
 11
62.625
 21
21.242857
 31
0.0
  0
LINE
  5
30A
330
1F
100
AcDbEntity
  8
0
  6
CONTINUOUS
 62
     7
100
AcDbLine
 10
-18.175001
 20
-30.95714199999999
 30
0.0
 11
62.625
 21
-30.95714199999999
 31
0.0
  0
LINE
  5
30B
330
1F
100
AcDbEntity
  8
0
  6
CONTINUOUS
 62
     7
100
AcDbLine
 10
-18.175001
 20
14.842857
 30
0.0
 11
-18.175001
 21
21.242857
 31
0.0
  0
LINE
  5
30C
330
1F
100
AcDbEntity
  8
0
  6
CONTINUOUS
 62
     7
100
AcDbLine
 10
-65.575005
 20
-17.55714199999999
 30
0.0
 11
21.124998
 21
-17.55714199999999
 31
0.0
  0
LINE
  5
30D
330
1F
100
AcDbEntity
  8
0
  6
CONTINUOUS
 62
     7
100
AcDbLine
 10
-107.075
 20
14.842857
 30
0.0
 11
-26.275002
 21
14.842857
 31
0.0
  0
LINE
  5
30E
330
1F
100
AcDbEntity
  8
0
  6
CONTINUOUS
 62
     7
100
AcDbLine
 10
-107.075
 20
-30.95714199999999
 30
0.0
 11
-26.275002
 21
-30.95714199999999
 31
0.0
  0
LINE
  5
30F
330
1F
100
AcDbEntity
  8
0
  6
CONTINUOUS
 62
     7
100
AcDbLine
 10
-107.075
 20
-24.557142
 30
0.0
 11
-26.275002
 21
-24.557142
 31
0.0
  0
LINE
  5
310
330
1F
100
AcDbEntity
  8
0
  6
CONTINUOUS
 62
     7
100
AcDbLine
 10
21.124998
 20
-23.957142
 30
0.0
 11
21.124998
 21
-17.55714199999999
 31
0.0
  0
LINE
  5
311
330
1F
100
AcDbEntity
  8
0
  6
CONTINUOUS
 62
     7
100
AcDbLine
 10
-107.075
 20
-30.95714199999999
 30
0.0
 11
-107.075
 21
-24.557142
 31
0.0
  0
LINE
  5
312
330
1F
100
AcDbEntity
  8
0
  6
CONTINUOUS
 62
     7
100
AcDbLine
 10
62.625
 20
-30.95714199999999
 30
0.0
 11
62.625
 21
-24.557142
 31
0.0
  0
LINE
  5
313
330
1F
100
AcDbEntity
  8
0
  6
CONTINUOUS
 62
     7
100
AcDbLine
 10
21.124998
 20
7.842857399999998
 30
0.0
 11
21.124998
 21
14.242857
 31
0.0
  0
LINE
  5
314
330
1F
100
AcDbEntity
  8
0
  6
CONTINUOUS
 62
     7
100
AcDbLine
 10
-26.275002
 20
14.842857
 30
0.0
 11
-26.275002
 21
21.242857
 31
0.0
  0
LINE
  5
315
330
1F
100
AcDbEntity
  8
0
  6
CONTINUOUS
 62
     7
100
AcDbLine
 10
110.025
 20
7.842857399999998
 30
0.0
 11
110.025
 21
14.242857
 31
0.0
  0
LINE
  5
316
102
{ACAD_REACTORS
330
5BF
330
5D7
330
5EF
330
607
102
}
330
1F
100
AcDbEntity
  8
0
  6
CENTER
 62
     6
100
AcDbLine
 10
-113.1
 20
-4.857142399999998
 30
0.0
 11
113.0484299999998
 21
-4.857142399999998
 31
0.0
  0
LINE
  5
317
330
1F
100
AcDbEntity
  8
0
  6
CONTINUOUS
 62
     7
100
AcDbLine
 10
48.943665
 20
-151.6185899999999
 30
0.0
 11
48.943665
 21
-160.60593
 31
0.0
  0
LINE
  5
318
330
1F
100
AcDbEntity
  8
0
  6
CONTINUOUS
 62
     7
100
AcDbLine
 10
48.943665
 20
-160.60593
 30
0.0
 11
39.95633699999999
 21
-160.60593
 31
0.0
  0
LINE
  5
319
330
1F
100
AcDbEntity
  8
0
  6
CONTINUOUS
 62
     7
100
AcDbLine
 10
39.95633699999999
 20
-151.6185899999999
 30
0.0
 11
39.95633699999999
 21
-160.60593
 31
0.0
  0
LINE
  5
31A
330
1F
100
AcDbEntity
  8
0
  6
CONTINUOUS
 62
     7
100
AcDbLine
 10
48.943665
 20
-151.6185899999999
 30
0.0
 11
39.95633699999999
 21
-151.6185899999999
 31
0.0
  0
LINE
  5
31B
330
1F
100
AcDbEntity
  8
0
  6
CONTINUOUS
 62
     7
100
AcDbLine
 10
4.4936638
 20
-151.6185899999999
 30
0.0
 11
4.4936638
 21
-160.60593
 31
0.0
  0
LINE
  5
31C
330
1F
100
AcDbEntity
  8
0
  6
CONTINUOUS
 62
     7
100
AcDbLine
 10
4.4936638
 20
-160.60593
 30
0.0
 11
-4.4936638
 21
-160.60593
 31
0.0
  0
LINE
  5
31D
330
1F
100
AcDbEntity
  8
0
  6
CONTINUOUS
 62
     7
100
AcDbLine
 10
-4.4936638
 20
-151.6185899999999
 30
0.0
 11
-4.4936638
 21
-160.60593
 31
0.0
  0
LINE
  5
31E
330
1F
100
AcDbEntity
  8
0
  6
CONTINUOUS
 62
     7
100
AcDbLine
 10
4.4936638
 20
-151.6185899999999
 30
0.0
 11
-4.4936638
 21
-151.6185899999999
 31
0.0
  0
LINE
  5
31F
330
1F
100
AcDbEntity
  8
0
  6
CONTINUOUS
 62
     7
100
AcDbLine
 10
6.3549986
 20
-84.090477
 30
0.0
 11
6.3549986
 21
-83.15714300000001
 31
0.0
  0
LINE
  5
320
330
1F
100
AcDbEntity
  8
0
  6
CONTINUOUS
 62
     7
100
AcDbLine
 10
-6.355001399999999
 20
-84.090477
 30
0.0
 11
-6.355001399999999
 21
-83.15714300000001
 31
0.0
  0
LINE
  5
321
330
1F
100
AcDbEntity
  8
0
  6
CONTINUOUS
 62
     7
100
AcDbLine
 10
38.095001
 20
-84.090477
 30
0.0
 11
39.96166599999998
 21
-85.957138
 31
0.0
  0
LINE
  5
322
330
1F
100
AcDbEntity
  8
0
  6
CONTINUOUS
 62
     7
100
AcDbLine
 10
39.96166599999998
 20
-85.95714599999999
 30
0.0
 11
48.938332
 21
-85.95714599999999
 31
0.0
  0
LINE
  5
323
330
1F
100
AcDbEntity
  8
0
  6
CONTINUOUS
 62
     7
100
AcDbLine
 10
48.938332
 20
-85.95714599999999
 30
0.0
 11
50.805
 21
-84.090477
 31
0.0
  0
LINE
  5
324
330
1F
100
AcDbEntity
  8
0
  6
CONTINUOUS
 62
     7
100
AcDbLine
 10
38.09499699999999
 20
-84.090477
 30
0.0
 11
38.09499699999999
 21
-83.15714300000001
 31
0.0
  0
LINE
  5
325
330
1F
100
AcDbEntity
  8
0
  6
CONTINUOUS
 62
     7
100
AcDbLine
 10
50.805
 20
-84.090477
 30
0.0
 11
50.805
 21
-83.15714300000001
 31
0.0
  0
LINE
  5
326
330
1F
100
AcDbEntity
  8
0
  6
CONTINUOUS
 62
     7
100
AcDbLine
 10
4.488333199999998
 20
-85.95714599999999
 30
0.0
 11
6.354997599999999
 21
-84.090477
 31
0.0
  0
LINE
  5
327
330
1F
100
AcDbEntity
  8
0
  6
CONTINUOUS
 62
     7
100
AcDbLine
 10
-4.4883347
 20
-85.95714599999999
 30
0.0
 11
4.4883318
 21
-85.95714599999999
 31
0.0
  0
LINE
  5
328
330
1F
100
AcDbEntity
  8
0
  6
CONTINUOUS
 62
     7
100
AcDbLine
 10
-6.3550005
 20
-84.090477
 30
0.0
 11
-4.488333199999998
 21
-85.95714599999999
 31
0.0
  0
LINE
  5
329
330
1F
100
AcDbEntity
  8
0
  6
CONTINUOUS
 62
     7
100
AcDbLine
 10
50.805
 20
74.42619300000001
 30
0.0
 11
50.805
 21
73.442856
 31
0.0
  0
LINE
  5
32A
330
1F
100
AcDbEntity
  8
0
  6
CONTINUOUS
 62
     7
100
AcDbLine
 10
38.09499699999999
 20
74.42619300000001
 30
0.0
 11
38.09499699999999
 21
73.442856
 31
0.0
  0
LINE
  5
32B
330
1F
100
AcDbEntity
  8
0
  6
CONTINUOUS
 62
     7
100
AcDbLine
 10
48.93833499999999
 20
76.292862
 30
0.0
 11
50.805
 21
74.42619300000001
 31
0.0
  0
LINE
  5
32C
330
1F
100
AcDbEntity
  8
0
  6
CONTINUOUS
 62
     7
100
AcDbLine
 10
39.96166599999998
 20
76.292854
 30
0.0
 11
48.938332
 21
76.292854
 31
0.0
  0
LINE
  5
32D
330
1F
100
AcDbEntity
  8
0
  6
CONTINUOUS
 62
     7
100
AcDbLine
 10
38.095001
 20
74.42619300000001
 30
0.0
 11
39.96166599999998
 21
76.292854
 31
0.0
  0
LINE
  5
32E
330
1F
100
AcDbEntity
  8
0
  6
CONTINUOUS
 62
     7
100
AcDbLine
 10
-6.355001399999999
 20
74.42619300000001
 30
0.0
 11
-6.355001399999999
 21
73.442856
 31
0.0
  0
LINE
  5
32F
330
1F
100
AcDbEntity
  8
0
  6
CONTINUOUS
 62
     7
100
AcDbLine
 10
6.3549986
 20
74.42619300000001
 30
0.0
 11
6.3549986
 21
73.442856
 31
0.0
  0
LINE
  5
330
330
1F
100
AcDbEntity
  8
0
  6
CONTINUOUS
 62
     7
100
AcDbLine
 10
-4.4883347
 20
76.292854
 30
0.0
 11
4.4883318
 21
76.292854
 31
0.0
  0
LINE
  5
331
330
1F
100
AcDbEntity
  8
0
  6
CONTINUOUS
 62
     7
100
AcDbLine
 10
-6.355002899999998
 20
74.42619300000001
 30
0.0
 11
-4.488336099999997
 21
76.292854
 31
0.0
  0
LINE
  5
332
330
1F
100
AcDbEntity
  8
0
  6
CONTINUOUS
 62
     7
100
AcDbLine
 10
4.488330399999998
 20
76.292854
 30
0.0
 11
6.354997599999999
 21
74.42619300000001
 31
0.0
  0
LINE
  5
333
330
1F
100
AcDbEntity
  8
0
  6
CONTINUOUS
 62
     7
100
AcDbLine
 10
-48.93833499999999
 20
76.292854
 30
0.0
 11
-39.96166999999999
 21
76.292854
 31
0.0
  0
LINE
  5
334
330
1F
100
AcDbEntity
  8
0
  6
CONTINUOUS
 62
     7
100
AcDbLine
 10
-38.095001
 20
74.42619300000001
 30
0.0
 11
-38.095001
 21
73.442856
 31
0.0
  0
LINE
  5
335
330
1F
100
AcDbEntity
  8
0
  6
CONTINUOUS
 62
     7
100
AcDbLine
 10
-50.805
 20
74.42619300000001
 30
0.0
 11
-50.805
 21
73.442856
 31
0.0
  0
LINE
  5
336
330
1F
100
AcDbEntity
  8
0
  6
CONTINUOUS
 62
     7
100
AcDbLine
 10
-39.96166599999998
 20
76.292854
 30
0.0
 11
-38.095001
 21
74.42619300000001
 31
0.0
  0
LINE
  5
337
330
1F
100
AcDbEntity
  8
0
  6
CONTINUOUS
 62
     7
100
AcDbLine
 10
-50.805
 20
74.42619300000001
 30
0.0
 11
-48.93833499999999
 21
76.292854
 31
0.0
  0
LINE
  5
338
330
1F
100
AcDbEntity
  8
0
  6
CONTINUOUS
 62
     7
100
AcDbLine
 10
-95.25499700000001
 20
74.426186
 30
0.0
 11
-93.38833599999999
 21
76.292854
 31
0.0
  0
LINE
  5
339
330
1F
100
AcDbEntity
  8
0
  6
CONTINUOUS
 62
     7
100
AcDbLine
 10
-84.41166700000001
 20
76.292862
 30
0.0
 11
-82.54499799999996
 21
74.426186
 31
0.0
  0
LINE
  5
33A
330
1F
100
AcDbEntity
  8
0
  6
CONTINUOUS
 62
     7
100
AcDbLine
 10
-50.805
 20
-90.10714
 30
0.0
 11
-38.095001
 21
-90.10714
 31
0.0
  0
LINE
  5
33B
330
1F
100
AcDbEntity
  8
0
  6
CONTINUOUS
 62
     7
100
AcDbLine
 10
-95.25500499999999
 20
-90.10714
 30
0.0
 11
-82.54499799999996
 21
-90.10714
 31
0.0
  0
LINE
  5
33C
330
1F
100
AcDbEntity
  8
0
  6
CONTINUOUS
 62
     7
100
AcDbLine
 10
-93.38833599999999
 20
76.292854
 30
0.0
 11
-84.41166700000001
 21
76.292854
 31
0.0
  0
LINE
  5
33D
330
1F
100
AcDbEntity
  8
0
  6
CONTINUOUS
 62
     7
100
AcDbLine
 10
23.32499899999999
 20
28.242857
 30
0.0
 11
110.025
 21
28.242857
 31
0.0
  0
LINE
  5
33E
102
{ACAD_REACTORS
330
4AB
102
}
330
1F
100
AcDbEntity
  8
0
  6
CONTINUOUS
 62
     7
100
AcDbLine
 10
23.32499899999999
 20
34.642857
 30
0.0
 11
110.025
 21
34.642857
 31
0.0
  0
LINE
  5
33F
330
1F
100
AcDbEntity
  8
0
  6
CONTINUOUS
 62
     7
100
AcDbLine
 10
110.025
 20
28.242857
 30
0.0
 11
110.025
 21
34.642857
 31
0.0
  0
LINE
  5
340
102
{ACAD_REACTORS
330
4AB
330
4FA
102
}
330
1F
100
AcDbEntity
  8
0
  6
CONTINUOUS
 62
     7
100
AcDbLine
 10
23.32499899999999
 20
60.04285799999999
 30
0.0
 11
110.025
 21
60.04285799999999
 31
0.0
  0
LINE
  5
341
330
1F
100
AcDbEntity
  8
0
  6
CONTINUOUS
 62
     7
100
AcDbLine
 10
23.32499899999999
 20
60.04285799999999
 30
0.0
 11
23.32499899999999
 21
66.442856
 31
0.0
  0
LINE
  5
342
102
{ACAD_REACTORS
330
4FA
102
}
330
1F
100
AcDbEntity
  8
0
  6
CONTINUOUS
 62
     7
100
AcDbLine
 10
23.32499899999999
 20
66.442856
 30
0.0
 11
110.025
 21
66.442856
 31
0.0
  0
LINE
  5
343
330
1F
100
AcDbEntity
  8
0
  6
CONTINUOUS
 62
     7
100
AcDbLine
 10
23.32499899999999
 20
28.242857
 30
0.0
 11
23.32499899999999
 21
34.642857
 31
0.0
  0
LINE
  5
344
330
1F
100
AcDbEntity
  8
0
  6
CONTINUOUS
 62
     7
100
AcDbLine
 10
110.025
 20
60.04285799999999
 30
0.0
 11
110.025
 21
66.442856
 31
0.0
  0
LINE
  5
345
330
1F
100
AcDbEntity
  8
0
  6
CONTINUOUS
 62
     7
100
AcDbLine
 10
-65.575005
 20
28.242857
 30
0.0
 11
-65.575005
 21
34.642857
 31
0.0
  0
LINE
  5
346
330
1F
100
AcDbEntity
  8
0
  6
CONTINUOUS
 62
     7
100
AcDbLine
 10
21.124998
 20
28.242857
 30
0.0
 11
21.124998
 21
34.642857
 31
0.0
  0
LINE
  5
347
330
1F
100
AcDbEntity
  8
0
  6
CONTINUOUS
 62
     7
100
AcDbLine
 10
-65.575005
 20
60.04285799999999
 30
0.0
 11
-65.575005
 21
66.442856
 31
0.0
  0
LINE
  5
348
330
1F
100
AcDbEntity
  8
0
  6
CONTINUOUS
 62
     7
100
AcDbLine
 10
21.124998
 20
60.04285799999999
 30
0.0
 11
21.124998
 21
66.442856
 31
0.0
  0
LINE
  5
349
330
1F
100
AcDbEntity
  8
0
  6
CONTINUOUS
 62
     7
100
AcDbLine
 10
62.625
 20
21.242857
 30
0.0
 11
62.625
 21
27.642857
 31
0.0
  0
LINE
  5
34A
330
1F
100
AcDbEntity
  8
0
  6
CONTINUOUS
 62
     7
100
AcDbLine
 10
-18.175001
 20
21.242857
 30
0.0
 11
-18.175001
 21
27.642857
 31
0.0
  0
LINE
  5
34B
330
1F
100
AcDbEntity
  8
0
  6
CONTINUOUS
 62
     7
100
AcDbLine
 10
62.625
 20
67.042854
 30
0.0
 11
62.625
 21
73.442856
 31
0.0
  0
LINE
  5
34C
330
1F
100
AcDbEntity
  8
0
  6
CONTINUOUS
 62
     7
100
AcDbLine
 10
-18.175001
 20
73.442856
 30
0.0
 11
62.625
 21
73.442856
 31
0.0
  0
LINE
  5
34D
330
1F
100
AcDbEntity
  8
0
  6
CONTINUOUS
 62
     7
100
AcDbLine
 10
-18.175001
 20
67.042854
 30
0.0
 11
62.625
 21
67.042854
 31
0.0
  0
LINE
  5
34E
330
1F
100
AcDbEntity
  8
0
  6
CONTINUOUS
 62
     7
100
AcDbLine
 10
-18.175001
 20
21.242857
 30
0.0
 11
62.625
 21
21.242857
 31
0.0
  0
LINE
  5
34F
330
1F
100
AcDbEntity
  8
0
  6
CONTINUOUS
 62
     7
100
AcDbLine
 10
-18.175001
 20
27.642857
 30
0.0
 11
62.625
 21
27.642857
 31
0.0
  0
LINE
  5
350
330
1F
100
AcDbEntity
  8
0
  6
CONTINUOUS
 62
     7
100
AcDbLine
 10
-18.175001
 20
67.042854
 30
0.0
 11
-18.175001
 21
73.442856
 31
0.0
  0
LINE
  5
351
330
1F
100
AcDbEntity
  8
0
  6
CONTINUOUS
 62
     7
100
AcDbLine
 10
-26.275002
 20
21.242857
 30
0.0
 11
-26.275002
 21
27.642857
 31
0.0
  0
LINE
  5
352
330
1F
100
AcDbEntity
  8
0
  6
CONTINUOUS
 62
     7
100
AcDbLine
 10
-107.075
 20
21.242857
 30
0.0
 11
-107.075
 21
27.642857
 31
0.0
  0
LINE
  5
353
330
1F
100
AcDbEntity
  8
0
  6
CONTINUOUS
 62
     7
100
AcDbLine
 10
-107.075
 20
67.042854
 30
0.0
 11
-107.075
 21
73.442856
 31
0.0
  0
LINE
  5
354
330
1F
100
AcDbEntity
  8
0
  6
CONTINUOUS
 62
     7
100
AcDbLine
 10
-26.275002
 20
67.042854
 30
0.0
 11
-26.275002
 21
73.442856
 31
0.0
  0
LINE
  5
355
330
1F
100
AcDbEntity
  8
0
  6
CONTINUOUS
 62
     7
100
AcDbLine
 10
-57.490864
 20
-87.152428
 30
0.0
 11
-59.488506
 21
-85.154785
 31
0.0
  0
LINE
  5
356
330
1F
100
AcDbEntity
  8
0
  6
CONTINUOUS
 62
     7
100
AcDbLine
 10
-33.906197
 20
-87.152428
 30
0.0
 11
-38.095001
 21
-87.152428
 31
0.0
  0
LINE
  5
357
330
1F
100
AcDbEntity
  8
0
  6
CONTINUOUS
 62
     7
100
AcDbLine
 10
-59.488506
 20
-85.154785
 30
0.0
 11
-57.49086
 21
-83.15714300000001
 31
0.0
  0
LINE
  5
358
330
1F
100
AcDbEntity
  8
0
  6
CONTINUOUS
 62
     7
100
AcDbLine
 10
-50.805
 20
-87.152428
 30
0.0
 11
-57.49086
 21
-87.152428
 31
0.0
  0
LINE
  5
359
330
1F
100
AcDbEntity
  8
0
  6
CONTINUOUS
 62
     7
100
AcDbLine
 10
-75.859138
 20
-87.152428
 30
0.0
 11
-73.861496
 21
-85.154785
 31
0.0
  0
LINE
  5
35A
330
1F
100
AcDbEntity
  8
0
  6
CONTINUOUS
 62
     7
100
AcDbLine
 10
-99.44380999999999
 20
-87.152428
 30
0.0
 11
-95.25500499999999
 21
-87.152428
 31
0.0
  0
LINE
  5
35B
330
1F
100
AcDbEntity
  8
0
  6
CONTINUOUS
 62
     7
100
AcDbLine
 10
-73.861496
 20
-85.154785
 30
0.0
 11
-75.859138
 21
-83.15714300000001
 31
0.0
  0
LINE
  5
35C
330
1F
100
AcDbEntity
  8
0
  6
CONTINUOUS
 62
     7
100
AcDbLine
 10
-82.54499799999996
 20
-87.152428
 30
0.0
 11
-75.859138
 21
-87.152428
 31
0.0
  0
LINE
  5
35D
330
1F
100
AcDbEntity
  8
0
  6
CONTINUOUS
 62
     7
100
AcDbLine
 10
-107.075
 20
27.642857
 30
0.0
 11
-26.275002
 21
27.642857
 31
0.0
  0
LINE
  5
35E
330
1F
100
AcDbEntity
  8
0
  6
CONTINUOUS
 62
     7
100
AcDbLine
 10
-107.075
 20
21.242857
 30
0.0
 11
-26.275002
 21
21.242857
 31
0.0
  0
LINE
  5
35F
102
{ACAD_REACTORS
330
5A7
102
}
330
1F
100
AcDbEntity
  8
0
  6
CONTINUOUS
 62
     7
100
AcDbLine
 10
-107.075
 20
73.442856
 30
0.0
 11
-26.275002
 21
73.442856
 31
0.0
  0
LINE
  5
360
102
{ACAD_REACTORS
330
5A7
102
}
330
1F
100
AcDbEntity
  8
0
  6
CONTINUOUS
 62
     7
100
AcDbLine
 10
-107.075
 20
67.042854
 30
0.0
 11
-26.275002
 21
67.042854
 31
0.0
  0
LINE
  5
361
330
1F
100
AcDbEntity
  8
0
  6
CONTINUOUS
 62
     7
100
AcDbLine
 10
-65.575005
 20
34.642857
 30
0.0
 11
21.124998
 21
34.642857
 31
0.0
  0
LINE
  5
362
330
1F
100
AcDbEntity
  8
0
  6
CONTINUOUS
 62
     7
100
AcDbLine
 10
-65.575005
 20
28.242857
 30
0.0
 11
21.124998
 21
28.242857
 31
0.0
  0
LINE
  5
363
330
1F
100
AcDbEntity
  8
0
  6
CONTINUOUS
 62
     7
100
AcDbLine
 10
-65.575005
 20
66.442856
 30
0.0
 11
21.124998
 21
66.442856
 31
0.0
  0
LINE
  5
364
330
1F
100
AcDbEntity
  8
0
  6
CONTINUOUS
 62
     7
100
AcDbLine
 10
-65.575005
 20
60.04285799999999
 30
0.0
 11
21.124998
 21
60.04285799999999
 31
0.0
  0
LINE
  5
365
102
{ACAD_REACTORS
330
58B
102
}
330
1F
100
AcDbEntity
  8
0
  6
CONTINUOUS
 62
     7
100
AcDbLine
 10
-82.54499799999996
 20
67.042854
 30
0.0
 11
-82.54499799999996
 21
27.642857
 31
0.0
  0
LINE
  5
366
102
{ACAD_REACTORS
330
58B
102
}
330
1F
100
AcDbEntity
  8
0
  6
CONTINUOUS
 62
     7
100
AcDbLine
 10
-95.25500499999999
 20
67.042854
 30
0.0
 11
-95.25500499999999
 21
27.642857
 31
0.0
  0
LINE
  5
367
330
1F
100
AcDbEntity
  8
0
  6
CONTINUOUS
 62
     7
100
AcDbLine
 10
-31.75000199999999
 20
36.042858
 30
0.0
 11
-31.75000199999999
 21
58.64285699999999
 31
0.0
  0
LINE
  5
368
330
1F
100
AcDbEntity
  8
0
  6
CONTINUOUS
 62
     7
100
AcDbLine
 10
-57.150002
 20
36.042858
 30
0.0
 11
-57.150002
 21
58.64285699999999
 31
0.0
  0
LINE
  5
369
330
1F
100
AcDbEntity
  8
0
  6
CONTINUOUS
 62
     7
100
AcDbLine
 10
12.699999
 20
36.042858
 30
0.0
 11
12.699999
 21
58.64285699999999
 31
0.0
  0
LINE
  5
36A
330
1F
100
AcDbEntity
  8
0
  6
CONTINUOUS
 62
     7
100
AcDbLine
 10
-12.700002
 20
36.042858
 30
0.0
 11
-12.700002
 21
58.64285699999999
 31
0.0
  0
LINE
  5
36B
330
1F
100
AcDbEntity
  8
0
  6
CONTINUOUS
 62
     7
100
AcDbLine
 10
31.749998
 20
36.042858
 30
0.0
 11
31.749998
 21
58.64285699999999
 31
0.0
  0
LINE
  5
36C
330
1F
100
AcDbEntity
  8
0
  6
CONTINUOUS
 62
     7
100
AcDbLine
 10
57.149998
 20
36.042858
 30
0.0
 11
57.149998
 21
58.64285699999999
 31
0.0
  0
LINE
  5
36D
330
1F
100
AcDbEntity
  8
0
  6
CONTINUOUS
 62
     7
100
AcDbLine
 10
101.6
 20
36.042858
 30
0.0
 11
101.6
 21
58.64285699999999
 31
0.0
  0
LINE
  5
36E
102
{ACAD_REACTORS
330
53A
102
}
330
1F
100
AcDbEntity
  8
0
  6
CONTINUOUS
 62
     7
100
AcDbLine
 10
76.199997
 20
36.042858
 30
0.0
 11
76.199997
 21
58.64285699999999
 31
0.0
  0
LINE
  5
36F
330
1F
100
AcDbEntity
  8
0
  6
CONTINUOUS
 62
     7
100
AcDbLine
 10
-82.54499799999996
 20
74.42619300000001
 30
0.0
 11
-82.54499799999996
 21
73.442856
 31
0.0
  0
LINE
  5
370
330
1F
100
AcDbEntity
  8
0
  6
CONTINUOUS
 62
     7
100
AcDbLine
 10
-95.25500499999999
 20
74.42619300000001
 30
0.0
 11
-95.25500499999999
 21
73.442856
 31
0.0
  0
LINE
  5
371
330
1F
100
AcDbEntity
  8
0
  6
CONTINUOUS
 62
     7
100
AcDbLine
 10
-82.54499799999996
 20
-90.10714
 30
0.0
 11
-82.54499799999996
 21
-83.15714300000001
 31
0.0
  0
LINE
  5
372
102
{ACAD_REACTORS
330
607
102
}
330
1F
100
AcDbEntity
  8
0
  6
CONTINUOUS
 62
     7
100
AcDbLine
 10
-95.25500499999999
 20
-90.10714
 30
0.0
 11
-95.25500499999999
 21
-83.15714300000001
 31
0.0
  0
LINE
  5
373
330
1F
100
AcDbEntity
  8
0
  6
CONTINUOUS
 62
     7
100
AcDbLine
 10
-50.805
 20
-90.10714
 30
0.0
 11
-50.805
 21
-83.15714300000001
 31
0.0
  0
LINE
  5
374
330
1F
100
AcDbEntity
  8
0
  6
CONTINUOUS
 62
     7
100
AcDbLine
 10
-38.095001
 20
-90.10714
 30
0.0
 11
-38.095001
 21
-83.15714300000001
 31
0.0
  0
LINE
  5
375
330
1F
100
AcDbEntity
  8
0
  6
CONTINUOUS
 62
     7
100
AcDbLine
 10
-50.91138499999999
 20
-158.4803599999998
 30
0.0
 11
-58.489502
 21
-162.8555899999998
 31
0.0
  0
LINE
  5
376
330
1F
100
AcDbEntity
  8
0
  6
CONTINUOUS
 62
     7
100
AcDbLine
 10
-51.268559
 20
-155.84464
 30
0.0
 11
-59.488327
 21
-151.0989399999999
 31
0.0
  0
LINE
  5
377
330
1F
100
AcDbEntity
  8
0
  6
CONTINUOUS
 62
     7
100
AcDbLine
 10
-50.911388
 20
-153.7441599999999
 30
0.0
 11
-58.489502
 21
-149.3689299999996
 31
0.0
  0
LINE
  5
378
330
1F
100
AcDbEntity
  8
0
  6
CONTINUOUS
 62
     7
100
AcDbLine
 10
-82.081444
 20
-155.8446199999997
 30
0.0
 11
-73.86167900000002
 21
-151.0989399999999
 31
0.0
  0
LINE
  5
379
330
1F
100
AcDbEntity
  8
0
  6
CONTINUOUS
 62
     7
100
AcDbLine
 10
-82.081444
 20
-156.3798999999999
 30
0.0
 11
-73.861671
 21
-161.12558
 31
0.0
  0
LINE
  5
37A
330
1F
100
AcDbEntity
  8
0
  6
CONTINUOUS
 62
     7
100
AcDbLine
 10
-73.86167900000002
 20
-151.0989399999999
 30
0.0
 11
-74.860504
 21
-149.3689299999996
 31
0.0
  0
LINE
  5
37B
330
1F
100
AcDbEntity
  8
0
  6
CONTINUOUS
 62
     7
100
AcDbLine
 10
-73.861671
 20
-161.12558
 30
0.0
 11
-74.86049699999998
 21
-162.8555899999998
 31
0.0
  0
LINE
  5
37C
330
1F
100
AcDbEntity
  8
0
  6
CONTINUOUS
 62
     7
100
AcDbLine
 10
-82.438614
 20
-158.4803599999998
 30
0.0
 11
-74.86049699999998
 21
-162.8555899999998
 31
0.0
  0
LINE
  5
37D
102
{ACAD_REACTORS
330
64F
102
}
330
1F
100
AcDbEntity
  8
0
  6
CENTER
 62
     6
100
AcDbLine
 10
-0.0000000000000284
 20
-129.0122699999997
 30
0.0
 11
-0.0000000000000284
 21
-183.2122699999999
 31
0.0
  0
LINE
  5
37E
102
{ACAD_REACTORS
330
667
102
}
330
1F
100
AcDbEntity
  8
0
  6
CENTER
 62
     6
100
AcDbLine
 10
88.90000200000001
 20
-129.0122699999997
 30
0.0
 11
88.90000200000001
 21
-183.2122699999999
 31
0.0
  0
LINE
  5
37F
330
1F
100
AcDbEntity
  8
0
  6
CENTER
 62
     6
100
AcDbLine
 10
44.450001
 20
-129.0122699999997
 30
0.0
 11
44.450001
 21
-183.2122699999999
 31
0.0
  0
LINE
  5
380
330
1F
100
AcDbEntity
  8
0
  6
CONTINUOUS
 62
     7
100
AcDbLine
 10
-51.26854699999999
 20
-156.3798999999999
 30
0.0
 11
-59.488323
 21
-161.12558
 31
0.0
  0
LINE
  5
381
330
1F
100
AcDbEntity
  8
0
  6
CONTINUOUS
 62
     7
100
AcDbLine
 10
-59.488323
 20
-161.12558
 30
0.0
 11
-58.489502
 21
-162.8555899999998
 31
0.0
  0
LINE
  5
382
330
1F
100
AcDbEntity
  8
0
  6
CONTINUOUS
 62
     7
100
AcDbLine
 10
-59.488327
 20
-151.0989399999999
 30
0.0
 11
-58.489502
 21
-149.3689299999996
 31
0.0
  0
LINE
  5
383
330
1F
100
AcDbEntity
  8
0
  6
CONTINUOUS
 62
     7
100
AcDbLine
 10
-82.43860600000003
 20
-153.7441599999999
 30
0.0
 11
-74.860504
 21
-149.3689299999996
 31
0.0
  0
LINE
  5
384
102
{ACAD_REACTORS
330
61F
330
637
102
}
330
1F
100
AcDbEntity
  8
0
  6
CENTER
 62
     6
100
AcDbLine
 10
-88.90000200000001
 20
-129.0122699999997
 30
0.0
 11
-88.90000200000001
 21
-183.2122699999999
 31
0.0
  0
LINE
  5
385
102
{ACAD_REACTORS
330
637
102
}
330
1F
100
AcDbEntity
  8
0
  6
CENTER
 62
     6
100
AcDbLine
 10
-44.450001
 20
-129.0122699999997
 30
0.0
 11
-44.450001
 21
-183.2122699999999
 31
0.0
  0
LINE
  5
386
330
1F
100
AcDbEntity
  8
0
  6
CENTER
 62
     6
100
AcDbLine
 10
-113.1
 20
-156.11226
 30
0.0
 11
116.0
 21
-156.11226
 31
0.0
  0
LINE
  5
387
330
1F
100
AcDbEntity
  8
0
  6
CENTER
 62
     6
100
AcDbLine
 10
88.90000200000001
 20
-83.15714300000001
 30
0.0
 11
88.90000200000001
 21
71.64286
 31
0.0
  0
LINE
  5
388
330
1F
100
AcDbEntity
  8
0
  6
CENTER
 62
     6
100
AcDbLine
 10
44.450001
 20
-90.457146
 30
0.0
 11
44.450001
 21
80.242859
 31
0.0
  0
LINE
  5
389
330
1F
100
AcDbEntity
  8
0
  6
CENTER
 62
     6
100
AcDbLine
 10
-88.90000200000001
 20
-94.75714100000001
 30
0.0
 11
-88.90000200000001
 21
80.242859
 31
0.0
  0
LINE
  5
38A
330
1F
100
AcDbEntity
  8
0
  6
CENTER
 62
     6
100
AcDbLine
 10
-44.450001
 20
-94.75714100000001
 30
0.0
 11
-44.450001
 21
80.242859
 31
0.0
  0
LINE
  5
38B
330
1F
100
AcDbEntity
  8
0
  6
CENTER
 62
     6
100
AcDbLine
 10
0.0
 20
-90.457146
 30
0.0
 11
0.0
 21
80.242859
 31
0.0
  0
LINE
  5
38C
102
{ACAD_REACTORS
330
5BF
102
}
330
1F
100
AcDbEntity
  8
0
  6
CENTER
 62
     6
100
AcDbLine
 10
-113.1
 20
47.342857
 30
0.0
 11
113.0484299999998
 21
47.342857
 31
0.0
  0
DIMENSION
  5
490
102
{ACAD_XDICTIONARY
360
49F
102
}
102
{ACAD_REACTORS
330
4AB
102
}
330
1F
100
AcDbEntity
  8
0
100
AcDbDimension
  2
*D0
 10
153.1860041842683
 20
60.04285799999998
 30
0.0
 11
153.1860041842683
 21
47.3428575
 31
0.0
 70
   160
  3
ISO-25
100
AcDbAlignedDimension
 13
110.025
 23
34.642857
 33
0.0
 14
110.025
 24
60.04285799999999
 34
0.0
 50
90.0
100
AcDbRotatedDimension
1001
ACAD
1000
DSTYLE
1002
{
1070
    78
1070
     0
1002
}
  0
DIMENSION
  5
4DF
102
{ACAD_XDICTIONARY
360
4EE
102
}
102
{ACAD_REACTORS
330
4FA
102
}
330
1F
100
AcDbEntity
  8
0
100
AcDbDimension
  2
*D1
 10
153.1860041842683
 20
66.442856
 30
0.0
 11
149.1860041842683
 21
82.94285600000002
 31
0.0
 70
    32
  3
ISO-25
100
AcDbAlignedDimension
 13
110.025
 23
60.04285799999999
 33
0.0
 14
110.025
 24
66.442856
 34
0.0
 50
90.0
100
AcDbRotatedDimension
  0
DIMENSION
  5
523
102
{ACAD_XDICTIONARY
360
530
102
}
102
{ACAD_REACTORS
330
53A
102
}
330
1F
100
AcDbEntity
  8
0
100
AcDbDimension
  2
*D2
 10
101.6
 20
39.80915880284735
 30
0.0
 11
125.1833333333332
 21
39.80915880284735
 31
0.0
 70
   160
  1
φ<>
  3
ISO-25
100
AcDbAlignedDimension
 13
76.199997
 23
36.042858
 33
0.0
 14
101.6
 24
36.042858
 34
0.0
100
AcDbRotatedDimension
1001
ACAD
1000
DSTYLE
1002
{
1070
    78
1070
     0
1002
}
  0
DIMENSION
  5
570
102
{ACAD_XDICTIONARY
360
57F
102
}
102
{ACAD_REACTORS
330
58B
102
}
330
1F
100
AcDbEntity
  8
0
100
AcDbDimension
  2
*D3
 10
-95.25500499999999
 20
34.46343816153865
 30
0.0
 11
-117.5883383333333
 21
38.46343816153865
 31
0.0
 70
    32
  1
φ<>
  3
ISO-25
100
AcDbAlignedDimension
 13
-82.54499799999996
 23
27.642857
 33
0.0
 14
-95.25500499999999
 24
27.642857
 34
0.0
100
AcDbRotatedDimension
  0
DIMENSION
  5
58C
102
{ACAD_XDICTIONARY
360
59B
102
}
102
{ACAD_REACTORS
330
5A7
102
}
330
1F
100
AcDbEntity
  8
0
100
AcDbDimension
  2
*D4
 10
-124.429259131581
 20
73.442856
 30
0.0
 11
-128.429259131581
 21
89.94285599999995
 31
0.0
 70
    32
  3
ISO-25
100
AcDbAlignedDimension
 13
-107.075
 23
67.042854
 33
0.0
 14
-107.075
 24
73.442856
 34
0.0
 50
90.0
100
AcDbRotatedDimension
  0
DIMENSION
  5
5A8
102
{ACAD_XDICTIONARY
360
5B5
102
}
102
{ACAD_REACTORS
330
5BF
102
}
330
1F
100
AcDbEntity
  8
0
100
AcDbDimension
  2
*D5
 10
-140.6822349962918
 20
47.342857
 30
0.0
 11
-144.6822349962918
 21
21.24285729999998
 31
0.0
 70
    32
  3
ISO-25
100
AcDbAlignedDimension
 13
-113.1
 23
-4.857142399999998
 33
0.0
 14
-113.1
 24
47.342857
 34
0.0
 50
90.0
100
AcDbRotatedDimension
  0
DIMENSION
  5
5C0
102
{ACAD_XDICTIONARY
360
5CD
102
}
102
{ACAD_REACTORS
330
5D7
102
}
330
1F
100
AcDbEntity
  8
0
100
AcDbDimension
  2
*D6
 10
-140.6822349962918
 20
-57.05714399999997
 30
0.0
 11
-144.6822349962918
 21
-30.9571432
 31
0.0
 70
    32
  3
ISO-25
100
AcDbAlignedDimension
 13
-113.1
 23
-4.857142399999998
 33
0.0
 14
-113.1
 24
-57.05714399999997
 34
0.0
 50
90.0
100
AcDbRotatedDimension
  0
DIMENSION
  5
5D8
102
{ACAD_XDICTIONARY
360
5E5
102
}
102
{ACAD_REACTORS
330
5EF
102
}
330
1F
100
AcDbEntity
  8
0
100
AcDbDimension
  2
*D7
 10
-157.9140481399973
 20
76.29285503301357
 30
0.0
 11
-161.9140481399977
 21
35.71785631650675
 31
0.0
 70
    32
  3
ISO-25
100
AcDbAlignedDimension
 13
-113.1
 23
-4.857142399999998
 33
0.0
 14
-93.38833657808526
 24
76.29285503301352
 34
0.0
 50
90.0
100
AcDbRotatedDimension
  0
DIMENSION
  5
5F0
102
{ACAD_XDICTIONARY
360
5FD
102
}
102
{ACAD_REACTORS
330
607
102
}
330
1F
100
AcDbEntity
  8
0
100
AcDbDimension
  2
*D8
 10
-157.9140481399974
 20
-90.10713999999998
 30
0.0
 11
-161.9140481399977
 21
-47.4821412
 31
0.0
 70
    32
  3
ISO-25
100
AcDbAlignedDimension
 13
-113.1
 23
-4.857142399999998
 33
0.0
 14
-95.25500499999999
 24
-90.10714
 34
0.0
 50
90.0
100
AcDbRotatedDimension
  0
DIMENSION
  5
608
102
{ACAD_XDICTIONARY
360
615
102
}
102
{ACAD_REACTORS
330
61F
102
}
330
1F
100
AcDbEntity
  8
0
100
AcDbDimension
  2
*D9
 10
-129.1116189748104
 20
-174.312261
 30
0.0
 11
-133.1116189748104
 21
-156.11226
 31
0.0
 70
    32
  3
ISO-25
100
AcDbAlignedDimension
 13
-88.90000200000001
 23
-137.912259
 33
0.0
 14
-88.90000200000001
 24
-174.312261
 34
0.0
 50
90.0
100
AcDbRotatedDimension
  0
DIMENSION
  5
620
102
{ACAD_XDICTIONARY
360
62D
102
}
102
{ACAD_REACTORS
330
637
102
}
330
1F
100
AcDbEntity
  8
0
100
AcDbDimension
  2
*D10
 10
-44.450001
 20
-203.5131164694178
 30
0.0
 11
-66.67500150000001
 21
-199.5131164694178
 31
0.0
 70
    32
  3
ISO-25
100
AcDbAlignedDimension
 13
-88.90000200000001
 23
-183.2122699999999
 33
0.0
 14
-44.450001
 24
-183.2122699999999
 34
0.0
100
AcDbRotatedDimension
  0
DIMENSION
  5
638
102
{ACAD_XDICTIONARY
360
645
102
}
102
{ACAD_REACTORS
330
64F
102
}
330
1F
100
AcDbEntity
  8
0
100
AcDbDimension
  2
*D11
 10
-0.0000000000000296
 20
-203.5131164694178
 30
0.0
 11
-22.22500050000001
 21
-199.5131164694178
 31
0.0
 70
    32
  3
ISO-25
100
AcDbAlignedDimension
 13
-44.450001
 23
-183.2122699999999
 33
0.0
 14
-0.0000000000000284
 24
-183.2122699999999
 34
0.0
100
AcDbRotatedDimension
  0
DIMENSION
  5
650
102
{ACAD_XDICTIONARY
360
65D
102
}
102
{ACAD_REACTORS
330
667
102
}
330
1F
100
AcDbEntity
  8
0
100
AcDbDimension
  2
*D12
 10
141.111227211432
 20
-177.2122599999998
 30
0.0
 11
137.1112272114322
 21
-156.11226
 31
0.0
 70
    32
  3
ISO-25
100
AcDbAlignedDimension
 13
88.90000200000001
 23
-135.0122599999999
 33
0.0
 14
88.90000200000001
 24
-177.2122599999998
 34
0.0
 50
90.0
100
AcDbRotatedDimension
  0
TEXT
  5
679
330
1F
100
AcDbEntity
  8
0
100
AcDbText
 10
112.9406264596382
 20
-213.8361730037019
 30
0.0
 40
2.799999999999998
  1
DATE2020.5.1
100
AcDbText
  0
ENDSEC
  0
SECTION
  2
OBJECTS
  0
DICTIONARY
  5
C
330
0
100
AcDbDictionary
  3
ACAD_GROUP
350
D
  3
ACAD_LAYOUT
350
1A
  3
ACAD_MLINESTYLE
350
17
  3
ACAD_PLOTSETTINGS
350
19
  3
ACAD_PLOTSTYLENAME
350
E
  3
ACDBHEADERROUNDTRIPXREC
350
6AA
  3
ACDBVARIABLEDICTIONARY
350
2C
  0
DICTIONARY
  5
69E
330
1F
100
AcDbDictionary
280
     1
  3
ACAD_LAYOUTSELFREF
360
6CC
  0
DICTIONARY
  5
69C
330
1B
100
AcDbDictionary
280
     1
  3
ACAD_LAYOUTSELFREF
360
6CB
  0
DICTIONARY
  5
49F
330
490
100
AcDbDictionary
280
     1
  3
ACAD_DIMASSOC
360
4AB
  0
DICTIONARY
  5
4EE
330
4DF
100
AcDbDictionary
280
     1
  3
ACAD_DIMASSOC
360
4FA
  0
DICTIONARY
  5
530
330
523
100
AcDbDictionary
280
     1
  3
ACAD_DIMASSOC
360
53A
  0
DICTIONARY
  5
57F
330
570
100
AcDbDictionary
280
     1
  3
ACAD_DIMASSOC
360
58B
  0
DICTIONARY
  5
59B
330
58C
100
AcDbDictionary
280
     1
  3
ACAD_DIMASSOC
360
5A7
  0
DICTIONARY
  5
5B5
330
5A8
100
AcDbDictionary
280
     1
  3
ACAD_DIMASSOC
360
5BF
  0
DICTIONARY
  5
5CD
330
5C0
100
AcDbDictionary
280
     1
  3
ACAD_DIMASSOC
360
5D7
  0
DICTIONARY
  5
5E5
330
5D8
100
AcDbDictionary
280
     1
  3
ACAD_DIMASSOC
360
5EF
  0
DICTIONARY
  5
5FD
330
5F0
100
AcDbDictionary
280
     1
  3
ACAD_DIMASSOC
360
607
  0
DICTIONARY
  5
615
330
608
100
AcDbDictionary
280
     1
  3
ACAD_DIMASSOC
360
61F
  0
DICTIONARY
  5
62D
330
620
100
AcDbDictionary
280
     1
  3
ACAD_DIMASSOC
360
637
  0
DICTIONARY
  5
645
330
638
100
AcDbDictionary
280
     1
  3
ACAD_DIMASSOC
360
64F
  0
DICTIONARY
  5
65D
330
650
100
AcDbDictionary
280
     1
  3
ACAD_DIMASSOC
360
667
  0
DICTIONARY
  5
D
102
{ACAD_REACTORS
330
C
102
}
330
C
100
AcDbDictionary
  0
DICTIONARY
  5
1A
102
{ACAD_REACTORS
330
C
102
}
330
C
100
AcDbDictionary
  0
DICTIONARY
  5
17
102
{ACAD_REACTORS
330
C
102
}
330
C
100
AcDbDictionary
  3
STANDARD
350
18
  0
DICTIONARY
  5
19
102
{ACAD_REACTORS
330
C
102
}
330
C
100
AcDbDictionary
  0
ACDBDICTIONARYWDFLT
  5
E
102
{ACAD_REACTORS
330
C
102
}
330
C
100
AcDbDictionary
281
     1
  3
Normal
350
F
100
AcDbDictionaryWithDefault
340
F
  0
DICTIONARY
  5
6AA
102
{ACAD_REACTORS
330
C
102
}
330
C
100
AcDbDictionary
  3
CEPSNTYPE
350
6B4
  3
DIMSTYLEDATA
350
6B8
  3
FINGERPRINTGUID
350
6B5
  3
HYPERLINKBASE
350
6AD
  3
INSUNITS
350
6B3
  3
LAYOUTDICT
350
6AF
  3
LWETCUNION
350
6B2
  3
PLOTSETDICT
350
6B0
  3
PLOTSTYLNAMDICT
350
6B1
  3
PSVPSCALE
350
6B7
  3
PUCSBASE
350
6BB
  3
PUCSORGBACK
350
6C1
  3
PUCSORGBOTTOM
350
6BD
  3
PUCSORGFRONT
350
6C0
  3
PUCSORGLEFT
350
6BE
  3
PUCSORGRIGHT
350
6BF
  3
PUCSORGTOP
350
6BC
  3
PUCSORTHOREF
350
6B9
  3
PUCSORTHOVIEW
350
6BA
  3
STYLESHEET
350
6AE
  3
TSTACKALIGN
350
6AB
  3
TSTACKSIZE
350
6AC
  3
UCSBASE
350
6C4
  3
UCSORGBACK
350
6CA
  3
UCSORGBOTTOM
350
6C6
  3
UCSORGFRONT
350
6C9
  3
UCSORGLEFT
350
6C7
  3
UCSORGRIGHT
350
6C8
  3
UCSORGTOP
350
6C5
  3
UCSORTHOREF
350
6C2
  3
UCSORTHOVIEW
350
6C3
  3
VERSIONGUID
350
6B6
  0
DICTIONARY
  5
2C
102
{ACAD_REACTORS
330
C
102
}
330
C
100
AcDbDictionary
  3
DIMASSOC
350
2E
  3
HIDETEXT
350
2D
  0
XRECORD
  5
6CC
102
{ACAD_REACTORS
330
69E
102
}
330
69E
100
AcDbXrecord
340
1F
  0
XRECORD
  5
6CB
102
{ACAD_REACTORS
330
69C
102
}
330
69C
100
AcDbXrecord
340
1B
  0
DIMASSOC
  5
4AB
102
{ACAD_REACTORS
330
49F
102
}
330
49F
100
AcDbDimAssoc
330
490
 90
        3
 70
     0
 71
     0
  1
AcDbOsnapPointRef
 72
     1
331
33E
 73
     2
 91
        0
 40
1.0
 10
110.025
 20
34.642857
 30
0.0
 75
     0
  1
AcDbOsnapPointRef
 72
     1
331
340
 73
     2
 91
        0
 40
1.0
 10
110.025
 20
60.04285799999999
 30
0.0
 75
     0
  0
DIMASSOC
  5
4FA
102
{ACAD_REACTORS
330
4EE
102
}
330
4EE
100
AcDbDimAssoc
330
4DF
 90
        3
 70
     0
 71
     0
  1
AcDbOsnapPointRef
 72
     1
331
340
 73
     2
 91
        0
 40
1.0
 10
110.025
 20
60.04285799999999
 30
0.0
 75
     0
  1
AcDbOsnapPointRef
 72
     1
331
342
 73
     2
 91
        0
 40
1.0
 10
110.025
 20
66.442856
 30
0.0
 75
     0
  0
DIMASSOC
  5
53A
102
{ACAD_REACTORS
330
530
102
}
330
530
100
AcDbDimAssoc
330
523
 90
        3
 70
     0
 71
     0
  1
AcDbOsnapPointRef
 72
    13
331
36E
 73
     2
 91
        0
 40
0.0
 10
76.199997
 20
36.042858
 30
0.0
 75
     0
  1
AcDbOsnapPointRef
 72
     1
331
296
 73
     2
 91
        0
 40
6.283185307179585
 10
101.6
 20
36.042858
 30
0.0
 75
     0
  0
DIMASSOC
  5
58B
102
{ACAD_REACTORS
330
57F
102
}
330
57F
100
AcDbDimAssoc
330
570
 90
        3
 70
     0
 71
     0
  1
AcDbOsnapPointRef
 72
     1
331
365
 73
     2
 91
        0
 40
1.0
 10
-82.54499799999996
 20
27.642857
 30
0.0
 75
     0
  1
AcDbOsnapPointRef
 72
     1
331
366
 73
     2
 91
        0
 40
1.0
 10
-95.25500499999999
 20
27.642857
 30
0.0
 75
     0
  0
DIMASSOC
  5
5A7
102
{ACAD_REACTORS
330
59B
102
}
330
59B
100
AcDbDimAssoc
330
58C
 90
        3
 70
     0
 71
     0
  1
AcDbOsnapPointRef
 72
    13
331
360
 73
     2
 91
        0
 40
0.0
 10
-107.075
 20
67.042854
 30
0.0
 75
     0
  1
AcDbOsnapPointRef
 72
    13
331
35F
 73
     2
 91
        0
 40
0.0
 10
-107.075
 20
73.442856
 30
0.0
 75
     0
  0
DIMASSOC
  5
5BF
102
{ACAD_REACTORS
330
5B5
102
}
330
5B5
100
AcDbDimAssoc
330
5A8
 90
        3
 70
     0
 71
     0
  1
AcDbOsnapPointRef
 72
    13
331
316
 73
     2
 91
        0
 40
0.0
 10
-113.1
 20
-4.857142399999998
 30
0.0
 75
     0
  1
AcDbOsnapPointRef
 72
    13
331
38C
 73
     2
 91
        0
 40
0.0
 10
-113.1
 20
47.342857
 30
0.0
 75
     0
  0
DIMASSOC
  5
5D7
102
{ACAD_REACTORS
330
5CD
102
}
330
5CD
100
AcDbDimAssoc
330
5C0
 90
        3
 70
     0
 71
     0
  1
AcDbOsnapPointRef
 72
    13
331
316
 73
     2
 91
        0
 40
0.0
 10
-113.1
 20
-4.857142399999998
 30
0.0
 75
     0
  1
AcDbOsnapPointRef
 72
    13
331
2ED
 73
     2
 91
        0
 40
0.0
 10
-113.1
 20
-57.05714399999997
 30
0.0
 75
     0
  0
DIMASSOC
  5
5EF
102
{ACAD_REACTORS
330
5E5
102
}
330
5E5
100
AcDbDimAssoc
330
5D8
 90
        3
 70
     0
 71
     0
  1
AcDbOsnapPointRef
 72
    13
331
316
 73
     2
 91
        0
 40
0.0
 10
-113.1
 20
-4.857142399999998
 30
0.0
 75
     0
  1
AcDbOsnapPointRef
 72
    13
331
285
 73
     2
 91
        0
 40
3.924125160888388
 10
-93.38833657808526
 20
76.29285503301352
 30
0.0
 75
     0
  0
DIMASSOC
  5
607
102
{ACAD_REACTORS
330
5FD
102
}
330
5FD
100
AcDbDimAssoc
330
5F0
 90
        3
 70
     0
 71
     0
  1
AcDbOsnapPointRef
 72
    13
331
316
 73
     2
 91
        0
 40
0.0
 10
-113.1
 20
-4.857142399999998
 30
0.0
 75
     0
  1
AcDbOsnapPointRef
 72
    13
331
372
 73
     2
 91
        0
 40
0.0
 10
-95.25500499999999
 20
-90.10714
 30
0.0
 75
     0
  0
DIMASSOC
  5
61F
102
{ACAD_REACTORS
330
615
102
}
330
615
100
AcDbDimAssoc
330
608
 90
        3
 70
     0
 71
     0
  1
AcDbOsnapPointRef
 72
     6
331
384
 73
     2
 91
        0
 40
0.1642064391143926
 10
-88.90000200000001
 20
-137.912259
 30
0.0
332
2C4
 74
     2
 92
        0
 75
     0
  1
AcDbOsnapPointRef
 72
     6
331
384
 73
     2
 91
        0
 40
0.8357931918819199
 10
-88.90000200000001
 20
-174.312261
 30
0.0
332
2C4
 74
     2
 92
        0
 75
     0
  0
DIMASSOC
  5
637
102
{ACAD_REACTORS
330
62D
102
}
330
62D
100
AcDbDimAssoc
330
620
 90
        3
 70
     0
 71
     0
  1
AcDbOsnapPointRef
 72
     1
331
384
 73
     2
 91
        0
 40
1.0
 10
-88.90000200000001
 20
-183.2122699999999
 30
0.0
 75
     0
  1
AcDbOsnapPointRef
 72
     1
331
385
 73
     2
 91
        0
 40
1.0
 10
-44.450001
 20
-183.2122699999999
 30
0.0
 75
     0
  0
DIMASSOC
  5
64F
102
{ACAD_REACTORS
330
645
102
}
330
645
100
AcDbDimAssoc
330
638
 90
        2
 70
     0
 71
     0
  1
AcDbOsnapPointRef
 72
     1
331
37D
 73
     2
 91
        0
 40
1.0
 10
-0.0000000000000284
 20
-183.2122699999999
 30
0.0
 75
     0
  0
DIMASSOC
  5
667
102
{ACAD_REACTORS
330
65D
102
}
330
65D
100
AcDbDimAssoc
330
650
 90
        3
 70
     0
 71
     0
  1
AcDbOsnapPointRef
 72
     6
331
37E
 73
     2
 91
        0
 40
0.110700922509227
 10
88.90000200000001
 20
-135.0122599999999
 30
0.0
332
2B6
 74
     2
 92
        0
 75
     0
  1
AcDbOsnapPointRef
 72
     6
331
37E
 73
     2
 91
        0
 40
0.8892987084870853
 10
88.90000200000001
 20
-177.2122599999998
 30
0.0
332
2B6
 74
     2
 92
        0
 75
     0
  0
MLINESTYLE
  5
18
102
{ACAD_REACTORS
330
17
102
}
330
17
100
AcDbMlineStyle
  2
STANDARD
 70
     0
  3

 62
   256
 51
90.0
 52
90.0
 71
     2
 49
0.5
 62
   256
  6
BYLAYER
 49
-0.5
 62
   256
  6
BYLAYER
  0
ACDBPLACEHOLDER
  5
F
102
{ACAD_REACTORS
330
E
102
}
330
E
100
AcDbPlaceHolder
280
     0
  0
XRECORD
  5
6B4
102
{ACAD_REACTORS
330
6AA
102
}
330
6AA
100
AcDbXrecord
 90
        0
  0
XRECORD
  5
6B8
102
{ACAD_REACTORS
330
6AA
102
}
330
6AA
100
AcDbXrecord
1000
DSTYLE
1002
{
1070
   371
 70
    -1
1070
   372
 70
    -1
1002
}
  0
XRECORD
  5
6B5
102
{ACAD_REACTORS
330
6AA
102
}
330
6AA
100
AcDbXrecord
  1
{5B0931FC-56BC-4C5C-811F-96A4ED1ECC1B}
  0
XRECORD
  5
6AD
102
{ACAD_REACTORS
330
6AA
102
}
330
6AA
100
AcDbXrecord
  1

  0
XRECORD
  5
6B3
102
{ACAD_REACTORS
330
6AA
102
}
330
6AA
100
AcDbXrecord
 90
        4
  0
XRECORD
  5
6AF
102
{ACAD_REACTORS
330
6AA
102
}
330
6AA
100
AcDbXrecord
340
1A
  0
XRECORD
  5
6B2
102
{ACAD_REACTORS
330
6AA
102
}
330
6AA
100
AcDbXrecord
 90
    10781
  0
XRECORD
  5
6B0
102
{ACAD_REACTORS
330
6AA
102
}
330
6AA
100
AcDbXrecord
340
19
  0
XRECORD
  5
6B1
102
{ACAD_REACTORS
330
6AA
102
}
330
6AA
100
AcDbXrecord
340
E
  0
XRECORD
  5
6B7
102
{ACAD_REACTORS
330
6AA
102
}
330
6AA
100
AcDbXrecord
 40
0.0
  0
XRECORD
  5
6BB
102
{ACAD_REACTORS
330
6AA
102
}
330
6AA
100
AcDbXrecord
340
0
  0
XRECORD
  5
6C1
102
{ACAD_REACTORS
330
6AA
102
}
330
6AA
100
AcDbXrecord
 10
0.0
 20
0.0
 30
0.0
  0
XRECORD
  5
6BD
102
{ACAD_REACTORS
330
6AA
102
}
330
6AA
100
AcDbXrecord
 10
0.0
 20
0.0
 30
0.0
  0
XRECORD
  5
6C0
102
{ACAD_REACTORS
330
6AA
102
}
330
6AA
100
AcDbXrecord
 10
0.0
 20
0.0
 30
0.0
  0
XRECORD
  5
6BE
102
{ACAD_REACTORS
330
6AA
102
}
330
6AA
100
AcDbXrecord
 10
0.0
 20
0.0
 30
0.0
  0
XRECORD
  5
6BF
102
{ACAD_REACTORS
330
6AA
102
}
330
6AA
100
AcDbXrecord
 10
0.0
 20
0.0
 30
0.0
  0
XRECORD
  5
6BC
102
{ACAD_REACTORS
330
6AA
102
}
330
6AA
100
AcDbXrecord
 10
0.0
 20
0.0
 30
0.0
  0
XRECORD
  5
6B9
102
{ACAD_REACTORS
330
6AA
102
}
330
6AA
100
AcDbXrecord
340
0
  0
XRECORD
  5
6BA
102
{ACAD_REACTORS
330
6AA
102
}
330
6AA
100
AcDbXrecord
 70
     0
  0
XRECORD
  5
6AE
102
{ACAD_REACTORS
330
6AA
102
}
330
6AA
100
AcDbXrecord
  1
monochrome.ctb
  0
XRECORD
  5
6AB
102
{ACAD_REACTORS
330
6AA
102
}
330
6AA
100
AcDbXrecord
 90
        1
  0
XRECORD
  5
6AC
102
{ACAD_REACTORS
330
6AA
102
}
330
6AA
100
AcDbXrecord
 90
       70
  0
XRECORD
  5
6C4
102
{ACAD_REACTORS
330
6AA
102
}
330
6AA
100
AcDbXrecord
340
0
  0
XRECORD
  5
6CA
102
{ACAD_REACTORS
330
6AA
102
}
330
6AA
100
AcDbXrecord
 10
0.0
 20
0.0
 30
0.0
  0
XRECORD
  5
6C6
102
{ACAD_REACTORS
330
6AA
102
}
330
6AA
100
AcDbXrecord
 10
0.0
 20
0.0
 30
0.0
  0
XRECORD
  5
6C9
102
{ACAD_REACTORS
330
6AA
102
}
330
6AA
100
AcDbXrecord
 10
0.0
 20
0.0
 30
0.0
  0
XRECORD
  5
6C7
102
{ACAD_REACTORS
330
6AA
102
}
330
6AA
100
AcDbXrecord
 10
0.0
 20
0.0
 30
0.0
  0
XRECORD
  5
6C8
102
{ACAD_REACTORS
330
6AA
102
}
330
6AA
100
AcDbXrecord
 10
0.0
 20
0.0
 30
0.0
  0
XRECORD
  5
6C5
102
{ACAD_REACTORS
330
6AA
102
}
330
6AA
100
AcDbXrecord
 10
0.0
 20
0.0
 30
0.0
  0
XRECORD
  5
6C2
102
{ACAD_REACTORS
330
6AA
102
}
330
6AA
100
AcDbXrecord
340
0
  0
XRECORD
  5
6C3
102
{ACAD_REACTORS
330
6AA
102
}
330
6AA
100
AcDbXrecord
 70
     0
  0
XRECORD
  5
6B6
102
{ACAD_REACTORS
330
6AA
102
}
330
6AA
100
AcDbXrecord
  1
{1CD2329C-58B4-4131-8618-1804F9A0DDA7}
  0
DICTIONARYVAR
  5
2E
102
{ACAD_REACTORS
330
2C
102
}
330
2C
100
DictionaryVariables
280
     0
  1
2
  0
DICTIONARYVAR
  5
2D
102
{ACAD_REACTORS
330
2C
102
}
330
2C
100
DictionaryVariables
280
     0
  1
1
  0
ENDSEC
  0
EOF
