  0
SECTION
  2
HEADER
  9
$ACADVER
  1
AC1014
  9
$ACADMAINTVER
 70
     9
  9
$DWGCODEPAGE
  3
ANSI_932
  9
$INSBASE
 10
0.0
 20
0.0
 30
0.0
  9
$EXTMIN
 10
-153.119893409101
 20
-184.8912458783707
 30
0.0
  9
$EXTMAX
 10
144.3252395402948
 20
118.8036497999999
 30
0.0
  9
$LIMMIN
 10
0.0
 20
0.0
  9
$LIMMAX
 10
420.0
 20
297.0
  9
$ORTHOMODE
 70
     0
  9
$REGENMODE
 70
     1
  9
$FILLMODE
 70
     1
  9
$QTEXTMODE
 70
     0
  9
$MIRRTEXT
 70
     1
  9
$DRAGMODE
 70
     2
  9
$LTSCALE
 40
1.0
  9
$OSMODE
 70
    37
  9
$ATTMODE
 70
     1
  9
$TEXTSIZE
 40
2.5
  9
$TRACEWID
 40
1.0
  9
$TEXTSTYLE
  7
STANDARD
  9
$CLAYER
  8
0
  9
$CELTYPE
  6
BYLAYER
  9
$CECOLOR
 62
   256
  9
$CELTSCALE
 40
1.0
  9
$DELOBJ
 70
     1
  9
$DISPSILH
 70
     0
  9
$DIMSCALE
 40
1.0
  9
$DIMASZ
 40
5.0
  9
$DIMEXO
 40
0.0
  9
$DIMDLI
 40
3.75
  9
$DIMRND
 40
0.0
  9
$DIMDLE
 40
0.0
  9
$DIMEXE
 40
2.0
  9
$DIMTP
 40
0.0
  9
$DIMTM
 40
0.0
  9
$DIMTXT
 40
5.0
  9
$DIMCEN
 40
2.5
  9
$DIMTSZ
 40
0.0
  9
$DIMTOL
 70
     0
  9
$DIMLIM
 70
     0
  9
$DIMTIH
 70
     0
  9
$DIMTOH
 70
     0
  9
$DIMSE1
 70
     0
  9
$DIMSE2
 70
     0
  9
$DIMTAD
 70
     1
  9
$DIMZIN
 70
     8
  9
$DIMBLK
  1

  9
$DIMASO
 70
     1
  9
$DIMSHO
 70
     1
  9
$DIMPOST
  1

  9
$DIMAPOST
  1

  9
$DIMALT
 70
     0
  9
$DIMALTD
 70
     3
  9
$DIMALTF
 40
0.03937007874016
  9
$DIMLFAC
 40
1.0
  9
$DIMTOFL
 70
     1
  9
$DIMTVP
 40
0.0
  9
$DIMTIX
 70
     0
  9
$DIMSOXD
 70
     0
  9
$DIMSAH
 70
     0
  9
$DIMBLK1
  1

  9
$DIMBLK2
  1

  9
$DIMSTYLE
  2
ISO-25
  9
$DIMCLRD
 70
     1
  9
$DIMCLRE
 70
     1
  9
$DIMCLRT
 70
     1
  9
$DIMTFAC
 40
1.0
  9
$DIMGAP
 40
1.5
  9
$DIMJUST
 70
     0
  9
$DIMSD1
 70
     0
  9
$DIMSD2
 70
     0
  9
$DIMTOLJ
 70
     0
  9
$DIMTZIN
 70
     8
  9
$DIMALTZ
 70
     0
  9
$DIMALTTZ
 70
     0
  9
$DIMFIT
 70
     3
  9
$DIMUPT
 70
     0
  9
$DIMUNIT
 70
     2
  9
$DIMDEC
 70
     2
  9
$DIMTDEC
 70
     2
  9
$DIMALTU
 70
     2
  9
$DIMALTTD
 70
     3
  9
$DIMTXSTY
  7
STANDARD
  9
$DIMAUNIT
 70
     0
  9
$LUNITS
 70
     2
  9
$LUPREC
 70
     4
  9
$SKETCHINC
 40
1.0
  9
$FILLETRAD
 40
10.0
  9
$AUNITS
 70
     0
  9
$AUPREC
 70
     0
  9
$MENU
  1
.
  9
$ELEVATION
 40
0.0
  9
$PELEVATION
 40
0.0
  9
$THICKNESS
 40
0.0
  9
$LIMCHECK
 70
     0
  9
$BLIPMODE
 70
     0
  9
$CHAMFERA
 40
10.0
  9
$CHAMFERB
 40
10.0
  9
$CHAMFERC
 40
20.0
  9
$CHAMFERD
 40
0.0
  9
$SKPOLY
 70
     0
  9
$TDCREATE
 40
2453755.379305208
  9
$TDUPDATE
 40
2454530.728789062
  9
$TDINDWG
 40
0.0114042361
  9
$TDUSRTIMER
 40
0.0114037616
  9
$USRTIMER
 70
     1
  9
$ANGBASE
 50
0.0
  9
$ANGDIR
 70
     0
  9
$PDMODE
 70
     0
  9
$PDSIZE
 40
0.0
  9
$PLINEWID
 40
0.0
  9
$COORDS
 70
     1
  9
$SPLFRAME
 70
     0
  9
$SPLINETYPE
 70
     6
  9
$SPLINESEGS
 70
     8
  9
$ATTDIA
 70
     0
  9
$ATTREQ
 70
     1
  9
$HANDLING
 70
     1
  9
$HANDSEED
  5
CCD
  9
$SURFTAB1
 70
     6
  9
$SURFTAB2
 70
     6
  9
$SURFTYPE
 70
     6
  9
$SURFU
 70
     6
  9
$SURFV
 70
     6
  9
$UCSNAME
  2

  9
$UCSORG
 10
0.0
 20
0.0
 30
0.0
  9
$UCSXDIR
 10
1.0
 20
0.0
 30
0.0
  9
$UCSYDIR
 10
0.0
 20
1.0
 30
0.0
  9
$PUCSNAME
  2

  9
$PUCSORG
 10
0.0
 20
0.0
 30
0.0
  9
$PUCSXDIR
 10
1.0
 20
0.0
 30
0.0
  9
$PUCSYDIR
 10
0.0
 20
1.0
 30
0.0
  9
$USERI1
 70
     0
  9
$USERI2
 70
     0
  9
$USERI3
 70
     0
  9
$USERI4
 70
     0
  9
$USERI5
 70
     0
  9
$USERR1
 40
0.0
  9
$USERR2
 40
0.0
  9
$USERR3
 40
0.0
  9
$USERR4
 40
0.0
  9
$USERR5
 40
0.0
  9
$WORLDVIEW
 70
     1
  9
$SHADEDGE
 70
     3
  9
$SHADEDIF
 70
    70
  9
$TILEMODE
 70
     1
  9
$MAXACTVP
 70
    64
  9
$PINSBASE
 10
0.0
 20
0.0
 30
0.0
  9
$PLIMCHECK
 70
     0
  9
$PEXTMIN
 10
1.000000000000000E+20
 20
1.000000000000000E+20
 30
1.000000000000000E+20
  9
$PEXTMAX
 10
-1.000000000000000E+20
 20
-1.000000000000000E+20
 30
-1.000000000000000E+20
  9
$PLIMMIN
 10
0.0
 20
0.0
  9
$PLIMMAX
 10
420.0
 20
297.0
  9
$UNITMODE
 70
     0
  9
$VISRETAIN
 70
     1
  9
$PLINEGEN
 70
     0
  9
$PSLTSCALE
 70
     1
  9
$TREEDEPTH
 70
  3020
  9
$PICKSTYLE
 70
     1
  9
$CMLSTYLE
  2
STANDARD
  9
$CMLJUST
 70
     0
  9
$CMLSCALE
 40
20.0
  9
$PROXYGRAPHICS
 70
     1
  9
$MEASUREMENT
 70
     1
  0
ENDSEC
  0
SECTION
  2
CLASSES
  0
CLASS
  1
ACDBDICTIONARYWDFLT
  2
AcDbDictionaryWithDefault
  3
AutoCAD 2000
 90
        0
280
     0
281
     0
  0
CLASS
  1
ACDBPLACEHOLDER
  2
AcDbPlaceHolder
  3
AutoCAD 2000
 90
        0
280
     0
281
     0
  0
CLASS
  1
LAYOUT
  2
AcDbLayout
  3
AutoCAD 2000
 90
        0
280
     0
281
     0
  0
CLASS
  1
DICTIONARYVAR
  2
AcDbDictionaryVar
  3
AutoCAD 2000
 90
        0
280
     0
281
     0
  0
CLASS
  1
DIMASSOC
  2
AcDbDimAssoc
  3
"AcDbDimAssoc|Product Desc:     AcDim ARX App For Dimension|Company:          Autodesk, Inc.|WEB Address:      www.autodesk.com"
 90
        0
280
     0
281
     0
  0
CLASS
  1
LONG_TRANSACTION
  2
AcDbLongTransaction
  3
AutoCAD 2000
 90
        0
280
     0
281
     0
  0
CLASS
  1
LWPOLYLINE
  2
AcDbPolyline
  3
AutoCAD 2000
 90
        0
280
     0
281
     1
  0
CLASS
  1
HATCH
  2
AcDbHatch
  3
AutoCAD 2000
 90
        0
280
     0
281
     1
  0
CLASS
  1
XRECORD
  2
AcDbXrecord
  3
AutoCAD 2000
 90
        0
280
     0
281
     0
  0
CLASS
  1
LONG_TRANSACTION
  2
AcDbLongTransaction
  3
AutoCAD 2000
 90
        0
280
     0
281
     0
  0
CLASS
  1
LWPOLYLINE
  2
AcDbPolyline
  3
AutoCAD 2000
 90
        0
280
     0
281
     1
  0
CLASS
  1
HATCH
  2
AcDbHatch
  3
AutoCAD 2000
 90
        0
280
     0
281
     1
  0
CLASS
  1
XRECORD
  2
AcDbXrecord
  3
AutoCAD 2000
 90
        0
280
     0
281
     0
  0
CLASS
  1
LONG_TRANSACTION
  2
AcDbLongTransaction
  3
AutoCAD 2000
 90
        0
280
     0
281
     0
  0
CLASS
  1
LWPOLYLINE
  2
AcDbPolyline
  3
AutoCAD 2000
 90
        0
280
     0
281
     1
  0
CLASS
  1
HATCH
  2
AcDbHatch
  3
AutoCAD 2000
 90
        0
280
     0
281
     1
  0
CLASS
  1
XRECORD
  2
AcDbXrecord
  3
AutoCAD 2000
 90
        0
280
     0
281
     0
  0
ENDSEC
  0
SECTION
  2
TABLES
  0
TABLE
  2
VPORT
  5
8
330
0
100
AcDbSymbolTable
 70
     2
  0
VPORT
  5
CA9
330
8
100
AcDbSymbolTableRecord
100
AcDbViewportTableRecord
  2
*ACTIVE
 70
     0
 10
0.0
 20
0.0
 11
1.0
 21
1.0
 12
20.50083792346525
 22
-33.02936326599359
 13
0.0
 23
0.0
 14
10.0
 24
10.0
 15
10.0
 25
10.0
 16
0.0
 26
0.0
 36
1.0
 17
0.0
 27
0.0
 37
0.0
 40
305.9405297015787
 41
1.621593291404612
 42
50.0
 43
0.0
 44
0.0
 50
0.0
 51
0.0
 71
     0
 72
   100
 73
     1
 74
     3
 75
     0
 76
     0
 77
     0
 78
     0
  0
ENDTAB
  0
TABLE
  2
LTYPE
  5
5
330
0
100
AcDbSymbolTable
 70
     2
  0
LTYPE
  5
14
330
5
100
AcDbSymbolTableRecord
100
AcDbLinetypeTableRecord
  2
BYBLOCK
 70
     0
  3

 72
    65
 73
     0
 40
0.0
  0
LTYPE
  5
15
330
5
100
AcDbSymbolTableRecord
100
AcDbLinetypeTableRecord
  2
BYLAYER
 70
     0
  3

 72
    65
 73
     0
 40
0.0
  0
LTYPE
  5
16
330
5
100
AcDbSymbolTableRecord
100
AcDbLinetypeTableRecord
  2
CONTINUOUS
 70
     0
  3
Solid line
 72
    65
 73
     0
 40
0.0
  0
LTYPE
  5
10E
330
5
100
AcDbSymbolTableRecord
100
AcDbLinetypeTableRecord
  2
CENTER
 70
     0
  3
____ _ ____ _ ____ _ ____ _ ____ _ ____ _ ____
 72
    65
 73
     4
 40
17.5
 49
13.0
 74
     0
 49
-1.5
 74
     0
 49
1.5
 74
     0
 49
-1.5
 74
     0
  0
ENDTAB
  0
TABLE
  2
LAYER
  5
2
330
0
100
AcDbSymbolTable
 70
     2
  0
LAYER
  5
10
330
2
100
AcDbSymbolTableRecord
100
AcDbLayerTableRecord
  2
0
 70
     0
 62
     7
  6
CONTINUOUS
  0
LAYER
  5
10F
330
2
100
AcDbSymbolTableRecord
100
AcDbLayerTableRecord
  2
DEFPOINTS
 70
     0
 62
     7
  6
CONTINUOUS
  0
ENDTAB
  0
TABLE
  2
STYLE
  5
3
330
0
100
AcDbSymbolTable
 70
     1
  0
STYLE
  5
11
330
3
100
AcDbSymbolTableRecord
100
AcDbTextStyleTableRecord
  2
STANDARD
 70
     0
 40
0.0
 41
1.0
 50
0.0
 71
     0
 42
2.5
  3
txt.shx
  4
bigfont.shx
  0
ENDTAB
  0
TABLE
  2
VIEW
  5
6
330
0
100
AcDbSymbolTable
 70
     0
  0
ENDTAB
  0
TABLE
  2
UCS
  5
7
330
0
100
AcDbSymbolTable
 70
     0
  0
ENDTAB
  0
TABLE
  2
APPID
  5
9
330
0
100
AcDbSymbolTable
 70
     1
  0
APPID
  5
12
330
9
100
AcDbSymbolTableRecord
100
AcDbRegAppTableRecord
  2
ACAD
 70
     0
  0
ENDTAB
  0
TABLE
  2
DIMSTYLE
  5
A
330
0
100
AcDbSymbolTable
 70
     1
  0
DIMSTYLE
105
27
102
{ACAD_REACTORS
330
A98
330
AB4
330
ACC
330
AE8
330
B04
330
B20
330
B38
330
B50
330
B68
330
B80
330
B98
330
BB0
330
BC8
102
}
330
A
100
AcDbSymbolTableRecord
100
AcDbDimStyleTableRecord
  2
ISO-25
 70
     0
  3

  4

  5

  6

  7

 40
1.0
 41
5.0
 42
0.0
 43
3.75
 44
2.0
 45
0.0
 46
0.0
 47
0.0
 48
0.0
140
5.0
141
2.5
142
0.0
143
0.03937007874016
144
1.0
145
0.0
146
1.0
147
1.5
 71
     0
 72
     0
 73
     0
 74
     0
 75
     0
 76
     0
 77
     1
 78
     8
170
     0
171
     3
172
     1
173
     0
174
     0
175
     0
176
     1
177
     1
178
     1
270
     2
271
     2
272
     2
273
     2
274
     3
340
11
275
     0
280
     0
281
     0
282
     0
283
     0
284
     8
285
     0
286
     0
287
     3
288
     0
  0
ENDTAB
  0
TABLE
  2
BLOCK_RECORD
  5
1
330
0
100
AcDbSymbolTable
 70
    13
  0
BLOCK_RECORD
  5
1F
102
{ACAD_XDICTIONARY
360
C68
102
}
330
1
100
AcDbSymbolTableRecord
100
AcDbBlockTableRecord
  2
*MODEL_SPACE
  0
BLOCK_RECORD
  5
1B
102
{ACAD_XDICTIONARY
360
C66
102
}
330
1
100
AcDbSymbolTableRecord
100
AcDbBlockTableRecord
  2
*PAPER_SPACE
  0
BLOCK_RECORD
  5
A99
330
1
100
AcDbSymbolTableRecord
100
AcDbBlockTableRecord
  2
*D0
  0
BLOCK_RECORD
  5
AB5
330
1
100
AcDbSymbolTableRecord
100
AcDbBlockTableRecord
  2
*D1
  0
BLOCK_RECORD
  5
ACD
330
1
100
AcDbSymbolTableRecord
100
AcDbBlockTableRecord
  2
*D2
  0
BLOCK_RECORD
  5
AE9
330
1
100
AcDbSymbolTableRecord
100
AcDbBlockTableRecord
  2
*D3
  0
BLOCK_RECORD
  5
B05
330
1
100
AcDbSymbolTableRecord
100
AcDbBlockTableRecord
  2
*D4
  0
BLOCK_RECORD
  5
B21
330
1
100
AcDbSymbolTableRecord
100
AcDbBlockTableRecord
  2
*D5
  0
BLOCK_RECORD
  5
B39
330
1
100
AcDbSymbolTableRecord
100
AcDbBlockTableRecord
  2
*D6
  0
BLOCK_RECORD
  5
B51
330
1
100
AcDbSymbolTableRecord
100
AcDbBlockTableRecord
  2
*D7
  0
BLOCK_RECORD
  5
B69
330
1
100
AcDbSymbolTableRecord
100
AcDbBlockTableRecord
  2
*D8
  0
BLOCK_RECORD
  5
B81
330
1
100
AcDbSymbolTableRecord
100
AcDbBlockTableRecord
  2
*D9
  0
BLOCK_RECORD
  5
B99
330
1
100
AcDbSymbolTableRecord
100
AcDbBlockTableRecord
  2
*D10
  0
BLOCK_RECORD
  5
BB1
330
1
100
AcDbSymbolTableRecord
100
AcDbBlockTableRecord
  2
*D11
  0
BLOCK_RECORD
  5
BC9
330
1
100
AcDbSymbolTableRecord
100
AcDbBlockTableRecord
  2
*D12
  0
ENDTAB
  0
ENDSEC
  0
SECTION
  2
BLOCKS
  0
BLOCK
  5
20
330
1F
100
AcDbEntity
  8
0
100
AcDbBlockBegin
  2
*MODEL_SPACE
 70
     0
 10
0.0
 20
0.0
 30
0.0
  3
*MODEL_SPACE
  1

  0
ENDBLK
  5
21
330
1F
100
AcDbEntity
  8
0
100
AcDbBlockEnd
  0
BLOCK
  5
1C
330
1B
100
AcDbEntity
 67
     1
  8
0
100
AcDbBlockBegin
  2
*PAPER_SPACE
 70
     0
 10
0.0
 20
0.0
 30
0.0
  3
*PAPER_SPACE
  1

  0
ENDBLK
  5
1D
330
1B
100
AcDbEntity
 67
     1
  8
0
100
AcDbBlockEnd
  0
BLOCK
  5
AA5
330
A99
100
AcDbEntity
  8
0
100
AcDbBlockBegin
  2
*D0
 70
     1
 10
0.0
 20
0.0
 30
0.0
  3
*D0
  1

  0
LINE
  5
AA8
330
A99
100
AcDbEntity
  8
0
 62
     1
100
AcDbLine
 10
65.084999
 20
34.400002
 30
0.0
 11
65.084999
 21
39.4142610187173
 31
0.0
  0
LINE
  5
AA9
330
A99
100
AcDbEntity
  8
0
 62
     1
100
AcDbLine
 10
87.31500200000002
 20
34.400002
 30
0.0
 11
87.31500200000002
 21
39.4142610187173
 31
0.0
  0
LINE
  5
AAA
330
A99
100
AcDbEntity
  8
0
 62
     1
100
AcDbLine
 10
60.084999
 20
37.41426101871729
 30
0.0
 11
55.084999
 21
37.41426101871729
 31
0.0
  0
LINE
  5
AAB
330
A99
100
AcDbEntity
  8
0
 62
     1
100
AcDbLine
 10
92.31500200000002
 20
37.41426101871729
 30
0.0
 11
125.315002
 21
37.41426101871729
 31
0.0
  0
LINE
  5
AAC
330
A99
100
AcDbEntity
  8
0
 62
     1
100
AcDbLine
 10
65.084999
 20
37.41426101871729
 30
0.0
 11
87.31500200000002
 21
37.41426101871729
 31
0.0
  0
SOLID
  5
AAD
330
A99
100
AcDbEntity
  8
0
 62
     1
100
AcDbTrace
 10
60.084999
 20
38.24759435205063
 30
0.0
 11
60.084999
 21
36.58092768538396
 31
0.0
 12
65.084999
 22
37.41426101871729
 32
0.0
 13
65.084999
 23
37.41426101871729
 33
0.0
  0
SOLID
  5
AAE
330
A99
100
AcDbEntity
  8
0
 62
     1
100
AcDbTrace
 10
92.31500200000002
 20
38.24759435205063
 30
0.0
 11
92.31500200000002
 21
36.58092768538396
 31
0.0
 12
87.31500200000002
 22
37.41426101871729
 32
0.0
 13
87.31500200000002
 23
37.41426101871729
 33
0.0
  0
MTEXT
  5
AAF
330
A99
100
AcDbEntity
  8
0
 62
     1
100
AcDbMText
 10
111.315002
 20
41.41426101871727
 30
0.0
 40
5.0
 41
0.0
 71
     5
 72
     1
  1
φ22.23
1001
ACAD
1000
MTEXTBEGIN
1070
    73
1070
     1
1070
    44
1040
1.0
1070
    74
1070
     0
1000
MTEXTEND
1000
MTEXTBEGIN
1070
    73
1070
     1
1070
    44
1040
1.0
1070
    74
1070
     0
1000
MTEXTEND
1000
MTEXTBEGIN
1070
    73
1070
     1
1070
    44
1040
1.0
1070
    74
1070
     0
1000
MTEXTEND
  0
POINT
  5
AB0
330
A99
100
AcDbEntity
  8
DEFPOINTS
 62
     0
100
AcDbPoint
 10
65.084999
 20
34.400002
 30
0.0
  0
POINT
  5
AB1
330
A99
100
AcDbEntity
  8
DEFPOINTS
 62
     0
100
AcDbPoint
 10
87.31500200000002
 20
34.400002
 30
0.0
  0
POINT
  5
AB2
330
A99
100
AcDbEntity
  8
DEFPOINTS
 62
     0
100
AcDbPoint
 10
87.31500200000002
 20
37.41426101871729
 30
0.0
  0
ENDBLK
  5
AA6
330
A99
100
AcDbEntity
  8
0
100
AcDbBlockEnd
  0
BLOCK
  5
ABF
330
AB5
100
AcDbEntity
  8
0
100
AcDbBlockBegin
  2
*D1
 70
     1
 10
0.0
 20
0.0
 30
0.0
  3
*D1
  1

  0
LINE
  5
C11
330
AB5
100
AcDbEntity
  8
0
 62
     1
100
AcDbLine
 10
94.30000300000001
 20
33.200001
 30
0.0
 11
141.7714972609239
 21
33.20000099999999
 31
0.0
  0
LINE
  5
C12
330
AB5
100
AcDbEntity
  8
0
 62
     1
100
AcDbLine
 10
94.30000300000001
 20
58.599998
 30
0.0
 11
141.7714972609239
 21
58.59999799999999
 31
0.0
  0
LINE
  5
C13
330
AB5
100
AcDbEntity
  8
0
 62
     1
100
AcDbLine
 10
139.7714972609239
 20
38.20000099999999
 30
0.0
 11
139.7714972609239
 21
53.59999799999999
 31
0.0
  0
SOLID
  5
C14
330
AB5
100
AcDbEntity
  8
0
 62
     1
100
AcDbTrace
 10
138.9381639275906
 20
38.20000099999999
 30
0.0
 11
140.6048305942572
 21
38.20000099999999
 31
0.0
 12
139.7714972609239
 22
33.20000099999999
 32
0.0
 13
139.7714972609239
 23
33.20000099999999
 33
0.0
  0
SOLID
  5
C15
330
AB5
100
AcDbEntity
  8
0
 62
     1
100
AcDbTrace
 10
138.9381639275906
 20
53.59999799999999
 30
0.0
 11
140.6048305942572
 21
53.59999799999999
 31
0.0
 12
139.7714972609239
 22
58.59999799999999
 32
0.0
 13
139.7714972609239
 23
58.59999799999999
 33
0.0
  0
MTEXT
  5
C16
330
AB5
100
AcDbEntity
  8
0
 62
     1
100
AcDbMText
 10
135.7714972609239
 20
45.89999950000001
 30
0.0
 40
5.0
 41
0.0
 71
     5
 72
     1
  1
25.40
 11
0.0000000000000001
 21
1.0
 31
0.0
1001
ACAD
1000
MTEXTBEGIN
1070
    73
1070
     1
1070
    44
1040
1.0
1070
    74
1070
     0
1000
MTEXTEND
1000
MTEXTBEGIN
1070
    73
1070
     1
1070
    44
1040
1.0
1070
    74
1070
     0
1000
MTEXTEND
1000
MTEXTBEGIN
1070
    73
1070
     1
1070
    44
1040
1.0
1070
    74
1070
     0
1000
MTEXTEND
  0
POINT
  5
C17
330
AB5
100
AcDbEntity
  8
DEFPOINTS
 62
     0
100
AcDbPoint
 10
94.30000300000001
 20
33.200001
 30
0.0
  0
POINT
  5
C18
330
AB5
100
AcDbEntity
  8
DEFPOINTS
 62
     0
100
AcDbPoint
 10
94.30000300000001
 20
58.599998
 30
0.0
  0
POINT
  5
C19
330
AB5
100
AcDbEntity
  8
DEFPOINTS
 62
     0
100
AcDbPoint
 10
139.7714972609239
 20
58.59999799999999
 30
0.0
  0
ENDBLK
  5
AC0
330
AB5
100
AcDbEntity
  8
0
100
AcDbBlockEnd
  0
BLOCK
  5
AD9
330
ACD
100
AcDbEntity
  8
0
100
AcDbBlockBegin
  2
*D2
 70
     1
 10
0.0
 20
0.0
 30
0.0
  3
*D2
  1

  0
LINE
  5
C73
330
ACD
100
AcDbEntity
  8
0
 62
     1
100
AcDbLine
 10
94.30000300000001
 20
58.599998
 30
0.0
 11
141.7714972609239
 21
58.59999799999999
 31
0.0
  0
LINE
  5
C74
330
ACD
100
AcDbEntity
  8
0
 62
     1
100
AcDbLine
 10
94.30000300000001
 20
64.200005
 30
0.0
 11
141.771497260924
 21
64.20000499999999
 31
0.0
  0
LINE
  5
C75
330
ACD
100
AcDbEntity
  8
0
 62
     1
100
AcDbLine
 10
139.7714972609239
 20
53.59999799999999
 30
0.0
 11
139.7714972609239
 21
48.59999799999999
 31
0.0
  0
LINE
  5
C76
330
ACD
100
AcDbEntity
  8
0
 62
     1
100
AcDbLine
 10
139.771497260924
 20
69.20000499999999
 30
0.0
 11
139.771497260924
 21
87.20000499999999
 31
0.0
  0
LINE
  5
C77
330
ACD
100
AcDbEntity
  8
0
 62
     1
100
AcDbLine
 10
139.7714972609239
 20
58.59999799999999
 30
0.0
 11
139.771497260924
 21
64.20000499999999
 31
0.0
  0
SOLID
  5
C78
330
ACD
100
AcDbEntity
  8
0
 62
     1
100
AcDbTrace
 10
138.9381639275906
 20
53.59999799999999
 30
0.0
 11
140.6048305942573
 21
53.59999799999999
 31
0.0
 12
139.7714972609239
 22
58.59999799999999
 32
0.0
 13
139.7714972609239
 23
58.59999799999999
 33
0.0
  0
SOLID
  5
C79
330
ACD
100
AcDbEntity
  8
0
 62
     1
100
AcDbTrace
 10
138.9381639275906
 20
69.20000499999999
 30
0.0
 11
140.6048305942573
 21
69.20000499999999
 31
0.0
 12
139.771497260924
 22
64.20000499999999
 32
0.0
 13
139.771497260924
 23
64.20000499999999
 33
0.0
  0
MTEXT
  5
C7A
330
ACD
100
AcDbEntity
  8
0
 62
     1
100
AcDbMText
 10
135.7714972609239
 20
80.700005
 30
0.0
 40
5.0
 41
0.0
 71
     5
 72
     1
  1
5.6
 11
0.0000000000000001
 21
1.0
 31
0.0
1001
ACAD
1000
MTEXTBEGIN
1070
    73
1070
     1
1070
    44
1040
1.0
1070
    74
1070
     0
1000
MTEXTEND
1000
MTEXTBEGIN
1070
    73
1070
     1
1070
    44
1040
1.0
1070
    74
1070
     0
1000
MTEXTEND
  0
POINT
  5
C7B
330
ACD
100
AcDbEntity
  8
DEFPOINTS
 62
     0
100
AcDbPoint
 10
94.30000300000001
 20
58.599998
 30
0.0
  0
POINT
  5
C7C
330
ACD
100
AcDbEntity
  8
DEFPOINTS
 62
     0
100
AcDbPoint
 10
94.30000300000001
 20
64.200005
 30
0.0
  0
POINT
  5
C7D
330
ACD
100
AcDbEntity
  8
DEFPOINTS
 62
     0
100
AcDbPoint
 10
139.771497260924
 20
64.20000499999999
 30
0.0
  0
ENDBLK
  5
ADA
330
ACD
100
AcDbEntity
  8
0
100
AcDbBlockEnd
  0
BLOCK
  5
AF5
330
AE9
100
AcDbEntity
  8
0
100
AcDbBlockBegin
  2
*D3
 70
     1
 10
0.0
 20
0.0
 30
0.0
  3
*D3
  1

  0
LINE
  5
AF8
330
AE9
100
AcDbEntity
  8
0
 62
     1
100
AcDbLine
 10
-91.80000300000001
 20
64.75
 30
0.0
 11
-118.3917007116545
 21
64.75000000000001
 31
0.0
  0
LINE
  5
AF9
330
AE9
100
AcDbEntity
  8
0
 62
     1
100
AcDbLine
 10
-91.80000300000001
 20
70.349998
 30
0.0
 11
-118.3917007116545
 21
70.34999800000001
 31
0.0
  0
LINE
  5
AFA
330
AE9
100
AcDbEntity
  8
0
 62
     1
100
AcDbLine
 10
-116.3917007116543
 20
59.75000000000001
 30
0.0
 11
-116.3917007116543
 21
54.75000000000001
 31
0.0
  0
LINE
  5
AFB
330
AE9
100
AcDbEntity
  8
0
 62
     1
100
AcDbLine
 10
-116.3917007116543
 20
75.34999800000001
 30
0.0
 11
-116.3917007116543
 21
93.34999800000002
 31
0.0
  0
LINE
  5
AFC
330
AE9
100
AcDbEntity
  8
0
 62
     1
100
AcDbLine
 10
-116.3917007116543
 20
64.75000000000001
 30
0.0
 11
-116.3917007116543
 21
70.34999800000001
 31
0.0
  0
SOLID
  5
AFD
330
AE9
100
AcDbEntity
  8
0
 62
     1
100
AcDbTrace
 10
-117.2250340449876
 20
59.75000000000001
 30
0.0
 11
-115.5583673783211
 21
59.75000000000001
 31
0.0
 12
-116.3917007116543
 22
64.75000000000001
 32
0.0
 13
-116.3917007116543
 23
64.75000000000001
 33
0.0
  0
SOLID
  5
AFE
330
AE9
100
AcDbEntity
  8
0
 62
     1
100
AcDbTrace
 10
-117.2250340449876
 20
75.34999800000001
 30
0.0
 11
-115.5583673783211
 21
75.34999800000001
 31
0.0
 12
-116.3917007116543
 22
70.34999800000001
 32
0.0
 13
-116.3917007116543
 23
70.34999800000001
 33
0.0
  0
MTEXT
  5
AFF
330
AE9
100
AcDbEntity
  8
0
 62
     1
100
AcDbMText
 10
-120.3917007116545
 20
86.84999799999998
 30
0.0
 40
5.0
 41
0.0
 71
     5
 72
     1
  1
5.6
 11
0.0000000000000001
 21
1.0
 31
0.0
1001
ACAD
1000
MTEXTBEGIN
1070
    73
1070
     1
1070
    44
1040
1.0
1070
    74
1070
     0
1000
MTEXTEND
1000
MTEXTBEGIN
1070
    73
1070
     1
1070
    44
1040
1.0
1070
    74
1070
     0
1000
MTEXTEND
1000
MTEXTBEGIN
1070
    73
1070
     1
1070
    44
1040
1.0
1070
    74
1070
     0
1000
MTEXTEND
  0
POINT
  5
B00
330
AE9
100
AcDbEntity
  8
DEFPOINTS
 62
     0
100
AcDbPoint
 10
-91.80000300000001
 20
64.75
 30
0.0
  0
POINT
  5
B01
330
AE9
100
AcDbEntity
  8
DEFPOINTS
 62
     0
100
AcDbPoint
 10
-91.80000300000001
 20
70.349998
 30
0.0
  0
POINT
  5
B02
330
AE9
100
AcDbEntity
  8
DEFPOINTS
 62
     0
100
AcDbPoint
 10
-116.3917007116543
 20
70.34999800000001
 30
0.0
  0
ENDBLK
  5
AF6
330
AE9
100
AcDbEntity
  8
0
100
AcDbBlockEnd
  0
BLOCK
  5
B11
330
B05
100
AcDbEntity
  8
0
100
AcDbBlockBegin
  2
*D4
 70
     1
 10
0.0
 20
0.0
 30
0.0
  3
*D4
  1

  0
LINE
  5
B14
330
B05
100
AcDbEntity
  8
0
 62
     1
100
AcDbLine
 10
-70.644997
 20
27.049999
 30
0.0
 11
-70.644997
 21
32.62898307384512
 31
0.0
  0
LINE
  5
B15
330
B05
100
AcDbEntity
  8
0
 62
     1
100
AcDbLine
 10
-81.75499700000001
 20
27.049999
 30
0.0
 11
-81.75499700000001
 21
32.62898307384512
 31
0.0
  0
LINE
  5
B16
330
B05
100
AcDbEntity
  8
0
 62
     1
100
AcDbLine
 10
-65.644997
 20
30.62898307384512
 30
0.0
 11
-60.64499699999998
 21
30.62898307384512
 31
0.0
  0
LINE
  5
B17
330
B05
100
AcDbEntity
  8
0
 62
     1
100
AcDbLine
 10
-86.75499700000001
 20
30.62898307384512
 30
0.0
 11
-113.0883303333332
 21
30.62898307384512
 31
0.0
  0
LINE
  5
B18
330
B05
100
AcDbEntity
  8
0
 62
     1
100
AcDbLine
 10
-70.644997
 20
30.62898307384512
 30
0.0
 11
-81.75499700000001
 21
30.62898307384512
 31
0.0
  0
SOLID
  5
B19
330
B05
100
AcDbEntity
  8
0
 62
     1
100
AcDbTrace
 10
-65.644997
 20
31.46231640717845
 30
0.0
 11
-65.644997
 21
29.79564974051179
 31
0.0
 12
-70.644997
 22
30.62898307384512
 32
0.0
 13
-70.644997
 23
30.62898307384512
 33
0.0
  0
SOLID
  5
B1A
330
B05
100
AcDbEntity
  8
0
 62
     1
100
AcDbTrace
 10
-86.75499700000001
 20
31.46231640717845
 30
0.0
 11
-86.75499700000001
 21
29.79564974051179
 31
0.0
 12
-81.75499700000001
 22
30.62898307384512
 32
0.0
 13
-81.75499700000001
 23
30.62898307384512
 33
0.0
  0
MTEXT
  5
B1B
330
B05
100
AcDbEntity
  8
0
 62
     1
100
AcDbMText
 10
-102.4216636666666
 20
34.62898307384512
 30
0.0
 40
5.0
 41
0.0
 71
     5
 72
     1
  1
φ11.11
1001
ACAD
1000
MTEXTBEGIN
1070
    73
1070
     1
1070
    44
1040
1.0
1070
    74
1070
     0
1000
MTEXTEND
1000
MTEXTBEGIN
1070
    73
1070
     1
1070
    44
1040
1.0
1070
    74
1070
     0
1000
MTEXTEND
1000
MTEXTBEGIN
1070
    73
1070
     1
1070
    44
1040
1.0
1070
    74
1070
     0
1000
MTEXTEND
  0
POINT
  5
B1C
330
B05
100
AcDbEntity
  8
DEFPOINTS
 62
     0
100
AcDbPoint
 10
-70.644997
 20
27.049999
 30
0.0
  0
POINT
  5
B1D
330
B05
100
AcDbEntity
  8
DEFPOINTS
 62
     0
100
AcDbPoint
 10
-81.75499700000001
 20
27.049999
 30
0.0
  0
POINT
  5
B1E
330
B05
100
AcDbEntity
  8
DEFPOINTS
 62
     0
100
AcDbPoint
 10
-81.75499700000001
 20
30.62898307384512
 30
0.0
  0
ENDBLK
  5
B12
330
B05
100
AcDbEntity
  8
0
100
AcDbBlockEnd
  0
BLOCK
  5
B2B
330
B21
100
AcDbEntity
  8
0
100
AcDbBlockBegin
  2
*D5
 70
     1
 10
0.0
 20
0.0
 30
0.0
  3
*D5
  1

  0
LINE
  5
B2E
330
B21
100
AcDbEntity
  8
0
 62
     1
100
AcDbLine
 10
-97.80000300000001
 20
45.900002
 30
0.0
 11
-132.5581316026523
 21
45.90000200000001
 31
0.0
  0
LINE
  5
B2F
330
B21
100
AcDbEntity
  8
0
 62
     1
100
AcDbLine
 10
-97.80000300000001
 20
-2.999998599999996
 30
0.0
 11
-132.5581316026523
 21
-2.999998599999988
 31
0.0
  0
LINE
  5
B30
330
B21
100
AcDbEntity
  8
0
 62
     1
100
AcDbLine
 10
-130.5581316026523
 20
40.90000200000001
 30
0.0
 11
-130.5581316026523
 21
2.00000140000001
 31
0.0
  0
SOLID
  5
B31
330
B21
100
AcDbEntity
  8
0
 62
     1
100
AcDbTrace
 10
-131.3914649359859
 20
40.90000200000001
 30
0.0
 11
-129.7247982693191
 21
40.90000200000001
 31
0.0
 12
-130.5581316026523
 22
45.90000200000001
 32
0.0
 13
-130.5581316026523
 23
45.90000200000001
 33
0.0
  0
SOLID
  5
B32
330
B21
100
AcDbEntity
  8
0
 62
     1
100
AcDbTrace
 10
-131.3914649359859
 20
2.000001400000011
 30
0.0
 11
-129.7247982693191
 21
2.00000140000001
 31
0.0
 12
-130.5581316026523
 22
-2.999998599999988
 32
0.0
 13
-130.5581316026523
 23
-2.999998599999988
 33
0.0
  0
MTEXT
  5
B33
330
B21
100
AcDbEntity
  8
0
 62
     1
100
AcDbMText
 10
-134.5581316026523
 20
21.45000169999998
 30
0.0
 40
5.0
 41
0.0
 71
     5
 72
     1
  1
48.9
 11
0.0000000000000001
 21
1.0
 31
0.0
1001
ACAD
1000
MTEXTBEGIN
1070
    73
1070
     1
1070
    44
1040
1.0
1070
    74
1070
     0
1000
MTEXTEND
1000
MTEXTBEGIN
1070
    73
1070
     1
1070
    44
1040
1.0
1070
    74
1070
     0
1000
MTEXTEND
1000
MTEXTBEGIN
1070
    73
1070
     1
1070
    44
1040
1.0
1070
    74
1070
     0
1000
MTEXTEND
  0
POINT
  5
B34
330
B21
100
AcDbEntity
  8
DEFPOINTS
 62
     0
100
AcDbPoint
 10
-97.80000300000001
 20
45.900002
 30
0.0
  0
POINT
  5
B35
330
B21
100
AcDbEntity
  8
DEFPOINTS
 62
     0
100
AcDbPoint
 10
-97.80000300000001
 20
-2.999998599999996
 30
0.0
  0
POINT
  5
B36
330
B21
100
AcDbEntity
  8
DEFPOINTS
 62
     0
100
AcDbPoint
 10
-130.5581316026523
 20
-2.999998599999988
 30
0.0
  0
ENDBLK
  5
B2C
330
B21
100
AcDbEntity
  8
0
100
AcDbBlockEnd
  0
BLOCK
  5
B43
330
B39
100
AcDbEntity
  8
0
100
AcDbBlockBegin
  2
*D6
 70
     1
 10
0.0
 20
0.0
 30
0.0
  3
*D6
  1

  0
LINE
  5
B46
330
B39
100
AcDbEntity
  8
0
 62
     1
100
AcDbLine
 10
-97.80000300000001
 20
-2.999998599999996
 30
0.0
 11
-132.5581316026523
 21
-2.999998599999988
 31
0.0
  0
LINE
  5
B47
330
B39
100
AcDbEntity
  8
0
 62
     1
100
AcDbLine
 10
-97.80000300000001
 20
-51.89999799999998
 30
0.0
 11
-132.5581316026523
 21
-51.89999799999998
 31
0.0
  0
LINE
  5
B48
330
B39
100
AcDbEntity
  8
0
 62
     1
100
AcDbLine
 10
-130.5581316026523
 20
-7.999998599999987
 30
0.0
 11
-130.5581316026523
 21
-46.89999799999998
 31
0.0
  0
SOLID
  5
B49
330
B39
100
AcDbEntity
  8
0
 62
     1
100
AcDbTrace
 10
-131.3914649359859
 20
-7.999998599999987
 30
0.0
 11
-129.7247982693191
 21
-7.999998599999987
 31
0.0
 12
-130.5581316026523
 22
-2.999998599999988
 32
0.0
 13
-130.5581316026523
 23
-2.999998599999988
 33
0.0
  0
SOLID
  5
B4A
330
B39
100
AcDbEntity
  8
0
 62
     1
100
AcDbTrace
 10
-131.3914649359859
 20
-46.89999799999998
 30
0.0
 11
-129.7247982693191
 21
-46.89999799999998
 31
0.0
 12
-130.5581316026523
 22
-51.89999799999998
 32
0.0
 13
-130.5581316026523
 23
-51.89999799999998
 33
0.0
  0
MTEXT
  5
B4B
330
B39
100
AcDbEntity
  8
0
 62
     1
100
AcDbMText
 10
-134.5581316026523
 20
-27.44999830000001
 30
0.0
 40
5.0
 41
0.0
 71
     5
 72
     1
  1
48.9
 11
0.0000000000000001
 21
1.0
 31
0.0
1001
ACAD
1000
MTEXTBEGIN
1070
    73
1070
     1
1070
    44
1040
1.0
1070
    74
1070
     0
1000
MTEXTEND
1000
MTEXTBEGIN
1070
    73
1070
     1
1070
    44
1040
1.0
1070
    74
1070
     0
1000
MTEXTEND
1000
MTEXTBEGIN
1070
    73
1070
     1
1070
    44
1040
1.0
1070
    74
1070
     0
1000
MTEXTEND
  0
POINT
  5
B4C
330
B39
100
AcDbEntity
  8
DEFPOINTS
 62
     0
100
AcDbPoint
 10
-97.80000300000001
 20
-2.999998599999996
 30
0.0
  0
POINT
  5
B4D
330
B39
100
AcDbEntity
  8
DEFPOINTS
 62
     0
100
AcDbPoint
 10
-97.80000300000001
 20
-51.89999799999998
 30
0.0
  0
POINT
  5
B4E
330
B39
100
AcDbEntity
  8
DEFPOINTS
 62
     0
100
AcDbPoint
 10
-130.5581316026523
 20
-51.89999799999998
 30
0.0
  0
ENDBLK
  5
B44
330
B39
100
AcDbEntity
  8
0
100
AcDbBlockEnd
  0
BLOCK
  5
B5B
330
B51
100
AcDbEntity
  8
0
100
AcDbBlockBegin
  2
*D7
 70
     1
 10
0.0
 20
0.0
 30
0.0
  3
*D7
  1

  0
LINE
  5
B5E
330
B51
100
AcDbEntity
  8
0
 62
     1
100
AcDbLine
 10
-97.80000300000001
 20
-2.999998599999996
 30
0.0
 11
-148.6198934091009
 21
-2.99999859999998
 31
0.0
  0
LINE
  5
B5F
330
B51
100
AcDbEntity
  8
0
 62
     1
100
AcDbLine
 10
-80.15499438063832
 20
72.849998
 30
0.0
 11
-148.6198934091009
 21
72.84999800000001
 31
0.0
  0
LINE
  5
B60
330
B51
100
AcDbEntity
  8
0
 62
     1
100
AcDbLine
 10
-146.6198934091009
 20
2.000001400000015
 30
0.0
 11
-146.6198934091009
 21
67.84999800000001
 31
0.0
  0
SOLID
  5
B61
330
B51
100
AcDbEntity
  8
0
 62
     1
100
AcDbTrace
 10
-147.4532267424343
 20
2.000001400000015
 30
0.0
 11
-145.7865600757676
 21
2.000001400000015
 31
0.0
 12
-146.6198934091009
 22
-2.999998599999983
 32
0.0
 13
-146.6198934091009
 23
-2.999998599999983
 33
0.0
  0
SOLID
  5
B62
330
B51
100
AcDbEntity
  8
0
 62
     1
100
AcDbTrace
 10
-147.4532267424343
 20
67.84999800000001
 30
0.0
 11
-145.7865600757676
 21
67.84999800000001
 31
0.0
 12
-146.6198934091009
 22
72.84999800000001
 32
0.0
 13
-146.6198934091009
 23
72.84999800000001
 33
0.0
  0
MTEXT
  5
B63
330
B51
100
AcDbEntity
  8
0
 62
     1
100
AcDbMText
 10
-150.619893409101
 20
34.92499969999999
 30
0.0
 40
5.0
 41
0.0
 71
     5
 72
     1
  1
75.85
 11
0.0000000000000001
 21
1.0
 31
0.0
1001
ACAD
1000
MTEXTBEGIN
1070
    73
1070
     1
1070
    44
1040
1.0
1070
    74
1070
     0
1000
MTEXTEND
1000
MTEXTBEGIN
1070
    73
1070
     1
1070
    44
1040
1.0
1070
    74
1070
     0
1000
MTEXTEND
1000
MTEXTBEGIN
1070
    73
1070
     1
1070
    44
1040
1.0
1070
    74
1070
     0
1000
MTEXTEND
  0
POINT
  5
B64
330
B51
100
AcDbEntity
  8
DEFPOINTS
 62
     0
100
AcDbPoint
 10
-97.80000300000001
 20
-2.999998599999996
 30
0.0
  0
POINT
  5
B65
330
B51
100
AcDbEntity
  8
DEFPOINTS
 62
     0
100
AcDbPoint
 10
-80.15499438063832
 20
72.849998
 30
0.0
  0
POINT
  5
B66
330
B51
100
AcDbEntity
  8
DEFPOINTS
 62
     0
100
AcDbPoint
 10
-146.6198934091009
 20
72.84999800000001
 30
0.0
  0
ENDBLK
  5
B5C
330
B51
100
AcDbEntity
  8
0
100
AcDbBlockEnd
  0
BLOCK
  5
B73
330
B69
100
AcDbEntity
  8
0
100
AcDbBlockBegin
  2
*D8
 70
     1
 10
0.0
 20
0.0
 30
0.0
  3
*D8
  1

  0
LINE
  5
B76
330
B69
100
AcDbEntity
  8
0
 62
     1
100
AcDbLine
 10
-97.80000300000001
 20
-2.999998599999996
 30
0.0
 11
-148.6198934091009
 21
-2.99999859999998
 31
0.0
  0
LINE
  5
B77
330
B69
100
AcDbEntity
  8
0
 62
     1
100
AcDbLine
 10
-81.75499700000001
 20
-82.550003
 30
0.0
 11
-148.6198934091009
 21
-82.55000299999997
 31
0.0
  0
LINE
  5
B78
330
B69
100
AcDbEntity
  8
0
 62
     1
100
AcDbLine
 10
-146.6198934091009
 20
-7.99999859999998
 30
0.0
 11
-146.6198934091009
 21
-77.55000299999998
 31
0.0
  0
SOLID
  5
B79
330
B69
100
AcDbEntity
  8
0
 62
     1
100
AcDbTrace
 10
-147.4532267424343
 20
-7.99999859999998
 30
0.0
 11
-145.7865600757676
 21
-7.999998599999985
 31
0.0
 12
-146.6198934091009
 22
-2.999998599999983
 32
0.0
 13
-146.6198934091009
 23
-2.999998599999983
 33
0.0
  0
SOLID
  5
B7A
330
B69
100
AcDbEntity
  8
0
 62
     1
100
AcDbTrace
 10
-147.4532267424343
 20
-77.55000299999998
 30
0.0
 11
-145.7865600757676
 21
-77.55000299999998
 31
0.0
 12
-146.6198934091009
 22
-82.55000299999997
 32
0.0
 13
-146.6198934091009
 23
-82.55000299999997
 33
0.0
  0
MTEXT
  5
B7B
330
B69
100
AcDbEntity
  8
0
 62
     1
100
AcDbMText
 10
-150.619893409101
 20
-42.77500080000001
 30
0.0
 40
5.0
 41
0.0
 71
     5
 72
     1
  1
79.55
 11
0.0000000000000001
 21
1.0
 31
0.0
1001
ACAD
1000
MTEXTBEGIN
1070
    73
1070
     1
1070
    44
1040
1.0
1070
    74
1070
     0
1000
MTEXTEND
1000
MTEXTBEGIN
1070
    73
1070
     1
1070
    44
1040
1.0
1070
    74
1070
     0
1000
MTEXTEND
1000
MTEXTBEGIN
1070
    73
1070
     1
1070
    44
1040
1.0
1070
    74
1070
     0
1000
MTEXTEND
  0
POINT
  5
B7C
330
B69
100
AcDbEntity
  8
DEFPOINTS
 62
     0
100
AcDbPoint
 10
-97.80000300000001
 20
-2.999998599999996
 30
0.0
  0
POINT
  5
B7D
330
B69
100
AcDbEntity
  8
DEFPOINTS
 62
     0
100
AcDbPoint
 10
-81.75499700000001
 20
-82.550003
 30
0.0
  0
POINT
  5
B7E
330
B69
100
AcDbEntity
  8
DEFPOINTS
 62
     0
100
AcDbPoint
 10
-146.6198934091009
 20
-82.55000299999997
 30
0.0
  0
ENDBLK
  5
B74
330
B69
100
AcDbEntity
  8
0
100
AcDbBlockEnd
  0
BLOCK
  5
B8B
330
B81
100
AcDbEntity
  8
0
100
AcDbBlockBegin
  2
*D9
 70
     1
 10
0.0
 20
0.0
 30
0.0
  3
*D9
  1

  0
LINE
  5
B8E
330
B81
100
AcDbEntity
  8
0
 62
     1
100
AcDbLine
 10
-76.199997
 20
-109.9795599999999
 30
0.0
 11
-119.3688942288945
 21
-109.9795599999999
 31
0.0
  0
LINE
  5
B8F
330
B81
100
AcDbEntity
  8
0
 62
     1
100
AcDbLine
 10
-76.199997
 20
-141.17956
 30
0.0
 11
-119.3688942288945
 21
-141.17956
 31
0.0
  0
LINE
  5
B90
330
B81
100
AcDbEntity
  8
0
 62
     1
100
AcDbLine
 10
-117.3688942288945
 20
-114.97956
 30
0.0
 11
-117.3688942288945
 21
-136.17956
 31
0.0
  0
SOLID
  5
B91
330
B81
100
AcDbEntity
  8
0
 62
     1
100
AcDbTrace
 10
-118.2022275622278
 20
-114.97956
 30
0.0
 11
-116.5355608955612
 21
-114.97956
 31
0.0
 12
-117.3688942288945
 22
-109.9795599999999
 32
0.0
 13
-117.3688942288945
 23
-109.9795599999999
 33
0.0
  0
SOLID
  5
B92
330
B81
100
AcDbEntity
  8
0
 62
     1
100
AcDbTrace
 10
-118.2022275622278
 20
-136.17956
 30
0.0
 11
-116.5355608955612
 21
-136.17956
 31
0.0
 12
-117.3688942288945
 22
-141.17956
 32
0.0
 13
-117.3688942288945
 23
-141.17956
 33
0.0
  0
MTEXT
  5
B93
330
B81
100
AcDbEntity
  8
0
 62
     1
100
AcDbMText
 10
-121.3688942288944
 20
-125.57956
 30
0.0
 40
5.0
 41
0.0
 71
     5
 72
     1
  1
31.2
 11
0.0000000000000001
 21
1.0
 31
0.0
1001
ACAD
1000
MTEXTBEGIN
1070
    73
1070
     1
1070
    44
1040
1.0
1070
    74
1070
     0
1000
MTEXTEND
1000
MTEXTBEGIN
1070
    73
1070
     1
1070
    44
1040
1.0
1070
    74
1070
     0
1000
MTEXTEND
1000
MTEXTBEGIN
1070
    73
1070
     1
1070
    44
1040
1.0
1070
    74
1070
     0
1000
MTEXTEND
  0
POINT
  5
B94
330
B81
100
AcDbEntity
  8
DEFPOINTS
 62
     0
100
AcDbPoint
 10
-76.199997
 20
-109.9795599999999
 30
0.0
  0
POINT
  5
B95
330
B81
100
AcDbEntity
  8
DEFPOINTS
 62
     0
100
AcDbPoint
 10
-76.199997
 20
-141.17956
 30
0.0
  0
POINT
  5
B96
330
B81
100
AcDbEntity
  8
DEFPOINTS
 62
     0
100
AcDbPoint
 10
-117.3688942288945
 20
-141.17956
 30
0.0
  0
ENDBLK
  5
B8C
330
B81
100
AcDbEntity
  8
0
100
AcDbBlockEnd
  0
BLOCK
  5
BA3
330
B99
100
AcDbEntity
  8
0
100
AcDbBlockBegin
  2
*D10
 70
     1
 10
0.0
 20
0.0
 30
0.0
  3
*D10
  1

  0
LINE
  5
C1A
330
B99
100
AcDbEntity
  8
0
 62
     1
100
AcDbLine
 10
-76.199997
 20
-149.67955
 30
0.0
 11
-76.199997
 21
-170.5999025972313
 31
0.0
  0
LINE
  5
C1B
330
B99
100
AcDbEntity
  8
0
 62
     1
100
AcDbLine
 10
-38.09999799999999
 20
-149.67955
 30
0.0
 11
-38.09999799999999
 21
-170.5999025972313
 31
0.0
  0
LINE
  5
C1C
330
B99
100
AcDbEntity
  8
0
 62
     1
100
AcDbLine
 10
-71.199997
 20
-168.5999025972311
 30
0.0
 11
-43.09999799999999
 21
-168.5999025972311
 31
0.0
  0
SOLID
  5
C1D
330
B99
100
AcDbEntity
  8
0
 62
     1
100
AcDbTrace
 10
-71.199997
 20
-167.7665692638979
 30
0.0
 11
-71.199997
 21
-169.4332359305645
 31
0.0
 12
-76.199997
 22
-168.5999025972311
 32
0.0
 13
-76.199997
 23
-168.5999025972311
 33
0.0
  0
SOLID
  5
C1E
330
B99
100
AcDbEntity
  8
0
 62
     1
100
AcDbTrace
 10
-43.09999799999999
 20
-167.7665692638979
 30
0.0
 11
-43.09999799999999
 21
-169.4332359305645
 31
0.0
 12
-38.09999799999999
 22
-168.5999025972311
 32
0.0
 13
-38.09999799999999
 23
-168.5999025972311
 33
0.0
  0
MTEXT
  5
C1F
330
B99
100
AcDbEntity
  8
0
 62
     1
100
AcDbMText
 10
-57.1499975
 20
-164.5999025972313
 30
0.0
 40
5.0
 41
0.0
 71
     5
 72
     1
  1
38.10
1001
ACAD
1000
MTEXTBEGIN
1070
    73
1070
     1
1070
    44
1040
1.0
1070
    74
1070
     0
1000
MTEXTEND
1000
MTEXTBEGIN
1070
    73
1070
     1
1070
    44
1040
1.0
1070
    74
1070
     0
1000
MTEXTEND
1000
MTEXTBEGIN
1070
    73
1070
     1
1070
    44
1040
1.0
1070
    74
1070
     0
1000
MTEXTEND
  0
POINT
  5
C20
330
B99
100
AcDbEntity
  8
DEFPOINTS
 62
     0
100
AcDbPoint
 10
-76.199997
 20
-149.67955
 30
0.0
  0
POINT
  5
C21
330
B99
100
AcDbEntity
  8
DEFPOINTS
 62
     0
100
AcDbPoint
 10
-38.09999799999999
 20
-149.67955
 30
0.0
  0
POINT
  5
C22
330
B99
100
AcDbEntity
  8
DEFPOINTS
 62
     0
100
AcDbPoint
 10
-38.09999799999999
 20
-168.5999025972311
 30
0.0
  0
ENDBLK
  5
BA4
330
B99
100
AcDbEntity
  8
0
100
AcDbBlockEnd
  0
BLOCK
  5
BBB
330
BB1
100
AcDbEntity
  8
0
100
AcDbBlockBegin
  2
*D11
 70
     1
 10
0.0
 20
0.0
 30
0.0
  3
*D11
  1

  0
LINE
  5
C23
330
BB1
100
AcDbEntity
  8
0
 62
     1
100
AcDbLine
 10
-38.09999799999999
 20
-149.67955
 30
0.0
 11
-38.09999799999999
 21
-170.5999025972313
 31
0.0
  0
LINE
  5
C24
330
BB1
100
AcDbEntity
  8
0
 62
     1
100
AcDbLine
 10
-0.0000000000000284
 20
-149.67955
 30
0.0
 11
-0.0000000000000297
 21
-170.5999025972313
 31
0.0
  0
LINE
  5
C25
330
BB1
100
AcDbEntity
  8
0
 62
     1
100
AcDbLine
 10
-33.09999799999999
 20
-168.5999025972311
 30
0.0
 11
-5.000000000000028
 21
-168.5999025972311
 31
0.0
  0
SOLID
  5
C26
330
BB1
100
AcDbEntity
  8
0
 62
     1
100
AcDbTrace
 10
-33.09999799999999
 20
-167.7665692638979
 30
0.0
 11
-33.09999799999999
 21
-169.4332359305645
 31
0.0
 12
-38.09999799999999
 22
-168.5999025972311
 32
0.0
 13
-38.09999799999999
 23
-168.5999025972311
 33
0.0
  0
SOLID
  5
C27
330
BB1
100
AcDbEntity
  8
0
 62
     1
100
AcDbTrace
 10
-5.000000000000028
 20
-167.7665692638979
 30
0.0
 11
-5.000000000000028
 21
-169.4332359305645
 31
0.0
 12
-0.0000000000000296
 22
-168.5999025972311
 32
0.0
 13
-0.0000000000000296
 23
-168.5999025972311
 33
0.0
  0
MTEXT
  5
C28
330
BB1
100
AcDbEntity
  8
0
 62
     1
100
AcDbMText
 10
-19.04999900000001
 20
-164.5999025972313
 30
0.0
 40
5.0
 41
0.0
 71
     5
 72
     1
  1
38.10
1001
ACAD
1000
MTEXTBEGIN
1070
    73
1070
     1
1070
    44
1040
1.0
1070
    74
1070
     0
1000
MTEXTEND
1000
MTEXTBEGIN
1070
    73
1070
     1
1070
    44
1040
1.0
1070
    74
1070
     0
1000
MTEXTEND
1000
MTEXTBEGIN
1070
    73
1070
     1
1070
    44
1040
1.0
1070
    74
1070
     0
1000
MTEXTEND
  0
POINT
  5
C29
330
BB1
100
AcDbEntity
  8
DEFPOINTS
 62
     0
100
AcDbPoint
 10
-38.09999799999999
 20
-149.67955
 30
0.0
  0
POINT
  5
C2A
330
BB1
100
AcDbEntity
  8
DEFPOINTS
 62
     0
100
AcDbPoint
 10
-0.0000000000000284
 20
-149.67955
 30
0.0
  0
POINT
  5
C2B
330
BB1
100
AcDbEntity
  8
DEFPOINTS
 62
     0
100
AcDbPoint
 10
-0.0000000000000296
 20
-168.5999025972311
 30
0.0
  0
ENDBLK
  5
BBC
330
BB1
100
AcDbEntity
  8
0
100
AcDbBlockEnd
  0
BLOCK
  5
BD3
330
BC9
100
AcDbEntity
  8
0
100
AcDbBlockBegin
  2
*D12
 70
     1
 10
0.0
 20
0.0
 30
0.0
  3
*D12
  1

  0
LINE
  5
BD6
330
BC9
100
AcDbEntity
  8
0
 62
     1
100
AcDbLine
 10
76.199997
 20
-107.47956
 30
0.0
 11
124.6399878287591
 21
-107.47956
 31
0.0
  0
LINE
  5
BD7
330
BC9
100
AcDbEntity
  8
0
 62
     1
100
AcDbLine
 10
76.199997
 20
-143.67956
 30
0.0
 11
124.6399878287591
 21
-143.67956
 31
0.0
  0
LINE
  5
BD8
330
BC9
100
AcDbEntity
  8
0
 62
     1
100
AcDbLine
 10
122.6399878287591
 20
-112.47956
 30
0.0
 11
122.6399878287591
 21
-138.67956
 31
0.0
  0
SOLID
  5
BD9
330
BC9
100
AcDbEntity
  8
0
 62
     1
100
AcDbTrace
 10
121.8066544954257
 20
-112.47956
 30
0.0
 11
123.4733211620923
 21
-112.47956
 31
0.0
 12
122.6399878287591
 22
-107.47956
 32
0.0
 13
122.6399878287591
 23
-107.47956
 33
0.0
  0
SOLID
  5
BDA
330
BC9
100
AcDbEntity
  8
0
 62
     1
100
AcDbTrace
 10
121.8066544954257
 20
-138.67956
 30
0.0
 11
123.4733211620923
 21
-138.67956
 31
0.0
 12
122.6399878287591
 22
-143.67956
 32
0.0
 13
122.6399878287591
 23
-143.67956
 33
0.0
  0
MTEXT
  5
BDB
330
BC9
100
AcDbEntity
  8
0
 62
     1
100
AcDbMText
 10
118.6399878287591
 20
-125.57956
 30
0.0
 40
5.0
 41
0.0
 71
     5
 72
     1
  1
36.2
 11
0.0000000000000001
 21
1.0
 31
0.0
1001
ACAD
1000
MTEXTBEGIN
1070
    73
1070
     1
1070
    44
1040
1.0
1070
    74
1070
     0
1000
MTEXTEND
1000
MTEXTBEGIN
1070
    73
1070
     1
1070
    44
1040
1.0
1070
    74
1070
     0
1000
MTEXTEND
1000
MTEXTBEGIN
1070
    73
1070
     1
1070
    44
1040
1.0
1070
    74
1070
     0
1000
MTEXTEND
  0
POINT
  5
BDC
330
BC9
100
AcDbEntity
  8
DEFPOINTS
 62
     0
100
AcDbPoint
 10
76.199997
 20
-107.47956
 30
0.0
  0
POINT
  5
BDD
330
BC9
100
AcDbEntity
  8
DEFPOINTS
 62
     0
100
AcDbPoint
 10
76.199997
 20
-143.67956
 30
0.0
  0
POINT
  5
BDE
330
BC9
100
AcDbEntity
  8
DEFPOINTS
 62
     0
100
AcDbPoint
 10
122.6399878287591
 20
-143.67956
 30
0.0
  0
ENDBLK
  5
BD4
330
BC9
100
AcDbEntity
  8
0
100
AcDbBlockEnd
  0
ENDSEC
  0
SECTION
  2
ENTITIES
  0
TEXT
  5
865
330
1F
100
AcDbEntity
  8
0
  6
CONTINUOUS
 62
     7
100
AcDbText
 10
-42.171744
 20
111.60365
 30
0.0
 40
7.199999799999996
  1

 41
0.8449619099999999
100
AcDbText
  0
ARC
  5
867
330
1F
100
AcDbEntity
  8
0
  6
CONTINUOUS
 62
     7
100
AcDbCircle
 10
-28.18499899999999
 20
-40.39999799999999
 30
0.0
 40
1.199999999999999
100
AcDbArc
 50
0.0
 51
90.0
  0
ARC
  5
868
330
1F
100
AcDbEntity
  8
0
  6
CONTINUOUS
 62
     7
100
AcDbCircle
 10
-48.01499899999999
 20
-40.39999799999999
 30
0.0
 40
1.199999999999999
100
AcDbArc
 50
90.0
 51
180.0
  0
ARC
  5
869
330
1F
100
AcDbEntity
  8
0
  6
CONTINUOUS
 62
     7
100
AcDbCircle
 10
-28.18499899999999
 20
-63.399998
 30
0.0
 40
1.199999999999999
100
AcDbArc
 50
270.0
 51
0.0
  0
ARC
  5
86A
330
1F
100
AcDbEntity
  8
0
  6
CONTINUOUS
 62
     7
100
AcDbCircle
 10
-48.01499899999999
 20
-63.399998
 30
0.0
 40
1.199999999999999
100
AcDbArc
 50
180.0
 51
270.0
  0
ARC
  5
86B
330
1F
100
AcDbEntity
  8
0
  6
CONTINUOUS
 62
     7
100
AcDbCircle
 10
9.914999999999999
 20
-40.39999799999999
 30
0.0
 40
1.199999999999999
100
AcDbArc
 50
0.0
 51
90.0
  0
ARC
  5
86C
330
1F
100
AcDbEntity
  8
0
  6
CONTINUOUS
 62
     7
100
AcDbCircle
 10
-9.914999999999999
 20
-40.39999799999999
 30
0.0
 40
1.199999999999999
100
AcDbArc
 50
90.0
 51
180.0
  0
ARC
  5
86D
330
1F
100
AcDbEntity
  8
0
  6
CONTINUOUS
 62
     7
100
AcDbCircle
 10
48.01499899999999
 20
-40.39999799999999
 30
0.0
 40
1.199999999999999
100
AcDbArc
 50
0.0
 51
90.0
  0
ARC
  5
86E
330
1F
100
AcDbEntity
  8
0
  6
CONTINUOUS
 62
     7
100
AcDbCircle
 10
28.18499899999999
 20
-63.399998
 30
0.0
 40
1.199999999999999
100
AcDbArc
 50
180.0
 51
270.0
  0
ARC
  5
86F
330
1F
100
AcDbEntity
  8
0
  6
CONTINUOUS
 62
     7
100
AcDbCircle
 10
86.114998
 20
-40.39999799999999
 30
0.0
 40
1.199999999999999
100
AcDbArc
 50
0.0
 51
90.0
  0
ARC
  5
870
330
1F
100
AcDbEntity
  8
0
  6
CONTINUOUS
 62
     7
100
AcDbCircle
 10
66.285004
 20
-40.39999799999999
 30
0.0
 40
1.199999999999999
100
AcDbArc
 50
90.0
 51
180.0
  0
ARC
  5
871
330
1F
100
AcDbEntity
  8
0
  6
CONTINUOUS
 62
     7
100
AcDbCircle
 10
28.18499899999999
 20
-40.39999799999999
 30
0.0
 40
1.199999999999999
100
AcDbArc
 50
90.0
 51
180.0
  0
ARC
  5
872
330
1F
100
AcDbEntity
  8
0
  6
CONTINUOUS
 62
     7
100
AcDbCircle
 10
9.914999999999999
 20
-63.399998
 30
0.0
 40
1.199999999999999
100
AcDbArc
 50
270.0
 51
0.0
  0
ARC
  5
873
330
1F
100
AcDbEntity
  8
0
  6
CONTINUOUS
 62
     7
100
AcDbCircle
 10
66.285004
 20
-63.399998
 30
0.0
 40
1.199999999999999
100
AcDbArc
 50
180.0
 51
270.0
  0
ARC
  5
874
330
1F
100
AcDbEntity
  8
0
  6
CONTINUOUS
 62
     7
100
AcDbCircle
 10
48.01499899999999
 20
-63.399998
 30
0.0
 40
1.199999999999999
100
AcDbArc
 50
270.0
 51
0.0
  0
ARC
  5
875
330
1F
100
AcDbEntity
  8
0
  6
CONTINUOUS
 62
     7
100
AcDbCircle
 10
-9.914999999999999
 20
-63.399998
 30
0.0
 40
1.199999999999999
100
AcDbArc
 50
180.0
 51
270.0
  0
ARC
  5
876
330
1F
100
AcDbEntity
  8
0
  6
CONTINUOUS
 62
     7
100
AcDbCircle
 10
86.114998
 20
-63.399998
 30
0.0
 40
1.199999999999999
100
AcDbArc
 50
270.0
 51
0.0
  0
ARC
  5
877
330
1F
100
AcDbEntity
  8
0
  6
CONTINUOUS
 62
     7
100
AcDbCircle
 10
-28.18499899999999
 20
8.5000019
 30
0.0
 40
1.199999999999999
100
AcDbArc
 50
0.0
 51
90.0
  0
ARC
  5
878
330
1F
100
AcDbEntity
  8
0
  6
CONTINUOUS
 62
     7
100
AcDbCircle
 10
-48.01499899999999
 20
8.5000019
 30
0.0
 40
1.199999999999999
100
AcDbArc
 50
90.0
 51
180.0
  0
ARC
  5
879
330
1F
100
AcDbEntity
  8
0
  6
CONTINUOUS
 62
     7
100
AcDbCircle
 10
-28.18499899999999
 20
-14.499998
 30
0.0
 40
1.199999999999999
100
AcDbArc
 50
270.0
 51
0.0
  0
ARC
  5
87A
330
1F
100
AcDbEntity
  8
0
  6
CONTINUOUS
 62
     7
100
AcDbCircle
 10
-48.01499899999999
 20
-14.499998
 30
0.0
 40
1.199999999999999
100
AcDbArc
 50
180.0
 51
270.0
  0
ARC
  5
87B
330
1F
100
AcDbEntity
  8
0
  6
CONTINUOUS
 62
     7
100
AcDbCircle
 10
9.914999999999999
 20
8.5000019
 30
0.0
 40
1.199999999999999
100
AcDbArc
 50
0.0
 51
90.0
  0
ARC
  5
87C
330
1F
100
AcDbEntity
  8
0
  6
CONTINUOUS
 62
     7
100
AcDbCircle
 10
-9.914999999999999
 20
8.5000019
 30
0.0
 40
1.199999999999999
100
AcDbArc
 50
90.0
 51
180.0
  0
ARC
  5
87D
330
1F
100
AcDbEntity
  8
0
  6
CONTINUOUS
 62
     7
100
AcDbCircle
 10
48.01499899999999
 20
8.5000019
 30
0.0
 40
1.199999999999999
100
AcDbArc
 50
0.0
 51
90.0
  0
ARC
  5
87E
330
1F
100
AcDbEntity
  8
0
  6
CONTINUOUS
 62
     7
100
AcDbCircle
 10
28.18499899999999
 20
-14.499998
 30
0.0
 40
1.199999999999999
100
AcDbArc
 50
180.0
 51
270.0
  0
ARC
  5
87F
330
1F
100
AcDbEntity
  8
0
  6
CONTINUOUS
 62
     7
100
AcDbCircle
 10
86.114998
 20
8.5000019
 30
0.0
 40
1.199999999999999
100
AcDbArc
 50
0.0
 51
90.0
  0
ARC
  5
880
330
1F
100
AcDbEntity
  8
0
  6
CONTINUOUS
 62
     7
100
AcDbCircle
 10
66.285004
 20
8.5000019
 30
0.0
 40
1.199999999999999
100
AcDbArc
 50
90.0
 51
180.0
  0
ARC
  5
881
330
1F
100
AcDbEntity
  8
0
  6
CONTINUOUS
 62
     7
100
AcDbCircle
 10
28.18499899999999
 20
8.5000019
 30
0.0
 40
1.199999999999999
100
AcDbArc
 50
90.0
 51
180.0
  0
ARC
  5
882
330
1F
100
AcDbEntity
  8
0
  6
CONTINUOUS
 62
     7
100
AcDbCircle
 10
9.914999999999999
 20
-14.499998
 30
0.0
 40
1.199999999999999
100
AcDbArc
 50
270.0
 51
0.0
  0
ARC
  5
883
330
1F
100
AcDbEntity
  8
0
  6
CONTINUOUS
 62
     7
100
AcDbCircle
 10
66.285004
 20
-14.499998
 30
0.0
 40
1.199999999999999
100
AcDbArc
 50
180.0
 51
270.0
  0
ARC
  5
884
330
1F
100
AcDbEntity
  8
0
  6
CONTINUOUS
 62
     7
100
AcDbCircle
 10
48.01499899999999
 20
-14.499998
 30
0.0
 40
1.199999999999999
100
AcDbArc
 50
270.0
 51
0.0
  0
ARC
  5
885
330
1F
100
AcDbEntity
  8
0
  6
CONTINUOUS
 62
     7
100
AcDbCircle
 10
-9.914999999999999
 20
-14.499998
 30
0.0
 40
1.199999999999999
100
AcDbArc
 50
180.0
 51
270.0
  0
ARC
  5
886
330
1F
100
AcDbEntity
  8
0
  6
CONTINUOUS
 62
     7
100
AcDbCircle
 10
86.114998
 20
-14.499998
 30
0.0
 40
1.199999999999999
100
AcDbArc
 50
270.0
 51
0.0
  0
ARC
  5
887
330
1F
100
AcDbEntity
  8
0
  6
CONTINUOUS
 62
     7
100
AcDbCircle
 10
0.0
 20
-82.319489
 30
0.0
 40
5.261118899999997
100
AcDbArc
 50
41.25857899999997
 51
138.74142
  0
ARC
  5
888
330
1F
100
AcDbEntity
  8
0
  6
CONTINUOUS
 62
     7
100
AcDbCircle
 10
38.09999799999999
 20
-82.319489
 30
0.0
 40
5.261118899999997
100
AcDbArc
 50
41.258569
 51
138.74143
  0
ARC
  5
889
102
{ACAD_REACTORS
330
B67
102
}
330
1F
100
AcDbEntity
  8
0
  6
CONTINUOUS
 62
     7
100
AcDbCircle
 10
-76.199997
 20
76.31948900000002
 30
0.0
 40
5.261118899999997
100
AcDbArc
 50
221.2585699999999
 51
318.7414299999998
  0
ARC
  5
88A
330
1F
100
AcDbEntity
  8
0
  6
CONTINUOUS
 62
     7
100
AcDbCircle
 10
-38.09999799999999
 20
76.31948900000002
 30
0.0
 40
5.261118899999997
100
AcDbArc
 50
221.2585699999999
 51
318.7414299999998
  0
ARC
  5
88B
330
1F
100
AcDbEntity
  8
0
  6
CONTINUOUS
 62
     7
100
AcDbCircle
 10
0.0
 20
76.31948900000002
 30
0.0
 40
5.261118899999997
100
AcDbArc
 50
221.25858
 51
318.74142
  0
ARC
  5
88C
330
1F
100
AcDbEntity
  8
0
  6
CONTINUOUS
 62
     7
100
AcDbCircle
 10
38.09999799999999
 20
76.31948900000002
 30
0.0
 40
5.261118899999997
100
AcDbArc
 50
221.2585699999999
 51
318.7414299999998
  0
ARC
  5
88D
330
1F
100
AcDbEntity
  8
0
  6
CONTINUOUS
 62
     7
100
AcDbCircle
 10
-42.874912
 20
-129.1617699999999
 30
0.0
 40
1.746168999999996
100
AcDbArc
 50
104.8366899999996
 51
119.99996
  0
ARC
  5
88E
330
1F
100
AcDbEntity
  8
0
  6
CONTINUOUS
 62
     7
100
AcDbCircle
 10
-43.187115
 20
-127.32573
 30
0.0
 40
1.746168999999996
100
AcDbArc
 50
105.5297799999999
 51
119.99996
  0
ARC
  5
88F
330
1F
100
AcDbEntity
  8
0
  6
CONTINUOUS
 62
     7
100
AcDbCircle
 10
-30.078709
 20
-125.57956
 30
0.0
 40
1.309288299999997
100
AcDbArc
 50
214.85426
 51
145.14574
  0
ARC
  5
890
330
1F
100
AcDbEntity
  8
0
  6
CONTINUOUS
 62
     7
100
AcDbCircle
 10
-32.58604
 20
-123.8333899999996
 30
0.0
 40
1.746168999999996
100
AcDbArc
 50
270.0
 51
325.1456
  0
ARC
  5
891
330
1F
100
AcDbEntity
  8
0
  6
CONTINUOUS
 62
     7
100
AcDbCircle
 10
-30.078709
 20
-125.57956
 30
0.0
 40
3.0557957
100
AcDbArc
 50
226.65826
 51
133.3417399999996
  0
ARC
  5
892
330
1F
100
AcDbEntity
  8
0
  6
CONTINUOUS
 62
     7
100
AcDbCircle
 10
-33.37453099999999
 20
-122.08722
 30
0.0
 40
1.746168999999996
100
AcDbArc
 50
287.35774
 51
313.34176
  0
ARC
  5
893
330
1F
100
AcDbEntity
  8
0
  6
CONTINUOUS
 62
     7
100
AcDbCircle
 10
-33.37453099999999
 20
-129.0718999999999
 30
0.0
 40
1.746168999999996
100
AcDbArc
 50
46.658245
 51
72.642257
  0
ARC
  5
894
330
1F
100
AcDbEntity
  8
0
  6
CONTINUOUS
 62
     7
100
AcDbCircle
 10
-32.58604
 20
-127.32573
 30
0.0
 40
1.746168999999996
100
AcDbArc
 50
34.854403
 51
90.0
  0
ARC
  5
895
330
1F
100
AcDbEntity
  8
0
  6
CONTINUOUS
 62
     7
100
AcDbCircle
 10
-42.874912
 20
-121.9973399999996
 30
0.0
 40
1.746168999999996
100
AcDbArc
 50
240.0000399999999
 51
255.16331
  0
ARC
  5
896
330
1F
100
AcDbEntity
  8
0
  6
CONTINUOUS
 62
     7
100
AcDbCircle
 10
-43.187115
 20
-123.8333899999996
 30
0.0
 40
1.746168999999996
100
AcDbArc
 50
240.0000399999999
 51
254.47022
  0
CIRCLE
  5
897
330
1F
100
AcDbEntity
  8
0
  6
CONTINUOUS
 62
     7
100
AcDbCircle
 10
-38.09999799999999
 20
-125.57956
 30
0.0
 40
5.5549998
  0
ARC
  5
898
330
1F
100
AcDbEntity
  8
0
  6
CONTINUOUS
 62
     7
100
AcDbCircle
 10
-71.425087
 20
-129.1617699999999
 30
0.0
 40
1.746168999999996
100
AcDbArc
 50
60.000038
 51
75.163434
  0
ARC
  5
899
330
1F
100
AcDbEntity
  8
0
  6
CONTINUOUS
 62
     7
100
AcDbCircle
 10
-71.11288499999997
 20
-127.32573
 30
0.0
 40
1.746168999999996
100
AcDbArc
 50
60.000038
 51
74.4701
  0
ARC
  5
89A
330
1F
100
AcDbEntity
  8
0
  6
CONTINUOUS
 62
     7
100
AcDbCircle
 10
-84.22129100000002
 20
-125.57956
 30
0.0
 40
1.309288299999997
100
AcDbArc
 50
34.854304
 51
325.1456999999998
  0
ARC
  5
89B
330
1F
100
AcDbEntity
  8
0
  6
CONTINUOUS
 62
     7
100
AcDbCircle
 10
-81.713959
 20
-123.8333899999996
 30
0.0
 40
1.746168999999996
100
AcDbArc
 50
214.8543699999998
 51
270.0
  0
ARC
  5
89C
330
1F
100
AcDbEntity
  8
0
  6
CONTINUOUS
 62
     7
100
AcDbCircle
 10
-84.22129100000002
 20
-125.57956
 30
0.0
 40
3.0557957
100
AcDbArc
 50
46.658209
 51
313.3417899999999
  0
CIRCLE
  5
89D
330
1F
100
AcDbEntity
  8
0
  6
CONTINUOUS
 62
     7
100
AcDbCircle
 10
-0.0000000000000284
 20
-125.57956
 30
0.0
 40
5.5549998
  0
ARC
  5
89E
330
1F
100
AcDbEntity
  8
0
  6
CONTINUOUS
 62
     7
100
AcDbCircle
 10
19.04999899999999
 20
-79.72923299999997
 30
0.0
 40
34.050327
100
AcDbArc
 50
247.4379799999998
 51
292.56202
  0
ARC
  5
89F
330
1F
100
AcDbEntity
  8
0
  6
CONTINUOUS
 62
     7
100
AcDbCircle
 10
-57.150002
 20
-9.289236099999998
 30
0.0
 40
102.24033
100
AcDbArc
 50
260.69677
 51
279.3032299999999
  0
ARC
  5
8A0
330
1F
100
AcDbEntity
  8
0
  6
CONTINUOUS
 62
     7
100
AcDbCircle
 10
-0.0000000000000284
 20
-125.57956
 30
0.0
 40
15.6
100
AcDbArc
 50
67.437984
 51
292.5620299999998
  0
ARC
  5
8A1
330
1F
100
AcDbEntity
  8
0
  6
CONTINUOUS
 62
     7
100
AcDbCircle
 10
38.09999799999999
 20
-125.57956
 30
0.0
 40
15.6
100
AcDbArc
 50
247.4379799999998
 51
112.5620199999999
  0
ARC
  5
8A2
330
1F
100
AcDbEntity
  8
0
  6
CONTINUOUS
 62
     7
100
AcDbCircle
 10
57.150002
 20
-81.00360100000001
 30
0.0
 40
30.375961
100
AcDbArc
 50
246.8600499999998
 51
293.1399399999999
  0
ARC
  5
8A3
102
{ACAD_REACTORS
330
BDF
102
}
330
1F
100
AcDbEntity
  8
0
  6
CONTINUOUS
 62
     7
100
AcDbCircle
 10
76.199997
 20
-125.57956
 30
0.0
 40
18.1
100
AcDbArc
 50
246.8600499999998
 51
113.1399499999997
  0
CIRCLE
  5
8A4
330
1F
100
AcDbEntity
  8
0
  6
CONTINUOUS
 62
     7
100
AcDbCircle
 10
38.09999799999999
 20
-125.57956
 30
0.0
 40
5.5549998
  0
ARC
  5
8A5
330
1F
100
AcDbEntity
  8
0
  6
CONTINUOUS
 62
     7
100
AcDbCircle
 10
57.150002
 20
-170.15552
 30
0.0
 40
30.375961
100
AcDbArc
 50
66.86006299999999
 51
113.1399499999997
  0
ARC
  5
8A6
330
1F
100
AcDbEntity
  8
0
  6
CONTINUOUS
 62
     7
100
AcDbCircle
 10
-0.0000000000000284
 20
-125.57956
 30
0.0
 40
18.1
100
AcDbArc
 50
42.77160499999999
 51
113.1399499999997
  0
ARC
  5
8A7
330
1F
100
AcDbEntity
  8
0
  6
CONTINUOUS
 62
     7
100
AcDbCircle
 10
-38.09999799999999
 20
-125.57956
 30
0.0
 40
18.1
100
AcDbArc
 50
232.5362
 51
293.1399399999999
  0
ARC
  5
8A8
330
1F
100
AcDbEntity
  8
0
  6
CONTINUOUS
 62
     7
100
AcDbCircle
 10
-19.04999899999999
 20
-170.15552
 30
0.0
 40
30.375961
100
AcDbArc
 50
66.86005699999999
 51
113.1399499999997
  0
ARC
  5
8A9
330
1F
100
AcDbEntity
  8
0
  6
CONTINUOUS
 62
     7
100
AcDbCircle
 10
-19.04999899999999
 20
-81.00360100000001
 30
0.0
 40
30.375961
100
AcDbArc
 50
246.8600499999998
 51
293.1399399999999
  0
ARC
  5
8AA
330
1F
100
AcDbEntity
  8
0
  6
CONTINUOUS
 62
     7
100
AcDbCircle
 10
-0.0000000000000284
 20
-125.57956
 30
0.0
 40
18.1
100
AcDbArc
 50
246.8600499999998
 51
317.2284
  0
ARC
  5
8AB
330
1F
100
AcDbEntity
  8
0
  6
CONTINUOUS
 62
     7
100
AcDbCircle
 10
-38.09999799999999
 20
-125.57956
 30
0.0
 40
18.1
100
AcDbArc
 50
66.86006
 51
127.4637999999999
  0
ARC
  5
8AC
330
1F
100
AcDbEntity
  8
0
  6
CONTINUOUS
 62
     7
100
AcDbCircle
 10
19.04999899999999
 20
-171.4298899999998
 30
0.0
 40
34.050327
100
AcDbArc
 50
67.437978
 51
112.5620199999999
  0
ARC
  5
8AD
330
1F
100
AcDbEntity
  8
0
  6
CONTINUOUS
 62
     7
100
AcDbCircle
 10
-38.09999799999999
 20
-125.57956
 30
0.0
 40
15.6
100
AcDbArc
 50
260.6967799999999
 51
99.30322099999997
  0
ARC
  5
8AE
330
1F
100
AcDbEntity
  8
0
  6
CONTINUOUS
 62
     7
100
AcDbCircle
 10
38.09999799999999
 20
-125.57956
 30
0.0
 40
18.1
100
AcDbArc
 50
222.7716
 51
293.1399499999999
  0
ARC
  5
8AF
330
1F
100
AcDbEntity
  8
0
  6
CONTINUOUS
 62
     7
100
AcDbCircle
 10
38.09999799999999
 20
-125.57956
 30
0.0
 40
18.1
100
AcDbArc
 50
66.860054
 51
137.2284
  0
ARC
  5
8B0
102
{ACAD_REACTORS
330
B97
102
}
330
1F
100
AcDbEntity
  8
0
  6
CONTINUOUS
 62
     7
100
AcDbCircle
 10
-76.199997
 20
-125.57956
 30
0.0
 40
15.6
100
AcDbArc
 50
80.69676499999998
 51
279.30324
  0
ARC
  5
8B1
330
1F
100
AcDbEntity
  8
0
  6
CONTINUOUS
 62
     7
100
AcDbCircle
 10
-80.92546799999999
 20
-129.0718999999999
 30
0.0
 40
1.746168999999996
100
AcDbArc
 50
107.3578599999999
 51
133.3416599999999
  0
ARC
  5
8B2
330
1F
100
AcDbEntity
  8
0
  6
CONTINUOUS
 62
     7
100
AcDbCircle
 10
-71.11288499999997
 20
-123.8333899999996
 30
0.0
 40
1.746168999999996
100
AcDbArc
 50
285.5299
 51
299.9999599999998
  0
CIRCLE
  5
8B3
330
1F
100
AcDbEntity
  8
0
  6
CONTINUOUS
 62
     7
100
AcDbCircle
 10
-76.199997
 20
-125.57956
 30
0.0
 40
5.5549998
  0
ARC
  5
8B4
330
1F
100
AcDbEntity
  8
0
  6
CONTINUOUS
 62
     7
100
AcDbCircle
 10
-80.92546799999999
 20
-122.08722
 30
0.0
 40
1.746168999999996
100
AcDbArc
 50
226.65834
 51
252.6421399999999
  0
ARC
  5
8B5
330
1F
100
AcDbEntity
  8
0
  6
CONTINUOUS
 62
     7
100
AcDbCircle
 10
-71.425087
 20
-121.9973399999996
 30
0.0
 40
1.746168999999996
100
AcDbArc
 50
284.83657
 51
299.9999599999998
  0
ARC
  5
8B6
330
1F
100
AcDbEntity
  8
0
  6
CONTINUOUS
 62
     7
100
AcDbCircle
 10
-81.713959
 20
-127.32573
 30
0.0
 40
1.746168999999996
100
AcDbArc
 50
90.0
 51
145.14563
  0
ARC
  5
8B7
330
1F
100
AcDbEntity
  8
0
  6
CONTINUOUS
 62
     7
100
AcDbCircle
 10
-57.150002
 20
-241.8698699999999
 30
0.0
 40
102.24033
100
AcDbArc
 50
80.696773
 51
99.30322500000002
  0
CIRCLE
  5
8B8
330
1F
100
AcDbEntity
  8
0
  6
CONTINUOUS
 62
     7
100
AcDbCircle
 10
76.199997
 20
-125.57956
 30
0.0
 40
7.864999799999996
  0
CIRCLE
  5
8B9
330
1F
100
AcDbEntity
  8
0
  6
CONTINUOUS
 62
     7
100
AcDbCircle
 10
76.199997
 20
-125.57956
 30
0.0
 40
5.5549998
  0
ARC
  5
8BA
330
1F
100
AcDbEntity
  8
0
  6
CONTINUOUS
 62
     7
100
AcDbCircle
 10
-85.41649599999997
 20
-78.09616899999998
 30
0.0
 40
1.746168999999996
100
AcDbArc
 50
90.0
 51
270.0
  0
ARC
  5
8BB
330
1F
100
AcDbEntity
  8
0
  6
CONTINUOUS
 62
     7
100
AcDbCircle
 10
-28.883501
 20
-78.09616899999998
 30
0.0
 40
1.746168999999996
100
AcDbArc
 50
270.0
 51
90.0
  0
ARC
  5
8BC
330
1F
100
AcDbEntity
  8
0
  6
CONTINUOUS
 62
     7
100
AcDbCircle
 10
-28.18499899999999
 20
57.400002
 30
0.0
 40
1.199999999999999
100
AcDbArc
 50
0.0
 51
90.0
  0
ARC
  5
8BD
330
1F
100
AcDbEntity
  8
0
  6
CONTINUOUS
 62
     7
100
AcDbCircle
 10
-48.01499899999999
 20
57.400002
 30
0.0
 40
1.199999999999999
100
AcDbArc
 50
90.0
 51
180.0
  0
ARC
  5
8BE
330
1F
100
AcDbEntity
  8
0
  6
CONTINUOUS
 62
     7
100
AcDbCircle
 10
-28.18499899999999
 20
34.400002
 30
0.0
 40
1.199999999999999
100
AcDbArc
 50
270.0
 51
0.0
  0
ARC
  5
8BF
330
1F
100
AcDbEntity
  8
0
  6
CONTINUOUS
 62
     7
100
AcDbCircle
 10
-48.01499899999999
 20
34.400002
 30
0.0
 40
1.199999999999999
100
AcDbArc
 50
180.0
 51
270.0
  0
ARC
  5
8C0
330
1F
100
AcDbEntity
  8
0
  6
CONTINUOUS
 62
     7
100
AcDbCircle
 10
9.914999999999999
 20
57.400002
 30
0.0
 40
1.199999999999999
100
AcDbArc
 50
0.0
 51
90.0
  0
ARC
  5
8C1
330
1F
100
AcDbEntity
  8
0
  6
CONTINUOUS
 62
     7
100
AcDbCircle
 10
-9.914999999999999
 20
57.400002
 30
0.0
 40
1.199999999999999
100
AcDbArc
 50
90.0
 51
180.0
  0
ARC
  5
8C2
330
1F
100
AcDbEntity
  8
0
  6
CONTINUOUS
 62
     7
100
AcDbCircle
 10
48.01499899999999
 20
57.400002
 30
0.0
 40
1.199999999999999
100
AcDbArc
 50
0.0
 51
90.0
  0
ARC
  5
8C3
330
1F
100
AcDbEntity
  8
0
  6
CONTINUOUS
 62
     7
100
AcDbCircle
 10
28.18499899999999
 20
34.400002
 30
0.0
 40
1.199999999999999
100
AcDbArc
 50
180.0
 51
270.0
  0
ARC
  5
8C4
330
1F
100
AcDbEntity
  8
0
  6
CONTINUOUS
 62
     7
100
AcDbCircle
 10
86.114998
 20
57.400002
 30
0.0
 40
1.199999999999999
100
AcDbArc
 50
0.0
 51
90.0
  0
ARC
  5
8C5
330
1F
100
AcDbEntity
  8
0
  6
CONTINUOUS
 62
     7
100
AcDbCircle
 10
66.285004
 20
57.400002
 30
0.0
 40
1.199999999999999
100
AcDbArc
 50
90.0
 51
180.0
  0
ARC
  5
8C6
330
1F
100
AcDbEntity
  8
0
  6
CONTINUOUS
 62
     7
100
AcDbCircle
 10
28.18499899999999
 20
57.400002
 30
0.0
 40
1.199999999999999
100
AcDbArc
 50
90.0
 51
180.0
  0
ARC
  5
8C7
330
1F
100
AcDbEntity
  8
0
  6
CONTINUOUS
 62
     7
100
AcDbCircle
 10
9.914999999999999
 20
34.400002
 30
0.0
 40
1.199999999999999
100
AcDbArc
 50
270.0
 51
0.0
  0
ARC
  5
8C8
330
1F
100
AcDbEntity
  8
0
  6
CONTINUOUS
 62
     7
100
AcDbCircle
 10
66.285004
 20
34.400002
 30
0.0
 40
1.199999999999999
100
AcDbArc
 50
180.0
 51
270.0
  0
ARC
  5
8C9
330
1F
100
AcDbEntity
  8
0
  6
CONTINUOUS
 62
     7
100
AcDbCircle
 10
48.01499899999999
 20
34.400002
 30
0.0
 40
1.199999999999999
100
AcDbArc
 50
270.0
 51
0.0
  0
ARC
  5
8CA
330
1F
100
AcDbEntity
  8
0
  6
CONTINUOUS
 62
     7
100
AcDbCircle
 10
-9.914999999999999
 20
34.400002
 30
0.0
 40
1.199999999999999
100
AcDbArc
 50
180.0
 51
270.0
  0
ARC
  5
8CB
330
1F
100
AcDbEntity
  8
0
  6
CONTINUOUS
 62
     7
100
AcDbCircle
 10
86.114998
 20
34.400002
 30
0.0
 40
1.199999999999999
100
AcDbArc
 50
270.0
 51
0.0
  0
LINE
  5
8CC
330
1F
100
AcDbEntity
  8
0
  6
CONTINUOUS
 62
     7
100
AcDbLine
 10
-91.80000300000001
 20
-76.349998
 30
0.0
 11
-22.5
 21
-76.349998
 31
0.0
  0
LINE
  5
8CD
330
1F
100
AcDbEntity
  8
0
  6
CONTINUOUS
 62
     7
100
AcDbLine
 10
-91.80000300000001
 20
-70.75
 30
0.0
 11
-22.5
 21
-70.75
 31
0.0
  0
LINE
  5
8CE
330
1F
100
AcDbEntity
  8
0
  6
CONTINUOUS
 62
     7
100
AcDbLine
 10
-70.644997
 20
-33.049999
 30
0.0
 11
-70.644997
 21
-70.75
 31
0.0
  0
LINE
  5
8CF
330
1F
100
AcDbEntity
  8
0
  6
CONTINUOUS
 62
     7
100
AcDbLine
 10
-81.75499700000001
 20
-33.049999
 30
0.0
 11
-81.75499700000001
 21
-70.75
 31
0.0
  0
LINE
  5
8D0
330
1F
100
AcDbEntity
  8
0
  6
CONTINUOUS
 62
     7
100
AcDbLine
 10
-49.215
 20
-40.39999799999999
 30
0.0
 11
-49.215
 21
-63.399998
 31
0.0
  0
LINE
  5
8D1
330
1F
100
AcDbEntity
  8
0
  6
CONTINUOUS
 62
     7
100
AcDbLine
 10
-26.985001
 20
-40.39999799999999
 30
0.0
 11
-26.985001
 21
-63.399998
 31
0.0
  0
LINE
  5
8D2
330
1F
100
AcDbEntity
  8
0
  6
CONTINUOUS
 62
     7
100
AcDbLine
 10
-11.115
 20
-40.39999799999999
 30
0.0
 11
-11.115
 21
-63.399998
 31
0.0
  0
LINE
  5
8D3
330
1F
100
AcDbEntity
  8
0
  6
CONTINUOUS
 62
     7
100
AcDbLine
 10
26.985001
 20
-40.39999799999999
 30
0.0
 11
26.985001
 21
-63.399998
 31
0.0
  0
LINE
  5
8D4
330
1F
100
AcDbEntity
  8
0
  6
CONTINUOUS
 62
     7
100
AcDbLine
 10
20.0
 20
-39.200001
 30
0.0
 11
94.30000300000001
 21
-39.200001
 31
0.0
  0
LINE
  5
8D5
330
1F
100
AcDbEntity
  8
0
  6
CONTINUOUS
 62
     7
100
AcDbLine
 10
20.0
 20
-64.599998
 30
0.0
 11
94.30000300000001
 21
-64.599998
 31
0.0
  0
LINE
  5
8D6
330
1F
100
AcDbEntity
  8
0
  6
CONTINUOUS
 62
     7
100
AcDbLine
 10
20.0
 20
-70.19999699999999
 30
0.0
 11
94.30000300000001
 21
-70.19999699999999
 31
0.0
  0
LINE
  5
8D7
330
1F
100
AcDbEntity
  8
0
  6
CONTINUOUS
 62
     7
100
AcDbLine
 10
11.115
 20
-40.39999799999999
 30
0.0
 11
11.115
 21
-63.399998
 31
0.0
  0
LINE
  5
8D8
330
1F
100
AcDbEntity
  8
0
  6
CONTINUOUS
 62
     7
100
AcDbLine
 10
20.0
 20
-33.599998
 30
0.0
 11
94.30000300000001
 21
-33.599998
 31
0.0
  0
LINE
  5
8D9
330
1F
100
AcDbEntity
  8
0
  6
CONTINUOUS
 62
     7
100
AcDbLine
 10
53.700001
 20
-70.75
 30
0.0
 11
53.700001
 21
-76.349998
 31
0.0
  0
LINE
  5
8DA
330
1F
100
AcDbEntity
  8
0
  6
CONTINUOUS
 62
     7
100
AcDbLine
 10
65.084999
 20
-40.39999799999999
 30
0.0
 11
65.084999
 21
-63.399998
 31
0.0
  0
LINE
  5
8DB
330
1F
100
AcDbEntity
  8
0
  6
CONTINUOUS
 62
     7
100
AcDbLine
 10
94.30000300000001
 20
-39.200001
 30
0.0
 11
94.30000300000001
 21
-33.599998
 31
0.0
  0
LINE
  5
8DC
330
1F
100
AcDbEntity
  8
0
  6
CONTINUOUS
 62
     7
100
AcDbLine
 10
-56.200001
 20
-39.200001
 30
0.0
 11
-56.200001
 21
-33.599998
 31
0.0
  0
LINE
  5
8DD
330
1F
100
AcDbEntity
  8
0
  6
CONTINUOUS
 62
     7
100
AcDbLine
 10
-15.6
 20
-76.349998
 30
0.0
 11
53.700001
 21
-76.349998
 31
0.0
  0
LINE
  5
8DE
330
1F
100
AcDbEntity
  8
0
  6
CONTINUOUS
 62
     7
100
AcDbLine
 10
-15.6
 20
-70.75
 30
0.0
 11
-15.6
 21
-76.349998
 31
0.0
  0
LINE
  5
8DF
330
1F
100
AcDbEntity
  8
0
  6
CONTINUOUS
 62
     7
100
AcDbLine
 10
20.0
 20
-39.200001
 30
0.0
 11
20.0
 21
-33.599998
 31
0.0
  0
LINE
  5
8E0
330
1F
100
AcDbEntity
  8
0
  6
CONTINUOUS
 62
     7
100
AcDbLine
 10
18.1
 20
-39.200001
 30
0.0
 11
18.1
 21
-33.599998
 31
0.0
  0
LINE
  5
8E1
330
1F
100
AcDbEntity
  8
0
  6
CONTINUOUS
 62
     7
100
AcDbLine
 10
94.30000300000001
 20
-64.599998
 30
0.0
 11
94.30000300000001
 21
-70.19999699999999
 31
0.0
  0
LINE
  5
8E2
330
1F
100
AcDbEntity
  8
0
  6
CONTINUOUS
 62
     7
100
AcDbLine
 10
20.0
 20
-64.599998
 30
0.0
 11
20.0
 21
-70.19999699999999
 31
0.0
  0
LINE
  5
8E3
330
1F
100
AcDbEntity
  8
0
  6
CONTINUOUS
 62
     7
100
AcDbLine
 10
53.700001
 20
-27.450001
 30
0.0
 11
53.700001
 21
-33.049999
 31
0.0
  0
LINE
  5
8E4
330
1F
100
AcDbEntity
  8
0
  6
CONTINUOUS
 62
     7
100
AcDbLine
 10
-91.80000300000001
 20
-33.049999
 30
0.0
 11
-22.5
 21
-33.049999
 31
0.0
  0
LINE
  5
8E5
330
1F
100
AcDbEntity
  8
0
  6
CONTINUOUS
 62
     7
100
AcDbLine
 10
-91.80000300000001
 20
-27.450001
 30
0.0
 11
-91.80000300000001
 21
-33.049999
 31
0.0
  0
LINE
  5
8E6
330
1F
100
AcDbEntity
  8
0
  6
CONTINUOUS
 62
     7
100
AcDbLine
 10
-56.200001
 20
-33.599998
 30
0.0
 11
18.1
 21
-33.599998
 31
0.0
  0
LINE
  5
8E7
330
1F
100
AcDbEntity
  8
0
  6
CONTINUOUS
 62
     7
100
AcDbLine
 10
-15.6
 20
-33.049999
 30
0.0
 11
53.700001
 21
-33.049999
 31
0.0
  0
LINE
  5
8E8
330
1F
100
AcDbEntity
  8
0
  6
CONTINUOUS
 62
     7
100
AcDbLine
 10
87.31500200000002
 20
-40.39999799999999
 30
0.0
 11
87.31500200000002
 21
-63.399998
 31
0.0
  0
LINE
  5
8E9
330
1F
100
AcDbEntity
  8
0
  6
CONTINUOUS
 62
     7
100
AcDbLine
 10
49.215
 20
-40.39999799999999
 30
0.0
 11
49.215
 21
-63.399998
 31
0.0
  0
LINE
  5
8EA
330
1F
100
AcDbEntity
  8
0
  6
CONTINUOUS
 62
     7
100
AcDbLine
 10
-15.6
 20
-70.75
 30
0.0
 11
53.700001
 21
-70.75
 31
0.0
  0
LINE
  5
8EB
330
1F
100
AcDbEntity
  8
0
  6
CONTINUOUS
 62
     7
100
AcDbLine
 10
-22.5
 20
-27.450001
 30
0.0
 11
-22.5
 21
-33.049999
 31
0.0
  0
LINE
  5
8EC
330
1F
100
AcDbEntity
  8
0
  6
CONTINUOUS
 62
     7
100
AcDbLine
 10
-91.80000300000001
 20
-70.75
 30
0.0
 11
-91.80000300000001
 21
-76.349998
 31
0.0
  0
LINE
  5
8ED
330
1F
100
AcDbEntity
  8
0
  6
CONTINUOUS
 62
     7
100
AcDbLine
 10
-15.6
 20
-27.450001
 30
0.0
 11
-15.6
 21
-33.049999
 31
0.0
  0
LINE
  5
8EE
330
1F
100
AcDbEntity
  8
0
  6
CONTINUOUS
 62
     7
100
AcDbLine
 10
-56.200001
 20
-64.599998
 30
0.0
 11
18.1
 21
-64.599998
 31
0.0
  0
LINE
  5
8EF
330
1F
100
AcDbEntity
  8
0
  6
CONTINUOUS
 62
     7
100
AcDbLine
 10
-56.200001
 20
-39.200001
 30
0.0
 11
18.1
 21
-39.200001
 31
0.0
  0
LINE
  5
8F0
330
1F
100
AcDbEntity
  8
0
  6
CONTINUOUS
 62
     7
100
AcDbLine
 10
-56.200001
 20
-70.19999699999999
 30
0.0
 11
18.1
 21
-70.19999699999999
 31
0.0
  0
LINE
  5
8F1
330
1F
100
AcDbEntity
  8
0
  6
CONTINUOUS
 62
     7
100
AcDbLine
 10
18.1
 20
-64.599998
 30
0.0
 11
18.1
 21
-70.19999699999999
 31
0.0
  0
LINE
  5
8F2
330
1F
100
AcDbEntity
  8
0
  6
CONTINUOUS
 62
     7
100
AcDbLine
 10
-56.200001
 20
-64.599998
 30
0.0
 11
-56.200001
 21
-70.19999699999999
 31
0.0
  0
LINE
  5
8F3
330
1F
100
AcDbEntity
  8
0
  6
CONTINUOUS
 62
     7
100
AcDbLine
 10
-22.5
 20
-70.75
 30
0.0
 11
-22.5
 21
-76.349998
 31
0.0
  0
LINE
  5
8F4
102
{ACAD_REACTORS
330
B4F
102
}
330
1F
100
AcDbEntity
  8
0
  6
CENTER
 62
     6
100
AcDbLine
 10
-97.80000300000001
 20
-51.89999799999998
 30
0.0
 11
100.2999999999999
 21
-51.89999799999998
 31
0.0
  0
LINE
  5
8F5
330
1F
100
AcDbEntity
  8
0
  6
CONTINUOUS
 62
     7
100
AcDbLine
 10
-91.80000300000001
 20
-27.44999899999999
 30
0.0
 11
-22.5
 21
-27.44999899999999
 31
0.0
  0
LINE
  5
8F6
330
1F
100
AcDbEntity
  8
0
  6
CONTINUOUS
 62
     7
100
AcDbLine
 10
-91.80000300000001
 20
-21.85
 30
0.0
 11
-22.5
 21
-21.85
 31
0.0
  0
LINE
  5
8F7
330
1F
100
AcDbEntity
  8
0
  6
CONTINUOUS
 62
     7
100
AcDbLine
 10
-70.644997
 20
15.84999899999998
 30
0.0
 11
-70.644997
 21
-21.85
 31
0.0
  0
LINE
  5
8F8
330
1F
100
AcDbEntity
  8
0
  6
CONTINUOUS
 62
     7
100
AcDbLine
 10
-81.75499700000001
 20
15.84999899999998
 30
0.0
 11
-81.75499700000001
 21
-21.85
 31
0.0
  0
LINE
  5
8F9
330
1F
100
AcDbEntity
  8
0
  6
CONTINUOUS
 62
     7
100
AcDbLine
 10
-49.215
 20
8.5000019
 30
0.0
 11
-49.215
 21
-14.499998
 31
0.0
  0
LINE
  5
8FA
330
1F
100
AcDbEntity
  8
0
  6
CONTINUOUS
 62
     7
100
AcDbLine
 10
-26.985001
 20
8.5000019
 30
0.0
 11
-26.985001
 21
-14.499998
 31
0.0
  0
LINE
  5
8FB
330
1F
100
AcDbEntity
  8
0
  6
CONTINUOUS
 62
     7
100
AcDbLine
 10
-11.115
 20
8.5000019
 30
0.0
 11
-11.115
 21
-14.499998
 31
0.0
  0
LINE
  5
8FC
330
1F
100
AcDbEntity
  8
0
  6
CONTINUOUS
 62
     7
100
AcDbLine
 10
26.985001
 20
8.5000019
 30
0.0
 11
26.985001
 21
-14.499998
 31
0.0
  0
LINE
  5
8FD
330
1F
100
AcDbEntity
  8
0
  6
CONTINUOUS
 62
     7
100
AcDbLine
 10
20.0
 20
9.6999989
 30
0.0
 11
94.30000300000001
 21
9.6999989
 31
0.0
  0
LINE
  5
8FE
330
1F
100
AcDbEntity
  8
0
  6
CONTINUOUS
 62
     7
100
AcDbLine
 10
20.0
 20
-15.699999
 30
0.0
 11
94.30000300000001
 21
-15.699999
 31
0.0
  0
LINE
  5
8FF
330
1F
100
AcDbEntity
  8
0
  6
CONTINUOUS
 62
     7
100
AcDbLine
 10
20.0
 20
-21.300001
 30
0.0
 11
94.30000300000001
 21
-21.300001
 31
0.0
  0
LINE
  5
900
330
1F
100
AcDbEntity
  8
0
  6
CONTINUOUS
 62
     7
100
AcDbLine
 10
11.115
 20
8.5000019
 30
0.0
 11
11.115
 21
-14.499998
 31
0.0
  0
LINE
  5
901
330
1F
100
AcDbEntity
  8
0
  6
CONTINUOUS
 62
     7
100
AcDbLine
 10
20.0
 20
15.300001
 30
0.0
 11
94.30000300000001
 21
15.300001
 31
0.0
  0
LINE
  5
902
330
1F
100
AcDbEntity
  8
0
  6
CONTINUOUS
 62
     7
100
AcDbLine
 10
53.700001
 20
-21.85
 30
0.0
 11
53.700001
 21
-27.44999899999999
 31
0.0
  0
LINE
  5
903
330
1F
100
AcDbEntity
  8
0
  6
CONTINUOUS
 62
     7
100
AcDbLine
 10
65.084999
 20
8.5000019
 30
0.0
 11
65.084999
 21
-14.499998
 31
0.0
  0
LINE
  5
904
330
1F
100
AcDbEntity
  8
0
  6
CONTINUOUS
 62
     7
100
AcDbLine
 10
94.30000300000001
 20
9.6999989
 30
0.0
 11
94.30000300000001
 21
15.300001
 31
0.0
  0
LINE
  5
905
330
1F
100
AcDbEntity
  8
0
  6
CONTINUOUS
 62
     7
100
AcDbLine
 10
-56.200001
 20
9.6999989
 30
0.0
 11
-56.200001
 21
15.300001
 31
0.0
  0
LINE
  5
906
330
1F
100
AcDbEntity
  8
0
  6
CONTINUOUS
 62
     7
100
AcDbLine
 10
-15.6
 20
-27.44999899999999
 30
0.0
 11
53.700001
 21
-27.44999899999999
 31
0.0
  0
LINE
  5
907
330
1F
100
AcDbEntity
  8
0
  6
CONTINUOUS
 62
     7
100
AcDbLine
 10
-15.6
 20
-21.85
 30
0.0
 11
-15.6
 21
-27.44999899999999
 31
0.0
  0
LINE
  5
908
330
1F
100
AcDbEntity
  8
0
  6
CONTINUOUS
 62
     7
100
AcDbLine
 10
20.0
 20
9.6999989
 30
0.0
 11
20.0
 21
15.300001
 31
0.0
  0
LINE
  5
909
330
1F
100
AcDbEntity
  8
0
  6
CONTINUOUS
 62
     7
100
AcDbLine
 10
18.1
 20
9.6999989
 30
0.0
 11
18.1
 21
15.300001
 31
0.0
  0
LINE
  5
90A
330
1F
100
AcDbEntity
  8
0
  6
CONTINUOUS
 62
     7
100
AcDbLine
 10
94.30000300000001
 20
-15.699999
 30
0.0
 11
94.30000300000001
 21
-21.300001
 31
0.0
  0
LINE
  5
90B
330
1F
100
AcDbEntity
  8
0
  6
CONTINUOUS
 62
     7
100
AcDbLine
 10
20.0
 20
-15.699999
 30
0.0
 11
20.0
 21
-21.300001
 31
0.0
  0
LINE
  5
90C
330
1F
100
AcDbEntity
  8
0
  6
CONTINUOUS
 62
     7
100
AcDbLine
 10
53.700001
 20
21.44999899999997
 30
0.0
 11
53.700001
 21
15.84999899999998
 31
0.0
  0
LINE
  5
90D
330
1F
100
AcDbEntity
  8
0
  6
CONTINUOUS
 62
     7
100
AcDbLine
 10
-91.80000300000001
 20
15.84999899999998
 30
0.0
 11
-22.5
 21
15.84999899999998
 31
0.0
  0
LINE
  5
90E
330
1F
100
AcDbEntity
  8
0
  6
CONTINUOUS
 62
     7
100
AcDbLine
 10
-91.80000300000001
 20
21.44999899999997
 30
0.0
 11
-91.80000300000001
 21
15.84999899999998
 31
0.0
  0
LINE
  5
90F
330
1F
100
AcDbEntity
  8
0
  6
CONTINUOUS
 62
     7
100
AcDbLine
 10
-56.200001
 20
15.300001
 30
0.0
 11
18.1
 21
15.300001
 31
0.0
  0
LINE
  5
910
330
1F
100
AcDbEntity
  8
0
  6
CONTINUOUS
 62
     7
100
AcDbLine
 10
-15.6
 20
15.84999899999998
 30
0.0
 11
53.700001
 21
15.84999899999998
 31
0.0
  0
LINE
  5
911
330
1F
100
AcDbEntity
  8
0
  6
CONTINUOUS
 62
     7
100
AcDbLine
 10
87.31500200000002
 20
8.5000019
 30
0.0
 11
87.31500200000002
 21
-14.499998
 31
0.0
  0
LINE
  5
912
330
1F
100
AcDbEntity
  8
0
  6
CONTINUOUS
 62
     7
100
AcDbLine
 10
49.215
 20
8.5000019
 30
0.0
 11
49.215
 21
-14.499998
 31
0.0
  0
LINE
  5
913
330
1F
100
AcDbEntity
  8
0
  6
CONTINUOUS
 62
     7
100
AcDbLine
 10
-15.6
 20
-21.85
 30
0.0
 11
53.700001
 21
-21.85
 31
0.0
  0
LINE
  5
914
330
1F
100
AcDbEntity
  8
0
  6
CONTINUOUS
 62
     7
100
AcDbLine
 10
-22.5
 20
21.44999899999997
 30
0.0
 11
-22.5
 21
15.84999899999998
 31
0.0
  0
LINE
  5
915
330
1F
100
AcDbEntity
  8
0
  6
CONTINUOUS
 62
     7
100
AcDbLine
 10
-91.80000300000001
 20
-21.85
 30
0.0
 11
-91.80000300000001
 21
-27.44999899999999
 31
0.0
  0
LINE
  5
916
330
1F
100
AcDbEntity
  8
0
  6
CONTINUOUS
 62
     7
100
AcDbLine
 10
-15.6
 20
21.44999899999997
 30
0.0
 11
-15.6
 21
15.84999899999998
 31
0.0
  0
LINE
  5
917
330
1F
100
AcDbEntity
  8
0
  6
CONTINUOUS
 62
     7
100
AcDbLine
 10
-56.200001
 20
-15.699999
 30
0.0
 11
18.1
 21
-15.699999
 31
0.0
  0
LINE
  5
918
330
1F
100
AcDbEntity
  8
0
  6
CONTINUOUS
 62
     7
100
AcDbLine
 10
-56.200001
 20
9.6999989
 30
0.0
 11
18.1
 21
9.6999989
 31
0.0
  0
LINE
  5
919
330
1F
100
AcDbEntity
  8
0
  6
CONTINUOUS
 62
     7
100
AcDbLine
 10
-56.200001
 20
-21.300001
 30
0.0
 11
18.1
 21
-21.300001
 31
0.0
  0
LINE
  5
91A
330
1F
100
AcDbEntity
  8
0
  6
CONTINUOUS
 62
     7
100
AcDbLine
 10
18.1
 20
-15.699999
 30
0.0
 11
18.1
 21
-21.300001
 31
0.0
  0
LINE
  5
91B
330
1F
100
AcDbEntity
  8
0
  6
CONTINUOUS
 62
     7
100
AcDbLine
 10
-56.200001
 20
-15.699999
 30
0.0
 11
-56.200001
 21
-21.300001
 31
0.0
  0
LINE
  5
91C
330
1F
100
AcDbEntity
  8
0
  6
CONTINUOUS
 62
     7
100
AcDbLine
 10
-22.5
 20
-21.85
 30
0.0
 11
-22.5
 21
-27.44999899999999
 31
0.0
  0
LINE
  5
91D
102
{ACAD_REACTORS
330
B37
330
B4F
330
B67
330
B7F
102
}
330
1F
100
AcDbEntity
  8
0
  6
CENTER
 62
     6
100
AcDbLine
 10
-97.80000300000001
 20
-2.999998599999996
 30
0.0
 11
100.2999999999999
 21
-2.999998599999996
 31
0.0
  0
LINE
  5
91E
330
1F
100
AcDbEntity
  8
0
  6
CONTINUOUS
 62
     7
100
AcDbLine
 10
42.05499999999999
 20
-78.849998
 30
0.0
 11
43.65500299999999
 21
-77.25
 31
0.0
  0
LINE
  5
91F
330
1F
100
AcDbEntity
  8
0
  6
CONTINUOUS
 62
     7
100
AcDbLine
 10
3.9550016
 20
-78.849998
 30
0.0
 11
5.555001299999998
 21
-77.25
 31
0.0
  0
LINE
  5
920
330
1F
100
AcDbEntity
  8
0
  6
CONTINUOUS
 62
     7
100
AcDbLine
 10
-5.5549998
 20
-77.25
 30
0.0
 11
-5.5549998
 21
-76.349998
 31
0.0
  0
LINE
  5
921
330
1F
100
AcDbEntity
  8
0
  6
CONTINUOUS
 62
     7
100
AcDbLine
 10
-5.5549998
 20
-77.25
 30
0.0
 11
-3.955000399999997
 21
-78.849998
 31
0.0
  0
LINE
  5
922
330
1F
100
AcDbEntity
  8
0
  6
CONTINUOUS
 62
     7
100
AcDbLine
 10
43.65499899999998
 20
-77.25
 30
0.0
 11
43.65499899999998
 21
-76.349998
 31
0.0
  0
LINE
  5
923
330
1F
100
AcDbEntity
  8
0
  6
CONTINUOUS
 62
     7
100
AcDbLine
 10
5.5549998
 20
-77.25
 30
0.0
 11
5.5549998
 21
-76.349998
 31
0.0
  0
LINE
  5
924
330
1F
100
AcDbEntity
  8
0
  6
CONTINUOUS
 62
     7
100
AcDbLine
 10
-3.9549997
 20
-78.849998
 30
0.0
 11
3.954999899999998
 21
-78.849998
 31
0.0
  0
LINE
  5
925
330
1F
100
AcDbEntity
  8
0
  6
CONTINUOUS
 62
     7
100
AcDbLine
 10
34.14499699999999
 20
-78.849998
 30
0.0
 11
42.05499999999999
 21
-78.849998
 31
0.0
  0
LINE
  5
926
330
1F
100
AcDbEntity
  8
0
  6
CONTINUOUS
 62
     7
100
AcDbLine
 10
32.544998
 20
-77.25
 30
0.0
 11
32.544998
 21
-76.349998
 31
0.0
  0
LINE
  5
927
330
1F
100
AcDbEntity
  8
0
  6
CONTINUOUS
 62
     7
100
AcDbLine
 10
34.14499699999999
 20
-78.849998
 30
0.0
 11
32.544998
 21
-77.25
 31
0.0
  0
LINE
  5
928
330
1F
100
AcDbEntity
  8
0
  6
CONTINUOUS
 62
     7
100
AcDbLine
 10
42.05499999999999
 20
72.850006
 30
0.0
 11
43.65499899999998
 21
71.25
 31
0.0
  0
LINE
  5
929
330
1F
100
AcDbEntity
  8
0
  6
CONTINUOUS
 62
     7
100
AcDbLine
 10
34.14499699999999
 20
72.850006
 30
0.0
 11
32.544998
 21
71.25
 31
0.0
  0
LINE
  5
92A
330
1F
100
AcDbEntity
  8
0
  6
CONTINUOUS
 62
     7
100
AcDbLine
 10
3.954998499999998
 20
72.849998
 30
0.0
 11
5.5549979
 21
71.25
 31
0.0
  0
LINE
  5
92B
330
1F
100
AcDbEntity
  8
0
  6
CONTINUOUS
 62
     7
100
AcDbLine
 10
-5.5549974
 20
71.25
 30
0.0
 11
-3.954997799999997
 21
72.849998
 31
0.0
  0
LINE
  5
92C
330
1F
100
AcDbEntity
  8
0
  6
CONTINUOUS
 62
     7
100
AcDbLine
 10
-34.14499699999999
 20
72.850006
 30
0.0
 11
-32.544998
 21
71.25
 31
0.0
  0
LINE
  5
92D
330
1F
100
AcDbEntity
  8
0
  6
CONTINUOUS
 62
     7
100
AcDbLine
 10
-43.65499899999998
 20
71.25
 30
0.0
 11
-42.05499999999999
 21
72.850006
 31
0.0
  0
LINE
  5
92E
330
1F
100
AcDbEntity
  8
0
  6
CONTINUOUS
 62
     7
100
AcDbLine
 10
-72.24499499999997
 20
72.849998
 30
0.0
 11
-70.644997
 21
71.25
 31
0.0
  0
LINE
  5
92F
330
1F
100
AcDbEntity
  8
0
  6
CONTINUOUS
 62
     7
100
AcDbLine
 10
-81.75499700000001
 20
71.25
 30
0.0
 11
-80.154999
 21
72.849998
 31
0.0
  0
LINE
  5
930
330
1F
100
AcDbEntity
  8
0
  6
CONTINUOUS
 62
     7
100
AcDbLine
 10
34.14499699999999
 20
72.849998
 30
0.0
 11
42.05499999999999
 21
72.849998
 31
0.0
  0
LINE
  5
931
330
1F
100
AcDbEntity
  8
0
  6
CONTINUOUS
 62
     7
100
AcDbLine
 10
-3.9549997
 20
72.849998
 30
0.0
 11
3.954999899999998
 21
72.849998
 31
0.0
  0
LINE
  5
932
330
1F
100
AcDbEntity
  8
0
  6
CONTINUOUS
 62
     7
100
AcDbLine
 10
-42.05499999999999
 20
72.849998
 30
0.0
 11
-34.14499699999999
 21
72.849998
 31
0.0
  0
LINE
  5
933
102
{ACAD_REACTORS
330
B67
102
}
330
1F
100
AcDbEntity
  8
0
  6
CONTINUOUS
 62
     7
100
AcDbLine
 10
-80.154999
 20
72.849998
 30
0.0
 11
-72.24499499999997
 21
72.849998
 31
0.0
  0
LINE
  5
934
330
1F
100
AcDbEntity
  8
0
  6
CONTINUOUS
 62
     7
100
AcDbLine
 10
42.027977
 20
-121.65158
 30
0.0
 11
42.027977
 21
-129.5075399999996
 31
0.0
  0
LINE
  5
935
330
1F
100
AcDbEntity
  8
0
  6
CONTINUOUS
 62
     7
100
AcDbLine
 10
42.027977
 20
-129.5075399999996
 30
0.0
 11
34.17202
 21
-129.5075399999996
 31
0.0
  0
LINE
  5
936
330
1F
100
AcDbEntity
  8
0
  6
CONTINUOUS
 62
     7
100
AcDbLine
 10
34.17202
 20
-121.65158
 30
0.0
 11
34.17202
 21
-129.5075399999996
 31
0.0
  0
LINE
  5
937
330
1F
100
AcDbEntity
  8
0
  6
CONTINUOUS
 62
     7
100
AcDbLine
 10
42.027977
 20
-121.65158
 30
0.0
 11
34.17202
 21
-121.65158
 31
0.0
  0
LINE
  5
938
330
1F
100
AcDbEntity
  8
0
  6
CONTINUOUS
 62
     7
100
AcDbLine
 10
3.927977999999998
 20
-121.65158
 30
0.0
 11
3.927977999999998
 21
-129.5075399999996
 31
0.0
  0
LINE
  5
939
330
1F
100
AcDbEntity
  8
0
  6
CONTINUOUS
 62
     7
100
AcDbLine
 10
3.927977999999998
 20
-129.5075399999996
 30
0.0
 11
-3.927977999999998
 21
-129.5075399999996
 31
0.0
  0
LINE
  5
93A
330
1F
100
AcDbEntity
  8
0
  6
CONTINUOUS
 62
     7
100
AcDbLine
 10
-3.927977999999998
 20
-121.65158
 30
0.0
 11
-3.927977999999998
 21
-129.5075399999996
 31
0.0
  0
LINE
  5
93B
330
1F
100
AcDbEntity
  8
0
  6
CONTINUOUS
 62
     7
100
AcDbLine
 10
3.927977999999998
 20
-121.65158
 30
0.0
 11
-3.927977999999998
 21
-121.65158
 31
0.0
  0
LINE
  5
93C
330
1F
100
AcDbEntity
  8
0
  6
CONTINUOUS
 62
     7
100
AcDbLine
 10
-51.24522
 20
-129.96178
 30
0.0
 11
-50.372135
 21
-131.474
 31
0.0
  0
LINE
  5
93D
330
1F
100
AcDbEntity
  8
0
  6
CONTINUOUS
 62
     7
100
AcDbLine
 10
-44.0602
 20
-125.8135
 30
0.0
 11
-51.24522
 21
-129.96178
 31
0.0
  0
LINE
  5
93E
330
1F
100
AcDbEntity
  8
0
  6
CONTINUOUS
 62
     7
100
AcDbLine
 10
-51.24522
 20
-121.1973299999999
 30
0.0
 11
-50.372135
 21
-119.6851
 31
0.0
  0
LINE
  5
93F
330
1F
100
AcDbEntity
  8
0
  6
CONTINUOUS
 62
     7
100
AcDbLine
 10
-44.06019599999999
 20
-125.3456099999999
 30
0.0
 11
-51.24522
 21
-121.1973299999999
 31
0.0
  0
LINE
  5
940
330
1F
100
AcDbEntity
  8
0
  6
CONTINUOUS
 62
     7
100
AcDbLine
 10
-43.74799699999999
 20
-127.64956
 30
0.0
 11
-50.372135
 21
-131.474
 31
0.0
  0
LINE
  5
941
330
1F
100
AcDbEntity
  8
0
  6
CONTINUOUS
 62
     7
100
AcDbLine
 10
-43.747993
 20
-123.5095599999999
 30
0.0
 11
-50.372135
 21
-119.6851
 31
0.0
  0
LINE
  5
942
330
1F
100
AcDbEntity
  8
0
  6
CONTINUOUS
 62
     7
100
AcDbLine
 10
-70.552002
 20
-123.5095599999999
 30
0.0
 11
-63.92785599999999
 21
-119.6851099999999
 31
0.0
  0
LINE
  5
943
102
{ACAD_REACTORS
330
BDF
102
}
330
1F
100
AcDbEntity
  8
0
  6
CENTER
 62
     6
100
AcDbLine
 10
76.199997
 20
-101.47956
 30
0.0
 11
76.199997
 21
-149.67955
 31
0.0
  0
LINE
  5
944
330
1F
100
AcDbEntity
  8
0
  6
CONTINUOUS
 62
     7
100
AcDbLine
 10
-70.239799
 20
-125.81351
 30
0.0
 11
-63.054779
 21
-129.96178
 31
0.0
  0
LINE
  5
945
330
1F
100
AcDbEntity
  8
0
  6
CONTINUOUS
 62
     7
100
AcDbLine
 10
-70.239799
 20
-125.3456099999999
 30
0.0
 11
-63.054771
 21
-121.1973299999999
 31
0.0
  0
LINE
  5
946
330
1F
100
AcDbEntity
  8
0
  6
CONTINUOUS
 62
     7
100
AcDbLine
 10
-70.552002
 20
-127.64956
 30
0.0
 11
-63.927864
 21
-131.4740099999999
 31
0.0
  0
LINE
  5
947
330
1F
100
AcDbEntity
  8
0
  6
CONTINUOUS
 62
     7
100
AcDbLine
 10
-63.054779
 20
-129.96178
 30
0.0
 11
-63.927864
 21
-131.4740099999999
 31
0.0
  0
LINE
  5
948
330
1F
100
AcDbEntity
  8
0
  6
CONTINUOUS
 62
     7
100
AcDbLine
 10
-63.054771
 20
-121.1973299999999
 30
0.0
 11
-63.92785599999999
 21
-119.6851099999999
 31
0.0
  0
LINE
  5
949
102
{ACAD_REACTORS
330
B97
330
BAF
102
}
330
1F
100
AcDbEntity
  8
0
  6
CENTER
 62
     6
100
AcDbLine
 10
-76.199997
 20
-101.47956
 30
0.0
 11
-76.199997
 21
-149.67955
 31
0.0
  0
LINE
  5
94A
102
{ACAD_REACTORS
330
BAF
102
}
330
1F
100
AcDbEntity
  8
0
  6
CENTER
 62
     6
100
AcDbLine
 10
-38.09999799999999
 20
-101.47956
 30
0.0
 11
-38.09999799999999
 21
-149.67955
 31
0.0
  0
LINE
  5
94B
330
1F
100
AcDbEntity
  8
0
  6
CENTER
 62
     6
100
AcDbLine
 10
38.09999799999999
 20
-101.47956
 30
0.0
 11
38.09999799999999
 21
-149.67955
 31
0.0
  0
LINE
  5
94C
102
{ACAD_REACTORS
330
BC7
102
}
330
1F
100
AcDbEntity
  8
0
  6
CENTER
 62
     6
100
AcDbLine
 10
-0.0000000000000284
 20
-101.47956
 30
0.0
 11
-0.0000000000000284
 21
-149.67955
 31
0.0
  0
LINE
  5
94D
330
1F
100
AcDbEntity
  8
0
  6
CENTER
 62
     6
100
AcDbLine
 10
-97.80000300000001
 20
-125.57956
 30
0.0
 11
100.2999999999999
 21
-125.57956
 31
0.0
  0
LINE
  5
94E
330
1F
100
AcDbEntity
  8
0
  6
CONTINUOUS
 62
     7
100
AcDbLine
 10
-64.80078899999999
 20
-79.84233899999998
 30
0.0
 11
-63.054619
 21
-78.09616899999998
 31
0.0
  0
LINE
  5
94F
330
1F
100
AcDbEntity
  8
0
  6
CONTINUOUS
 62
     7
100
AcDbLine
 10
-85.41649599999997
 20
-79.84233899999998
 30
0.0
 11
-81.75499700000001
 21
-79.84233899999998
 31
0.0
  0
LINE
  5
950
330
1F
100
AcDbEntity
  8
0
  6
CONTINUOUS
 62
     7
100
AcDbLine
 10
-63.054619
 20
-78.09616899999998
 30
0.0
 11
-64.80078899999999
 21
-76.349998
 31
0.0
  0
LINE
  5
951
330
1F
100
AcDbEntity
  8
0
  6
CONTINUOUS
 62
     7
100
AcDbLine
 10
-43.65499899999998
 20
-79.84233899999998
 30
0.0
 11
-43.65499899999998
 21
-82.550003
 31
0.0
  0
LINE
  5
952
102
{ACAD_REACTORS
330
B7F
102
}
330
1F
100
AcDbEntity
  8
0
  6
CONTINUOUS
 62
     7
100
AcDbLine
 10
-81.75499700000001
 20
-82.550003
 30
0.0
 11
-70.644997
 21
-82.550003
 31
0.0
  0
LINE
  5
953
330
1F
100
AcDbEntity
  8
0
  6
CONTINUOUS
 62
     7
100
AcDbLine
 10
-70.644997
 20
-76.349998
 30
0.0
 11
-70.644997
 21
-82.550003
 31
0.0
  0
LINE
  5
954
330
1F
100
AcDbEntity
  8
0
  6
CONTINUOUS
 62
     7
100
AcDbLine
 10
-81.75499700000001
 20
71.25
 30
0.0
 11
-81.75499700000001
 21
70.349998
 31
0.0
  0
LINE
  5
955
330
1F
100
AcDbEntity
  8
0
  6
CONTINUOUS
 62
     7
100
AcDbLine
 10
-91.80000300000001
 20
21.450001
 30
0.0
 11
-22.5
 21
21.450001
 31
0.0
  0
LINE
  5
956
330
1F
100
AcDbEntity
  8
0
  6
CONTINUOUS
 62
     7
100
AcDbLine
 10
-81.75499700000001
 20
-76.349998
 30
0.0
 11
-81.75499700000001
 21
-82.550003
 31
0.0
  0
LINE
  5
957
330
1F
100
AcDbEntity
  8
0
  6
CONTINUOUS
 62
     7
100
AcDbLine
 10
-91.80000300000001
 20
27.049999
 30
0.0
 11
-22.5
 21
27.049999
 31
0.0
  0
LINE
  5
958
330
1F
100
AcDbEntity
  8
0
  6
CONTINUOUS
 62
     7
100
AcDbLine
 10
-51.24537700000001
 20
-78.09616899999998
 30
0.0
 11
-49.49920999999999
 21
-76.349998
 31
0.0
  0
LINE
  5
959
330
1F
100
AcDbEntity
  8
0
  6
CONTINUOUS
 62
     7
100
AcDbLine
 10
-28.883501
 20
-79.84233899999998
 30
0.0
 11
-32.544998
 21
-79.84233899999998
 31
0.0
  0
LINE
  5
95A
102
{ACAD_REACTORS
330
B1F
102
}
330
1F
100
AcDbEntity
  8
0
  6
CONTINUOUS
 62
     7
100
AcDbLine
 10
-70.644997
 20
64.75
 30
0.0
 11
-70.644997
 21
27.049999
 31
0.0
  0
LINE
  5
95B
102
{ACAD_REACTORS
330
B1F
102
}
330
1F
100
AcDbEntity
  8
0
  6
CONTINUOUS
 62
     7
100
AcDbLine
 10
-81.75499700000001
 20
64.75
 30
0.0
 11
-81.75499700000001
 21
27.049999
 31
0.0
  0
LINE
  5
95C
330
1F
100
AcDbEntity
  8
0
  6
CONTINUOUS
 62
     7
100
AcDbLine
 10
-43.65499899999998
 20
-76.349998
 30
0.0
 11
-43.65499899999998
 21
-79.84233899999998
 31
0.0
  0
LINE
  5
95D
330
1F
100
AcDbEntity
  8
0
  6
CONTINUOUS
 62
     7
100
AcDbLine
 10
-32.544998
 20
-76.349998
 30
0.0
 11
-32.544998
 21
-82.550003
 31
0.0
  0
LINE
  5
95E
330
1F
100
AcDbEntity
  8
0
  6
CONTINUOUS
 62
     7
100
AcDbLine
 10
-43.65499899999998
 20
-82.550003
 30
0.0
 11
-32.544998
 21
-82.550003
 31
0.0
  0
LINE
  5
95F
330
1F
100
AcDbEntity
  8
0
  6
CONTINUOUS
 62
     7
100
AcDbLine
 10
-70.644997
 20
-79.84233899999998
 30
0.0
 11
-64.80078899999999
 21
-79.84233899999998
 31
0.0
  0
LINE
  5
960
330
1F
100
AcDbEntity
  8
0
  6
CONTINUOUS
 62
     7
100
AcDbLine
 10
-49.49920699999999
 20
-79.84233899999998
 30
0.0
 11
-51.24537700000001
 21
-78.09616899999998
 31
0.0
  0
LINE
  5
961
330
1F
100
AcDbEntity
  8
0
  6
CONTINUOUS
 62
     7
100
AcDbLine
 10
-49.215
 20
57.400002
 30
0.0
 11
-49.215
 21
34.400002
 31
0.0
  0
LINE
  5
962
330
1F
100
AcDbEntity
  8
0
  6
CONTINUOUS
 62
     7
100
AcDbLine
 10
-26.985001
 20
57.400002
 30
0.0
 11
-26.985001
 21
34.400002
 31
0.0
  0
LINE
  5
963
330
1F
100
AcDbEntity
  8
0
  6
CONTINUOUS
 62
     7
100
AcDbLine
 10
-11.115
 20
57.400002
 30
0.0
 11
-11.115
 21
34.400002
 31
0.0
  0
LINE
  5
964
330
1F
100
AcDbEntity
  8
0
  6
CONTINUOUS
 62
     7
100
AcDbLine
 10
26.985001
 20
57.400002
 30
0.0
 11
26.985001
 21
34.400002
 31
0.0
  0
LINE
  5
965
102
{ACAD_REACTORS
330
ACB
102
}
330
1F
100
AcDbEntity
  8
0
  6
CONTINUOUS
 62
     7
100
AcDbLine
 10
20.0
 20
58.599998
 30
0.0
 11
94.30000300000001
 21
58.599998
 31
0.0
  0
LINE
  5
966
102
{ACAD_REACTORS
330
ACB
102
}
330
1F
100
AcDbEntity
  8
0
  6
CONTINUOUS
 62
     7
100
AcDbLine
 10
20.0
 20
33.200001
 30
0.0
 11
94.30000300000001
 21
33.200001
 31
0.0
  0
LINE
  5
967
330
1F
100
AcDbEntity
  8
0
  6
CONTINUOUS
 62
     7
100
AcDbLine
 10
20.0
 20
27.6
 30
0.0
 11
94.30000300000001
 21
27.6
 31
0.0
  0
LINE
  5
968
330
1F
100
AcDbEntity
  8
0
  6
CONTINUOUS
 62
     7
100
AcDbLine
 10
-5.5549998
 20
71.25
 30
0.0
 11
-5.5549998
 21
70.349998
 31
0.0
  0
LINE
  5
969
330
1F
100
AcDbEntity
  8
0
  6
CONTINUOUS
 62
     7
100
AcDbLine
 10
-43.65499899999998
 20
-79.84233899999998
 30
0.0
 11
-49.49920999999999
 21
-79.84233899999998
 31
0.0
  0
LINE
  5
96A
330
1F
100
AcDbEntity
  8
0
  6
CONTINUOUS
 62
     7
100
AcDbLine
 10
11.115
 20
57.400002
 30
0.0
 11
11.115
 21
34.400002
 31
0.0
  0
LINE
  5
96B
102
{ACAD_REACTORS
330
AE7
102
}
330
1F
100
AcDbEntity
  8
0
  6
CONTINUOUS
 62
     7
100
AcDbLine
 10
20.0
 20
64.200005
 30
0.0
 11
94.30000300000001
 21
64.200005
 31
0.0
  0
LINE
  5
96C
330
1F
100
AcDbEntity
  8
0
  6
CONTINUOUS
 62
     7
100
AcDbLine
 10
43.65499899999998
 20
71.25
 30
0.0
 11
43.65499899999998
 21
70.349998
 31
0.0
  0
LINE
  5
96D
330
1F
100
AcDbEntity
  8
0
  6
CONTINUOUS
 62
     7
100
AcDbLine
 10
53.700001
 20
27.049999
 30
0.0
 11
53.700001
 21
21.450001
 31
0.0
  0
LINE
  5
96E
102
{ACAD_REACTORS
330
AB3
102
}
330
1F
100
AcDbEntity
  8
0
  6
CONTINUOUS
 62
     7
100
AcDbLine
 10
65.084999
 20
57.400002
 30
0.0
 11
65.084999
 21
34.400002
 31
0.0
  0
LINE
  5
96F
330
1F
100
AcDbEntity
  8
0
  6
CONTINUOUS
 62
     7
100
AcDbLine
 10
94.30000300000001
 20
58.599998
 30
0.0
 11
94.30000300000001
 21
64.200005
 31
0.0
  0
LINE
  5
970
330
1F
100
AcDbEntity
  8
0
  6
CONTINUOUS
 62
     7
100
AcDbLine
 10
-56.200001
 20
58.599998
 30
0.0
 11
-56.200001
 21
64.200005
 31
0.0
  0
LINE
  5
971
330
1F
100
AcDbEntity
  8
0
  6
CONTINUOUS
 62
     7
100
AcDbLine
 10
-15.6
 20
21.450001
 30
0.0
 11
53.700001
 21
21.450001
 31
0.0
  0
LINE
  5
972
330
1F
100
AcDbEntity
  8
0
  6
CONTINUOUS
 62
     7
100
AcDbLine
 10
-15.6
 20
27.049999
 30
0.0
 11
-15.6
 21
21.450001
 31
0.0
  0
LINE
  5
973
330
1F
100
AcDbEntity
  8
0
  6
CONTINUOUS
 62
     7
100
AcDbLine
 10
20.0
 20
58.599998
 30
0.0
 11
20.0
 21
64.200005
 31
0.0
  0
LINE
  5
974
330
1F
100
AcDbEntity
  8
0
  6
CONTINUOUS
 62
     7
100
AcDbLine
 10
18.1
 20
58.599998
 30
0.0
 11
18.1
 21
64.200005
 31
0.0
  0
LINE
  5
975
330
1F
100
AcDbEntity
  8
0
  6
CONTINUOUS
 62
     7
100
AcDbLine
 10
94.30000300000001
 20
33.200001
 30
0.0
 11
94.30000300000001
 21
27.6
 31
0.0
  0
LINE
  5
976
330
1F
100
AcDbEntity
  8
0
  6
CONTINUOUS
 62
     7
100
AcDbLine
 10
20.0
 20
33.200001
 30
0.0
 11
20.0
 21
27.6
 31
0.0
  0
LINE
  5
977
330
1F
100
AcDbEntity
  8
0
  6
CONTINUOUS
 62
     7
100
AcDbLine
 10
5.5549998
 20
71.25
 30
0.0
 11
5.5549998
 21
70.349998
 31
0.0
  0
LINE
  5
978
330
1F
100
AcDbEntity
  8
0
  6
CONTINUOUS
 62
     7
100
AcDbLine
 10
53.700001
 20
70.349998
 30
0.0
 11
53.700001
 21
64.75
 31
0.0
  0
LINE
  5
979
102
{ACAD_REACTORS
330
B03
102
}
330
1F
100
AcDbEntity
  8
0
  6
CONTINUOUS
 62
     7
100
AcDbLine
 10
-91.80000300000001
 20
64.75
 30
0.0
 11
-22.5
 21
64.75
 31
0.0
  0
LINE
  5
97A
330
1F
100
AcDbEntity
  8
0
  6
CONTINUOUS
 62
     7
100
AcDbLine
 10
-91.80000300000001
 20
70.349998
 30
0.0
 11
-91.80000300000001
 21
64.75
 31
0.0
  0
LINE
  5
97B
330
1F
100
AcDbEntity
  8
0
  6
CONTINUOUS
 62
     7
100
AcDbLine
 10
-56.200001
 20
64.200005
 30
0.0
 11
18.1
 21
64.200005
 31
0.0
  0
LINE
  5
97C
330
1F
100
AcDbEntity
  8
0
  6
CONTINUOUS
 62
     7
100
AcDbLine
 10
-32.544998
 20
71.25
 30
0.0
 11
-32.544998
 21
70.349998
 31
0.0
  0
LINE
  5
97D
330
1F
100
AcDbEntity
  8
0
  6
CONTINUOUS
 62
     7
100
AcDbLine
 10
-15.6
 20
64.75
 30
0.0
 11
53.700001
 21
64.75
 31
0.0
  0
LINE
  5
97E
102
{ACAD_REACTORS
330
AB3
102
}
330
1F
100
AcDbEntity
  8
0
  6
CONTINUOUS
 62
     7
100
AcDbLine
 10
87.31500200000002
 20
57.400002
 30
0.0
 11
87.31500200000002
 21
34.400002
 31
0.0
  0
LINE
  5
97F
330
1F
100
AcDbEntity
  8
0
  6
CONTINUOUS
 62
     7
100
AcDbLine
 10
49.215
 20
57.400002
 30
0.0
 11
49.215
 21
34.400002
 31
0.0
  0
LINE
  5
980
330
1F
100
AcDbEntity
  8
0
  6
CONTINUOUS
 62
     7
100
AcDbLine
 10
32.544998
 20
71.25
 30
0.0
 11
32.544998
 21
70.349998
 31
0.0
  0
LINE
  5
981
330
1F
100
AcDbEntity
  8
0
  6
CONTINUOUS
 62
     7
100
AcDbLine
 10
-43.65499899999998
 20
71.25
 30
0.0
 11
-43.65499899999998
 21
70.349998
 31
0.0
  0
LINE
  5
982
330
1F
100
AcDbEntity
  8
0
  6
CONTINUOUS
 62
     7
100
AcDbLine
 10
-15.6
 20
27.049999
 30
0.0
 11
53.700001
 21
27.049999
 31
0.0
  0
LINE
  5
983
330
1F
100
AcDbEntity
  8
0
  6
CONTINUOUS
 62
     7
100
AcDbLine
 10
-22.5
 20
70.349998
 30
0.0
 11
-22.5
 21
64.75
 31
0.0
  0
LINE
  5
984
330
1F
100
AcDbEntity
  8
0
  6
CONTINUOUS
 62
     7
100
AcDbLine
 10
-70.644997
 20
71.25
 30
0.0
 11
-70.644997
 21
70.349998
 31
0.0
  0
LINE
  5
985
330
1F
100
AcDbEntity
  8
0
  6
CONTINUOUS
 62
     7
100
AcDbLine
 10
-91.80000300000001
 20
27.049999
 30
0.0
 11
-91.80000300000001
 21
21.450001
 31
0.0
  0
LINE
  5
986
330
1F
100
AcDbEntity
  8
0
  6
CONTINUOUS
 62
     7
100
AcDbLine
 10
-15.6
 20
70.349998
 30
0.0
 11
53.700001
 21
70.349998
 31
0.0
  0
LINE
  5
987
330
1F
100
AcDbEntity
  8
0
  6
CONTINUOUS
 62
     7
100
AcDbLine
 10
-15.6
 20
70.349998
 30
0.0
 11
-15.6
 21
64.75
 31
0.0
  0
LINE
  5
988
330
1F
100
AcDbEntity
  8
0
  6
CONTINUOUS
 62
     7
100
AcDbLine
 10
-56.200001
 20
33.200001
 30
0.0
 11
18.1
 21
33.200001
 31
0.0
  0
LINE
  5
989
102
{ACAD_REACTORS
330
B03
102
}
330
1F
100
AcDbEntity
  8
0
  6
CONTINUOUS
 62
     7
100
AcDbLine
 10
-91.80000300000001
 20
70.349998
 30
0.0
 11
-22.5
 21
70.349998
 31
0.0
  0
LINE
  5
98A
330
1F
100
AcDbEntity
  8
0
  6
CONTINUOUS
 62
     7
100
AcDbLine
 10
-56.200001
 20
58.599998
 30
0.0
 11
18.1
 21
58.599998
 31
0.0
  0
LINE
  5
98B
330
1F
100
AcDbEntity
  8
0
  6
CONTINUOUS
 62
     7
100
AcDbLine
 10
-56.200001
 20
27.6
 30
0.0
 11
18.1
 21
27.6
 31
0.0
  0
LINE
  5
98C
330
1F
100
AcDbEntity
  8
0
  6
CONTINUOUS
 62
     7
100
AcDbLine
 10
18.1
 20
33.200001
 30
0.0
 11
18.1
 21
27.6
 31
0.0
  0
LINE
  5
98D
330
1F
100
AcDbEntity
  8
0
  6
CONTINUOUS
 62
     7
100
AcDbLine
 10
-56.200001
 20
33.200001
 30
0.0
 11
-56.200001
 21
27.6
 31
0.0
  0
LINE
  5
98E
330
1F
100
AcDbEntity
  8
0
  6
CONTINUOUS
 62
     7
100
AcDbLine
 10
-22.5
 20
27.049999
 30
0.0
 11
-22.5
 21
21.450001
 31
0.0
  0
LINE
  5
98F
330
1F
100
AcDbEntity
  8
0
  6
CENTER
 62
     6
100
AcDbLine
 10
-76.199997
 20
76.800003
 30
0.0
 11
-76.199997
 21
-86.523979
 31
0.0
  0
LINE
  5
990
330
1F
100
AcDbEntity
  8
0
  6
CENTER
 62
     6
100
AcDbLine
 10
-38.09999799999999
 20
76.800003
 30
0.0
 11
-38.09999799999999
 21
-85.62599200000002
 31
0.0
  0
LINE
  5
991
330
1F
100
AcDbEntity
  8
0
  6
CENTER
 62
     6
100
AcDbLine
 10
76.199997
 20
69.400002
 30
0.0
 11
76.199997
 21
-76.349998
 31
0.0
  0
LINE
  5
992
330
1F
100
AcDbEntity
  8
0
  6
CENTER
 62
     6
100
AcDbLine
 10
38.09999799999999
 20
76.800003
 30
0.0
 11
38.09999799999999
 21
-82.44999699999999
 31
0.0
  0
LINE
  5
993
330
1F
100
AcDbEntity
  8
0
  6
CENTER
 62
     6
100
AcDbLine
 10
0.0
 20
76.800003
 30
0.0
 11
0.0
 21
-82.44999699999999
 31
0.0
  0
LINE
  5
994
102
{ACAD_REACTORS
330
B37
102
}
330
1F
100
AcDbEntity
  8
0
  6
CENTER
 62
     6
100
AcDbLine
 10
-97.80000300000001
 20
45.900002
 30
0.0
 11
100.2999999999999
 21
45.900002
 31
0.0
  0
DIMENSION
  5
A98
102
{ACAD_XDICTIONARY
360
AA7
102
}
102
{ACAD_REACTORS
330
AB3
102
}
330
1F
100
AcDbEntity
  8
0
100
AcDbDimension
  2
*D0
 10
87.31500200000002
 20
37.41426101871729
 30
0.0
 11
111.315002
 21
41.41426101871727
 31
0.0
 70
    32
  1
φ<>
  3
ISO-25
100
AcDbAlignedDimension
 13
65.084999
 23
34.400002
 33
0.0
 14
87.31500200000002
 24
34.400002
 34
0.0
100
AcDbRotatedDimension
  0
DIMENSION
  5
AB4
102
{ACAD_XDICTIONARY
360
AC1
102
}
102
{ACAD_REACTORS
330
ACB
102
}
330
1F
100
AcDbEntity
  8
0
100
AcDbDimension
  2
*D1
 10
139.7714972609239
 20
58.59999799999999
 30
0.0
 11
135.7714972609239
 21
45.89999950000001
 31
0.0
 70
    32
  3
ISO-25
100
AcDbAlignedDimension
 13
94.30000300000001
 23
33.200001
 33
0.0
 14
94.30000300000001
 24
58.599998
 34
0.0
 50
90.0
100
AcDbRotatedDimension
1001
ACAD
1000
DSTYLE
1002
{
1070
    78
1070
     0
1002
}
  0
DIMENSION
  5
ACC
102
{ACAD_XDICTIONARY
360
ADB
102
}
102
{ACAD_REACTORS
330
AE7
102
}
330
1F
100
AcDbEntity
  8
0
100
AcDbDimension
  2
*D2
 10
139.771497260924
 20
64.20000499999999
 30
0.0
 11
135.7714972609239
 21
80.700005
 31
0.0
 70
    32
  3
ISO-25
100
AcDbAlignedDimension
 13
94.30000300000001
 23
58.599998
 33
0.0
 14
94.30000300000001
 24
64.200005
 34
0.0
 50
90.0
100
AcDbRotatedDimension
1001
ACAD
1000
DSTYLE
1002
{
1070
    78
1070
     0
1070
   271
1070
     1
1002
}
  0
DIMENSION
  5
AE8
102
{ACAD_XDICTIONARY
360
AF7
102
}
102
{ACAD_REACTORS
330
B03
102
}
330
1F
100
AcDbEntity
  8
0
100
AcDbDimension
  2
*D3
 10
-116.3917007116543
 20
70.34999800000001
 30
0.0
 11
-120.3917007116545
 21
86.84999799999998
 31
0.0
 70
    32
  3
ISO-25
100
AcDbAlignedDimension
 13
-91.80000300000001
 23
64.75
 33
0.0
 14
-91.80000300000001
 24
70.349998
 34
0.0
 50
90.0
100
AcDbRotatedDimension
  0
DIMENSION
  5
B04
102
{ACAD_XDICTIONARY
360
B13
102
}
102
{ACAD_REACTORS
330
B1F
102
}
330
1F
100
AcDbEntity
  8
0
100
AcDbDimension
  2
*D4
 10
-81.75499700000001
 20
30.62898307384512
 30
0.0
 11
-102.4216636666666
 21
34.62898307384512
 31
0.0
 70
    32
  1
φ<>
  3
ISO-25
100
AcDbAlignedDimension
 13
-70.644997
 23
27.049999
 33
0.0
 14
-81.75499700000001
 24
27.049999
 34
0.0
100
AcDbRotatedDimension
  0
DIMENSION
  5
B20
102
{ACAD_XDICTIONARY
360
B2D
102
}
102
{ACAD_REACTORS
330
B37
102
}
330
1F
100
AcDbEntity
  8
0
100
AcDbDimension
  2
*D5
 10
-130.5581316026523
 20
-2.999998599999988
 30
0.0
 11
-134.5581316026523
 21
21.45000169999998
 31
0.0
 70
    32
  3
ISO-25
100
AcDbAlignedDimension
 13
-97.80000300000001
 23
45.900002
 33
0.0
 14
-97.80000300000001
 24
-2.999998599999996
 34
0.0
 50
90.0
100
AcDbRotatedDimension
  0
DIMENSION
  5
B38
102
{ACAD_XDICTIONARY
360
B45
102
}
102
{ACAD_REACTORS
330
B4F
102
}
330
1F
100
AcDbEntity
  8
0
100
AcDbDimension
  2
*D6
 10
-130.5581316026523
 20
-51.89999799999998
 30
0.0
 11
-134.5581316026523
 21
-27.44999830000001
 31
0.0
 70
    32
  3
ISO-25
100
AcDbAlignedDimension
 13
-97.80000300000001
 23
-2.999998599999996
 33
0.0
 14
-97.80000300000001
 24
-51.89999799999998
 34
0.0
 50
90.0
100
AcDbRotatedDimension
  0
DIMENSION
  5
B50
102
{ACAD_XDICTIONARY
360
B5D
102
}
102
{ACAD_REACTORS
330
B67
102
}
330
1F
100
AcDbEntity
  8
0
100
AcDbDimension
  2
*D7
 10
-146.6198934091009
 20
72.84999800000001
 30
0.0
 11
-150.619893409101
 21
34.92499969999999
 31
0.0
 70
    32
  3
ISO-25
100
AcDbAlignedDimension
 13
-97.80000300000001
 23
-2.999998599999996
 33
0.0
 14
-80.15499438063832
 24
72.849998
 34
0.0
 50
90.0
100
AcDbRotatedDimension
  0
DIMENSION
  5
B68
102
{ACAD_XDICTIONARY
360
B75
102
}
102
{ACAD_REACTORS
330
B7F
102
}
330
1F
100
AcDbEntity
  8
0
100
AcDbDimension
  2
*D8
 10
-146.6198934091009
 20
-82.55000299999997
 30
0.0
 11
-150.619893409101
 21
-42.77500080000001
 31
0.0
 70
    32
  3
ISO-25
100
AcDbAlignedDimension
 13
-97.80000300000001
 23
-2.999998599999996
 33
0.0
 14
-81.75499700000001
 24
-82.550003
 34
0.0
 50
90.0
100
AcDbRotatedDimension
  0
DIMENSION
  5
B80
102
{ACAD_XDICTIONARY
360
B8D
102
}
102
{ACAD_REACTORS
330
B97
102
}
330
1F
100
AcDbEntity
  8
0
100
AcDbDimension
  2
*D9
 10
-117.3688942288945
 20
-141.17956
 30
0.0
 11
-121.3688942288944
 21
-125.57956
 31
0.0
 70
    32
  3
ISO-25
100
AcDbAlignedDimension
 13
-76.199997
 23
-109.9795599999999
 33
0.0
 14
-76.199997
 24
-141.17956
 34
0.0
 50
90.0
100
AcDbRotatedDimension
  0
DIMENSION
  5
B98
102
{ACAD_XDICTIONARY
360
BA5
102
}
102
{ACAD_REACTORS
330
BAF
102
}
330
1F
100
AcDbEntity
  8
0
100
AcDbDimension
  2
*D10
 10
-38.09999799999999
 20
-168.5999025972311
 30
0.0
 11
-57.1499975
 21
-164.5999025972313
 31
0.0
 70
    32
  3
ISO-25
100
AcDbAlignedDimension
 13
-76.199997
 23
-149.67955
 33
0.0
 14
-38.09999799999999
 24
-149.67955
 34
0.0
100
AcDbRotatedDimension
1001
ACAD
1000
DSTYLE
1002
{
1070
    78
1070
     0
1002
}
  0
DIMENSION
  5
BB0
102
{ACAD_XDICTIONARY
360
BBD
102
}
102
{ACAD_REACTORS
330
BC7
102
}
330
1F
100
AcDbEntity
  8
0
100
AcDbDimension
  2
*D11
 10
-0.0000000000000296
 20
-168.5999025972311
 30
0.0
 11
-19.04999900000001
 21
-164.5999025972313
 31
0.0
 70
    32
  3
ISO-25
100
AcDbAlignedDimension
 13
-38.09999799999999
 23
-149.67955
 33
0.0
 14
-0.0000000000000284
 24
-149.67955
 34
0.0
100
AcDbRotatedDimension
1001
ACAD
1000
DSTYLE
1002
{
1070
    78
1070
     0
1002
}
  0
DIMENSION
  5
BC8
102
{ACAD_XDICTIONARY
360
BD5
102
}
102
{ACAD_REACTORS
330
BDF
102
}
330
1F
100
AcDbEntity
  8
0
100
AcDbDimension
  2
*D12
 10
122.6399878287591
 20
-143.67956
 30
0.0
 11
118.6399878287591
 21
-125.57956
 31
0.0
 70
    32
  3
ISO-25
100
AcDbAlignedDimension
 13
76.199997
 23
-107.47956
 33
0.0
 14
76.199997
 24
-143.67956
 34
0.0
 50
90.0
100
AcDbRotatedDimension
  0
TEXT
  5
C43
330
1F
100
AcDbEntity
  8
0
100
AcDbText
 10
111.0452395402949
 20
-184.8912458783706
 30
0.0
 40
2.6
  1
DATE2020.5.1
100
AcDbText
  0
ENDSEC
  0
SECTION
  2
OBJECTS
  0
DICTIONARY
  5
C
330
0
100
AcDbDictionary
  3
ACAD_GROUP
350
D
  3
ACAD_LAYOUT
350
1A
  3
ACAD_MLINESTYLE
350
17
  3
ACAD_PLOTSETTINGS
350
19
  3
ACAD_PLOTSTYLENAME
350
E
  3
ACDBHEADERROUNDTRIPXREC
350
CAA
  3
ACDBVARIABLEDICTIONARY
350
2C
  0
DICTIONARY
  5
C68
330
1F
100
AcDbDictionary
280
     1
  3
ACAD_LAYOUTSELFREF
360
CCC
  0
DICTIONARY
  5
C66
330
1B
100
AcDbDictionary
280
     1
  3
ACAD_LAYOUTSELFREF
360
CCB
  0
DICTIONARY
  5
AA7
330
A98
100
AcDbDictionary
280
     1
  3
ACAD_DIMASSOC
360
AB3
  0
DICTIONARY
  5
AC1
330
AB4
100
AcDbDictionary
280
     1
  3
ACAD_DIMASSOC
360
ACB
  0
DICTIONARY
  5
ADB
330
ACC
100
AcDbDictionary
280
     1
  3
ACAD_DIMASSOC
360
AE7
  0
DICTIONARY
  5
AF7
330
AE8
100
AcDbDictionary
280
     1
  3
ACAD_DIMASSOC
360
B03
  0
DICTIONARY
  5
B13
330
B04
100
AcDbDictionary
280
     1
  3
ACAD_DIMASSOC
360
B1F
  0
DICTIONARY
  5
B2D
330
B20
100
AcDbDictionary
280
     1
  3
ACAD_DIMASSOC
360
B37
  0
DICTIONARY
  5
B45
330
B38
100
AcDbDictionary
280
     1
  3
ACAD_DIMASSOC
360
B4F
  0
DICTIONARY
  5
B5D
330
B50
100
AcDbDictionary
280
     1
  3
ACAD_DIMASSOC
360
B67
  0
DICTIONARY
  5
B75
330
B68
100
AcDbDictionary
280
     1
  3
ACAD_DIMASSOC
360
B7F
  0
DICTIONARY
  5
B8D
330
B80
100
AcDbDictionary
280
     1
  3
ACAD_DIMASSOC
360
B97
  0
DICTIONARY
  5
BA5
330
B98
100
AcDbDictionary
280
     1
  3
ACAD_DIMASSOC
360
BAF
  0
DICTIONARY
  5
BBD
330
BB0
100
AcDbDictionary
280
     1
  3
ACAD_DIMASSOC
360
BC7
  0
DICTIONARY
  5
BD5
330
BC8
100
AcDbDictionary
280
     1
  3
ACAD_DIMASSOC
360
BDF
  0
DICTIONARY
  5
D
102
{ACAD_REACTORS
330
C
102
}
330
C
100
AcDbDictionary
  0
DICTIONARY
  5
1A
102
{ACAD_REACTORS
330
C
102
}
330
C
100
AcDbDictionary
  0
DICTIONARY
  5
17
102
{ACAD_REACTORS
330
C
102
}
330
C
100
AcDbDictionary
  3
STANDARD
350
18
  0
DICTIONARY
  5
19
102
{ACAD_REACTORS
330
C
102
}
330
C
100
AcDbDictionary
  0
ACDBDICTIONARYWDFLT
  5
E
102
{ACAD_REACTORS
330
C
102
}
330
C
100
AcDbDictionary
281
     1
  3
Normal
350
F
100
AcDbDictionaryWithDefault
340
F
  0
DICTIONARY
  5
CAA
102
{ACAD_REACTORS
330
C
102
}
330
C
100
AcDbDictionary
  3
CEPSNTYPE
350
CB4
  3
DIMSTYLEDATA
350
CB8
  3
FINGERPRINTGUID
350
CB5
  3
HYPERLINKBASE
350
CAD
  3
INSUNITS
350
CB3
  3
LAYOUTDICT
350
CAF
  3
LWETCUNION
350
CB2
  3
PLOTSETDICT
350
CB0
  3
PLOTSTYLNAMDICT
350
CB1
  3
PSVPSCALE
350
CB7
  3
PUCSBASE
350
CBB
  3
PUCSORGBACK
350
CC1
  3
PUCSORGBOTTOM
350
CBD
  3
PUCSORGFRONT
350
CC0
  3
PUCSORGLEFT
350
CBE
  3
PUCSORGRIGHT
350
CBF
  3
PUCSORGTOP
350
CBC
  3
PUCSORTHOREF
350
CB9
  3
PUCSORTHOVIEW
350
CBA
  3
STYLESHEET
350
CAE
  3
TSTACKALIGN
350
CAB
  3
TSTACKSIZE
350
CAC
  3
UCSBASE
350
CC4
  3
UCSORGBACK
350
CCA
  3
UCSORGBOTTOM
350
CC6
  3
UCSORGFRONT
350
CC9
  3
UCSORGLEFT
350
CC7
  3
UCSORGRIGHT
350
CC8
  3
UCSORGTOP
350
CC5
  3
UCSORTHOREF
350
CC2
  3
UCSORTHOVIEW
350
CC3
  3
VERSIONGUID
350
CB6
  0
DICTIONARY
  5
2C
102
{ACAD_REACTORS
330
C
102
}
330
C
100
AcDbDictionary
  3
DIMASSOC
350
2E
  3
HIDETEXT
350
2D
  0
XRECORD
  5
CCC
102
{ACAD_REACTORS
330
C68
102
}
330
C68
100
AcDbXrecord
340
1F
  0
XRECORD
  5
CCB
102
{ACAD_REACTORS
330
C66
102
}
330
C66
100
AcDbXrecord
340
1B
  0
DIMASSOC
  5
AB3
102
{ACAD_REACTORS
330
AA7
102
}
330
AA7
100
AcDbDimAssoc
330
A98
 90
        3
 70
     0
 71
     0
  1
AcDbOsnapPointRef
 72
     1
331
96E
 73
     2
 91
        0
 40
1.0
 10
65.084999
 20
34.400002
 30
0.0
 75
     0
  1
AcDbOsnapPointRef
 72
     1
331
97E
 73
     2
 91
        0
 40
1.0
 10
87.31500200000002
 20
34.400002
 30
0.0
 75
     0
  0
DIMASSOC
  5
ACB
102
{ACAD_REACTORS
330
AC1
102
}
330
AC1
100
AcDbDimAssoc
330
AB4
 90
        3
 70
     0
 71
     0
  1
AcDbOsnapPointRef
 72
     1
331
966
 73
     2
 91
        0
 40
1.0
 10
94.30000300000001
 20
33.200001
 30
0.0
 75
     0
  1
AcDbOsnapPointRef
 72
     1
331
965
 73
     2
 91
        0
 40
1.0
 10
94.30000300000001
 20
58.599998
 30
0.0
 75
     0
  0
DIMASSOC
  5
AE7
102
{ACAD_REACTORS
330
ADB
102
}
330
ADB
100
AcDbDimAssoc
330
ACC
 90
        2
 70
     0
 71
     0
  1
AcDbOsnapPointRef
 72
     1
331
96B
 73
     2
 91
        0
 40
1.0
 10
94.30000300000001
 20
64.200005
 30
0.0
 75
     0
  0
DIMASSOC
  5
B03
102
{ACAD_REACTORS
330
AF7
102
}
330
AF7
100
AcDbDimAssoc
330
AE8
 90
        3
 70
     0
 71
     0
  1
AcDbOsnapPointRef
 72
    13
331
979
 73
     2
 91
        0
 40
0.0
 10
-91.80000300000001
 20
64.75
 30
0.0
 75
     0
  1
AcDbOsnapPointRef
 72
    13
331
989
 73
     2
 91
        0
 40
0.0
 10
-91.80000300000001
 20
70.349998
 30
0.0
 75
     0
  0
DIMASSOC
  5
B1F
102
{ACAD_REACTORS
330
B13
102
}
330
B13
100
AcDbDimAssoc
330
B04
 90
        3
 70
     0
 71
     0
  1
AcDbOsnapPointRef
 72
     1
331
95A
 73
     2
 91
        0
 40
1.0
 10
-70.644997
 20
27.049999
 30
0.0
 75
     0
  1
AcDbOsnapPointRef
 72
     1
331
95B
 73
     2
 91
        0
 40
1.0
 10
-81.75499700000001
 20
27.049999
 30
0.0
 75
     0
  0
DIMASSOC
  5
B37
102
{ACAD_REACTORS
330
B2D
102
}
330
B2D
100
AcDbDimAssoc
330
B20
 90
        3
 70
     0
 71
     0
  1
AcDbOsnapPointRef
 72
    13
331
994
 73
     2
 91
        0
 40
0.0
 10
-97.80000300000001
 20
45.900002
 30
0.0
 75
     0
  1
AcDbOsnapPointRef
 72
    13
331
91D
 73
     2
 91
        0
 40
0.0
 10
-97.80000300000001
 20
-2.999998599999996
 30
0.0
 75
     0
  0
DIMASSOC
  5
B4F
102
{ACAD_REACTORS
330
B45
102
}
330
B45
100
AcDbDimAssoc
330
B38
 90
        3
 70
     0
 71
     0
  1
AcDbOsnapPointRef
 72
    13
331
91D
 73
     2
 91
        0
 40
0.0
 10
-97.80000300000001
 20
-2.999998599999996
 30
0.0
 75
     0
  1
AcDbOsnapPointRef
 72
    13
331
8F4
 73
     2
 91
        0
 40
0.0
 10
-97.80000300000001
 20
-51.89999799999998
 30
0.0
 75
     0
  0
DIMASSOC
  5
B67
102
{ACAD_REACTORS
330
B5D
102
}
330
B5D
100
AcDbDimAssoc
330
B50
 90
        3
 70
     0
 71
     0
  1
AcDbOsnapPointRef
 72
    13
331
91D
 73
     2
 91
        0
 40
0.0
 10
-97.80000300000001
 20
-2.999998599999996
 30
0.0
 75
     0
  1
AcDbOsnapPointRef
 72
     6
331
933
 73
     2
 91
        0
 40
0.0000005839898027
 10
-80.15499438063832
 20
72.849998
 30
0.0
332
889
 74
     2
 92
        0
 75
     0
  0
DIMASSOC
  5
B7F
102
{ACAD_REACTORS
330
B75
102
}
330
B75
100
AcDbDimAssoc
330
B68
 90
        3
 70
     0
 71
     0
  1
AcDbOsnapPointRef
 72
    13
331
91D
 73
     2
 91
        0
 40
0.0
 10
-97.80000300000001
 20
-2.999998599999996
 30
0.0
 75
     0
  1
AcDbOsnapPointRef
 72
    13
331
952
 73
     2
 91
        0
 40
0.0
 10
-81.75499700000001
 20
-82.550003
 30
0.0
 75
     0
  0
DIMASSOC
  5
B97
102
{ACAD_REACTORS
330
B8D
102
}
330
B8D
100
AcDbDimAssoc
330
B80
 90
        3
 70
     0
 71
     0
  1
AcDbOsnapPointRef
 72
     6
331
949
 73
     2
 91
        0
 40
0.1763485843046861
 10
-76.199997
 20
-109.9795599999999
 30
0.0
332
8B0
 74
     2
 92
        0
 75
     0
  1
AcDbOsnapPointRef
 72
     6
331
949
 73
     2
 91
        0
 40
0.8236516231642372
 10
-76.199997
 20
-141.17956
 30
0.0
332
8B0
 74
     2
 92
        0
 75
     0
  0
DIMASSOC
  5
BAF
102
{ACAD_REACTORS
330
BA5
102
}
330
BA5
100
AcDbDimAssoc
330
B98
 90
        3
 70
     0
 71
     0
  1
AcDbOsnapPointRef
 72
     1
331
949
 73
     2
 91
        0
 40
1.0
 10
-76.199997
 20
-149.67955
 30
0.0
 75
     0
  1
AcDbOsnapPointRef
 72
     1
331
94A
 73
     2
 91
        0
 40
1.0
 10
-38.09999799999999
 20
-149.67955
 30
0.0
 75
     0
  0
DIMASSOC
  5
BC7
102
{ACAD_REACTORS
330
BBD
102
}
330
BBD
100
AcDbDimAssoc
330
BB0
 90
        2
 70
     0
 71
     0
  1
AcDbOsnapPointRef
 72
     1
331
94C
 73
     2
 91
        0
 40
1.0
 10
-0.0000000000000284
 20
-149.67955
 30
0.0
 75
     0
  0
DIMASSOC
  5
BDF
102
{ACAD_REACTORS
330
BD5
102
}
330
BD5
100
AcDbDimAssoc
330
BC8
 90
        3
 70
     0
 71
     0
  1
AcDbOsnapPointRef
 72
     6
331
943
 73
     2
 91
        0
 40
0.1244813536268374
 10
76.199997
 20
-107.47956
 30
0.0
332
8A3
 74
     2
 92
        0
 75
     0
  1
AcDbOsnapPointRef
 72
     6
331
943
 73
     2
 91
        0
 40
0.875518853842086
 10
76.199997
 20
-143.67956
 30
0.0
332
8A3
 74
     2
 92
        0
 75
     0
  0
MLINESTYLE
  5
18
102
{ACAD_REACTORS
330
17
102
}
330
17
100
AcDbMlineStyle
  2
STANDARD
 70
     0
  3

 62
   256
 51
90.0
 52
90.0
 71
     2
 49
0.5
 62
   256
  6
BYLAYER
 49
-0.5
 62
   256
  6
BYLAYER
  0
ACDBPLACEHOLDER
  5
F
102
{ACAD_REACTORS
330
E
102
}
330
E
100
AcDbPlaceHolder
280
     0
  0
XRECORD
  5
CB4
102
{ACAD_REACTORS
330
CAA
102
}
330
CAA
100
AcDbXrecord
 90
        0
  0
XRECORD
  5
CB8
102
{ACAD_REACTORS
330
CAA
102
}
330
CAA
100
AcDbXrecord
1000
DSTYLE
1002
{
1070
   371
 70
    -1
1070
   372
 70
    -1
1002
}
  0
XRECORD
  5
CB5
102
{ACAD_REACTORS
330
CAA
102
}
330
CAA
100
AcDbXrecord
  1
{5B0931FC-56BC-4C5C-811F-96A4ED1ECC1B}
  0
XRECORD
  5
CAD
102
{ACAD_REACTORS
330
CAA
102
}
330
CAA
100
AcDbXrecord
  1

  0
XRECORD
  5
CB3
102
{ACAD_REACTORS
330
CAA
102
}
330
CAA
100
AcDbXrecord
 90
        4
  0
XRECORD
  5
CAF
102
{ACAD_REACTORS
330
CAA
102
}
330
CAA
100
AcDbXrecord
340
1A
  0
XRECORD
  5
CB2
102
{ACAD_REACTORS
330
CAA
102
}
330
CAA
100
AcDbXrecord
 90
    10781
  0
XRECORD
  5
CB0
102
{ACAD_REACTORS
330
CAA
102
}
330
CAA
100
AcDbXrecord
340
19
  0
XRECORD
  5
CB1
102
{ACAD_REACTORS
330
CAA
102
}
330
CAA
100
AcDbXrecord
340
E
  0
XRECORD
  5
CB7
102
{ACAD_REACTORS
330
CAA
102
}
330
CAA
100
AcDbXrecord
 40
0.0
  0
XRECORD
  5
CBB
102
{ACAD_REACTORS
330
CAA
102
}
330
CAA
100
AcDbXrecord
340
0
  0
XRECORD
  5
CC1
102
{ACAD_REACTORS
330
CAA
102
}
330
CAA
100
AcDbXrecord
 10
0.0
 20
0.0
 30
0.0
  0
XRECORD
  5
CBD
102
{ACAD_REACTORS
330
CAA
102
}
330
CAA
100
AcDbXrecord
 10
0.0
 20
0.0
 30
0.0
  0
XRECORD
  5
CC0
102
{ACAD_REACTORS
330
CAA
102
}
330
CAA
100
AcDbXrecord
 10
0.0
 20
0.0
 30
0.0
  0
XRECORD
  5
CBE
102
{ACAD_REACTORS
330
CAA
102
}
330
CAA
100
AcDbXrecord
 10
0.0
 20
0.0
 30
0.0
  0
XRECORD
  5
CBF
102
{ACAD_REACTORS
330
CAA
102
}
330
CAA
100
AcDbXrecord
 10
0.0
 20
0.0
 30
0.0
  0
XRECORD
  5
CBC
102
{ACAD_REACTORS
330
CAA
102
}
330
CAA
100
AcDbXrecord
 10
0.0
 20
0.0
 30
0.0
  0
XRECORD
  5
CB9
102
{ACAD_REACTORS
330
CAA
102
}
330
CAA
100
AcDbXrecord
340
0
  0
XRECORD
  5
CBA
102
{ACAD_REACTORS
330
CAA
102
}
330
CAA
100
AcDbXrecord
 70
     0
  0
XRECORD
  5
CAE
102
{ACAD_REACTORS
330
CAA
102
}
330
CAA
100
AcDbXrecord
  1
monochrome.ctb
  0
XRECORD
  5
CAB
102
{ACAD_REACTORS
330
CAA
102
}
330
CAA
100
AcDbXrecord
 90
        1
  0
XRECORD
  5
CAC
102
{ACAD_REACTORS
330
CAA
102
}
330
CAA
100
AcDbXrecord
 90
       70
  0
XRECORD
  5
CC4
102
{ACAD_REACTORS
330
CAA
102
}
330
CAA
100
AcDbXrecord
340
0
  0
XRECORD
  5
CCA
102
{ACAD_REACTORS
330
CAA
102
}
330
CAA
100
AcDbXrecord
 10
0.0
 20
0.0
 30
0.0
  0
XRECORD
  5
CC6
102
{ACAD_REACTORS
330
CAA
102
}
330
CAA
100
AcDbXrecord
 10
0.0
 20
0.0
 30
0.0
  0
XRECORD
  5
CC9
102
{ACAD_REACTORS
330
CAA
102
}
330
CAA
100
AcDbXrecord
 10
0.0
 20
0.0
 30
0.0
  0
XRECORD
  5
CC7
102
{ACAD_REACTORS
330
CAA
102
}
330
CAA
100
AcDbXrecord
 10
0.0
 20
0.0
 30
0.0
  0
XRECORD
  5
CC8
102
{ACAD_REACTORS
330
CAA
102
}
330
CAA
100
AcDbXrecord
 10
0.0
 20
0.0
 30
0.0
  0
XRECORD
  5
CC5
102
{ACAD_REACTORS
330
CAA
102
}
330
CAA
100
AcDbXrecord
 10
0.0
 20
0.0
 30
0.0
  0
XRECORD
  5
CC2
102
{ACAD_REACTORS
330
CAA
102
}
330
CAA
100
AcDbXrecord
340
0
  0
XRECORD
  5
CC3
102
{ACAD_REACTORS
330
CAA
102
}
330
CAA
100
AcDbXrecord
 70
     0
  0
XRECORD
  5
CB6
102
{ACAD_REACTORS
330
CAA
102
}
330
CAA
100
AcDbXrecord
  1
{E91289AE-7EBD-475C-A3DB-9CB27CC8CC0C}
  0
DICTIONARYVAR
  5
2E
102
{ACAD_REACTORS
330
2C
102
}
330
2C
100
DictionaryVariables
280
     0
  1
2
  0
DICTIONARYVAR
  5
2D
102
{ACAD_REACTORS
330
2C
102
}
330
2C
100
DictionaryVariables
280
     0
  1
1
  0
ENDSEC
  0
EOF
