  0
SECTION
  2
HEADER
  9
$ACADVER
  1
AC1015
  9
$ACADMAINTVER
 70
     6
  9
$DWGCODEPAGE
  3
ANSI_932
  9
$INSBASE
 10
0.0
 20
0.0
 30
0.0
  9
$EXTMIN
 10
-246.5836601228726
 20
-33.02417669625642
 30
0.0
  9
$EXTMAX
 10
279.5775034930086
 20
204.5719156315408
 30
0.0
  9
$LIMMIN
 10
-246.5836601228726
 20
-33.02417669625642
  9
$LIMMAX
 10
279.5775034930086
 20
204.5719156315408
  9
$ORTHOMODE
 70
     0
  9
$REGENMODE
 70
     1
  9
$FILLMODE
 70
     1
  9
$QTEXTMODE
 70
     0
  9
$MIRRTEXT
 70
     1
  9
$LTSCALE
 40
1.0
  9
$ATTMODE
 70
     1
  9
$TEXTSIZE
 40
2.5
  9
$TRACEWID
 40
1.0
  9
$TEXTSTYLE
  7
Standard
  9
$CLAYER
  8
0
  9
$CELTYPE
  6
ByLayer
  9
$CECOLOR
 62
   256
  9
$CELTSCALE
 40
1.0
  9
$DISPSILH
 70
     0
  9
$DIMSCALE
 40
1.0
  9
$DIMASZ
 40
2.5
  9
$DIMEXO
 40
0.625
  9
$DIMDLI
 40
3.75
  9
$DIMRND
 40
0.0
  9
$DIMDLE
 40
0.0
  9
$DIMEXE
 40
1.25
  9
$DIMTP
 40
0.0
  9
$DIMTM
 40
0.0
  9
$DIMTXT
 40
2.5
  9
$DIMCEN
 40
2.5
  9
$DIMTSZ
 40
0.0
  9
$DIMTOL
 70
     0
  9
$DIMLIM
 70
     0
  9
$DIMTIH
 70
     0
  9
$DIMTOH
 70
     0
  9
$DIMSE1
 70
     0
  9
$DIMSE2
 70
     0
  9
$DIMTAD
 70
     1
  9
$DIMZIN
 70
     8
  9
$DIMBLK
  1

  9
$DIMASO
 70
     1
  9
$DIMSHO
 70
     1
  9
$DIMPOST
  1

  9
$DIMAPOST
  1

  9
$DIMALT
 70
     0
  9
$DIMALTD
 70
     3
  9
$DIMALTF
 40
0.03937007874016
  9
$DIMLFAC
 40
1.0
  9
$DIMTOFL
 70
     1
  9
$DIMTVP
 40
0.0
  9
$DIMTIX
 70
     0
  9
$DIMSOXD
 70
     0
  9
$DIMSAH
 70
     0
  9
$DIMBLK1
  1

  9
$DIMBLK2
  1

  9
$DIMSTYLE
  2
ISO-25
  9
$DIMCLRD
 70
     0
  9
$DIMCLRE
 70
     0
  9
$DIMCLRT
 70
     0
  9
$DIMTFAC
 40
1.0
  9
$DIMGAP
 40
0.625
  9
$DIMJUST
 70
     0
  9
$DIMSD1
 70
     0
  9
$DIMSD2
 70
     0
  9
$DIMTOLJ
 70
     0
  9
$DIMTZIN
 70
     8
  9
$DIMALTZ
 70
     0
  9
$DIMALTTZ
 70
     0
  9
$DIMUPT
 70
     0
  9
$DIMDEC
 70
     2
  9
$DIMTDEC
 70
     2
  9
$DIMALTU
 70
     2
  9
$DIMALTTD
 70
     3
  9
$DIMTXSTY
  7
Standard
  9
$DIMAUNIT
 70
     0
  9
$DIMADEC
 70
     0
  9
$DIMALTRND
 40
0.0
  9
$DIMAZIN
 70
     0
  9
$DIMDSEP
 70
    44
  9
$DIMATFIT
 70
     3
  9
$DIMFRAC
 70
     0
  9
$DIMLDRBLK
  1

  9
$DIMLUNIT
 70
     2
  9
$DIMLWD
 70
    -2
  9
$DIMLWE
 70
    -2
  9
$DIMTMOVE
 70
     0
  9
$LUNITS
 70
     2
  9
$LUPREC
 70
     4
  9
$SKETCHINC
 40
1.0
  9
$FILLETRAD
 40
10.0
  9
$AUNITS
 70
     0
  9
$AUPREC
 70
     0
  9
$MENU
  1
.
  9
$ELEVATION
 40
0.0
  9
$PELEVATION
 40
0.0
  9
$THICKNESS
 40
0.0
  9
$LIMCHECK
 70
     0
  9
$CHAMFERA
 40
10.0
  9
$CHAMFERB
 40
10.0
  9
$CHAMFERC
 40
20.0
  9
$CHAMFERD
 40
0.0
  9
$SKPOLY
 70
     0
  9
$TDCREATE
 40
2456484.285152141
  9
$TDUCREATE
 40
2456483.910152141
  9
$TDUPDATE
 40
2456484.285152153
  9
$TDUUPDATE
 40
2456483.910152153
  9
$TDINDWG
 40
0.0000000116
  9
$TDUSRTIMER
 40
0.0000000116
  9
$USRTIMER
 70
     1
  9
$ANGBASE
 50
0.0
  9
$ANGDIR
 70
     0
  9
$PDMODE
 70
     0
  9
$PDSIZE
 40
0.0
  9
$PLINEWID
 40
0.0
  9
$SPLFRAME
 70
     0
  9
$SPLINETYPE
 70
     6
  9
$SPLINESEGS
 70
     8
  9
$HANDSEED
  5
289
  9
$SURFTAB1
 70
     6
  9
$SURFTAB2
 70
     6
  9
$SURFTYPE
 70
     6
  9
$SURFU
 70
     6
  9
$SURFV
 70
     6
  9
$UCSBASE
  2

  9
$UCSNAME
  2

  9
$UCSORG
 10
0.0
 20
0.0
 30
0.0
  9
$UCSXDIR
 10
1.0
 20
0.0
 30
0.0
  9
$UCSYDIR
 10
0.0
 20
1.0
 30
0.0
  9
$UCSORTHOREF
  2

  9
$UCSORTHOVIEW
 70
     0
  9
$UCSORGTOP
 10
0.0
 20
0.0
 30
0.0
  9
$UCSORGBOTTOM
 10
0.0
 20
0.0
 30
0.0
  9
$UCSORGLEFT
 10
0.0
 20
0.0
 30
0.0
  9
$UCSORGRIGHT
 10
0.0
 20
0.0
 30
0.0
  9
$UCSORGFRONT
 10
0.0
 20
0.0
 30
0.0
  9
$UCSORGBACK
 10
0.0
 20
0.0
 30
0.0
  9
$PUCSBASE
  2

  9
$PUCSNAME
  2

  9
$PUCSORG
 10
0.0
 20
0.0
 30
0.0
  9
$PUCSXDIR
 10
1.0
 20
0.0
 30
0.0
  9
$PUCSYDIR
 10
0.0
 20
1.0
 30
0.0
  9
$PUCSORTHOREF
  2

  9
$PUCSORTHOVIEW
 70
     0
  9
$PUCSORGTOP
 10
0.0
 20
0.0
 30
0.0
  9
$PUCSORGBOTTOM
 10
0.0
 20
0.0
 30
0.0
  9
$PUCSORGLEFT
 10
0.0
 20
0.0
 30
0.0
  9
$PUCSORGRIGHT
 10
0.0
 20
0.0
 30
0.0
  9
$PUCSORGFRONT
 10
0.0
 20
0.0
 30
0.0
  9
$PUCSORGBACK
 10
0.0
 20
0.0
 30
0.0
  9
$USERI1
 70
     0
  9
$USERI2
 70
     0
  9
$USERI3
 70
     0
  9
$USERI4
 70
     0
  9
$USERI5
 70
     0
  9
$USERR1
 40
0.0
  9
$USERR2
 40
0.0
  9
$USERR3
 40
0.0
  9
$USERR4
 40
0.0
  9
$USERR5
 40
0.0
  9
$WORLDVIEW
 70
     1
  9
$SHADEDGE
 70
     3
  9
$SHADEDIF
 70
    70
  9
$TILEMODE
 70
     1
  9
$MAXACTVP
 70
    64
  9
$PINSBASE
 10
0.0
 20
0.0
 30
0.0
  9
$PLIMCHECK
 70
     0
  9
$PEXTMIN
 10
1.000000000000000E+20
 20
1.000000000000000E+20
 30
1.000000000000000E+20
  9
$PEXTMAX
 10
-1.000000000000000E+20
 20
-1.000000000000000E+20
 30
-1.000000000000000E+20
  9
$PLIMMIN
 10
-246.5836601228726
 20
-33.02417669625642
  9
$PLIMMAX
 10
279.5775034930086
 20
204.5719156315408
  9
$UNITMODE
 70
     0
  9
$VISRETAIN
 70
     1
  9
$PLINEGEN
 70
     0
  9
$PSLTSCALE
 70
     1
  9
$TREEDEPTH
 70
  3020
  9
$CMLSTYLE
  2
Standard
  9
$CMLJUST
 70
     0
  9
$CMLSCALE
 40
20.0
  9
$PROXYGRAPHICS
 70
     1
  9
$MEASUREMENT
 70
     1
  9
$CELWEIGHT
370
    -1
  9
$ENDCAPS
280
     0
  9
$JOINSTYLE
280
     0
  9
$LWDISPLAY
290
     0
  9
$INSUNITS
 70
     4
  9
$HYPERLINKBASE
  1

  9
$STYLESHEET
  1

  9
$XEDIT
290
     1
  9
$CEPSNTYPE
380
     0
  9
$PSTYLEMODE
290
     1
  9
$FINGERPRINTGUID
  2
{7CB54E26-A3DE-4EB9-9523-BE74C4B6FD45}
  9
$VERSIONGUID
  2
{FAEB1C32-E019-11D5-929B-00C0DF256EC4}
  9
$EXTNAMES
290
     1
  9
$PSVPSCALE
 40
0.0
  9
$OLESTARTUP
290
     0
  0
ENDSEC
  0
SECTION
  2
CLASSES
  0
CLASS
  1
ACDBDICTIONARYWDFLT
  2
AcDbDictionaryWithDefault
  3
ObjectDBX Classes
 90
        0
280
     0
281
     0
  0
CLASS
  1
VISUALSTYLE
  2
AcDbVisualStyle
  3
ObjectDBX Classes
 90
     4095
280
     0
281
     0
  0
CLASS
  1
SCALE
  2
AcDbScale
  3
ObjectDBX Classes
 90
     1153
280
     0
281
     0
  0
CLASS
  1
DICTIONARYVAR
  2
AcDbDictionaryVar
  3
ObjectDBX Classes
 90
        0
280
     0
281
     0
  0
CLASS
  1
ACDBPLACEHOLDER
  2
AcDbPlaceHolder
  3
ObjectDBX Classes
 90
        0
280
     0
281
     0
  0
CLASS
  1
LAYOUT
  2
AcDbLayout
  3
ObjectDBX Classes
 90
        0
280
     0
281
     0
  0
ENDSEC
  0
SECTION
  2
TABLES
  0
TABLE
  2
VPORT
  5
8
330
0
100
AcDbSymbolTable
 70
     1
  0
VPORT
  5
29
330
8
100
AcDbSymbolTableRecord
100
AcDbViewportTableRecord
  2
*Active
 70
     0
 10
0.0
 20
0.0
 11
1.0
 21
1.0
 12
344.1869158878504
 22
148.5
 13
0.0
 23
0.0
 14
10.0
 24
10.0
 15
10.0
 25
10.0
 16
0.0
 26
0.0
 36
1.0
 17
0.0
 27
0.0
 37
0.0
 40
297.0
 41
1.972972972850329
 42
50.0
 43
0.0
 44
0.0
 50
0.0
 51
0.0
 71
     0
 72
   100
 73
     1
 74
     3
 75
     0
 76
     0
 77
     0
 78
     0
281
     0
 65
     1
110
0.0
120
0.0
130
0.0
111
1.0
121
0.0
131
0.0
112
0.0
122
1.0
132
0.0
 79
     0
146
0.0
  0
ENDTAB
  0
TABLE
  2
LTYPE
  5
5
330
0
100
AcDbSymbolTable
 70
     5
  0
LTYPE
  5
14
330
5
100
AcDbSymbolTableRecord
100
AcDbLinetypeTableRecord
  2
ByBlock
 70
     0
  3

 72
    65
 73
     0
 40
0.0
  0
LTYPE
  5
15
330
5
100
AcDbSymbolTableRecord
100
AcDbLinetypeTableRecord
  2
ByLayer
 70
     0
  3

 72
    65
 73
     0
 40
0.0
  0
LTYPE
  5
16
330
5
100
AcDbSymbolTableRecord
100
AcDbLinetypeTableRecord
  2
Continuous
 70
     0
  3
Solid line
 72
    65
 73
     0
 40
0.0
  0
LTYPE
  5
3B
330
5
100
AcDbSymbolTableRecord
100
AcDbLinetypeTableRecord
  2
CONTINOUS
 70
     0
  3
______________________________
 72
    65
 73
     0
 40
0.0
  0
LTYPE
  5
3C
330
5
100
AcDbSymbolTableRecord
100
AcDbLinetypeTableRecord
  2
DASHED
 70
     0
  3
__ __ __ __ __ __ __ __ __ __ __ __ __ __ __ __
 72
    65
 73
     2
 40
4.5
 49
3.0
 74
     0
 49
-1.5
 74
     0
  0
LTYPE
  5
3D
330
5
100
AcDbSymbolTableRecord
100
AcDbLinetypeTableRecord
  2
PHANTOM
 70
     0
  3
______  __  __  ______  __  __  _____
 72
    65
 73
     6
 40
15.0
 49
7.5
 74
     0
 49
-1.5
 74
     0
 49
1.5
 74
     0
 49
-1.5
 74
     0
 49
1.5
 74
     0
 49
-1.5
 74
     0
  0
LTYPE
  5
3E
330
5
100
AcDbSymbolTableRecord
100
AcDbLinetypeTableRecord
  2
CENTER
 70
     0
  3
____ _ ____ _ ____ _ ____ _ ____ _ ____
 72
    65
 73
     4
 40
12.0
 49
7.5
 74
     0
 49
-1.5
 74
     0
 49
1.5
 74
     0
 49
-1.5
 74
     0
  0
ENDTAB
  0
TABLE
  2
LAYER
  5
2
330
0
100
AcDbSymbolTable
 70
     3
  0
LAYER
  5
10
330
2
100
AcDbSymbolTableRecord
100
AcDbLayerTableRecord
  2
0
 70
     0
 62
     7
  6
Continuous
370
    -3
390
F
  0
LAYER
  5
3F
330
2
100
AcDbSymbolTableRecord
100
AcDbLayerTableRecord
  2
VIEW0001
 70
     0
 62
     7
  6
Continuous
370
    -3
390
F
  0
LAYER
  5
1BB
330
2
100
AcDbSymbolTableRecord
100
AcDbLayerTableRecord
  2
Defpoints
 70
     0
 62
     7
  6
Continuous
290
     0
370
    -3
390
F
  0
ENDTAB
  0
TABLE
  2
STYLE
  5
3
330
0
100
AcDbSymbolTable
 70
     1
  0
STYLE
  5
11
330
3
100
AcDbSymbolTableRecord
100
AcDbTextStyleTableRecord
  2
Standard
 70
     0
 40
0.0
 41
1.0
 50
0.0
 71
     0
 42
2.5
  3
ROMANS
  4
EXTFONT
  0
ENDTAB
  0
TABLE
  2
VIEW
  5
6
330
0
100
AcDbSymbolTable
 70
     0
  0
ENDTAB
  0
TABLE
  2
UCS
  5
7
330
0
100
AcDbSymbolTable
 70
     0
  0
ENDTAB
  0
TABLE
  2
APPID
  5
9
330
0
100
AcDbSymbolTable
 70
     1
  0
APPID
  5
12
330
9
100
AcDbSymbolTableRecord
100
AcDbRegAppTableRecord
  2
ACAD
 70
     0
  0
ENDTAB
  0
TABLE
  2
DIMSTYLE
  5
A
330
0
100
AcDbSymbolTable
 70
     1
100
AcDbDimStyleTable
  0
DIMSTYLE
105
27
102
{ACAD_REACTORS
330
192
330
1C8
330
1D5
330
1E2
330
1FA
330
207
330
214
330
221
330
22E
330
23B
330
248
330
25E
330
26B
330
277
102
}
330
A
100
AcDbSymbolTableRecord
100
AcDbDimStyleTableRecord
  2
ISO-25
 70
     0
 41
2.5
 42
0.625
 43
3.75
 44
1.25
 73
     0
 74
     0
 77
     1
 78
     8
140
2.5
141
2.5
143
0.03937007874016
147
0.625
171
     3
172
     1
271
     2
272
     2
274
     3
278
    44
283
     0
284
     8
340
11
  0
ENDTAB
  0
TABLE
  2
BLOCK_RECORD
  5
1
330
0
100
AcDbSymbolTable
 70
    16
  0
BLOCK_RECORD
  5
1F
330
1
100
AcDbSymbolTableRecord
100
AcDbBlockTableRecord
  2
*Model_Space
340
22
  0
BLOCK_RECORD
  5
1B
330
1
100
AcDbSymbolTableRecord
100
AcDbBlockTableRecord
  2
*Paper_Space
340
1E
  0
BLOCK_RECORD
  5
23
330
1
100
AcDbSymbolTableRecord
100
AcDbBlockTableRecord
  2
*Paper_Space0
340
26
  0
BLOCK_RECORD
  5
1B5
330
1
100
AcDbSymbolTableRecord
100
AcDbBlockTableRecord
  2
_OPEN30
340
0
102
{BLKREFS
331
1C1
331
1C0
331
1CE
331
1CD
331
1DB
331
1DA
331
1EB
331
1EA
331
200
331
1FF
331
20D
331
20C
331
218
331
217
331
225
331
224
331
234
331
233
331
241
331
240
331
24F
331
24E
331
264
331
263
331
270
331
26F
331
27C
331
27B
102
}
  0
BLOCK_RECORD
  5
1BC
330
1
100
AcDbSymbolTableRecord
100
AcDbBlockTableRecord
  2
*D2
340
0
  0
BLOCK_RECORD
  5
1C9
330
1
100
AcDbSymbolTableRecord
100
AcDbBlockTableRecord
  2
*D3
340
0
  0
BLOCK_RECORD
  5
1D6
330
1
100
AcDbSymbolTableRecord
100
AcDbBlockTableRecord
  2
*D4
340
0
  0
BLOCK_RECORD
  5
1E3
330
1
100
AcDbSymbolTableRecord
100
AcDbBlockTableRecord
  2
*D5
340
0
  0
BLOCK_RECORD
  5
1FB
330
1
100
AcDbSymbolTableRecord
100
AcDbBlockTableRecord
  2
*D6
340
0
  0
BLOCK_RECORD
  5
208
330
1
100
AcDbSymbolTableRecord
100
AcDbBlockTableRecord
  2
*D7
340
0
  0
BLOCK_RECORD
  5
215
330
1
100
AcDbSymbolTableRecord
100
AcDbBlockTableRecord
  2
*D8
340
0
  0
BLOCK_RECORD
  5
222
330
1
100
AcDbSymbolTableRecord
100
AcDbBlockTableRecord
  2
*D9
340
0
  0
BLOCK_RECORD
  5
22F
330
1
100
AcDbSymbolTableRecord
100
AcDbBlockTableRecord
  2
*D10
340
0
  0
BLOCK_RECORD
  5
23C
330
1
100
AcDbSymbolTableRecord
100
AcDbBlockTableRecord
  2
*D11
340
0
  0
BLOCK_RECORD
  5
249
330
1
100
AcDbSymbolTableRecord
100
AcDbBlockTableRecord
  2
*D12
340
0
  0
BLOCK_RECORD
  5
25F
330
1
100
AcDbSymbolTableRecord
100
AcDbBlockTableRecord
  2
*D13
340
0
  0
BLOCK_RECORD
  5
26C
330
1
100
AcDbSymbolTableRecord
100
AcDbBlockTableRecord
  2
*D14
340
0
  0
BLOCK_RECORD
  5
278
330
1
100
AcDbSymbolTableRecord
100
AcDbBlockTableRecord
  2
*D15
340
0
  0
ENDTAB
  0
ENDSEC
  0
SECTION
  2
BLOCKS
  0
BLOCK
  5
20
330
1F
100
AcDbEntity
  8
0
100
AcDbBlockBegin
  2
*Model_Space
 70
     0
 10
0.0
 20
0.0
 30
0.0
  3
*Model_Space
  1

  0
ENDBLK
  5
21
330
1F
100
AcDbEntity
  8
0
100
AcDbBlockEnd
  0
BLOCK
  5
1C
330
1B
100
AcDbEntity
 67
     1
  8
0
100
AcDbBlockBegin
  2
*Paper_Space
 70
     0
 10
0.0
 20
0.0
 30
0.0
  3
*Paper_Space
  1

  0
ENDBLK
  5
1D
330
1B
100
AcDbEntity
 67
     1
  8
0
100
AcDbBlockEnd
  0
BLOCK
  5
24
330
23
100
AcDbEntity
  8
0
100
AcDbBlockBegin
  2
*Paper_Space0
 70
     0
 10
0.0
 20
0.0
 30
0.0
  3
*Paper_Space0
  1

  0
ENDBLK
  5
25
330
23
100
AcDbEntity
  8
0
100
AcDbBlockEnd
  0
BLOCK
  5
1B6
330
1B5
100
AcDbEntity
  8
0
100
AcDbBlockBegin
  2
_OPEN30
 70
     0
 10
0.0
 20
0.0
 30
0.0
  3
_OPEN30
  1

  0
LINE
  5
1B8
330
1B5
100
AcDbEntity
  8
0
  6
ByBlock
 62
     0
370
    -2
100
AcDbLine
 10
-1.0
 20
0.267949
 30
0.0
 11
0.0
 21
0.0
 31
0.0
  0
LINE
  5
1B9
330
1B5
100
AcDbEntity
  8
0
  6
ByBlock
 62
     0
370
    -2
100
AcDbLine
 10
0.0
 20
0.0
 30
0.0
 11
-1.0
 21
-0.267949
 31
0.0
  0
LINE
  5
1BA
330
1B5
100
AcDbEntity
  8
0
  6
ByBlock
 62
     0
370
    -2
100
AcDbLine
 10
0.0
 20
0.0
 30
0.0
 11
-1.0
 21
0.0
 31
0.0
  0
ENDBLK
  5
1B7
330
1B5
100
AcDbEntity
  8
0
100
AcDbBlockEnd
  0
BLOCK
  5
1C6
330
1BC
100
AcDbEntity
  8
0
100
AcDbBlockBegin
  2
*D2
 70
     1
 10
0.0
 20
0.0
 30
0.0
  3
*D2
  1

  0
LINE
  5
1BD
330
1BC
100
AcDbEntity
  8
0
 62
     0
370
    -2
100
AcDbLine
 10
-24.09766012287265
 20
24.92553915683916
 30
0.0
 11
-24.09766012287266
 21
-33.0241766962564
 31
0.0
  0
LINE
  5
1BE
330
1BC
100
AcDbEntity
  8
0
 62
     0
370
    -2
100
AcDbLine
 10
65.90233987712736
 20
24.92553915683916
 30
0.0
 11
65.90233987712736
 21
-33.02417669625642
 31
0.0
  0
LINE
  5
1BF
330
1BC
100
AcDbEntity
  8
0
 62
     0
370
    -2
100
AcDbLine
 10
-21.09766012287266
 20
-32.2006472844917
 30
0.0
 11
62.90233987712736
 21
-32.20064728449172
 31
0.0
  0
INSERT
  5
1C0
330
1BC
100
AcDbEntity
  8
0
 62
     0
370
    -2
100
AcDbBlockReference
  2
_OPEN30
 10
-24.09766012287266
 20
-32.2006472844917
 30
0.0
 41
3.0
 42
3.0
 43
3.0
 50
180.0
  0
INSERT
  5
1C1
330
1BC
100
AcDbEntity
  8
0
 62
     0
370
    -2
100
AcDbBlockReference
  2
_OPEN30
 10
65.90233987712736
 20
-32.20064728449172
 30
0.0
 41
3.0
 42
3.0
 43
3.0
 50
360.0
  0
MTEXT
  5
1C2
330
1BC
100
AcDbEntity
  8
0
 62
     0
100
AcDbMText
 10
20.86564981586902
 20
-30.1006473202545
 30
0.0
 40
2.799999952316284
 41
0.0
 71
     5
 72
     1
  1
90
 73
     1
 44
1.0
  0
POINT
  5
1C3
330
1BC
100
AcDbEntity
  8
Defpoints
 62
     0
100
AcDbPoint
 10
-24.09766012287265
 20
27.46553915683916
 30
0.0
  0
POINT
  5
1C4
330
1BC
100
AcDbEntity
  8
Defpoints
 62
     0
100
AcDbPoint
 10
65.90233987712736
 20
27.46553915683916
 30
0.0
  0
POINT
  5
1C5
330
1BC
100
AcDbEntity
  8
Defpoints
 62
     0
100
AcDbPoint
 10
65.90233987712736
 20
-32.20064728449171
 30
0.0
  0
ENDBLK
  5
1C7
330
1BC
100
AcDbEntity
  8
0
100
AcDbBlockEnd
  0
BLOCK
  5
1D3
330
1C9
100
AcDbEntity
  8
0
100
AcDbBlockBegin
  2
*D3
 70
     1
 10
0.0
 20
0.0
 30
0.0
  3
*D3
  1

  0
LINE
  5
1CA
330
1C9
100
AcDbEntity
  8
0
 62
     0
370
    -2
100
AcDbLine
 10
74.44233987712737
 20
127.4655391568392
 30
0.0
 11
83.1757300222741
 21
127.4655391568392
 31
0.0
  0
LINE
  5
1CB
330
1C9
100
AcDbEntity
  8
0
 62
     0
370
    -2
100
AcDbLine
 10
74.44233987712737
 20
27.46553915683916
 30
0.0
 11
83.17573002227415
 21
27.46553915683916
 31
0.0
  0
LINE
  5
1CC
330
1C9
100
AcDbEntity
  8
0
 62
     0
370
    -2
100
AcDbLine
 10
82.35220061050939
 20
124.4655391568392
 30
0.0
 11
82.35220061050944
 21
30.46553915683916
 31
0.0
  0
INSERT
  5
1CD
330
1C9
100
AcDbEntity
  8
0
 62
     0
370
    -2
100
AcDbBlockReference
  2
_OPEN30
 10
82.35220061050939
 20
127.4655391568392
 30
0.0
 41
3.0
 42
3.0
 43
3.0
 50
90.00000000000003
  0
INSERT
  5
1CE
330
1C9
100
AcDbEntity
  8
0
 62
     0
370
    -2
100
AcDbBlockReference
  2
_OPEN30
 10
82.35220061050944
 20
27.46553915683916
 30
0.0
 41
3.0
 42
3.0
 43
3.0
 50
270.0
  0
MTEXT
  5
1CF
330
1C9
100
AcDbEntity
  8
0
 62
     0
100
AcDbMText
 10
80.2522006462722
 20
77.46553915683918
 30
0.0
 40
2.799999952316284
 41
0.0
 71
     5
 72
     1
  1
100
 11
-4.263256414560600E-16
 21
1.0
 31
0.0
 73
     1
 44
1.0
  0
POINT
  5
1D0
330
1C9
100
AcDbEntity
  8
Defpoints
 62
     0
100
AcDbPoint
 10
71.90233987712736
 20
127.4655391568392
 30
0.0
  0
POINT
  5
1D1
330
1C9
100
AcDbEntity
  8
Defpoints
 62
     0
100
AcDbPoint
 10
71.90233987712736
 20
27.46553915683916
 30
0.0
  0
POINT
  5
1D2
330
1C9
100
AcDbEntity
  8
Defpoints
 62
     0
100
AcDbPoint
 10
82.35220061050941
 20
27.46553915683916
 30
0.0
  0
ENDBLK
  5
1D4
330
1C9
100
AcDbEntity
  8
0
100
AcDbBlockEnd
  0
BLOCK
  5
1E0
330
1D6
100
AcDbEntity
  8
0
100
AcDbBlockBegin
  2
*D4
 70
     1
 10
0.0
 20
0.0
 30
0.0
  3
*D4
  1

  0
LINE
  5
1D7
330
1D6
100
AcDbEntity
  8
0
 62
     0
370
    -2
100
AcDbLine
 10
74.44233987712737
 20
127.4655391568392
 30
0.0
 11
93.40006080709085
 21
127.4655391568392
 31
0.0
  0
LINE
  5
1D8
330
1D6
100
AcDbEntity
  8
0
 62
     0
370
    -2
100
AcDbLine
 10
23.44233987712736
 20
-17.53446084316084
 30
0.0
 11
93.40006080709091
 21
-17.53446084316079
 31
0.0
  0
LINE
  5
1D9
330
1D6
100
AcDbEntity
  8
0
 62
     0
370
    -2
100
AcDbLine
 10
92.57653139532613
 20
124.4655391568392
 30
0.0
 11
92.57653139532619
 21
-14.53446084316079
 31
0.0
  0
INSERT
  5
1DA
330
1D6
100
AcDbEntity
  8
0
 62
     0
370
    -2
100
AcDbBlockReference
  2
_OPEN30
 10
92.57653139532613
 20
127.4655391568392
 30
0.0
 41
3.0
 42
3.0
 43
3.0
 50
90.00000000000003
  0
INSERT
  5
1DB
330
1D6
100
AcDbEntity
  8
0
 62
     0
370
    -2
100
AcDbBlockReference
  2
_OPEN30
 10
92.57653139532619
 20
-17.53446084316079
 30
0.0
 41
3.0
 42
3.0
 43
3.0
 50
270.0
  0
MTEXT
  5
1DC
330
1D6
100
AcDbEntity
  8
0
 62
     0
100
AcDbMText
 10
90.47653143108894
 20
54.96553915683917
 30
0.0
 40
2.799999952316284
 41
0.0
 71
     5
 72
     1
  1
145
 11
-3.920235783504000E-16
 21
1.0
 31
0.0
 73
     1
 44
1.0
  0
POINT
  5
1DD
330
1D6
100
AcDbEntity
  8
Defpoints
 62
     0
100
AcDbPoint
 10
71.90233987712736
 20
127.4655391568392
 30
0.0
  0
POINT
  5
1DE
330
1D6
100
AcDbEntity
  8
Defpoints
 62
     0
100
AcDbPoint
 10
20.90233987712736
 20
-17.53446084316084
 30
0.0
  0
POINT
  5
1DF
330
1D6
100
AcDbEntity
  8
Defpoints
 62
     0
100
AcDbPoint
 10
92.57653139532616
 20
-17.53446084316081
 30
0.0
  0
ENDBLK
  5
1E1
330
1D6
100
AcDbEntity
  8
0
100
AcDbBlockEnd
  0
BLOCK
  5
1F0
330
1E3
100
AcDbEntity
  8
0
100
AcDbBlockBegin
  2
*D5
 70
     1
 10
0.0
 20
0.0
 30
0.0
  3
*D5
  1

  0
LINE
  5
1E4
330
1E3
100
AcDbEntity
  8
0
 62
     0
 60
     1
370
    -2
100
AcDbLine
 10
-101.226451740255
 20
-20.07446084316084
 30
0.0
 11
-101.226451740255
 21
-33.02417669625642
 31
0.0
  0
LINE
  5
1E5
330
1E3
100
AcDbEntity
  8
0
 62
     0
 60
     1
370
    -2
100
AcDbLine
 10
-94.22645174025503
 20
11.42553915683918
 30
0.0
 11
-94.22645174025503
 21
-33.02417669625642
 31
0.0
  0
LINE
  5
1E6
330
1E3
100
AcDbEntity
  8
0
 62
     0
 60
     1
370
    -2
100
AcDbLine
 10
-94.22645174025503
 20
-32.20064728449171
 30
0.0
 11
-85.2817222601549
 21
-32.20064728449171
 31
0.0
  0
LINE
  5
1E7
330
1E3
100
AcDbEntity
  8
0
 62
     0
 60
     1
370
    -2
100
AcDbLine
 10
-101.226451740255
 20
-32.20064728449171
 30
0.0
 11
-94.22645174025503
 21
-32.20064728449171
 31
0.0
  0
LINE
  5
1E8
330
1E3
100
AcDbEntity
  8
0
 62
     0
 60
     1
370
    -2
100
AcDbLine
 10
-104.226451740255
 20
-32.20064728449171
 30
0.0
 11
-107.226451740255
 21
-32.20064728449171
 31
0.0
  0
LINE
  5
1E9
330
1E3
100
AcDbEntity
  8
0
 62
     0
 60
     1
370
    -2
100
AcDbLine
 10
-91.22645174025503
 20
-32.20064728449171
 30
0.0
 11
-88.22645174025503
 21
-32.20064728449171
 31
0.0
  0
INSERT
  5
1EA
330
1E3
100
AcDbEntity
  8
0
 62
     0
 60
     1
370
    -2
100
AcDbBlockReference
  2
_OPEN30
 10
-101.226451740255
 20
-32.20064728449171
 30
0.0
 41
3.0
 42
3.0
 43
3.0
  0
INSERT
  5
1EB
330
1E3
100
AcDbEntity
  8
0
 62
     0
 60
     1
370
    -2
100
AcDbBlockReference
  2
_OPEN30
 10
-94.22645174025503
 20
-32.20064728449171
 30
0.0
 41
3.0
 42
3.0
 43
3.0
 50
180.0
  0
MTEXT
  5
1EC
330
1E3
100
AcDbEntity
  8
0
 62
     0
100
AcDbMText
 10
-86.91505556567273
 20
-30.1006473202545
 30
0.0
 40
2.799999952316284
 41
0.0
 71
     5
 72
     1
  1
7
 73
     1
 44
1.0
  0
POINT
  5
1ED
330
1E3
100
AcDbEntity
  8
Defpoints
 62
     0
100
AcDbPoint
 10
-101.226451740255
 20
-17.53446084316084
 30
0.0
  0
POINT
  5
1EE
330
1E3
100
AcDbEntity
  8
Defpoints
 62
     0
100
AcDbPoint
 10
-94.22645174025503
 20
13.96553915683918
 30
0.0
  0
POINT
  5
1EF
330
1E3
100
AcDbEntity
  8
Defpoints
 62
     0
100
AcDbPoint
 10
-94.22645174025503
 20
-32.20064728449171
 30
0.0
  0
LINE
  5
1F2
330
1E3
100
AcDbEntity
  8
0
  6
Continuous
 62
     7
100
AcDbLine
 10
-101.226451740255
 20
-20.07446084316084
 30
0.0
 11
-101.226451740255
 21
-33.02417669625641
 31
0.0
  0
LINE
  5
1F3
330
1E3
100
AcDbEntity
  8
0
  6
Continuous
 62
     7
100
AcDbLine
 10
-94.22645174025503
 20
11.42553915683918
 30
0.0
 11
-94.22645174025503
 21
-33.02417669625642
 31
0.0
  0
LINE
  5
1F4
330
1E3
100
AcDbEntity
  8
0
  6
Continuous
 62
     7
100
AcDbLine
 10
-107.576451740255
 20
-32.20064728449171
 30
0.0
 11
-87.87645174025502
 21
-32.20064728449171
 31
0.0
  0
LINE
  5
1F5
330
1E3
100
AcDbEntity
  8
0
  6
Continuous
 62
     7
100
AcDbLine
 10
-101.226451740255
 20
-32.20064728449171
 30
0.0
 11
-104.226451740255
 21
-33.20064728449171
 31
0.0
  0
LINE
  5
1F6
330
1E3
100
AcDbEntity
  8
0
  6
Continuous
 62
     7
100
AcDbLine
 10
-101.226451740255
 20
-32.20064728449171
 30
0.0
 11
-104.226451740255
 21
-31.20064728449171
 31
0.0
  0
LINE
  5
1F7
330
1E3
100
AcDbEntity
  8
0
  6
Continuous
 62
     7
100
AcDbLine
 10
-94.22645174025502
 20
-32.20064728449171
 30
0.0
 11
-91.22645174025502
 21
-31.20064728449171
 31
0.0
  0
LINE
  5
1F8
330
1E3
100
AcDbEntity
  8
0
  6
Continuous
 62
     7
100
AcDbLine
 10
-94.22645174025502
 20
-32.20064728449171
 30
0.0
 11
-91.22645174025502
 21
-33.20064728449171
 31
0.0
  0
LINE
  5
1F9
330
1E3
100
AcDbEntity
  8
0
  6
Continuous
 62
     7
100
AcDbLine
 10
-94.22645174025502
 20
-32.20064728449171
 30
0.0
 11
-85.44446733037861
 21
-32.20064728449171
 31
0.0
  0
ENDBLK
  5
1F1
330
1E3
100
AcDbEntity
  8
0
100
AcDbBlockEnd
  0
BLOCK
  5
205
330
1FB
100
AcDbEntity
  8
0
100
AcDbBlockBegin
  2
*D6
 70
     1
 10
0.0
 20
0.0
 30
0.0
  3
*D6
  1

  0
LINE
  5
1FC
330
1FB
100
AcDbEntity
  8
0
 62
     0
370
    -2
100
AcDbLine
 10
-119.226451740255
 20
-20.07446084316084
 30
0.0
 11
-119.226451740255
 21
-33.02417669625641
 31
0.0
  0
LINE
  5
1FD
330
1FB
100
AcDbEntity
  8
0
 62
     0
370
    -2
100
AcDbLine
 10
-101.226451740255
 20
-20.07446084316084
 30
0.0
 11
-101.226451740255
 21
-33.02417669625641
 31
0.0
  0
LINE
  5
1FE
330
1FB
100
AcDbEntity
  8
0
 62
     0
370
    -2
100
AcDbLine
 10
-116.226451740255
 20
-32.20064728449171
 30
0.0
 11
-104.226451740255
 21
-32.20064728449171
 31
0.0
  0
INSERT
  5
1FF
330
1FB
100
AcDbEntity
  8
0
 62
     0
370
    -2
100
AcDbBlockReference
  2
_OPEN30
 10
-119.226451740255
 20
-32.20064728449171
 30
0.0
 41
3.0
 42
3.0
 43
3.0
 50
180.0
  0
INSERT
  5
200
330
1FB
100
AcDbEntity
  8
0
 62
     0
370
    -2
100
AcDbBlockReference
  2
_OPEN30
 10
-101.226451740255
 20
-32.20064728449171
 30
0.0
 41
3.0
 42
3.0
 43
3.0
  0
MTEXT
  5
201
330
1FB
100
AcDbEntity
  8
0
 62
     0
100
AcDbMText
 10
-110.226451740255
 20
-30.1006473202545
 30
0.0
 40
2.799999952316284
 41
0.0
 71
     5
 72
     1
  1
18
 73
     1
 44
1.0
  0
POINT
  5
202
330
1FB
100
AcDbEntity
  8
Defpoints
 62
     0
100
AcDbPoint
 10
-119.226451740255
 20
-17.53446084316084
 30
0.0
  0
POINT
  5
203
330
1FB
100
AcDbEntity
  8
Defpoints
 62
     0
100
AcDbPoint
 10
-101.226451740255
 20
-17.53446084316084
 30
0.0
  0
POINT
  5
204
330
1FB
100
AcDbEntity
  8
Defpoints
 62
     0
100
AcDbPoint
 10
-101.226451740255
 20
-32.20064728449171
 30
0.0
  0
ENDBLK
  5
206
330
1FB
100
AcDbEntity
  8
0
100
AcDbBlockEnd
  0
BLOCK
  5
212
330
208
100
AcDbEntity
  8
0
100
AcDbBlockBegin
  2
*D7
 70
     1
 10
0.0
 20
0.0
 30
0.0
  3
*D7
  1

  0
LINE
  5
209
330
208
100
AcDbEntity
  8
0
 62
     0
370
    -2
100
AcDbLine
 10
-137.226451740255
 20
-19.07446084316084
 30
0.0
 11
-137.226451740255
 21
-33.02417669625641
 31
0.0
  0
LINE
  5
20A
330
208
100
AcDbEntity
  8
0
 62
     0
370
    -2
100
AcDbLine
 10
-119.226451740255
 20
-20.07446084316084
 30
0.0
 11
-119.226451740255
 21
-33.02417669625641
 31
0.0
  0
LINE
  5
20B
330
208
100
AcDbEntity
  8
0
 62
     0
370
    -2
100
AcDbLine
 10
-134.226451740255
 20
-32.20064728449171
 30
0.0
 11
-122.226451740255
 21
-32.20064728449171
 31
0.0
  0
INSERT
  5
20C
330
208
100
AcDbEntity
  8
0
 62
     0
370
    -2
100
AcDbBlockReference
  2
_OPEN30
 10
-137.226451740255
 20
-32.20064728449171
 30
0.0
 41
3.0
 42
3.0
 43
3.0
 50
180.0
  0
INSERT
  5
20D
330
208
100
AcDbEntity
  8
0
 62
     0
370
    -2
100
AcDbBlockReference
  2
_OPEN30
 10
-119.226451740255
 20
-32.20064728449171
 30
0.0
 41
3.0
 42
3.0
 43
3.0
  0
MTEXT
  5
20E
330
208
100
AcDbEntity
  8
0
 62
     0
100
AcDbMText
 10
-128.226451740255
 20
-30.1006473202545
 30
0.0
 40
2.799999952316284
 41
0.0
 71
     5
 72
     1
  1
18
 73
     1
 44
1.0
  0
POINT
  5
20F
330
208
100
AcDbEntity
  8
Defpoints
 62
     0
100
AcDbPoint
 10
-137.226451740255
 20
-16.53446084316084
 30
0.0
  0
POINT
  5
210
330
208
100
AcDbEntity
  8
Defpoints
 62
     0
100
AcDbPoint
 10
-119.226451740255
 20
-17.53446084316084
 30
0.0
  0
POINT
  5
211
330
208
100
AcDbEntity
  8
Defpoints
 62
     0
100
AcDbPoint
 10
-119.226451740255
 20
-32.20064728449171
 30
0.0
  0
ENDBLK
  5
213
330
208
100
AcDbEntity
  8
0
100
AcDbBlockEnd
  0
BLOCK
  5
21E
330
215
100
AcDbEntity
  8
0
100
AcDbBlockBegin
  2
*D8
 70
     1
 10
0.0
 20
0.0
 30
0.0
  3
*D8
  1

  0
ARC
  5
216
330
215
100
AcDbEntity
  8
0
 62
     0
370
    -2
100
AcDbCircle
 10
20.90233987712736
 20
27.46553915683917
 30
0.0
 40
25.90215968467745
100
AcDbArc
 50
66.63973812679089
 51
83.36026187320913
  0
INSERT
  5
217
330
215
100
AcDbEntity
  8
0
 62
     0
370
    -2
100
AcDbBlockReference
  2
_OPEN30
 10
33.85341971946608
 20
49.89746745665096
 30
0.0
 41
3.0
 42
3.0
 43
3.0
 50
333.3198690633954
  0
INSERT
  5
218
330
215
100
AcDbEntity
  8
0
 62
     0
370
    -2
100
AcDbBlockReference
  2
_OPEN30
 10
20.90233987712736
 20
53.36769884151661
 30
0.0
 41
3.0
 42
3.0
 43
3.0
 50
176.6801309366046
  0
MTEXT
  5
219
330
215
100
AcDbEntity
  8
0
 62
     0
 60
     1
100
AcDbMText
 10
41.71629464414765
 20
46.29738180770499
 30
0.0
 40
2.799999952316284
 41
0.0
 71
     5
 72
     1
  1
29%%d
 11
0.6709166404002354
 21
-0.7415327785297569
 31
0.0
 73
     1
 44
1.0
  0
POINT
  5
21A
330
215
100
AcDbEntity
  8
Defpoints
 62
     0
100
AcDbPoint
 10
20.90233987712736
 20
27.46553915683917
 30
0.0
  0
POINT
  5
21B
330
215
100
AcDbEntity
  8
Defpoints
 62
     0
100
AcDbPoint
 10
59.98369097839743
 20
95.15642489267684
 30
0.0
  0
POINT
  5
21C
330
215
100
AcDbEntity
  8
Defpoints
 62
     0
100
AcDbPoint
 10
20.90233987712736
 20
101.7896181293014
 30
0.0
  0
POINT
  5
21D
330
215
100
AcDbEntity
  8
Defpoints
 62
     0
100
AcDbPoint
 10
25.40020270400943
 20
52.97418683406977
 30
0.0
  0
MTEXT
  5
220
330
215
100
AcDbEntity
  8
0
 62
     7
100
AcDbMText
 10
38.11492357677007
 20
48.09543714053099
 30
0.0
 40
2.799999952316284
 41
0.0
 71
     7
 72
     1
  1
\W0.744048;30°
 11
0.6704266189587993
 21
-0.7419758409756162
 31
0.0
 73
     1
 44
1.0
  0
ENDBLK
  5
21F
330
215
100
AcDbEntity
  8
0
100
AcDbBlockEnd
  0
BLOCK
  5
22B
330
222
100
AcDbEntity
  8
0
100
AcDbBlockBegin
  2
*D9
 70
     1
 10
0.0
 20
0.0
 30
0.0
  3
*D9
  1

  0
ARC
  5
223
330
222
100
AcDbEntity
  8
0
 62
     0
370
    -2
100
AcDbCircle
 10
20.90233987712737
 20
27.46553915683912
 30
0.0
 40
25.90215968467749
100
AcDbArc
 50
96.6397381267909
 51
113.3602618732091
  0
INSERT
  5
224
330
222
100
AcDbEntity
  8
0
 62
     0
370
    -2
100
AcDbBlockReference
  2
_OPEN30
 10
20.90233987712737
 20
53.36769884151661
 30
0.0
 41
3.0
 42
3.0
 43
3.0
 50
3.319869063395451
  0
INSERT
  5
225
330
222
100
AcDbEntity
  8
0
 62
     0
370
    -2
100
AcDbBlockReference
  2
_OPEN30
 10
7.951260034788637
 20
49.89746745665096
 30
0.0
 41
3.0
 42
3.0
 43
3.0
 50
206.6801309366045
  0
MTEXT
  5
226
330
222
100
AcDbEntity
  8
0
 62
     0
 60
     1
100
AcDbMText
 10
2.848083397112615
 20
48.95746400372949
 30
0.0
 40
2.799999952316284
 41
0.0
 71
     5
 72
     1
  1
29%%d
 11
0.7656866235204581
 21
0.6432138015946491
 31
0.0
 73
     1
 44
1.0
  0
POINT
  5
227
330
222
100
AcDbEntity
  8
Defpoints
 62
     0
100
AcDbPoint
 10
20.90233987712737
 20
27.46553915683912
 30
0.0
  0
POINT
  5
228
330
222
100
AcDbEntity
  8
Defpoints
 62
     0
100
AcDbPoint
 10
20.90233987712736
 20
101.7896181293014
 30
0.0
  0
POINT
  5
229
330
222
100
AcDbEntity
  8
Defpoints
 62
     0
100
AcDbPoint
 10
-18.17901122414271
 20
95.15642489267685
 30
0.0
  0
POINT
  5
22A
330
222
100
AcDbEntity
  8
Defpoints
 62
     0
100
AcDbPoint
 10
16.40447705024529
 20
52.97418683406976
 30
0.0
  0
MTEXT
  5
22D
330
222
100
AcDbEntity
  8
0
 62
     7
100
AcDbMText
 10
0.919095296020195
 20
45.42425391241436
 30
0.0
 40
2.799999952316284
 41
0.0
 71
     7
 72
     1
  1
\W0.744048;30°
 11
0.766044443118978
 21
0.6427876096865393
 31
0.0
 73
     1
 44
1.0
  0
ENDBLK
  5
22C
330
222
100
AcDbEntity
  8
0
100
AcDbBlockEnd
  0
BLOCK
  5
239
330
22F
100
AcDbEntity
  8
0
100
AcDbBlockBegin
  2
*D10
 70
     1
 10
0.0
 20
0.0
 30
0.0
  3
*D10
  1

  0
LINE
  5
230
330
22F
100
AcDbEntity
  8
0
 62
     0
370
    -2
100
AcDbLine
 10
-81.18645174025501
 20
167.2665606092174
 30
0.0
 11
-59.30834265907512
 21
167.2665606092174
 31
0.0
  0
LINE
  5
231
330
22F
100
AcDbEntity
  8
0
 62
     0
370
    -2
100
AcDbLine
 10
-81.18645174025501
 20
87.664517704461
 30
0.0
 11
-59.30834265907509
 21
87.664517704461
 31
0.0
  0
LINE
  5
232
330
22F
100
AcDbEntity
  8
0
 62
     0
370
    -2
100
AcDbLine
 10
-60.47500932574179
 20
164.2665606092174
 30
0.0
 11
-60.47500932574177
 21
90.664517704461
 31
0.0
  0
INSERT
  5
233
330
22F
100
AcDbEntity
  8
0
 62
     0
370
    -2
100
AcDbBlockReference
  2
_OPEN30
 10
-60.47500932574179
 20
167.2665606092174
 30
0.0
 41
3.0
 42
3.0
 43
3.0
 50
90.00000000000003
  0
INSERT
  5
234
330
22F
100
AcDbEntity
  8
0
 62
     0
370
    -2
100
AcDbBlockReference
  2
_OPEN30
 10
-60.47500932574177
 20
87.664517704461
 30
0.0
 41
3.0
 42
3.0
 43
3.0
 50
270.0
  0
MTEXT
  5
235
330
22F
100
AcDbEntity
  8
0
 62
     0
100
AcDbMText
 10
-62.575009289979
 20
127.4655391568392
 30
0.0
 40
2.799999952316284
 41
0.0
 71
     5
 72
     1
  1
\U+220579.6
 11
-3.570474876431313E-16
 21
1.0
 31
0.0
 73
     1
 44
1.0
  0
POINT
  5
236
330
22F
100
AcDbEntity
  8
Defpoints
 62
     0
100
AcDbPoint
 10
-83.72645174025502
 20
167.2665606092174
 30
0.0
  0
POINT
  5
237
330
22F
100
AcDbEntity
  8
Defpoints
 62
     0
100
AcDbPoint
 10
-83.72645174025502
 20
87.664517704461
 30
0.0
  0
POINT
  5
238
330
22F
100
AcDbEntity
  8
Defpoints
 62
     0
100
AcDbPoint
 10
-60.47500932574178
 20
87.664517704461
 30
0.0
  0
ENDBLK
  5
23A
330
22F
100
AcDbEntity
  8
0
100
AcDbBlockEnd
  0
BLOCK
  5
246
330
23C
100
AcDbEntity
  8
0
100
AcDbBlockBegin
  2
*D11
 70
     1
 10
0.0
 20
0.0
 30
0.0
  3
*D11
  1

  0
LINE
  5
23D
330
23C
100
AcDbEntity
  8
0
 62
     0
370
    -2
100
AcDbLine
 10
-87.04655207498377
 20
171.9655391568392
 30
0.0
 11
-43.46783125404451
 21
171.9655391568392
 31
0.0
  0
LINE
  5
23E
330
23C
100
AcDbEntity
  8
0
 62
     0
370
    -2
100
AcDbLine
 10
-87.04655207498377
 20
82.9655391568392
 30
0.0
 11
-43.46783125404448
 21
82.96553915683923
 31
0.0
  0
LINE
  5
23F
330
23C
100
AcDbEntity
  8
0
 62
     0
370
    -2
100
AcDbLine
 10
-44.63449792071118
 20
168.9655391568392
 30
0.0
 11
-44.63449792071114
 21
85.96553915683923
 31
0.0
  0
INSERT
  5
240
330
23C
100
AcDbEntity
  8
0
 62
     0
370
    -2
100
AcDbBlockReference
  2
_OPEN30
 10
-44.63449792071118
 20
171.9655391568392
 30
0.0
 41
3.0
 42
3.0
 43
3.0
 50
90.00000000000003
  0
INSERT
  5
241
330
23C
100
AcDbEntity
  8
0
 62
     0
370
    -2
100
AcDbBlockReference
  2
_OPEN30
 10
-44.63449792071114
 20
82.96553915683923
 30
0.0
 41
3.0
 42
3.0
 43
3.0
 50
270.0
  0
MTEXT
  5
242
330
23C
100
AcDbEntity
  8
0
 62
     0
100
AcDbMText
 10
-47.46783120579311
 20
127.4655391568392
 30
0.0
 40
2.799999952316284
 41
0.0
 71
     5
 72
     1
  1
(\U+220589)
 11
-3.991813122247754E-16
 21
1.0
 31
0.0
 73
     1
 44
1.0
  0
POINT
  5
243
330
23C
100
AcDbEntity
  8
Defpoints
 62
     0
100
AcDbPoint
 10
-89.58655207498377
 20
171.9655391568392
 30
0.0
  0
POINT
  5
244
330
23C
100
AcDbEntity
  8
Defpoints
 62
     0
100
AcDbPoint
 10
-89.58655207498377
 20
82.9655391568392
 30
0.0
  0
POINT
  5
245
330
23C
100
AcDbEntity
  8
Defpoints
 62
     0
100
AcDbPoint
 10
-44.63449792071115
 20
82.96553915683921
 30
0.0
  0
ENDBLK
  5
247
330
23C
100
AcDbEntity
  8
0
100
AcDbBlockEnd
  0
BLOCK
  5
254
330
249
100
AcDbEntity
  8
0
100
AcDbBlockBegin
  2
*D12
 70
     1
 10
0.0
 20
0.0
 30
0.0
  3
*D12
  1

  0
LINE
  5
24A
330
249
100
AcDbEntity
  8
0
 62
     0
 60
     1
370
    -2
100
AcDbLine
 10
-101.226451740255
 20
145.0055391568392
 30
0.0
 11
-101.226451740255
 21
186.8608392415633
 31
0.0
  0
LINE
  5
24B
330
249
100
AcDbEntity
  8
0
 62
     0
 60
     1
370
    -2
100
AcDbLine
 10
-92.72645174025503
 20
178.2492684077177
 30
0.0
 11
-92.72645174025503
 21
186.8608392415633
 31
0.0
  0
LINE
  5
24C
330
249
100
AcDbEntity
  8
0
 62
     0
 60
     1
370
    -2
100
AcDbLine
 10
-101.226451740255
 20
185.6941725748966
 30
0.0
 11
-114.3232304934521
 21
185.6941725748966
 31
0.0
  0
LINE
  5
24D
330
249
100
AcDbEntity
  8
0
 62
     0
 60
     1
370
    -2
100
AcDbLine
 10
-98.226451740255
 20
185.6941725748966
 30
0.0
 11
-95.72645174025503
 21
185.6941725748966
 31
0.0
  0
INSERT
  5
24E
330
249
100
AcDbEntity
  8
0
 62
     0
 60
     1
370
    -2
100
AcDbBlockReference
  2
_OPEN30
 10
-101.226451740255
 20
185.6941725748966
 30
0.0
 41
3.0
 42
3.0
 43
3.0
 50
180.0
  0
INSERT
  5
24F
330
249
100
AcDbEntity
  8
0
 62
     0
 60
     1
370
    -2
100
AcDbBlockReference
  2
_OPEN30
 10
-92.72645174025503
 20
185.6941725748966
 30
0.0
 41
3.0
 42
3.0
 43
3.0
  0
MTEXT
  5
250
330
249
100
AcDbEntity
  8
0
 62
     0
100
AcDbMText
 10
-110.689897221994
 20
187.7941725391338
 30
0.0
 40
2.799999952316284
 41
0.0
 71
     5
 72
     1
  1
8.5
 73
     1
 44
1.0
  0
POINT
  5
251
330
249
100
AcDbEntity
  8
Defpoints
 62
     0
100
AcDbPoint
 10
-101.226451740255
 20
142.4655391568392
 30
0.0
  0
POINT
  5
252
330
249
100
AcDbEntity
  8
Defpoints
 62
     0
100
AcDbPoint
 10
-92.72645174025503
 20
175.7092684077177
 30
0.0
  0
POINT
  5
253
330
249
100
AcDbEntity
  8
Defpoints
 62
     0
100
AcDbPoint
 10
-92.72645174025503
 20
185.6941725748966
 30
0.0
  0
LINE
  5
256
330
249
100
AcDbEntity
  8
0
  6
Continuous
 62
     7
100
AcDbLine
 10
-101.226451740255
 20
145.0055391568392
 30
0.0
 11
-101.226451740255
 21
186.8608392415633
 31
0.0
  0
LINE
  5
257
330
249
100
AcDbEntity
  8
0
  6
Continuous
 62
     7
100
AcDbLine
 10
-92.72645174025503
 20
178.2492684077177
 30
0.0
 11
-92.72645174025503
 21
186.8608392415633
 31
0.0
  0
LINE
  5
258
330
249
100
AcDbEntity
  8
0
  6
Continuous
 62
     7
100
AcDbLine
 10
-107.576451740255
 20
185.6941725748966
 30
0.0
 11
-86.37645174025504
 21
185.6941725748966
 31
0.0
  0
LINE
  5
259
330
249
100
AcDbEntity
  8
0
  6
Continuous
 62
     7
100
AcDbLine
 10
-101.226451740255
 20
185.6941725748966
 30
0.0
 11
-104.226451740255
 21
184.6941725748966
 31
0.0
  0
LINE
  5
25A
330
249
100
AcDbEntity
  8
0
  6
Continuous
 62
     7
100
AcDbLine
 10
-101.226451740255
 20
185.6941725748966
 30
0.0
 11
-104.226451740255
 21
186.6941725748966
 31
0.0
  0
LINE
  5
25B
330
249
100
AcDbEntity
  8
0
  6
Continuous
 62
     7
100
AcDbLine
 10
-92.72645174025503
 20
185.6941725748966
 30
0.0
 11
-89.72645174025503
 21
186.6941725748966
 31
0.0
  0
LINE
  5
25C
330
249
100
AcDbEntity
  8
0
  6
Continuous
 62
     7
100
AcDbLine
 10
-92.72645174025503
 20
185.6941725748966
 30
0.0
 11
-89.72645174025503
 21
184.6941725748966
 31
0.0
  0
LINE
  5
25D
330
249
100
AcDbEntity
  8
0
  6
Continuous
 62
     7
100
AcDbLine
 10
-101.226451740255
 20
185.6941725748966
 30
0.0
 11
-115.8982305553273
 21
185.6941725748966
 31
0.0
  0
ENDBLK
  5
255
330
249
100
AcDbEntity
  8
0
100
AcDbBlockEnd
  0
BLOCK
  5
269
330
25F
100
AcDbEntity
  8
0
100
AcDbBlockBegin
  2
*D13
 70
     1
 10
0.0
 20
0.0
 30
0.0
  3
*D13
  1

  0
LINE
  5
260
330
25F
100
AcDbEntity
  8
0
 62
     0
370
    -2
100
AcDbLine
 10
-137.226451740255
 20
75.00553915683919
 30
0.0
 11
-137.226451740255
 21
194.0696631205032
 31
0.0
  0
LINE
  5
261
330
25F
100
AcDbEntity
  8
0
 62
     0
370
    -2
100
AcDbLine
 10
-92.72645174025503
 20
178.2492684077177
 30
0.0
 11
-92.72645174025503
 21
194.0696631205032
 31
0.0
  0
LINE
  5
262
330
25F
100
AcDbEntity
  8
0
 62
     0
370
    -2
100
AcDbLine
 10
-134.226451740255
 20
192.9029964538365
 30
0.0
 11
-95.72645174025503
 21
192.9029964538365
 31
0.0
  0
INSERT
  5
263
330
25F
100
AcDbEntity
  8
0
 62
     0
370
    -2
100
AcDbBlockReference
  2
_OPEN30
 10
-137.226451740255
 20
192.9029964538365
 30
0.0
 41
3.0
 42
3.0
 43
3.0
 50
180.0
  0
INSERT
  5
264
330
25F
100
AcDbEntity
  8
0
 62
     0
370
    -2
100
AcDbBlockReference
  2
_OPEN30
 10
-92.72645174025503
 20
192.9029964538365
 30
0.0
 41
3.0
 42
3.0
 43
3.0
  0
MTEXT
  5
265
330
25F
100
AcDbEntity
  8
0
 62
     0
100
AcDbMText
 10
-114.976451740255
 20
195.0029964180737
 30
0.0
 40
2.799999952316284
 41
0.0
 71
     5
 72
     1
  1
44.5
 73
     1
 44
1.0
  0
POINT
  5
266
330
25F
100
AcDbEntity
  8
Defpoints
 62
     0
100
AcDbPoint
 10
-137.226451740255
 20
72.46553915683918
 30
0.0
  0
POINT
  5
267
330
25F
100
AcDbEntity
  8
Defpoints
 62
     0
100
AcDbPoint
 10
-92.72645174025503
 20
175.7092684077177
 30
0.0
  0
POINT
  5
268
330
25F
100
AcDbEntity
  8
Defpoints
 62
     0
100
AcDbPoint
 10
-92.72645174025503
 20
192.9029964538365
 30
0.0
  0
ENDBLK
  5
26A
330
25F
100
AcDbEntity
  8
0
100
AcDbBlockEnd
  0
BLOCK
  5
275
330
26C
100
AcDbEntity
  8
0
100
AcDbBlockBegin
  2
*D14
 70
     1
 10
0.0
 20
0.0
 30
0.0
  3
*D14
  1

  0
LINE
  5
26D
330
26C
100
AcDbEntity
  8
0
 62
     0
370
    -2
100
AcDbLine
 10
-76.72645174025503
 20
140.9751942714421
 30
0.0
 11
-76.72645174025503
 21
201.6785823673489
 31
0.0
  0
LINE
  5
26E
330
26C
100
AcDbEntity
  8
0
 62
     0
370
    -2
100
AcDbLine
 10
-79.72645174025503
 20
200.5119157006822
 30
0.0
 11
-134.226451740255
 21
200.5119157006822
 31
0.0
  0
INSERT
  5
26F
330
26C
100
AcDbEntity
  8
0
 62
     0
370
    -2
100
AcDbBlockReference
  2
_OPEN30
 10
-76.72645174025503
 20
200.5119157006822
 30
0.0
 41
3.0
 42
3.0
 43
3.0
  0
INSERT
  5
270
330
26C
100
AcDbEntity
  8
0
 62
     0
370
    -2
100
AcDbBlockReference
  2
_OPEN30
 10
-137.226451740255
 20
200.5119157006822
 30
0.0
 41
3.0
 42
3.0
 43
3.0
 50
180.0
  0
MTEXT
  5
271
330
26C
100
AcDbEntity
  8
0
 62
     0
100
AcDbMText
 10
-106.976451740255
 20
202.6119156649195
 30
0.0
 40
2.799999952316284
 41
0.0
 71
     5
 72
     1
  1
60.5
 73
     1
 44
1.0
  0
POINT
  5
272
330
26C
100
AcDbEntity
  8
Defpoints
 62
     0
100
AcDbPoint
 10
-76.72645174025503
 20
138.4351942714421
 30
0.0
  0
POINT
  5
273
330
26C
100
AcDbEntity
  8
Defpoints
 62
     0
100
AcDbPoint
 10
-137.226451740255
 20
72.46553915683918
 30
0.0
  0
POINT
  5
274
330
26C
100
AcDbEntity
  8
Defpoints
 62
     0
100
AcDbPoint
 10
-137.226451740255
 20
200.5119157006822
 30
0.0
  0
ENDBLK
  5
276
330
26C
100
AcDbEntity
  8
0
100
AcDbBlockEnd
  0
BLOCK
  5
281
330
278
100
AcDbEntity
  8
0
100
AcDbBlockBegin
  2
*D15
 70
     1
 10
0.0
 20
0.0
 30
0.0
  3
*D15
  1

  0
LINE
  5
279
330
278
100
AcDbEntity
  8
0
 62
     0
370
    -2
100
AcDbLine
 10
-137.226451740255
 20
75.00553915683919
 30
0.0
 11
-137.226451740255
 21
201.6785823673489
 31
0.0
  0
LINE
  5
27A
330
278
100
AcDbEntity
  8
0
 62
     0
370
    -2
100
AcDbLine
 10
-134.226451740255
 20
200.5119157006822
 30
0.0
 11
-79.72645174025502
 21
200.5119157006822
 31
0.0
  0
INSERT
  5
27B
330
278
100
AcDbEntity
  8
0
 62
     0
370
    -2
100
AcDbBlockReference
  2
_OPEN30
 10
-137.226451740255
 20
200.5119157006822
 30
0.0
 41
3.0
 42
3.0
 43
3.0
 50
180.0
  0
INSERT
  5
27C
330
278
100
AcDbEntity
  8
0
 62
     0
370
    -2
100
AcDbBlockReference
  2
_OPEN30
 10
-76.72645174025502
 20
200.5119157006822
 30
0.0
 41
3.0
 42
3.0
 43
3.0
  0
MTEXT
  5
27D
330
278
100
AcDbEntity
  8
0
 62
     0
100
AcDbMText
 10
-106.976451740255
 20
202.6119156649195
 30
0.0
 40
2.799999952316284
 41
0.0
 71
     5
 72
     1
  1
60.5
 73
     1
 44
1.0
  0
POINT
  5
27E
330
278
100
AcDbEntity
  8
Defpoints
 62
     0
100
AcDbPoint
 10
-137.226451740255
 20
72.46553915683918
 30
0.0
  0
POINT
  5
27F
330
278
100
AcDbEntity
  8
Defpoints
 62
     0
100
AcDbPoint
 10
-76.72645174025503
 20
138.4351942714421
 30
0.0
  0
POINT
  5
280
330
278
100
AcDbEntity
  8
Defpoints
 62
     0
100
AcDbPoint
 10
-76.72645174025502
 20
200.5119157006822
 30
0.0
  0
ENDBLK
  5
282
330
278
100
AcDbEntity
  8
0
100
AcDbBlockEnd
  0
ENDSEC
  0
SECTION
  2
ENTITIES
  0
POINT
  5
40
330
1F
100
AcDbEntity
  8
VIEW0001
 62
     7
100
AcDbPoint
 10
279.5775034930086
 20
86.64500019087363
 30
0.0
  0
POINT
  5
41
330
1F
100
AcDbEntity
  8
VIEW0001
 62
     7
100
AcDbPoint
 10
20.90233987712736
 20
127.4655391568392
 30
0.0
  0
POINT
  5
42
330
1F
100
AcDbEntity
  8
VIEW0001
 62
     7
100
AcDbPoint
 10
20.90233987712736
 20
127.4655391568392
 30
0.0
  0
POINT
  5
43
330
1F
100
AcDbEntity
  8
VIEW0001
 62
     7
100
AcDbPoint
 10
20.90233987712736
 20
112.4655391568392
 30
0.0
  0
POINT
  5
44
330
1F
100
AcDbEntity
  8
VIEW0001
 62
     7
100
AcDbPoint
 10
22.90233987712736
 20
112.4655391568392
 30
0.0
  0
POINT
  5
45
330
1F
100
AcDbEntity
  8
VIEW0001
 62
     7
100
AcDbPoint
 10
3.902339877127359
 20
127.4655391568392
 30
0.0
  0
POINT
  5
46
330
1F
100
AcDbEntity
  8
VIEW0001
 62
     7
100
AcDbPoint
 10
3.902339877127359
 20
142.4655391568392
 30
0.0
  0
POINT
  5
47
330
1F
100
AcDbEntity
  8
VIEW0001
 62
     7
100
AcDbPoint
 10
37.90233987712736
 20
142.4655391568392
 30
0.0
  0
POINT
  5
48
330
1F
100
AcDbEntity
  8
VIEW0001
 62
     7
100
AcDbPoint
 10
37.90233987712736
 20
112.4655391568392
 30
0.0
  0
POINT
  5
49
330
1F
100
AcDbEntity
  8
VIEW0001
 62
     7
100
AcDbPoint
 10
7.684414179524619
 20
111.1632665390106
 30
0.0
  0
POINT
  5
4A
330
1F
100
AcDbEntity
  8
VIEW0001
 62
     7
100
AcDbPoint
 10
-9.810131047513364
 20
60.35541799065518
 30
0.0
  0
POINT
  5
4B
330
1F
100
AcDbEntity
  8
VIEW0001
 62
     7
100
AcDbPoint
 10
51.61481080176809
 20
60.35541799065517
 30
0.0
  0
POINT
  5
4C
330
1F
100
AcDbEntity
  8
VIEW0001
 62
     7
100
AcDbPoint
 10
18.90233987712736
 20
72.42107274281722
 30
0.0
  0
POINT
  5
4D
330
1F
100
AcDbEntity
  8
VIEW0001
 62
     7
100
AcDbPoint
 10
22.90233987712736
 20
72.42107274281722
 30
0.0
  0
POINT
  5
4E
330
1F
100
AcDbEntity
  8
VIEW0001
 62
     7
100
AcDbPoint
 10
8.132822601874034
 20
112.4655391568392
 30
0.0
  0
POINT
  5
4F
330
1F
100
AcDbEntity
  8
VIEW0001
 62
     7
100
AcDbPoint
 10
18.90233987712736
 20
112.4655391568392
 30
0.0
  0
POINT
  5
50
330
1F
100
AcDbEntity
  8
VIEW0001
 62
     7
100
AcDbPoint
 10
22.90233987712736
 20
112.4655391568392
 30
0.0
  0
POINT
  5
51
330
1F
100
AcDbEntity
  8
VIEW0001
 62
     7
100
AcDbPoint
 10
33.6718571523807
 20
112.4655391568392
 30
0.0
  0
POINT
  5
52
330
1F
100
AcDbEntity
  8
VIEW0001
 62
     7
100
AcDbPoint
 10
37.90233987712736
 20
111.4655391568392
 30
0.0
  0
POINT
  5
53
330
1F
100
AcDbEntity
  8
VIEW0001
 62
     7
100
AcDbPoint
 10
3.902339877127357
 20
112.4655391568392
 30
0.0
  0
POINT
  5
54
330
1F
100
AcDbEntity
  8
VIEW0001
 62
     7
100
AcDbPoint
 10
37.90233987712736
 20
142.4655391568392
 30
0.0
  0
POINT
  5
55
330
1F
100
AcDbEntity
  8
VIEW0001
 62
     7
100
AcDbPoint
 10
3.902339877127357
 20
142.4655391568392
 30
0.0
  0
POINT
  5
56
330
1F
100
AcDbEntity
  8
VIEW0001
 62
     7
100
AcDbPoint
 10
-71.72645174025502
 20
127.4655391568392
 30
0.0
  0
POINT
  5
57
330
1F
100
AcDbEntity
  8
VIEW0001
 62
     7
100
AcDbPoint
 10
-137.226451740255
 20
-17.53446084316084
 30
0.0
  0
POINT
  5
58
330
1F
100
AcDbEntity
  8
VIEW0001
 62
     7
100
AcDbPoint
 10
-137.226451740255
 20
72.46553915683918
 30
0.0
  0
POINT
  5
59
330
1F
100
AcDbEntity
  8
VIEW0001
 62
     7
100
AcDbPoint
 10
-119.226451740255
 20
72.46553915683918
 30
0.0
  0
POINT
  5
5A
330
1F
100
AcDbEntity
  8
VIEW0001
 62
     7
100
AcDbPoint
 10
-137.226451740255
 20
-17.53446084316084
 30
0.0
  0
POINT
  5
5B
330
1F
100
AcDbEntity
  8
VIEW0001
 62
     7
100
AcDbPoint
 10
-101.226451740255
 20
-17.53446084316084
 30
0.0
  0
POINT
  5
5C
330
1F
100
AcDbEntity
  8
VIEW0001
 62
     7
100
AcDbPoint
 10
-101.226451740255
 20
142.4655391568392
 30
0.0
  0
POINT
  5
5D
330
1F
100
AcDbEntity
  8
VIEW0001
 62
     7
100
AcDbPoint
 10
-114.426451740255
 20
112.4655391568392
 30
0.0
  0
POINT
  5
5E
330
1F
100
AcDbEntity
  8
VIEW0001
 62
     7
100
AcDbPoint
 10
-94.22645174025503
 20
27.46553915683914
 30
0.0
  0
POINT
  5
5F
330
1F
100
AcDbEntity
  8
VIEW0001
 62
     7
100
AcDbPoint
 10
-95.486451740255
 20
27.46553915683916
 30
0.0
  0
POINT
  5
60
330
1F
100
AcDbEntity
  8
VIEW0001
 62
     7
100
AcDbPoint
 10
-95.432451740255
 20
27.46553915683916
 30
0.0
  0
POINT
  5
61
330
1F
100
AcDbEntity
  8
VIEW0001
 62
     7
100
AcDbPoint
 10
20.90233987712736
 20
69.46553915683916
 30
0.0
  0
POINT
  5
62
330
1F
100
AcDbEntity
  8
VIEW0001
 62
     7
100
AcDbPoint
 10
-105.426451740255
 20
67.46553915683916
 30
0.0
  0
POINT
  5
63
330
1F
100
AcDbEntity
  8
VIEW0001
 62
     7
100
AcDbPoint
 10
-114.226451740255
 20
127.4655391568392
 30
0.0
  0
POINT
  5
64
330
1F
100
AcDbEntity
  8
VIEW0001
 62
     7
100
AcDbPoint
 10
-101.226451740255
 20
37.96553915683914
 30
0.0
  0
POINT
  5
65
330
1F
100
AcDbEntity
  8
VIEW0001
 62
     7
100
AcDbPoint
 10
-119.226451740255
 20
37.96553915683914
 30
0.0
  0
POINT
  5
66
330
1F
100
AcDbEntity
  8
VIEW0001
 62
     7
100
AcDbPoint
 10
-119.226451740255
 20
36.46553915683911
 30
0.0
  0
POINT
  5
67
330
1F
100
AcDbEntity
  8
VIEW0001
 62
     7
100
AcDbPoint
 10
-137.226451740255
 20
36.46553915683911
 30
0.0
  0
POINT
  5
68
330
1F
100
AcDbEntity
  8
VIEW0001
 62
     7
100
AcDbPoint
 10
-119.226451740255
 20
35.11553915683911
 30
0.0
  0
POINT
  5
69
330
1F
100
AcDbEntity
  8
VIEW0001
 62
     7
100
AcDbPoint
 10
-137.226451740255
 20
35.11553915683911
 30
0.0
  0
POINT
  5
6A
330
1F
100
AcDbEntity
  8
VIEW0001
 62
     7
100
AcDbPoint
 10
25.00233987712736
 20
67.46553915683916
 30
0.0
  0
POINT
  5
6B
330
1F
100
AcDbEntity
  8
VIEW0001
 62
     7
100
AcDbPoint
 10
25.00233987712736
 20
74.96553915683917
 30
0.0
  0
POINT
  5
6C
330
1F
100
AcDbEntity
  8
VIEW0001
 62
     7
100
AcDbPoint
 10
25.00233987712736
 20
59.96553915683917
 30
0.0
  0
POINT
  5
6D
330
1F
100
AcDbEntity
  8
VIEW0001
 62
     7
100
AcDbPoint
 10
25.00233987712736
 20
74.96553915683917
 30
0.0
  0
POINT
  5
6E
330
1F
100
AcDbEntity
  8
VIEW0001
 62
     7
100
AcDbPoint
 10
16.80233987712736
 20
74.96553915683917
 30
0.0
  0
POINT
  5
6F
330
1F
100
AcDbEntity
  8
VIEW0001
 62
     7
100
AcDbPoint
 10
16.80233987712736
 20
74.96553915683917
 30
0.0
  0
POINT
  5
70
330
1F
100
AcDbEntity
  8
VIEW0001
 62
     7
100
AcDbPoint
 10
16.80233987712736
 20
74.96553915683917
 30
0.0
  0
POINT
  5
71
330
1F
100
AcDbEntity
  8
VIEW0001
 62
     7
100
AcDbPoint
 10
16.80233987712736
 20
59.96553915683917
 30
0.0
  0
POINT
  5
72
330
1F
100
AcDbEntity
  8
VIEW0001
 62
     7
100
AcDbPoint
 10
25.00233987712736
 20
59.96553915683917
 30
0.0
  0
POINT
  5
73
330
1F
100
AcDbEntity
  8
VIEW0001
 62
     7
100
AcDbPoint
 10
-129.726451740255
 20
69.46553915683916
 30
0.0
  0
POINT
  5
74
330
1F
100
AcDbEntity
  8
VIEW0001
 62
     7
100
AcDbPoint
 10
-129.726451740255
 20
16.01553915683913
 30
0.0
  0
POINT
  5
75
330
1F
100
AcDbEntity
  8
VIEW0001
 62
     7
100
AcDbPoint
 10
-114.426451740255
 20
112.4655391568392
 30
0.0
  0
POINT
  5
76
330
1F
100
AcDbEntity
  8
VIEW0001
 62
     7
100
AcDbPoint
 10
-114.426451740255
 20
64.23194576634621
 30
0.0
  0
POINT
  5
77
330
1F
100
AcDbEntity
  8
VIEW0001
 62
     7
100
AcDbPoint
 10
-105.426451740255
 20
67.46553915683916
 30
0.0
  0
POINT
  5
78
330
1F
100
AcDbEntity
  8
VIEW0001
 62
     7
100
AcDbPoint
 10
-105.426451740255
 20
-12.53446084316083
 30
0.0
  0
POINT
  5
79
330
1F
100
AcDbEntity
  8
VIEW0001
 62
     7
100
AcDbPoint
 10
-129.726451740255
 20
16.01553915683913
 30
0.0
  0
POINT
  5
7A
330
1F
100
AcDbEntity
  8
VIEW0001
 62
     7
100
AcDbPoint
 10
-129.726451740255
 20
4.415539156839128
 30
0.0
  0
POINT
  5
7B
330
1F
100
AcDbEntity
  8
VIEW0001
 62
     7
100
AcDbPoint
 10
-129.726451740255
 20
69.46553915683916
 30
0.0
  0
POINT
  5
7C
330
1F
100
AcDbEntity
  8
VIEW0001
 62
     7
100
AcDbPoint
 10
-129.726451740255
 20
54.46553915683916
 30
0.0
  0
POINT
  5
7D
330
1F
100
AcDbEntity
  8
VIEW0001
 62
     7
100
AcDbPoint
 10
-90.226451740255
 20
171.9655391568392
 30
0.0
  0
POINT
  5
7E
330
1F
100
AcDbEntity
  8
VIEW0001
 62
     7
100
AcDbPoint
 10
-119.226451740255
 20
127.4655391568392
 30
0.0
  0
POINT
  5
7F
330
1F
100
AcDbEntity
  8
VIEW0001
 62
     7
100
AcDbPoint
 10
20.90233987712736
 20
141.4655391568392
 30
0.0
  0
POINT
  5
80
330
1F
100
AcDbEntity
  8
VIEW0001
 62
     7
100
AcDbPoint
 10
-9.306239236005004
 20
60.81882607080949
 30
0.0
  0
POINT
  5
81
330
1F
100
AcDbEntity
  8
VIEW0001
 62
     7
100
AcDbPoint
 10
18.90233987712736
 20
72.42107274281722
 30
0.0
  0
POINT
  5
82
330
1F
100
AcDbEntity
  8
VIEW0001
 62
     7
100
AcDbPoint
 10
22.90233987712736
 20
72.42107274281722
 30
0.0
  0
POINT
  5
83
330
1F
100
AcDbEntity
  8
VIEW0001
 62
     7
100
AcDbPoint
 10
51.11091899025973
 20
60.81882607080946
 30
0.0
  0
LINE
  5
84
330
1F
100
AcDbEntity
  8
VIEW0001
  6
Continuous
 62
     7
100
AcDbLine
 10
-246.5836601228726
 20
95.96553915683918
 30
0.0
 11
-246.5836601228726
 21
96.12491415683918
 31
0.0
  0
LINE
  5
85
330
1F
100
AcDbEntity
  8
VIEW0001
  6
DASHED
 62
     7
100
AcDbLine
 10
248.258072470979
 20
94.01553915683905
 30
0.0
 11
248.258072470979
 21
94.51553915683911
 31
0.0
  0
LINE
  5
86
330
1F
100
AcDbEntity
  8
VIEW0001
  6
CENTER
 62
     7
100
AcDbLine
 10
20.90233987712736
 20
175.7092684077177
 30
0.0
 11
20.90233987712736
 21
-25.66720412884573
 31
0.0
  0
LINE
  5
87
330
1F
100
AcDbEntity
  8
VIEW0001
  6
CENTER
 62
     7
100
AcDbLine
 10
-124.7228065551594
 20
127.4655391568392
 30
0.0
 11
-68.1605415759951
 21
127.4655391568392
 31
0.0
  0
LINE
  5
88
330
1F
100
AcDbEntity
  8
VIEW0001
  6
CENTER
 62
     7
100
AcDbLine
 10
-30.09766012287265
 20
27.46553915683916
 30
0.0
 11
71.90233987712736
 21
27.46553915683916
 31
0.0
  0
LINE
  5
89
330
1F
100
AcDbEntity
  8
VIEW0001
  6
Continuous
 62
     7
100
AcDbLine
 10
34.40233987712736
 20
35.25976779089912
 30
0.0
 11
34.40233987712736
 21
19.67131052277921
 31
0.0
  0
LINE
  5
8A
330
1F
100
AcDbEntity
  8
VIEW0001
  6
Continuous
 62
     7
100
AcDbLine
 10
20.90233987712737
 20
43.05399642495907
 30
0.0
 11
34.40233987712737
 21
35.25976779089912
 31
0.0
  0
LINE
  5
8B
330
1F
100
AcDbEntity
  8
VIEW0001
  6
Continuous
 62
     7
100
AcDbLine
 10
20.90233987712736
 20
11.87708188871926
 30
0.0
 11
34.40233987712737
 21
19.67131052277921
 31
0.0
  0
LINE
  5
8C
330
1F
100
AcDbEntity
  8
VIEW0001
  6
Continuous
 62
     7
100
AcDbLine
 10
7.402339877127359
 20
35.25976779089912
 30
0.0
 11
7.402339877127359
 21
19.6713105227792
 31
0.0
  0
LINE
  5
8D
330
1F
100
AcDbEntity
  8
VIEW0001
  6
Continuous
 62
     7
100
AcDbLine
 10
20.90233987712736
 20
43.05399642495907
 30
0.0
 11
7.402339877127355
 21
35.25976779089913
 31
0.0
  0
LINE
  5
8E
330
1F
100
AcDbEntity
  8
VIEW0001
  6
Continuous
 62
     7
100
AcDbLine
 10
20.90233987712737
 20
11.87708188871926
 30
0.0
 11
7.402339877127366
 21
19.67131052277921
 31
0.0
  0
LINE
  5
8F
330
1F
100
AcDbEntity
  8
VIEW0001
  6
DASHED
 62
     7
100
AcDbLine
 10
22.90233987712736
 20
109.4655391568392
 30
0.0
 11
22.90233987712736
 21
84.65393006769551
 31
0.0
  0
LINE
  5
90
330
1F
100
AcDbEntity
  8
VIEW0001
  6
DASHED
 62
     7
100
AcDbLine
 10
18.90233987712736
 20
109.4655391568392
 30
0.0
 11
18.90233987712736
 21
84.6539300676957
 31
0.0
  0
LINE
  5
91
330
1F
100
AcDbEntity
  8
VIEW0001
  6
DASHED
 62
     7
100
AcDbLine
 10
9.559408737668042
 20
111.4655391568392
 30
0.0
 11
16.90233987712736
 21
111.4655391568392
 31
0.0
  0
LINE
  5
92
330
1F
100
AcDbEntity
  8
VIEW0001
  6
DASHED
 62
     7
100
AcDbLine
 10
7.902339877127357
 20
141.4655391568392
 30
0.0
 11
33.90233987712737
 21
141.4655391568392
 31
0.0
  0
LINE
  5
93
330
1F
100
AcDbEntity
  8
VIEW0001
  6
DASHED
 62
     7
100
AcDbLine
 10
37.90233987712736
 20
137.4655391568392
 30
0.0
 11
37.90233987712736
 21
112.1349095931649
 31
0.0
  0
LINE
  5
94
330
1F
100
AcDbEntity
  8
VIEW0001
  6
DASHED
 62
     7
100
AcDbLine
 10
3.902339877127356
 20
137.4655391568392
 30
0.0
 11
3.902339877127356
 21
112.1349095931648
 31
0.0
  0
LINE
  5
95
330
1F
100
AcDbEntity
  8
VIEW0001
  6
Continuous
 62
     7
100
AcDbLine
 10
-16.30728231016653
 20
52.77253456678156
 30
0.0
 11
-0.026133520565168
 21
100.0564239826004
 31
0.0
  0
LINE
  5
96
330
1F
100
AcDbEntity
  8
VIEW0001
  6
Continuous
 62
     7
100
AcDbLine
 10
58.11196206442128
 20
52.77253456678156
 30
0.0
 11
41.83081327481992
 21
100.0564239826004
 31
0.0
  0
LINE
  5
97
330
1F
100
AcDbEntity
  8
VIEW0001
  6
Continuous
 62
     7
100
AcDbLine
 10
-7.113476115424248
 20
67.18707257776651
 30
0.0
 11
0.097254168869451
 21
88.12855390539876
 31
0.0
  0
LINE
  5
98
330
1F
100
AcDbEntity
  8
VIEW0001
  6
DASHED
 62
     7
100
AcDbLine
 10
32.24527101658668
 20
111.4655391568392
 30
0.0
 11
24.90233987712736
 21
111.4655391568392
 31
0.0
  0
LINE
  5
99
330
1F
100
AcDbEntity
  8
VIEW0001
  6
Continuous
 62
     7
100
AcDbLine
 10
48.91815586967896
 20
67.18707257776651
 30
0.0
 11
41.70742558538527
 21
88.12855390539875
 31
0.0
  0
LINE
  5
9A
330
1F
100
AcDbEntity
  8
VIEW0001
  6
CENTER
 62
     1
100
AcDbLine
 10
-150.1715885019881
 20
27.46553915683904
 30
0.0
 11
-85.42454632233783
 21
27.46553915683918
 31
0.0
  0
LINE
  5
9B
330
1F
100
AcDbEntity
  8
VIEW0001
  6
DASHED
 62
     7
100
AcDbLine
 10
-0.026133520565168
 20
100.0564239826004
 30
0.0
 11
3.68441417952463
 21
110.8326369753362
 31
0.0
  0
LINE
  5
9C
330
1F
100
AcDbEntity
  8
VIEW0001
  6
DASHED
 62
     7
100
AcDbLine
 10
0.097254168869451
 20
88.12855390539876
 30
0.0
 11
7.668371586469412
 21
110.1166754657535
 31
0.0
  0
LINE
  5
9D
330
1F
100
AcDbEntity
  8
VIEW0001
  6
Continuous
 62
     7
100
AcDbLine
 10
22.90233987712736
 20
84.65393006769551
 30
0.0
 11
22.90233987712736
 21
74.29501705271156
 31
0.0
  0
LINE
  5
9E
330
1F
100
AcDbEntity
  8
VIEW0001
  6
DASHED
 62
     7
100
AcDbLine
 10
41.70742558538527
 20
88.12855390539875
 30
0.0
 11
34.1363081677853
 21
110.1166754657535
 31
0.0
  0
LINE
  5
9F
330
1F
100
AcDbEntity
  8
VIEW0001
  6
DASHED
 62
     7
100
AcDbLine
 10
41.83081327481992
 20
100.0564239826004
 30
0.0
 11
38.12026557473011
 21
110.8326369753362
 31
0.0
  0
LINE
  5
A0
330
1F
100
AcDbEntity
  8
VIEW0001
  6
CENTER
 62
     7
100
AcDbLine
 10
-30.09766012287265
 20
127.4655391568392
 30
0.0
 11
71.90233987712736
 21
127.4655391568392
 31
0.0
  0
LINE
  5
A1
330
1F
100
AcDbEntity
  8
VIEW0001
  6
Continuous
 62
     7
100
AcDbLine
 10
-101.226451740255
 20
140.4655392956725
 30
0.0
 11
-101.226451740255
 21
-16.53446084316084
 31
0.0
  0
LINE
  5
A2
330
1F
100
AcDbEntity
  8
VIEW0001
  6
Continuous
 62
     7
100
AcDbLine
 10
-136.226451740255
 20
-17.53446084316084
 30
0.0
 11
-102.226451740255
 21
-17.53446084316084
 31
0.0
  0
LINE
  5
A3
330
1F
100
AcDbEntity
  8
VIEW0001
  6
Continuous
 62
     7
100
AcDbLine
 10
-137.226451740255
 20
72.46553915683918
 30
0.0
 11
-137.226451740255
 21
-16.53446084316084
 31
0.0
  0
LINE
  5
A4
330
1F
100
AcDbEntity
  8
VIEW0001
  6
Continuous
 62
     7
100
AcDbLine
 10
-137.226451740255
 20
72.46553915683918
 30
0.0
 11
-119.226451740255
 21
72.46553915683918
 31
0.0
  0
LINE
  5
A5
330
1F
100
AcDbEntity
  8
VIEW0001
  6
Continuous
 62
     7
100
AcDbLine
 10
-119.226451740255
 20
141.4655391568392
 30
0.0
 11
-119.226451740255
 21
-17.53446084316084
 31
0.0
  0
LINE
  5
A6
330
1F
100
AcDbEntity
  8
VIEW0001
  6
Continuous
 62
     7
100
AcDbLine
 10
-102.226451740255
 20
141.4655391568392
 30
0.0
 11
-119.226451740255
 21
141.4655391568392
 31
0.0
  0
LINE
  5
A7
330
1F
100
AcDbEntity
  8
VIEW0001
  6
DASHED
 62
     7
100
AcDbLine
 10
-113.426451740255
 20
64.5359362688522
 30
0.0
 11
-101.226451740255
 21
64.5359362688522
 31
0.0
  0
LINE
  5
A8
330
1F
100
AcDbEntity
  8
VIEW0001
  6
DASHED
 62
     7
100
AcDbLine
 10
-113.426451740255
 20
111.4655391568392
 30
0.0
 11
-101.226451740255
 21
111.4655391568392
 31
0.0
  0
LINE
  5
A9
330
1F
100
AcDbEntity
  8
VIEW0001
  6
DASHED
 62
     7
100
AcDbLine
 10
-114.426451740255
 20
110.4655392956725
 30
0.0
 11
-114.426451740255
 21
65.53593613001883
 31
0.0
  0
LINE
  5
AA
330
1F
100
AcDbEntity
  8
VIEW0001
  6
Continuous
 62
     7
100
AcDbLine
 10
-94.22645174025503
 20
40.96553915683919
 30
0.0
 11
-94.22645174025503
 21
13.96553915683918
 31
0.0
  0
LINE
  5
AB
330
1F
100
AcDbEntity
  8
VIEW0001
  6
Continuous
 62
     7
100
AcDbLine
 10
-100.0204517402551
 20
43.05399642495906
 30
0.0
 11
-95.432451740255
 21
43.05399642495906
 31
0.0
  0
LINE
  5
AC
330
1F
100
AcDbEntity
  8
VIEW0001
  6
Continuous
 62
     7
100
AcDbLine
 10
-100.0204517402551
 20
35.2597677908991
 30
0.0
 11
-95.432451740255
 21
35.2597677908991
 31
0.0
  0
LINE
  5
AD
330
1F
100
AcDbEntity
  8
VIEW0001
  6
Continuous
 62
     7
100
AcDbLine
 10
-99.88254414842561
 20
19.67131052277917
 30
0.0
 11
-95.432451740255
 21
19.67131052277917
 31
0.0
  0
LINE
  5
AE
330
1F
100
AcDbEntity
  8
VIEW0001
  6
Continuous
 62
     7
100
AcDbLine
 10
-100.0204517402551
 20
11.87708188871912
 30
0.0
 11
-95.432451740255
 21
11.87708188871912
 31
0.0
  0
LINE
  5
AF
330
1F
100
AcDbEntity
  8
VIEW0001
  6
Continuous
 62
     7
100
AcDbLine
 10
-95.43245174025502
 20
43.05399642495905
 30
0.0
 11
-94.22645174025503
 21
40.96553915683917
 31
0.0
  0
LINE
  5
B0
330
1F
100
AcDbEntity
  8
VIEW0001
  6
Continuous
 62
     7
100
AcDbLine
 10
-94.22645174025497
 20
13.96553915683916
 30
0.0
 11
-95.43245174025498
 21
11.87708188871912
 31
0.0
  0
LINE
  5
B1
330
1F
100
AcDbEntity
  8
VIEW0001
  6
Continuous
 62
     7
100
AcDbLine
 10
-100.0204517402551
 20
43.05399642495906
 30
0.0
 11
-101.2264517402551
 21
40.96553915683917
 31
0.0
  0
LINE
  5
B2
330
1F
100
AcDbEntity
  8
VIEW0001
  6
Continuous
 62
     7
100
AcDbLine
 10
-101.226451740255
 20
40.96553915683919
 30
0.0
 11
-101.226451740255
 21
13.96553915683918
 31
0.0
  0
LINE
  5
B3
330
1F
100
AcDbEntity
  8
VIEW0001
  6
Continuous
 62
     7
100
AcDbLine
 10
-101.226451740255
 20
13.96553915683919
 30
0.0
 11
-100.020451740255
 21
11.87708188871915
 31
0.0
  0
LINE
  5
B4
330
1F
100
AcDbEntity
  8
VIEW0001
  6
DASHED
 62
     7
100
AcDbLine
 10
-137.226451740255
 20
32.39203915683916
 30
0.0
 11
-94.22645174025502
 21
32.39203915683916
 31
0.0
  0
LINE
  5
B5
330
1F
100
AcDbEntity
  8
VIEW0001
  6
DASHED
 62
     7
100
AcDbLine
 10
-137.226451740255
 20
33.96553915683916
 30
0.0
 11
-94.22645174025502
 21
33.96553915683916
 31
0.0
  0
LINE
  5
B6
330
1F
100
AcDbEntity
  8
VIEW0001
  6
DASHED
 62
     7
100
AcDbLine
 10
-137.226451740255
 20
20.96553915683897
 30
0.0
 11
-94.22645174025499
 21
20.96553915683916
 31
0.0
  0
LINE
  5
B7
330
1F
100
AcDbEntity
  8
VIEW0001
  6
DASHED
 62
     7
100
AcDbLine
 10
-137.226451740255
 20
22.53903915683897
 30
0.0
 11
-94.22645174025499
 21
22.53903915683916
 31
0.0
  0
LINE
  5
B8
330
1F
100
AcDbEntity
  8
VIEW0001
  6
DASHED
 62
     7
100
AcDbLine
 10
-104.426451740255
 20
67.46553915683916
 30
0.0
 11
-101.226451740255
 21
67.46553915683916
 31
0.0
  0
LINE
  5
B9
330
1F
100
AcDbEntity
  8
VIEW0001
  6
DASHED
 62
     7
100
AcDbLine
 10
-104.426451740255
 20
-12.53446084316083
 30
0.0
 11
-101.226451740255
 21
-12.53446084316083
 31
0.0
  0
LINE
  5
BA
330
1F
100
AcDbEntity
  8
VIEW0001
  6
DASHED
 62
     7
100
AcDbLine
 10
-105.426451740255
 20
66.46553915683917
 30
0.0
 11
-105.426451740255
 21
-11.53446084316083
 31
0.0
  0
LINE
  5
BB
330
1F
100
AcDbEntity
  8
VIEW0001
  6
DASHED
 62
     7
100
AcDbLine
 10
-119.226451740255
 20
37.96553915683914
 30
0.0
 11
-101.226451740255
 21
37.96553915683914
 31
0.0
  0
LINE
  5
BC
330
1F
100
AcDbEntity
  8
VIEW0001
  6
DASHED
 62
     7
100
AcDbLine
 10
-137.226451740255
 20
36.46553915683911
 30
0.0
 11
-119.226451740255
 21
36.46553915683911
 31
0.0
  0
LINE
  5
BD
330
1F
100
AcDbEntity
  8
VIEW0001
  6
DASHED
 62
     7
100
AcDbLine
 10
-137.226451740255
 20
35.11553915683911
 30
0.0
 11
-119.226451740255
 21
35.11553915683911
 31
0.0
  0
LINE
  5
BE
330
1F
100
AcDbEntity
  8
VIEW0001
  6
DASHED
 62
     7
100
AcDbLine
 10
-119.226451740255
 20
16.96553915683906
 30
0.0
 11
-101.226451740255
 21
16.96553915683914
 31
0.0
  0
LINE
  5
BF
330
1F
100
AcDbEntity
  8
VIEW0001
  6
DASHED
 62
     7
100
AcDbLine
 10
-137.226451740255
 20
18.46553915683902
 30
0.0
 11
-119.226451740255
 21
18.4655391568391
 31
0.0
  0
LINE
  5
C0
330
1F
100
AcDbEntity
  8
VIEW0001
  6
DASHED
 62
     7
100
AcDbLine
 10
-137.226451740255
 20
19.81553915683902
 30
0.0
 11
-119.226451740255
 21
19.8155391568391
 31
0.0
  0
LINE
  5
C1
330
1F
100
AcDbEntity
  8
VIEW0001
  6
Continuous
 62
     7
100
AcDbLine
 10
20.90233987712736
 20
74.96553915683917
 30
0.0
 11
20.90233987712736
 21
74.96553915683917
 31
0.0
  0
LINE
  5
C2
330
1F
100
AcDbEntity
  8
VIEW0001
  6
Continuous
 62
     7
100
AcDbLine
 10
20.90233987712736
 20
59.96553915683917
 30
0.0
 11
20.90233987712736
 21
59.96553915683917
 31
0.0
  0
LINE
  5
C3
330
1F
100
AcDbEntity
  8
VIEW0001
  6
DASHED
 62
     7
100
AcDbLine
 10
25.00233987712734
 20
65.36553915683918
 30
0.0
 11
25.00233987712734
 21
58.56553915683917
 31
0.0
  0
LINE
  5
C4
330
1F
100
AcDbEntity
  8
VIEW0001
  6
DASHED
 62
     7
100
AcDbLine
 10
16.80233987712734
 20
65.36553915683918
 30
0.0
 11
16.80233987712734
 21
58.56553915683917
 31
0.0
  0
LINE
  5
C5
330
1F
100
AcDbEntity
  8
VIEW0001
  6
DASHED
 62
     7
100
AcDbLine
 10
51.67470268055762
 20
4.964835001322975
 30
0.0
 11
45.78572993482344
 21
8.364835001322966
 31
0.0
  0
LINE
  5
C6
330
1F
100
AcDbEntity
  8
VIEW0001
  6
DASHED
 62
     7
100
AcDbLine
 10
55.77470268055761
 20
12.06624331235537
 30
0.0
 11
49.88572993482343
 21
15.46624331235537
 31
0.0
  0
LINE
  5
C7
330
1F
100
AcDbEntity
  8
VIEW0001
  6
DASHED
 62
     7
100
AcDbLine
 10
-13.97002292630287
 20
12.06624331235533
 30
0.0
 11
-8.08105018056869
 21
15.46624331235533
 31
0.0
  0
LINE
  5
C8
330
1F
100
AcDbEntity
  8
VIEW0001
  6
DASHED
 62
     7
100
AcDbLine
 10
-9.870022926302866
 20
4.964835001322939
 30
0.0
 11
-3.981050180568682
 21
8.364835001322943
 31
0.0
  0
LINE
  5
C9
330
1F
100
AcDbEntity
  8
VIEW0001
  6
DASHED
 62
     7
100
AcDbLine
 10
-137.226451740255
 20
69.46553915683916
 30
0.0
 11
-129.726451740255
 21
69.46553915683916
 31
0.0
  0
LINE
  5
CA
330
1F
100
AcDbEntity
  8
VIEW0001
  6
DASHED
 62
     7
100
AcDbLine
 10
-137.226451740255
 20
16.01553915683913
 30
0.0
 11
-129.726451740255
 21
16.01553915683913
 31
0.0
  0
LINE
  5
CB
330
1F
100
AcDbEntity
  8
VIEW0001
  6
DASHED
 62
     7
100
AcDbLine
 10
-129.726451740255
 20
69.46553915683916
 30
0.0
 11
-129.726451740255
 21
54.46553915683917
 31
0.0
  0
LINE
  5
CC
330
1F
100
AcDbEntity
  8
VIEW0001
  6
DASHED
 62
     7
100
AcDbLine
 10
-129.726451740255
 20
16.01553915683913
 30
0.0
 11
-129.726451740255
 21
4.415539156839128
 31
0.0
  0
LINE
  5
CD
330
1F
100
AcDbEntity
  8
VIEW0001
  6
DASHED
 62
     7
100
AcDbLine
 10
-129.726451740255
 20
54.46553915683916
 30
0.0
 11
-137.226451740255
 21
54.46553915683916
 31
0.0
  0
LINE
  5
CE
330
1F
100
AcDbEntity
  8
VIEW0001
  6
DASHED
 62
     7
100
AcDbLine
 10
-129.726451740255
 20
4.415539156839128
 30
0.0
 11
-137.226451740255
 21
4.415539156839128
 31
0.0
  0
LINE
  5
CF
330
1F
100
AcDbEntity
  8
VIEW0001
  6
PHANTOM
 62
     7
100
AcDbLine
 10
20.90233987712736
 20
27.46553915683916
 30
0.0
 11
59.98369097839743
 21
95.15642489267684
 31
0.0
  0
LINE
  5
D0
330
1F
100
AcDbEntity
  8
VIEW0001
  6
PHANTOM
 62
     7
100
AcDbLine
 10
20.90233987712736
 20
27.46553915683916
 30
0.0
 11
-18.17901122414272
 21
95.15642489267685
 31
0.0
  0
LINE
  5
D1
330
1F
100
AcDbEntity
  8
VIEW0001
  6
Continuous
 62
     7
100
AcDbLine
 10
58.96170791792915
 20
138.7818613145608
 30
0.0
 11
59.99780770004826
 21
139.4507633643753
 31
0.0
  0
LINE
  5
D2
330
1F
100
AcDbEntity
  8
VIEW0001
  6
Continuous
 62
     7
100
AcDbLine
 10
60.56394500721763
 20
125.5862516994916
 30
0.0
 11
61.73001635109779
 21
125.1847416351907
 31
0.0
  0
LINE
  5
D3
330
1F
100
AcDbEntity
  8
VIEW0001
  6
Continuous
 62
     7
100
AcDbLine
 10
11.40233987712738
 20
132.9503667141407
 30
0.0
 11
11.40233987712738
 21
121.9807115995377
 31
0.0
  0
LINE
  5
D4
330
1F
100
AcDbEntity
  8
VIEW0001
  6
Continuous
 62
     7
100
AcDbLine
 10
20.90233987712734
 20
116.4958840422364
 30
0.0
 11
30.40233987712732
 21
121.9807115995378
 31
0.0
  0
LINE
  5
D5
330
1F
100
AcDbEntity
  8
VIEW0001
  6
Continuous
 62
     7
100
AcDbLine
 10
11.40233987712733
 20
132.9503667141407
 30
0.0
 11
20.90233987712733
 21
138.4351942714422
 31
0.0
  0
LINE
  5
D6
330
1F
100
AcDbEntity
  8
VIEW0001
  6
Continuous
 62
     7
100
AcDbLine
 10
20.90233987712743
 20
116.4958840422364
 30
0.0
 11
11.40233987712742
 21
121.9807115995378
 31
0.0
  0
LINE
  5
D7
330
1F
100
AcDbEntity
  8
VIEW0001
  6
Continuous
 62
     7
100
AcDbLine
 10
30.40233987712742
 20
132.9503667141408
 30
0.0
 11
20.90233987712743
 21
138.4351942714423
 31
0.0
  0
LINE
  5
D8
330
1F
100
AcDbEntity
  8
VIEW0001
  6
Continuous
 62
     7
100
AcDbLine
 10
30.40233987712739
 20
132.9503667141407
 30
0.0
 11
30.40233987712739
 21
121.9807115995378
 31
0.0
  0
LINE
  5
D9
330
1F
100
AcDbEntity
  8
VIEW0001
  6
Continuous
 62
     7
100
AcDbLine
 10
17.98724699703893
 20
87.86658871187156
 30
0.0
 11
18.24527523217796
 21
86.66062265073035
 31
0.0
  0
LINE
  5
DA
330
1F
100
AcDbEntity
  8
VIEW0001
  6
Continuous
 62
     7
100
AcDbLine
 10
5.080976572751069
 20
91.04769866576285
 30
0.0
 11
4.292063543847888
 21
90.09978045010277
 31
0.0
  0
LINE
  5
DB
330
1F
100
AcDbEntity
  8
VIEW0001
  6
Continuous
 62
     7
100
AcDbLine
 10
-0.081396539275097
 20
93.75712108583662
 30
0.0
 11
-0.413364256993255
 21
92.56937947035519
 31
0.0
  0
LINE
  5
DC
330
1F
100
AcDbEntity
  8
VIEW0001
  6
Continuous
 62
     7
100
AcDbLine
 10
-10.03099594677821
 20
102.5716969936049
 30
0.0
 11
-11.17006330195648
 21
102.0989832629808
 31
0.0
  0
LINE
  5
DD
330
1F
100
AcDbEntity
  8
VIEW0001
  6
Continuous
 62
     7
100
AcDbLine
 10
-13.34291894402867
 20
107.3698458093933
 30
0.0
 11
-14.18883281111948
 21
106.4724259298403
 31
0.0
  0
LINE
  5
DE
330
1F
100
AcDbEntity
  8
VIEW0001
  6
Continuous
 62
     7
100
AcDbLine
 10
-18.05651401615932
 20
119.7985745577239
 30
0.0
 11
-19.28478909379108
 21
119.9093583310037
 31
0.0
  0
LINE
  5
DF
330
1F
100
AcDbEntity
  8
VIEW0001
  6
Continuous
 62
     7
100
AcDbLine
 10
-18.75926525296294
 20
125.5862516994916
 30
0.0
 11
-19.9253365968431
 21
125.1847416351907
 31
0.0
  0
LINE
  5
E0
330
1F
100
AcDbEntity
  8
VIEW0001
  6
Continuous
 62
     7
100
AcDbLine
 10
-17.15702816367448
 20
138.7818613145606
 30
0.0
 11
-18.19312794579358
 21
139.4507633643752
 31
0.0
  0
LINE
  5
E1
330
1F
100
AcDbEntity
  8
VIEW0001
  6
Continuous
 62
     7
100
AcDbLine
 10
-15.08961580074999
 20
144.2331796981993
 30
0.0
 11
-16.30871172921963
 21
144.419560566161
 31
0.0
  0
LINE
  5
E2
330
1F
100
AcDbEntity
  8
VIEW0001
  6
Continuous
 62
     7
100
AcDbLine
 10
-7.538599758148415
 20
155.1727150415293
 30
0.0
 11
-8.145166271027357
 21
156.2464979694096
 31
0.0
  0
LINE
  5
E3
330
1F
100
AcDbEntity
  8
VIEW0001
  6
Continuous
 62
     7
100
AcDbLine
 10
-3.174643052821835
 20
159.0388433208554
 30
0.0
 11
-4.167483380367159
 21
159.7704175103626
 31
0.0
  0
LINE
  5
E4
330
1F
100
AcDbEntity
  8
VIEW0001
  6
Continuous
 62
     7
100
AcDbLine
 10
8.595305167341094
 20
165.216188680982
 30
0.0
 11
8.55722900188396
 21
166.4488617586378
 31
0.0
  0
LINE
  5
E5
330
1F
100
AcDbEntity
  8
VIEW0001
  6
Continuous
 62
     7
100
AcDbLine
 10
14.2560763252586
 20
166.6114434590986
 30
0.0
 11
13.71693935265523
 21
167.7206161397599
 31
0.0
  0
LINE
  5
E6
330
1F
100
AcDbEntity
  8
VIEW0001
  6
Continuous
 62
     7
100
AcDbLine
 10
27.54860342899611
 20
166.6114434590986
 30
0.0
 11
28.0877404015995
 21
167.7206161397599
 31
0.0
  0
LINE
  5
E7
330
1F
100
AcDbEntity
  8
VIEW0001
  6
Continuous
 62
     7
100
AcDbLine
 10
23.8174327572158
 20
87.86658871187157
 30
0.0
 11
23.55940452207678
 21
86.66062265073036
 31
0.0
  0
LINE
  5
E8
330
1F
100
AcDbEntity
  8
VIEW0001
  6
Continuous
 62
     7
100
AcDbLine
 10
36.72370318150368
 20
91.04769866576285
 30
0.0
 11
37.51261621040686
 21
90.09978045010277
 31
0.0
  0
LINE
  5
E9
330
1F
100
AcDbEntity
  8
VIEW0001
  6
Continuous
 62
     7
100
AcDbLine
 10
41.88607629352988
 20
93.75712108583667
 30
0.0
 11
42.21804401124804
 21
92.56937947035526
 31
0.0
  0
LINE
  5
EA
330
1F
100
AcDbEntity
  8
VIEW0001
  6
Continuous
 62
     7
100
AcDbLine
 10
51.83567570103299
 20
102.5716969936049
 30
0.0
 11
52.97474305621127
 21
102.0989832629808
 31
0.0
  0
LINE
  5
EB
330
1F
100
AcDbEntity
  8
VIEW0001
  6
Continuous
 62
     7
100
AcDbLine
 10
59.86119377041406
 20
119.798574557724
 30
0.0
 11
61.08946884804583
 21
119.9093583310039
 31
0.0
  0
LINE
  5
EC
330
1F
100
AcDbEntity
  8
VIEW0001
  6
Continuous
 62
     7
100
AcDbLine
 10
55.14759869828347
 20
107.3698458093934
 30
0.0
 11
55.99351256537427
 21
106.4724259298405
 31
0.0
  0
LINE
  5
ED
330
1F
100
AcDbEntity
  8
VIEW0001
  6
Continuous
 62
     7
100
AcDbLine
 10
49.34327951240304
 20
155.1727150415293
 30
0.0
 11
49.94984602528201
 21
156.2464979694096
 31
0.0
  0
LINE
  5
EE
330
1F
100
AcDbEntity
  8
VIEW0001
  6
Continuous
 62
     7
100
AcDbLine
 10
56.8942955550047
 20
144.2331796981992
 30
0.0
 11
58.11339148347432
 21
144.4195605661609
 31
0.0
  0
LINE
  5
EF
330
1F
100
AcDbEntity
  8
VIEW0001
  6
Continuous
 62
     7
100
AcDbLine
 10
33.20937458691358
 20
165.216188680982
 30
0.0
 11
33.24745075237071
 21
166.4488617586378
 31
0.0
  0
LINE
  5
F0
330
1F
100
AcDbEntity
  8
VIEW0001
  6
Continuous
 62
     7
100
AcDbLine
 10
44.97932280707647
 20
159.0388433208555
 30
0.0
 11
45.97216313462178
 21
159.7704175103627
 31
0.0
  0
LINE
  5
F1
330
1F
100
AcDbEntity
  8
VIEW0001
  6
Continuous
 62
     7
100
AcDbLine
 10
-98.72645174025502
 20
145.9655391568392
 30
0.0
 11
-98.72645174025502
 21
108.9655391568392
 31
0.0
  0
LINE
  5
F2
330
1F
100
AcDbEntity
  8
VIEW0001
  6
Continuous
 62
     7
100
AcDbLine
 10
-101.226451740255
 20
139.4655391568392
 30
0.0
 11
-98.72645174025502
 21
139.4655391568392
 31
0.0
  0
LINE
  5
F3
330
1F
100
AcDbEntity
  8
VIEW0001
  6
Continuous
 62
     7
100
AcDbLine
 10
-95.86635140552629
 20
171.9655391568392
 30
0.0
 11
-89.58655207498377
 21
171.9655391568392
 31
0.0
  0
LINE
  5
F4
330
1F
100
AcDbEntity
  8
VIEW0001
  6
CENTER
 62
     7
100
AcDbLine
 10
-100.119744137983
 20
87.664517704461
 30
0.0
 11
-85.33315934252708
 21
87.664517704461
 31
0.0
  0
LINE
  5
F5
330
1F
100
AcDbEntity
  8
VIEW0001
  6
CENTER
 62
     7
100
AcDbLine
 10
-100.119744137983
 20
167.2665606092174
 30
0.0
 11
-85.33315934252708
 21
167.2665606092174
 31
0.0
  0
LINE
  5
F6
330
1F
100
AcDbEntity
  8
VIEW0001
  6
Continuous
 62
     7
100
AcDbLine
 10
-98.22645174025502
 20
162.4655391568392
 30
0.0
 11
-98.22645174025502
 21
127.4655391568392
 31
0.0
  0
LINE
  5
F7
330
1F
100
AcDbEntity
  8
VIEW0001
  6
Continuous
 62
     7
100
AcDbLine
 10
-95.86635140552629
 20
82.9655391568392
 30
0.0
 11
-89.58655207498377
 21
82.9655391568392
 31
0.0
  0
LINE
  5
F8
330
1F
100
AcDbEntity
  8
VIEW0001
  6
Continuous
 62
     7
100
AcDbLine
 10
-87.22645174025503
 20
162.4655391568392
 30
0.0
 11
-87.22645174025503
 21
127.4655391568392
 31
0.0
  0
LINE
  5
F9
330
1F
100
AcDbEntity
  8
VIEW0001
  6
Continuous
 62
     7
100
AcDbLine
 10
-98.22645174025502
 20
127.4655391568392
 30
0.0
 11
-98.22645174025502
 21
92.4655391568392
 31
0.0
  0
LINE
  5
FA
330
1F
100
AcDbEntity
  8
VIEW0001
  6
Continuous
 62
     7
100
AcDbLine
 10
-87.22645174025503
 20
127.4655391568392
 30
0.0
 11
-87.22645174025503
 21
92.4655391568392
 31
0.0
  0
LINE
  5
FB
330
1F
100
AcDbEntity
  8
VIEW0001
  6
Continuous
 62
     7
100
AcDbLine
 10
-86.72645174025503
 20
145.9655391568392
 30
0.0
 11
-86.72645174025503
 21
108.9655391568392
 31
0.0
  0
LINE
  5
FC
330
1F
100
AcDbEntity
  8
VIEW0001
  6
Continuous
 62
     7
100
AcDbLine
 10
-84.22645174025503
 20
139.4655391568392
 30
0.0
 11
-86.72645174025503
 21
139.4655391568392
 31
0.0
  0
LINE
  5
FD
330
1F
100
AcDbEntity
  8
VIEW0001
  6
Continuous
 62
     7
100
AcDbLine
 10
-84.22645174025503
 20
139.4655391568392
 30
0.0
 11
-84.22645174025503
 21
115.4655391568392
 31
0.0
  0
LINE
  5
FE
330
1F
100
AcDbEntity
  8
VIEW0001
  6
Continuous
 62
     7
100
AcDbLine
 10
-84.22645174025503
 20
132.9503667141406
 30
0.0
 11
-77.57495751628691
 21
132.9503667141406
 31
0.0
  0
LINE
  5
FF
330
1F
100
AcDbEntity
  8
VIEW0001
  6
Continuous
 62
     7
100
AcDbLine
 10
-84.22645174025503
 20
121.9807115995377
 30
0.0
 11
-77.57495751628689
 21
121.9807115995377
 31
0.0
  0
LINE
  5
100
330
1F
100
AcDbEntity
  8
VIEW0001
  6
Continuous
 62
     7
100
AcDbLine
 10
-84.22645174025503
 20
138.4351942714421
 30
0.0
 11
-77.57495751628689
 21
138.4351942714421
 31
0.0
  0
LINE
  5
101
330
1F
100
AcDbEntity
  8
VIEW0001
  6
Continuous
 62
     7
100
AcDbLine
 10
-84.22645174025503
 20
116.4958840422363
 30
0.0
 11
-77.57495751628689
 21
116.4958840422363
 31
0.0
  0
LINE
  5
102
330
1F
100
AcDbEntity
  8
VIEW0001
  6
Continuous
 62
     7
100
AcDbLine
 10
-76.72645174025503
 20
136.9655391568392
 30
0.0
 11
-76.72645174025503
 21
117.9655391568392
 31
0.0
  0
LINE
  5
103
330
1F
100
AcDbEntity
  8
VIEW0001
  6
Continuous
 62
     7
100
AcDbLine
 10
-76.72645174025503
 20
136.9655391568392
 30
0.0
 11
-77.57495751628693
 21
138.4351942714422
 31
0.0
  0
LINE
  5
104
330
1F
100
AcDbEntity
  8
VIEW0001
  6
Continuous
 62
     7
100
AcDbLine
 10
-76.72645174025516
 20
117.9655391568393
 30
0.0
 11
-77.57495751628704
 21
116.4958840422364
 31
0.0
  0
LINE
  5
105
330
1F
100
AcDbEntity
  8
VIEW0001
  6
DASHED
 62
     7
100
AcDbLine
 10
-87.22645174025503
 20
93.61951770446099
 30
0.0
 11
-98.22645174025502
 21
93.61951770446099
 31
0.0
  0
LINE
  5
106
330
1F
100
AcDbEntity
  8
VIEW0001
  6
CENTER
 62
     7
100
AcDbLine
 10
-92.72645174025503
 20
77.92329200282278
 30
0.0
 11
-92.72645174025503
 21
175.7092684077177
 31
0.0
  0
LINE
  5
107
330
1F
100
AcDbEntity
  8
VIEW0001
  6
DASHED
 62
     7
100
AcDbLine
 10
-87.22645174025503
 20
161.3115606092174
 30
0.0
 11
-98.22645174025502
 21
161.3115606092174
 31
0.0
  0
LINE
  5
108
330
1F
100
AcDbEntity
  8
VIEW0001
  6
Continuous
 62
     7
100
AcDbLine
 10
-87.22645174025503
 20
145.9655391568392
 30
0.0
 11
-87.22645174025503
 21
127.4655391568392
 31
0.0
  0
LINE
  5
109
330
1F
100
AcDbEntity
  8
VIEW0001
  6
Continuous
 62
     7
100
AcDbLine
 10
-98.72645174025502
 20
145.9655391568392
 30
0.0
 11
-98.22645174025502
 21
145.9655391568392
 31
0.0
  0
LINE
  5
10A
330
1F
100
AcDbEntity
  8
VIEW0001
  6
Continuous
 62
     7
100
AcDbLine
 10
-86.72645174025503
 20
145.9655391568392
 30
0.0
 11
-87.22645174025503
 21
145.9655391568392
 31
0.0
  0
LINE
  5
10B
330
1F
100
AcDbEntity
  8
VIEW0001
  6
Continuous
 62
     7
100
AcDbLine
 10
-86.72645174025503
 20
108.9655391568392
 30
0.0
 11
-87.22645174025503
 21
108.9655391568392
 31
0.0
  0
LINE
  5
10C
330
1F
100
AcDbEntity
  8
VIEW0001
  6
Continuous
 62
     7
100
AcDbLine
 10
-98.72645174025502
 20
108.9655391568392
 30
0.0
 11
-98.22645174025502
 21
108.9655391568392
 31
0.0
  0
LINE
  5
10D
330
1F
100
AcDbEntity
  8
VIEW0001
  6
Continuous
 62
     7
100
AcDbLine
 10
-84.22645174025503
 20
115.4655391568392
 30
0.0
 11
-86.72645174025503
 21
115.4655391568392
 31
0.0
  0
LINE
  5
10E
330
1F
100
AcDbEntity
  8
VIEW0001
  6
Continuous
 62
     7
100
AcDbLine
 10
-101.226451740255
 20
115.4655391568392
 30
0.0
 11
-98.72645174025502
 21
115.4655391568392
 31
0.0
  0
LINE
  5
10F
330
1F
100
AcDbEntity
  8
VIEW0001
  6
Continuous
 62
     7
100
AcDbLine
 10
18.90233987712736
 20
84.65393006769551
 30
0.0
 11
18.90233987712736
 21
74.29501705271156
 31
0.0
  0
ARC
  5
110
330
1F
100
AcDbEntity
  8
VIEW0001
  6
DASHED
 62
     7
100
AcDbCircle
 10
225.268072470979
 20
78.68851849350605
 30
0.0
 40
2.420000000000053
100
AcDbArc
 50
341.0916653416833
 51
0.0
  0
ARC
  5
111
330
1F
100
AcDbEntity
  8
VIEW0001
  6
DASHED
 62
     7
100
AcDbCircle
 10
230.108072470979
 20
94.51553915683914
 30
0.0
 40
2.42
100
AcDbArc
 50
90.00000000000003
 51
180.0
  0
ARC
  5
112
330
1F
100
AcDbEntity
  8
VIEW0001
  6
Continuous
 62
     7
100
AcDbCircle
 10
20.90233987712736
 20
27.46553915683916
 30
0.0
 40
45.00000000000001
100
AcDbArc
 50
145.7796101260896
 51
34.22038987391037
  0
CIRCLE
  5
113
330
1F
100
AcDbEntity
  8
VIEW0001
  6
Continuous
 62
     7
100
AcDbCircle
 10
20.90233987712736
 20
27.46553915683916
 30
0.0
 40
40.0
  0
CIRCLE
  5
114
330
1F
100
AcDbEntity
  8
VIEW0001
  6
Continuous
 62
     7
100
AcDbCircle
 10
20.90233987712736
 20
27.46553915683916
 30
0.0
 40
16.5
  0
CIRCLE
  5
115
330
1F
100
AcDbEntity
  8
VIEW0001
  6
Continuous
 62
     7
100
AcDbCircle
 10
20.90233987712736
 20
27.46553915683916
 30
0.0
 40
13.5
  0
CIRCLE
  5
116
330
1F
100
AcDbEntity
  8
VIEW0001
  6
Continuous
 62
     7
100
AcDbCircle
 10
20.90233987712736
 20
27.46553915683916
 30
0.0
 40
6.5
  0
CIRCLE
  5
117
330
1F
100
AcDbEntity
  8
VIEW0001
  6
Continuous
 62
     7
100
AcDbCircle
 10
20.90233987712736
 20
27.46553915683916
 30
0.0
 40
4.9265
  0
ARC
  5
118
330
1F
100
AcDbEntity
  8
VIEW0001
  6
Continuous
 62
     7
100
AcDbCircle
 10
20.90233987712736
 20
27.46553915683916
 30
0.0
 40
45.00000000000001
100
AcDbArc
 50
94.88214233247311
 51
123.7690296439668
  0
ARC
  5
119
330
1F
100
AcDbEntity
  8
VIEW0001
  6
Continuous
 62
     7
100
AcDbCircle
 10
20.90233987712736
 20
27.46553915683916
 30
0.0
 40
45.00000000000001
100
AcDbArc
 50
56.23097035603324
 51
85.11785766752689
  0
ARC
  5
11A
330
1F
100
AcDbEntity
  8
VIEW0001
  6
DASHED
 62
     7
100
AcDbCircle
 10
9.55940873766804
 20
109.4655391568392
 30
0.0
 40
2.0
100
AcDbArc
 50
90.00000000000003
 51
160.9999999999999
  0
ARC
  5
11B
330
1F
100
AcDbEntity
  8
VIEW0001
  6
DASHED
 62
     7
100
AcDbCircle
 10
16.90233987712736
 20
109.4655391568392
 30
0.0
 40
2.0
100
AcDbArc
 50
0.0
 51
90.00000000000003
  0
ARC
  5
11C
330
1F
100
AcDbEntity
  8
VIEW0001
  6
DASHED
 62
     7
100
AcDbCircle
 10
24.90233987712736
 20
109.4655391568392
 30
0.0
 40
2.0
100
AcDbArc
 50
90.00000000000003
 51
180.0
  0
ARC
  5
11D
330
1F
100
AcDbEntity
  8
VIEW0001
  6
DASHED
 62
     7
100
AcDbCircle
 10
32.24527101658669
 20
109.4655391568392
 30
0.0
 40
2.0
100
AcDbArc
 50
19.00000000000009
 51
90.00000000000003
  0
ARC
  5
11E
330
1F
100
AcDbEntity
  8
VIEW0001
  6
DASHED
 62
     7
100
AcDbCircle
 10
41.90233987712736
 20
112.1349095931649
 30
0.0
 40
4.0
100
AcDbArc
 50
180.0
 51
199.0000000000001
  0
ARC
  5
11F
330
1F
100
AcDbEntity
  8
VIEW0001
  6
DASHED
 62
     7
100
AcDbCircle
 10
-0.097660122872642
 20
112.1349095931649
 30
0.0
 40
4.0
100
AcDbArc
 50
341.0000000000001
 51
0.0
  0
ARC
  5
120
330
1F
100
AcDbEntity
  8
VIEW0001
  6
DASHED
 62
     7
100
AcDbCircle
 10
33.90233987712737
 20
137.4655391568392
 30
0.0
 40
4.0
100
AcDbArc
 50
0.0
 51
90.00000000000003
  0
ARC
  5
121
330
1F
100
AcDbEntity
  8
VIEW0001
  6
DASHED
 62
     7
100
AcDbCircle
 10
7.902339877127359
 20
137.4655391568392
 30
0.0
 40
4.0
100
AcDbArc
 50
90.00000000000003
 51
180.0
  0
ARC
  5
122
330
1F
100
AcDbEntity
  8
VIEW0001
  6
Continuous
 62
     7
100
AcDbCircle
 10
-136.226451740255
 20
-16.53446084316084
 30
0.0
 40
1.0
100
AcDbArc
 50
180.0
 51
270.0
  0
ARC
  5
123
330
1F
100
AcDbEntity
  8
VIEW0001
  6
Continuous
 62
     7
100
AcDbCircle
 10
-102.226451740255
 20
-16.53446084316084
 30
0.0
 40
1.0
100
AcDbArc
 50
270.0
 51
0.0
  0
ARC
  5
124
330
1F
100
AcDbEntity
  8
VIEW0001
  6
Continuous
 62
     7
100
AcDbCircle
 10
-102.226451740255
 20
140.4655391568392
 30
0.0
 40
1.0
100
AcDbArc
 50
0.0
 51
90.00000000000003
  0
ARC
  5
125
330
1F
100
AcDbEntity
  8
VIEW0001
  6
Continuous
 62
     7
100
AcDbCircle
 10
-101.1260935312998
 20
39.15688210792909
 30
0.0
 40
6.899641791044798
100
AcDbArc
 50
325.6096171719711
 51
25.61902541740701
  0
ARC
  5
126
330
1F
100
AcDbEntity
  8
VIEW0001
  6
Continuous
 62
     7
100
AcDbCircle
 10
-120.0160189044343
 20
27.46553915683915
 30
0.0
 40
25.78956716417926
100
AcDbArc
 50
342.408763404531
 51
17.59123659546902
  0
ARC
  5
127
330
1F
100
AcDbEntity
  8
VIEW0001
  6
Continuous
 62
     7
100
AcDbCircle
 10
-101.1260935312997
 20
15.7741962057492
 30
0.0
 40
6.899641791044798
100
AcDbArc
 50
334.3809745826003
 51
34.3903828280291
  0
ARC
  5
128
330
1F
100
AcDbEntity
  8
VIEW0001
  6
Continuous
 62
     7
100
AcDbCircle
 10
-75.4368845760758
 20
27.46553915683915
 30
0.0
 40
25.78956716417926
100
AcDbArc
 50
162.408763404531
 51
197.5912365954691
  0
ARC
  5
129
330
1F
100
AcDbEntity
  8
VIEW0001
  6
Continuous
 62
     7
100
AcDbCircle
 10
-94.32680994921023
 20
39.15688210792909
 30
0.0
 40
6.899641791044798
100
AcDbArc
 50
154.380974582593
 51
214.3903828280289
  0
ARC
  5
12A
330
1F
100
AcDbEntity
  8
VIEW0001
  6
Continuous
 62
     7
100
AcDbCircle
 10
-94.3268099492103
 20
15.7741962057492
 30
0.0
 40
6.899641791044798
100
AcDbArc
 50
145.6096171719709
 51
205.6190254173998
  0
ARC
  5
12B
330
1F
100
AcDbEntity
  8
VIEW0001
  6
DASHED
 62
     7
100
AcDbCircle
 10
20.90233987712733
 20
58.56553915683917
 30
0.0
 40
4.1
100
AcDbArc
 50
180.0000000000001
 51
0.00000097994106
  0
ARC
  5
12C
330
1F
100
AcDbEntity
  8
VIEW0001
  6
DASHED
 62
     7
100
AcDbCircle
 10
20.90233987712733
 20
65.36553915683918
 30
0.0
 40
4.1
100
AcDbArc
 50
359.999999020059
 51
180.0000000000001
  0
ARC
  5
12D
330
1F
100
AcDbEntity
  8
VIEW0001
  6
DASHED
 62
     7
100
AcDbCircle
 10
53.72470268055761
 20
8.515539156839194
 30
0.0
 40
4.1
100
AcDbArc
 50
240.0000000000001
 51
60.00000379529553
  0
ARC
  5
12E
330
1F
100
AcDbEntity
  8
VIEW0001
  6
DASHED
 62
     7
100
AcDbCircle
 10
47.83572993482344
 20
11.91553915683919
 30
0.0
 40
4.1
100
AcDbArc
 50
60.00000000000001
 51
240.0000000000001
  0
ARC
  5
12F
330
1F
100
AcDbEntity
  8
VIEW0001
  6
DASHED
 62
     7
100
AcDbCircle
 10
-6.031050180568672
 20
11.91553915683913
 30
0.0
 40
4.1
100
AcDbArc
 50
300.0000000000001
 51
120.0000000000001
  0
ARC
  5
130
330
1F
100
AcDbEntity
  8
VIEW0001
  6
DASHED
 62
     7
100
AcDbCircle
 10
-11.92002292630285
 20
8.515539156839127
 30
0.0
 40
4.1
100
AcDbArc
 50
120.0
 51
300.0000000000001
  0
ARC
  5
131
330
1F
100
AcDbEntity
  8
VIEW0001
  6
DASHED
 62
     7
100
AcDbCircle
 10
-113.426451740255
 20
110.4655391568392
 30
0.0
 40
1.0
100
AcDbArc
 50
90.00000000000003
 51
180.0
  0
ARC
  5
132
330
1F
100
AcDbEntity
  8
VIEW0001
  6
DASHED
 62
     7
100
AcDbCircle
 10
-113.426451740255
 20
65.5359362688522
 30
0.0
 40
1.0
100
AcDbArc
 50
180.0
 51
270.0
  0
ARC
  5
133
330
1F
100
AcDbEntity
  8
VIEW0001
  6
DASHED
 62
     7
100
AcDbCircle
 10
-104.426451740255
 20
66.46553915683917
 30
0.0
 40
1.0
100
AcDbArc
 50
90.00000000000003
 51
180.0
  0
ARC
  5
134
330
1F
100
AcDbEntity
  8
VIEW0001
  6
DASHED
 62
     7
100
AcDbCircle
 10
-104.426451740255
 20
-11.53446084316083
 30
0.0
 40
1.0
100
AcDbArc
 50
180.0
 51
270.0
  0
ARC
  5
135
330
1F
100
AcDbEntity
  8
VIEW0001
  6
Continuous
 62
     7
100
AcDbCircle
 10
48.70840335047904
 20
99.60543418098301
 30
0.0
 40
10.01141308466621
100
AcDbArc
 50
20.13847780483382
 51
43.30769230769243
  0
ARC
  5
136
330
1F
100
AcDbEntity
  8
VIEW0001
  6
Continuous
 62
     7
100
AcDbCircle
 10
60.19014412171635
 20
129.8802964507816
 30
0.0
 40
10.01141308466621
100
AcDbArc
 50
275.1538461538462
 51
298.3230606567048
  0
ARC
  5
137
330
1F
100
AcDbEntity
  8
VIEW0001
  6
Continuous
 62
     7
100
AcDbCircle
 10
67.39621222547535
 20
125.7171860339956
 30
0.0
 40
15.550775
100
AcDbArc
 50
122.8461538461539
 51
136.5384615384616
  0
ARC
  5
138
330
1F
100
AcDbEntity
  8
VIEW0001
  6
Continuous
 62
     7
100
AcDbCircle
 10
60.48044791501223
 20
132.2711915269841
 30
0.0
 40
6.022774999999999
100
AcDbArc
 50
136.5384615384616
 51
237.3076923076924
  0
ARC
  5
139
330
1F
100
AcDbEntity
  8
VIEW0001
  6
Continuous
 62
     7
100
AcDbCircle
 10
20.90233987712736
 20
127.4655391568392
 30
0.0
 40
44.5
100
AcDbArc
 50
19.42574832950145
 51
22.1127132089603
  0
ARC
  5
13A
330
1F
100
AcDbEntity
  8
VIEW0001
  6
Continuous
 62
     7
100
AcDbCircle
 10
58.4706226871545
 20
115.7187633500227
 30
0.0
 40
10.01141308466621
100
AcDbArc
 50
47.83078549714153
 51
71.00000000000014
  0
CIRCLE
  5
13B
330
1F
100
AcDbEntity
  8
VIEW0001
  6
Continuous
 62
     7
100
AcDbCircle
 10
20.90233987712736
 20
127.4655391568392
 30
0.0
 40
9.500000000000018
  0
ARC
  5
13C
330
1F
100
AcDbEntity
  8
VIEW0001
  6
Continuous
 62
     7
100
AcDbCircle
 10
2.780646957062771
 20
84.61298788742799
 30
0.0
 40
15.550775
100
AcDbArc
 50
12.0769230769231
 51
25.76923076923082
  0
ARC
  5
13D
330
1F
100
AcDbEntity
  8
VIEW0001
  6
Continuous
 62
     7
100
AcDbCircle
 10
61.25811909482275
 20
104.3106695109254
 30
0.0
 40
15.550775
100
AcDbArc
 50
95.15384615384622
 51
108.8461538461539
  0
ARC
  5
13E
330
1F
100
AcDbEntity
  8
VIEW0001
  6
Continuous
 62
     7
100
AcDbCircle
 10
54.56776921082567
 20
147.8616535644306
 30
0.0
 40
10.01141308466621
100
AcDbArc
 50
302.8461538461539
 51
326.0153683490125
  0
ARC
  5
13F
330
1F
100
AcDbEntity
  8
VIEW0001
  6
Continuous
 62
     7
100
AcDbCircle
 10
11.36111236978107
 20
88.75525747077775
 30
0.0
 40
6.022774999999999
100
AcDbArc
 50
25.76923076923082
 51
126.5384615384616
  0
ARC
  5
140
330
1F
100
AcDbEntity
  8
VIEW0001
  6
Continuous
 62
     7
100
AcDbCircle
 10
65.62677650520465
 20
140.2898002617814
 30
0.0
 40
15.550775
100
AcDbArc
 50
237.3076923076924
 51
251.0000000000001
  0
ARC
  5
141
330
1F
100
AcDbEntity
  8
VIEW0001
  6
Continuous
 62
     7
100
AcDbCircle
 10
-3.402982983661833
 20
96.50404862775473
 30
0.0
 40
10.01141308466621
100
AcDbArc
 50
297.0615547279107
 51
320.2307692307693
  0
ARC
  5
142
330
1F
100
AcDbEntity
  8
VIEW0001
  6
Continuous
 62
     7
100
AcDbCircle
 10
28.03511236978072
 20
88.75525406724266
 30
0.0
 40
10.01141308466621
100
AcDbArc
 50
192.0769230769231
 51
215.2461375797817
  0
ARC
  5
143
330
1F
100
AcDbEntity
  8
VIEW0001
  6
Continuous
 62
     7
100
AcDbCircle
 10
17.03372851214671
 20
81.09991880411039
 30
0.0
 40
15.550775
100
AcDbArc
 50
126.5384615384616
 51
140.2307692307693
  0
ARC
  5
144
330
1F
100
AcDbEntity
  8
VIEW0001
  6
Continuous
 62
     7
100
AcDbCircle
 10
20.90233987712736
 20
127.4655391568392
 30
0.0
 40
44.5
100
AcDbArc
 50
240.9642098679629
 51
243.6511747474218
  0
ARC
  5
145
330
1F
100
AcDbEntity
  8
VIEW0001
  6
Continuous
 62
     7
100
AcDbCircle
 10
-15.05819587006994
 20
97.94306003734147
 30
0.0
 40
15.550775
100
AcDbArc
 50
344.3846153846154
 51
358.0769230769231
  0
ARC
  5
146
330
1F
100
AcDbEntity
  8
VIEW0001
  6
Continuous
 62
     7
100
AcDbCircle
 10
20.90233987712736
 20
127.4655391568392
 30
0.0
 40
44.5
100
AcDbArc
 50
213.2719021756552
 51
215.9588670551141
  0
ARC
  5
147
330
1F
100
AcDbEntity
  8
VIEW0001
  6
Continuous
 62
     7
100
AcDbCircle
 10
-15.0074767952844
 20
111.3457475420705
 30
0.0
 40
10.01141308466621
100
AcDbArc
 50
269.369247035603
 51
292.5384615384616
  0
ARC
  5
148
330
1F
100
AcDbEntity
  8
VIEW0001
  6
Continuous
 62
     7
100
AcDbCircle
 10
-4.070323531002463
 20
88.20865457730474
 30
0.0
 40
15.550775
100
AcDbArc
 50
98.8461538461539
 51
112.5384615384616
  0
ARC
  5
149
330
1F
100
AcDbEntity
  8
VIEW0001
  6
Continuous
 62
     7
100
AcDbCircle
 10
9.22852978280486
 20
89.87451931124993
 30
0.0
 40
10.01141308466621
100
AcDbArc
 50
164.3846153846154
 51
187.553829887474
  0
ARC
  5
14A
330
1F
100
AcDbEntity
  8
VIEW0001
  6
Continuous
 62
     7
100
AcDbCircle
 10
-16.3756323821649
 20
113.3278690943218
 30
0.0
 40
6.022774999999999
100
AcDbArc
 50
330.3846153846154
 51
71.15384615384622
  0
ARC
  5
14B
330
1F
100
AcDbEntity
  8
VIEW0001
  6
Continuous
 62
     7
100
AcDbCircle
 10
-5.535562407234841
 20
97.62331649558823
 30
0.0
 40
6.022774999999999
100
AcDbArc
 50
358.0769230769231
 51
98.8461538461539
  0
ARC
  5
14C
330
1F
100
AcDbEntity
  8
VIEW0001
  6
Continuous
 62
     7
100
AcDbCircle
 10
-24.65891332895507
 20
118.0363763690897
 30
0.0
 40
15.550775
100
AcDbArc
 50
316.6923076923077
 51
330.3846153846154
  0
ARC
  5
14D
330
1F
100
AcDbEntity
  8
VIEW0001
  6
Continuous
 62
     7
100
AcDbCircle
 10
-18.3854643674616
 20
129.8802964507815
 30
0.0
 40
10.01141308466621
100
AcDbArc
 50
241.6769393432953
 51
264.8461538461539
  0
ARC
  5
14E
330
1F
100
AcDbEntity
  8
VIEW0001
  6
Continuous
 62
     7
100
AcDbCircle
 10
-19.45343934056798
 20
104.3106695109253
 30
0.0
 40
15.550775
100
AcDbArc
 50
71.1538461538462
 51
84.8461538461539
  0
ARC
  5
14F
330
1F
100
AcDbEntity
  8
VIEW0001
  6
Continuous
 62
     7
100
AcDbCircle
 10
-6.903723596224272
 20
99.60543418098291
 30
0.0
 40
10.01141308466621
100
AcDbArc
 50
136.6923076923077
 51
159.8615221951663
  0
ARC
  5
150
330
1F
100
AcDbEntity
  8
VIEW0001
  6
Continuous
 62
     7
100
AcDbCircle
 10
-18.6757681607575
 20
132.2711915269841
 30
0.0
 40
6.022774999999999
100
AcDbArc
 50
302.6923076923077
 51
43.4615384615385
  0
ARC
  5
151
330
1F
100
AcDbEntity
  8
VIEW0001
  6
Continuous
 62
     7
100
AcDbCircle
 10
20.90233987712736
 20
127.4655391568392
 30
0.0
 40
44.5
100
AcDbArc
 50
185.5795944833475
 51
188.2665593628064
  0
ARC
  5
152
330
1F
100
AcDbEntity
  8
VIEW0001
  6
Continuous
 62
     7
100
AcDbCircle
 10
-25.59153247122064
 20
125.7171860339955
 30
0.0
 40
15.550775
100
AcDbArc
 50
43.46153846153849
 51
57.15384615384619
  0
ARC
  5
153
330
1F
100
AcDbEntity
  8
VIEW0001
  6
Continuous
 62
     7
100
AcDbCircle
 10
-12.76308945657097
 20
147.8616535644305
 30
0.0
 40
10.01141308466621
100
AcDbArc
 50
213.9846316509876
 51
237.1538461538462
  0
ARC
  5
154
330
1F
100
AcDbEntity
  8
VIEW0001
  6
Continuous
 62
     7
100
AcDbCircle
 10
-23.82209675094996
 20
140.2898002617814
 30
0.0
 40
15.550775
100
AcDbArc
 50
289.0
 51
302.6923076923077
  0
ARC
  5
155
330
1F
100
AcDbEntity
  8
VIEW0001
  6
Continuous
 62
     7
100
AcDbCircle
 10
-16.66594293289978
 20
115.7187633500226
 30
0.0
 40
10.01141308466621
100
AcDbArc
 50
109.0
 51
132.1692145028586
  0
ARC
  5
156
330
1F
100
AcDbEntity
  8
VIEW0001
  6
Continuous
 62
     7
100
AcDbCircle
 10
-11.90903635577815
 20
150.1135969160354
 30
0.0
 40
6.022774999999999
100
AcDbArc
 50
275.0
 51
15.76923076923078
  0
ARC
  5
157
330
1F
100
AcDbEntity
  8
VIEW0001
  6
Continuous
 62
     7
100
AcDbCircle
 10
20.90233987712736
 20
127.4655391568392
 30
0.0
 40
44.5
100
AcDbArc
 50
157.8872867910398
 51
160.5742516704987
  0
ARC
  5
158
330
1F
100
AcDbEntity
  8
VIEW0001
  6
Continuous
 62
     7
100
AcDbCircle
 10
-12.73945072934258
 20
159.6053404844309
 30
0.0
 40
15.550775
100
AcDbArc
 50
261.3076923076923
 51
275.0
  0
ARC
  5
159
330
1F
100
AcDbEntity
  8
VIEW0001
  6
Continuous
 62
     7
100
AcDbCircle
 10
0.571629602265302
 20
161.1705066671248
 30
0.0
 40
10.01141308466621
100
AcDbArc
 50
186.2923239586799
 51
209.4615384615385
  0
ARC
  5
15A
330
1F
100
AcDbEntity
  8
VIEW0001
  6
Continuous
 62
     7
100
AcDbCircle
 10
-21.07843975876908
 20
147.52422918757
 30
0.0
 40
15.550775
100
AcDbArc
 50
15.76923076923078
 51
29.46153846153848
  0
ARC
  5
15B
330
1F
100
AcDbEntity
  8
VIEW0001
  6
Continuous
 62
     7
100
AcDbCircle
 10
-17.82172142468587
 20
134.5231372924093
 30
0.0
 40
10.01141308466621
100
AcDbArc
 50
81.30769230769234
 51
104.4769068105509
  0
ARC
  5
15C
330
1F
100
AcDbEntity
  8
VIEW0001
  6
Continuous
 62
     7
100
AcDbCircle
 10
2.374386324210818
 20
162.7676052111388
 30
0.0
 40
6.022774999999999
100
AcDbArc
 50
247.3076923076923
 51
348.076923076923
  0
ARC
  5
15D
330
1F
100
AcDbEntity
  8
VIEW0001
  6
Continuous
 62
     7
100
AcDbCircle
 10
20.90233987712736
 20
127.4655391568392
 30
0.0
 40
44.5
100
AcDbArc
 50
130.1949790987321
 51
132.881943978191
  0
ARC
  5
15E
330
1F
100
AcDbEntity
  8
VIEW0001
  6
Continuous
 62
     7
100
AcDbCircle
 10
6.05012409267997
 20
171.5580395495233
 30
0.0
 40
15.550775
100
AcDbArc
 50
233.6153846153846
 51
247.3076923076923
  0
ARC
  5
15F
330
1F
100
AcDbEntity
  8
VIEW0001
  6
Continuous
 62
     7
100
AcDbCircle
 10
-10.1062841477551
 20
151.7107005552146
 30
0.0
 40
10.01141308466621
100
AcDbArc
 50
53.61538461538463
 51
76.78459911824321
  0
ARC
  5
160
330
1F
100
AcDbEntity
  8
VIEW0001
  6
Continuous
 62
     7
100
AcDbCircle
 10
-6.948056354972761
 20
164.736068188524
 30
0.0
 40
15.550775
100
AcDbArc
 50
348.076923076923
 51
1.769230769230788
  0
ARC
  5
161
330
1F
100
AcDbEntity
  8
VIEW0001
  6
Continuous
 62
     7
100
AcDbCircle
 10
18.5638693734532
 20
166.757957902104
 30
0.0
 40
10.01141308466621
100
AcDbArc
 50
158.6000162663722
 51
181.7692307692308
  0
ARC
  5
162
330
1F
100
AcDbEntity
  8
VIEW0001
  6
Continuous
 62
     7
100
AcDbCircle
 10
20.90233987712736
 20
167.3343356092174
 30
0.0
 40
6.022774999999999
100
AcDbArc
 50
219.6153846153846
 51
320.3846153846154
  0
ARC
  5
163
330
1F
100
AcDbEntity
  8
VIEW0001
  6
Continuous
 62
     7
100
AcDbCircle
 10
20.90233987712736
 20
127.4655391568392
 30
0.0
 40
44.5
100
AcDbArc
 50
102.5026714064244
 51
105.1896362858833
  0
ARC
  5
164
330
1F
100
AcDbEntity
  8
VIEW0001
  6
Continuous
 62
     7
100
AcDbCircle
 10
28.24216256231599
 20
173.4096781468848
 30
0.0
 40
15.550775
100
AcDbArc
 50
205.9230769230769
 51
219.6153846153846
  0
ARC
  5
165
330
1F
100
AcDbEntity
  8
VIEW0001
  6
Continuous
 62
     7
100
AcDbCircle
 10
37.09182455540829
 20
163.3439895275213
 30
0.0
 40
10.01141308466621
100
AcDbArc
 50
130.9077085740645
 51
154.0769230769231
  0
ARC
  5
166
330
1F
100
AcDbEntity
  8
VIEW0001
  6
Continuous
 62
     7
100
AcDbCircle
 10
13.56251719193878
 20
173.4096781468848
 30
0.0
 40
15.550775
100
AcDbArc
 50
320.3846153846154
 51
334.0769230769231
  0
ARC
  5
167
330
1F
100
AcDbEntity
  8
VIEW0001
  6
Continuous
 62
     7
100
AcDbCircle
 10
4.712855198846455
 20
163.3439895275213
 30
0.0
 40
10.01141308466621
100
AcDbArc
 50
25.92307692307692
 51
49.09229142593551
  0
ARC
  5
168
330
1F
100
AcDbEntity
  8
VIEW0001
  6
Continuous
 62
     7
100
AcDbCircle
 10
13.76956738447409
 20
88.75525406724269
 30
0.0
 40
10.01141308466621
100
AcDbArc
 50
324.7538624202184
 51
347.923076923077
  0
CIRCLE
  5
169
330
1F
100
AcDbEntity
  8
VIEW0001
  6
DASHED
 62
     7
100
AcDbCircle
 10
20.90233987712736
 20
127.4655391568392
 30
0.0
 40
39.8010214523782
  0
ARC
  5
16A
330
1F
100
AcDbEntity
  8
VIEW0001
  6
Continuous
 62
     7
100
AcDbCircle
 10
30.44356738447372
 20
88.75525747077775
 30
0.0
 40
6.022774999999999
100
AcDbArc
 50
53.46153846153852
 51
154.2307692307693
  0
ARC
  5
16B
330
1F
100
AcDbEntity
  8
VIEW0001
  6
Continuous
 62
     7
100
AcDbCircle
 10
39.02403279719204
 20
84.612987887428
 30
0.0
 40
15.550775
100
AcDbArc
 50
154.2307692307693
 51
167.923076923077
  0
ARC
  5
16C
330
1F
100
AcDbEntity
  8
VIEW0001
  6
Continuous
 62
     7
100
AcDbCircle
 10
24.77095124210805
 20
81.09991880411042
 30
0.0
 40
15.550775
100
AcDbArc
 50
39.7692307692308
 51
53.46153846153852
  0
ARC
  5
16D
330
1F
100
AcDbEntity
  8
VIEW0001
  6
Continuous
 62
     7
100
AcDbCircle
 10
56.81215654953919
 20
111.3457475420705
 30
0.0
 40
10.01141308466621
100
AcDbArc
 50
247.4615384615385
 51
270.6307529643971
  0
ARC
  5
16E
330
1F
100
AcDbEntity
  8
VIEW0001
  6
Continuous
 62
     7
100
AcDbCircle
 10
45.20766273791667
 20
96.50404862775476
 30
0.0
 40
10.01141308466621
100
AcDbArc
 50
219.7692307692308
 51
242.9384452720894
  0
ARC
  5
16F
330
1F
100
AcDbEntity
  8
VIEW0001
  6
Continuous
 62
     7
100
AcDbCircle
 10
20.90233987712736
 20
127.4655391568392
 30
0.0
 40
44.5
100
AcDbArc
 50
296.3488252525783
 51
299.0357901320372
  0
ARC
  5
170
330
1F
100
AcDbEntity
  8
VIEW0001
  6
Continuous
 62
     7
100
AcDbCircle
 10
47.34024216148962
 20
97.62331649558826
 30
0.0
 40
6.022774999999999
100
AcDbArc
 50
81.15384615384622
 51
181.923076923077
  0
ARC
  5
171
330
1F
100
AcDbEntity
  8
VIEW0001
  6
Continuous
 62
     7
100
AcDbCircle
 10
56.86287562432471
 20
97.94306003734151
 30
0.0
 40
15.550775
100
AcDbArc
 50
181.923076923077
 51
195.6153846153847
  0
ARC
  5
172
330
1F
100
AcDbEntity
  8
VIEW0001
  6
Continuous
 62
     7
100
AcDbCircle
 10
45.87500328525727
 20
88.20865457730478
 30
0.0
 40
15.550775
100
AcDbArc
 50
67.46153846153851
 51
81.15384615384622
  0
ARC
  5
173
330
1F
100
AcDbEntity
  8
VIEW0001
  6
Continuous
 62
     7
100
AcDbCircle
 10
66.46359308320982
 20
118.0363763690898
 30
0.0
 40
15.550775
100
AcDbArc
 50
209.6153846153847
 51
223.3076923076924
  0
ARC
  5
174
330
1F
100
AcDbEntity
  8
VIEW0001
  6
Continuous
 62
     7
100
AcDbCircle
 10
20.90233987712736
 20
127.4655391568392
 30
0.0
 40
44.5
100
AcDbArc
 50
351.7334406371937
 51
354.4204055166526
  0
ARC
  5
175
330
1F
100
AcDbEntity
  8
VIEW0001
  6
Continuous
 62
     7
100
AcDbCircle
 10
58.18031213641968
 20
113.3278690943218
 30
0.0
 40
6.022774999999999
100
AcDbArc
 50
108.8461538461539
 51
209.6153846153847
  0
ARC
  5
176
330
1F
100
AcDbEntity
  8
VIEW0001
  6
Continuous
 62
     7
100
AcDbCircle
 10
32.57614997144995
 20
89.87451931125
 30
0.0
 40
10.01141308466621
100
AcDbArc
 50
352.4461701125261
 51
15.61538461538473
  0
ARC
  5
177
330
1F
100
AcDbEntity
  8
VIEW0001
  6
Continuous
 62
     7
100
AcDbCircle
 10
20.90233987712736
 20
127.4655391568392
 30
0.0
 40
44.5
100
AcDbArc
 50
324.041132944886
 51
326.7280978243449
  0
ARC
  5
178
330
1F
100
AcDbEntity
  8
VIEW0001
  6
Continuous
 62
     7
100
AcDbCircle
 10
20.90233987712736
 20
127.4655391568392
 30
0.0
 40
44.5
100
AcDbArc
 50
268.6565175602706
 51
271.3434824397295
  0
ARC
  5
179
330
1F
100
AcDbEntity
  8
VIEW0001
  6
Continuous
 62
     7
100
AcDbCircle
 10
53.71371611003286
 20
150.1135969160354
 30
0.0
 40
6.022774999999999
100
AcDbArc
 50
164.2307692307693
 51
265.0000000000001
  0
ARC
  5
17A
330
1F
100
AcDbEntity
  8
VIEW0001
  6
Continuous
 62
     7
100
AcDbCircle
 10
62.88311951302375
 20
147.5242291875701
 30
0.0
 40
15.550775
100
AcDbArc
 50
150.5384615384616
 51
164.2307692307693
  0
ARC
  5
17B
330
1F
100
AcDbEntity
  8
VIEW0001
  6
Continuous
 62
     7
100
AcDbCircle
 10
54.54413048359725
 20
159.605340484431
 30
0.0
 40
15.550775
100
AcDbArc
 50
265.0000000000001
 51
278.6923076923078
  0
ARC
  5
17C
330
1F
100
AcDbEntity
  8
VIEW0001
  6
Continuous
 62
     7
100
AcDbCircle
 10
41.23305015198937
 20
161.1705066671249
 30
0.0
 40
10.01141308466621
100
AcDbArc
 50
330.5384615384617
 51
353.7076760413202
  0
ARC
  5
17D
330
1F
100
AcDbEntity
  8
VIEW0001
  6
Continuous
 62
     7
100
AcDbCircle
 10
59.62640117894053
 20
134.5231372924094
 30
0.0
 40
10.01141308466621
100
AcDbArc
 50
75.52309318944923
 51
98.69230769230785
  0
ARC
  5
17E
330
1F
100
AcDbEntity
  8
VIEW0001
  6
Continuous
 62
     7
100
AcDbCircle
 10
20.90233987712736
 20
127.4655391568392
 30
0.0
 40
44.5
100
AcDbArc
 50
47.11805602180915
 51
49.805020901268
  0
ARC
  5
17F
330
1F
100
AcDbEntity
  8
VIEW0001
  6
Continuous
 62
     7
100
AcDbCircle
 10
39.4302934300439
 20
162.7676052111388
 30
0.0
 40
6.022774999999999
100
AcDbArc
 50
191.923076923077
 51
292.6923076923078
  0
ARC
  5
180
330
1F
100
AcDbEntity
  8
VIEW0001
  6
Continuous
 62
     7
100
AcDbCircle
 10
48.75273610922742
 20
164.736068188524
 30
0.0
 40
15.550775
100
AcDbArc
 50
178.2307692307693
 51
191.923076923077
  0
ARC
  5
181
330
1F
100
AcDbEntity
  8
VIEW0001
  6
Continuous
 62
     7
100
AcDbCircle
 10
35.7545556615747
 20
171.5580395495233
 30
0.0
 40
15.550775
100
AcDbArc
 50
292.6923076923078
 51
306.3846153846155
  0
ARC
  5
182
330
1F
100
AcDbEntity
  8
VIEW0001
  6
Continuous
 62
     7
100
AcDbCircle
 10
23.24081038080142
 20
166.757957902104
 30
0.0
 40
10.01141308466621
100
AcDbArc
 50
358.2307692307693
 51
21.39998373362791
  0
ARC
  5
183
330
1F
100
AcDbEntity
  8
VIEW0001
  6
Continuous
 62
     7
100
AcDbCircle
 10
51.91096390200975
 20
151.7107005552147
 30
0.0
 40
10.01141308466621
100
AcDbArc
 50
103.2154008817569
 51
126.3846153846156
  0
ARC
  5
184
330
1F
100
AcDbEntity
  8
VIEW0001
  6
Continuous
 62
     7
100
AcDbCircle
 10
20.90233987712736
 20
127.4655391568392
 30
0.0
 40
44.5
100
AcDbArc
 50
74.81036371411685
 51
77.4973285935757
  0
CIRCLE
  5
185
330
1F
100
AcDbEntity
  8
VIEW0001
  6
Continuous
 62
     7
100
AcDbCircle
 10
20.90233987712736
 20
127.4655391568392
 30
0.0
 40
12.0
  0
CIRCLE
  5
186
330
1F
100
AcDbEntity
  8
VIEW0001
  6
Continuous
 62
     7
100
AcDbCircle
 10
20.90233987712736
 20
127.4655391568392
 30
0.0
 40
18.5
  0
ARC
  5
187
330
1F
100
AcDbEntity
  8
VIEW0001
  6
Continuous
 62
     7
100
AcDbCircle
 10
-77.92645174025502
 20
92.4655391568392
 30
0.0
 40
20.3
100
AcDbArc
 50
180.0
 51
207.9032728241704
  0
ARC
  5
188
330
1F
100
AcDbEntity
  8
VIEW0001
  6
Continuous
 62
     7
100
AcDbCircle
 10
-77.92645174025502
 20
162.4655391568392
 30
0.0
 40
20.3
100
AcDbArc
 50
152.0967271758296
 51
180.0
  0
ARC
  5
189
330
1F
100
AcDbEntity
  8
VIEW0001
  6
Continuous
 62
     7
100
AcDbCircle
 10
-94.87794596422339
 20
127.4655391568392
 30
0.0
 40
18.15149422396836
100
AcDbArc
 50
342.4120462260065
 51
17.58795377399363
  0
ARC
  5
18A
330
1F
100
AcDbEntity
  8
VIEW0001
  6
Continuous
 62
     7
100
AcDbCircle
 10
-81.58251496226084
 20
119.238297820887
 30
0.0
 40
4.856063222005818
100
AcDbArc
 50
334.3842474680766
 51
34.38424746802674
  0
ARC
  5
18B
330
1F
100
AcDbEntity
  8
VIEW0001
  6
Continuous
 62
     7
100
AcDbCircle
 10
-81.58251496226084
 20
135.6927804927913
 30
0.0
 40
4.856063222005818
100
AcDbArc
 50
325.6157525319733
 51
25.61575253192338
  0
ARC
  5
18C
330
1F
100
AcDbEntity
  8
VIEW0001
  6
Continuous
 62
     7
100
AcDbCircle
 10
-107.526451740255
 20
92.4655391568392
 30
0.0
 40
20.3
100
AcDbArc
 50
332.0967271758296
 51
359.9999999999999
  0
ARC
  5
18D
330
1F
100
AcDbEntity
  8
VIEW0001
  6
Continuous
 62
     7
100
AcDbCircle
 10
-107.526451740255
 20
162.4655391568392
 30
0.0
 40
20.3
100
AcDbArc
 50
0.000000000000051
 51
27.90327282417043
  0
ARC
  5
18E
330
1F
100
AcDbEntity
  8
VIEW0001
  6
Continuous
 62
     7
100
AcDbCircle
 10
-5.222438964225612
 20
66.5359362688522
 30
0.0
 40
2.0
100
AcDbArc
 50
160.9999999999999
 51
303.7690296439667
  0
ARC
  5
18F
330
1F
100
AcDbEntity
  8
VIEW0001
  6
Continuous
 62
     7
100
AcDbCircle
 10
16.90233987712736
 20
74.29501705271156
 30
0.0
 40
2.0
100
AcDbArc
 50
274.8821423324731
 51
0.0
  0
ARC
  5
190
330
1F
100
AcDbEntity
  8
VIEW0001
  6
Continuous
 62
     7
100
AcDbCircle
 10
24.90233987712736
 20
74.29501705271156
 30
0.0
 40
2.0
100
AcDbArc
 50
180.0
 51
265.1178576675269
  0
ARC
  5
191
330
1F
100
AcDbEntity
  8
VIEW0001
  6
Continuous
 62
     7
100
AcDbCircle
 10
47.02711871848033
 20
66.5359362688522
 30
0.0
 40
2.0
100
AcDbArc
 50
236.2309703560333
 51
19.00000000000009
  0
DIMENSION
  5
192
330
1F
100
AcDbEntity
  8
VIEW0001
 62
     7
100
AcDbDimension
  2
*D2
 10
65.90233987712736
 20
-32.20064728449172
 30
0.0
 11
20.86564981586902
 21
-32.20064728449171
 31
0.0
 70
   160
 71
     5
 42
90.00000000000001
  3
ISO-25
100
AcDbAlignedDimension
 13
-24.09766012287265
 23
27.46553915683916
 33
0.0
 14
65.90233987712736
 24
27.46553915683916
 34
0.0
 50
180.0
100
AcDbRotatedDimension
1001
ACAD
1000
DSTYLE
1002
{
1070
   278
1070
    46
1070
   147
1040
0.699999988079071
1070
    77
1070
     1
1070
    74
1070
     0
1070
    73
1070
     0
1070
    42
1040
2.54
1070
    44
1040
0.823529411764703
1070
    76
1070
     0
1070
    75
1070
     0
1070
   279
1070
     0
1070
   271
1070
     0
1070
   144
1040
1.0
1070
   173
1070
     1
1070
    41
1040
3.0
1070
   140
1040
2.799999952316284
1070
   344
1005
1B5
1070
   343
1005
1B5
1002
}
  0
DIMENSION
  5
1C8
330
1F
100
AcDbEntity
  8
VIEW0001
 62
     7
100
AcDbDimension
  2
*D3
 10
82.35220061050944
 20
27.46553915683916
 30
0.0
 11
82.35220061050941
 21
77.46553915683918
 31
0.0
 70
   160
 71
     5
 42
100.0
  3
ISO-25
100
AcDbAlignedDimension
 13
71.90233987712736
 23
127.4655391568392
 33
0.0
 14
71.90233987712736
 24
27.46553915683916
 34
0.0
 50
90.00000000000003
100
AcDbRotatedDimension
1001
ACAD
1000
DSTYLE
1002
{
1070
   278
1070
    46
1070
   147
1040
0.699999988079071
1070
    77
1070
     1
1070
    74
1070
     0
1070
    73
1070
     0
1070
    42
1040
2.54
1070
    44
1040
0.82352941176471
1070
    76
1070
     0
1070
    75
1070
     0
1070
   279
1070
     0
1070
   271
1070
     0
1070
   144
1040
1.0
1070
   173
1070
     1
1070
    41
1040
3.0
1070
   140
1040
2.799999952316284
1070
   344
1005
1B5
1070
   343
1005
1B5
1002
}
  0
DIMENSION
  5
1D5
330
1F
100
AcDbEntity
  8
VIEW0001
 62
     7
100
AcDbDimension
  2
*D4
 10
92.57653139532619
 20
-17.53446084316079
 30
0.0
 11
92.57653139532616
 21
54.96553915683917
 31
0.0
 70
   160
 71
     5
 42
145.0
  3
ISO-25
100
AcDbAlignedDimension
 13
71.90233987712736
 23
127.4655391568392
 33
0.0
 14
20.90233987712736
 24
-17.53446084316084
 34
0.0
 50
90.00000000000003
100
AcDbRotatedDimension
1001
ACAD
1000
DSTYLE
1002
{
1070
   278
1070
    46
1070
   147
1040
0.699999988079071
1070
    77
1070
     1
1070
    74
1070
     0
1070
    73
1070
     0
1070
    42
1040
2.54
1070
    44
1040
0.823529411764724
1070
    76
1070
     0
1070
    75
1070
     0
1070
   279
1070
     0
1070
   271
1070
     0
1070
   144
1040
1.0
1070
   173
1070
     1
1070
    41
1040
3.0
1070
   140
1040
2.799999952316284
1070
   344
1005
1B5
1070
   343
1005
1B5
1002
}
  0
DIMENSION
  5
1E2
330
1F
100
AcDbEntity
  8
VIEW0001
 62
     7
100
AcDbDimension
  2
*D5
 10
-94.22645174025503
 20
-32.20064728449171
 30
0.0
 11
-86.91505556567273
 21
-32.20064728449171
 31
0.0
 70
   160
 71
     5
 42
7.000000000000001
  3
ISO-25
100
AcDbAlignedDimension
 13
-101.226451740255
 23
-17.53446084316084
 33
0.0
 14
-94.22645174025503
 24
13.96553915683918
 34
0.0
 50
180.0
100
AcDbRotatedDimension
1001
ACAD
1000
DSTYLE
1002
{
1070
   278
1070
    46
1070
   147
1040
0.699999988079071
1070
    77
1070
     1
1070
    74
1070
     0
1070
    73
1070
     0
1070
    42
1040
2.54
1070
    44
1040
0.82352941176471
1070
    76
1070
     0
1070
    75
1070
     0
1070
   279
1070
     0
1070
   271
1070
     0
1070
   144
1040
1.000000000000002
1070
   173
1070
     1
1070
    41
1040
3.0
1070
   140
1040
2.799999952316284
1070
   344
1005
1B5
1070
   343
1005
1B5
1002
}
  0
DIMENSION
  5
1FA
330
1F
100
AcDbEntity
  8
VIEW0001
 62
     7
100
AcDbDimension
  2
*D6
 10
-101.226451740255
 20
-32.20064728449171
 30
0.0
 11
-110.226451740255
 21
-32.20064728449171
 31
0.0
 70
   160
 71
     5
 42
18.0
  3
ISO-25
100
AcDbAlignedDimension
 13
-119.226451740255
 23
-17.53446084316084
 33
0.0
 14
-101.226451740255
 24
-17.53446084316084
 34
0.0
 50
180.0
100
AcDbRotatedDimension
1001
ACAD
1000
DSTYLE
1002
{
1070
   278
1070
    46
1070
   147
1040
0.699999988079071
1070
    77
1070
     1
1070
    74
1070
     0
1070
    73
1070
     0
1070
    42
1040
2.54
1070
    44
1040
0.823529411764703
1070
    76
1070
     0
1070
    75
1070
     0
1070
   279
1070
     0
1070
   271
1070
     0
1070
   144
1040
1.0
1070
   173
1070
     1
1070
    41
1040
3.0
1070
   140
1040
2.799999952316284
1070
   344
1005
1B5
1070
   343
1005
1B5
1002
}
  0
DIMENSION
  5
207
330
1F
100
AcDbEntity
  8
VIEW0001
 62
     7
100
AcDbDimension
  2
*D7
 10
-119.226451740255
 20
-32.20064728449171
 30
0.0
 11
-128.226451740255
 21
-32.20064728449171
 31
0.0
 70
   160
 71
     5
 42
18.0
  3
ISO-25
100
AcDbAlignedDimension
 13
-137.226451740255
 23
-16.53446084316084
 33
0.0
 14
-119.226451740255
 24
-17.53446084316084
 34
0.0
 50
180.0
100
AcDbRotatedDimension
1001
ACAD
1000
DSTYLE
1002
{
1070
   278
1070
    46
1070
   147
1040
0.699999988079071
1070
    77
1070
     1
1070
    74
1070
     0
1070
    73
1070
     0
1070
    42
1040
2.54
1070
    44
1040
0.823529411764703
1070
    76
1070
     0
1070
    75
1070
     0
1070
   279
1070
     0
1070
   271
1070
     0
1070
   144
1040
1.0
1070
   173
1070
     1
1070
    41
1040
3.0
1070
   140
1040
2.799999952316284
1070
   344
1005
1B5
1070
   343
1005
1B5
1002
}
  0
DIMENSION
  5
214
330
1F
100
AcDbEntity
  8
VIEW0001
 62
     7
100
AcDbDimension
  2
*D8
 10
25.40020270400943
 20
52.97418683406977
 30
0.0
 11
40.10964031802767
 21
44.84372911159338
 31
0.0
 70
   165
 71
     5
 42
0.523598775598299
  3
ISO-25
100
AcDb3PointAngularDimension
 13
59.98369097839743
 23
95.15642489267684
 33
0.0
 14
20.90233987712736
 24
101.7896181293014
 34
0.0
 15
20.90233987712736
 25
27.46553915683917
 35
0.0
1001
ACAD
1000
DSTYLE
1002
{
1070
   278
1070
    46
1070
   275
1070
     1
1070
   147
1040
0.699999988079071
1070
    77
1070
     1
1070
    74
1070
     0
1070
    73
1070
     0
1070
    42
1040
2.54
1070
    44
1040
1.166666666666664
1070
    76
1070
     1
1070
    75
1070
     1
1070
   279
1070
     0
1070
   179
1070
     0
1070
   144
1040
0.029088820866572
1070
   173
1070
     1
1070
    41
1040
3.0
1070
   140
1040
2.799999952316284
1070
   344
1005
1B5
1070
   343
1005
1B5
1002
}
  0
DIMENSION
  5
221
330
1F
100
AcDbEntity
  8
VIEW0001
 62
     7
100
AcDbDimension
  2
*D9
 10
16.40447705024529
 20
52.97418683406976
 30
0.0
 11
4.241713276834314
 21
47.29847634768755
 31
0.0
 70
   165
 71
     5
 42
0.523598775598298
  3
ISO-25
100
AcDb3PointAngularDimension
 13
20.90233987712736
 23
101.7896181293014
 33
0.0
 14
-18.17901122414271
 24
95.15642489267685
 34
0.0
 15
20.90233987712737
 25
27.46553915683912
 35
0.0
1001
ACAD
1000
DSTYLE
1002
{
1070
   278
1070
    46
1070
   275
1070
     1
1070
   147
1040
0.699999988079071
1070
    77
1070
     1
1070
    74
1070
     0
1070
    73
1070
     0
1070
    42
1040
2.54
1070
    44
1040
1.166666666666675
1070
    76
1070
     1
1070
    75
1070
     1
1070
   279
1070
     0
1070
   179
1070
     0
1070
   144
1040
0.029088820866572
1070
   173
1070
     1
1070
    41
1040
3.0
1070
   140
1040
2.799999952316284
1070
   344
1005
1B5
1070
   343
1005
1B5
1002
}
  0
DIMENSION
  5
22E
330
1F
100
AcDbEntity
  8
VIEW0001
 62
     7
100
AcDbDimension
  2
*D10
 10
-60.47500932574177
 20
87.664517704461
 30
0.0
 11
-60.47500932574178
 21
127.4655391568392
 31
0.0
 70
   160
  1
\U+2205<>
 71
     5
 42
79.60204290475639
  3
ISO-25
100
AcDbAlignedDimension
 13
-83.72645174025502
 23
167.2665606092174
 33
0.0
 14
-83.72645174025502
 24
87.664517704461
 34
0.0
 50
90.00000000000003
100
AcDbRotatedDimension
1001
ACAD
1000
DSTYLE
1002
{
1070
   278
1070
    46
1070
   147
1040
0.699999988079071
1070
    77
1070
     1
1070
    74
1070
     0
1070
    73
1070
     0
1070
    42
1040
2.54
1070
    44
1040
1.166666666666671
1070
    76
1070
     0
1070
    75
1070
     0
1070
   279
1070
     0
1070
   271
1070
     2
1070
   144
1040
1.0
1070
   173
1070
     1
1070
    41
1040
3.0
1070
   140
1040
2.799999952316284
1070
   344
1005
1B5
1070
   343
1005
1B5
1002
}
  0
DIMENSION
  5
23B
330
1F
100
AcDbEntity
  8
VIEW0001
 62
     7
100
AcDbDimension
  2
*D11
 10
-44.63449792071114
 20
82.96553915683923
 30
0.0
 11
-44.63449792071115
 21
127.4655391568392
 31
0.0
 70
   160
  1
(\U+2205<>)
 71
     5
 42
89.0
  3
ISO-25
100
AcDbAlignedDimension
 13
-89.58655207498377
 23
171.9655391568392
 33
0.0
 14
-89.58655207498377
 24
82.9655391568392
 34
0.0
 50
90.00000000000003
100
AcDbRotatedDimension
1001
ACAD
1000
DSTYLE
1002
{
1070
   278
1070
    46
1070
   147
1040
0.699999988079071
1070
    77
1070
     1
1070
    74
1070
     0
1070
    73
1070
     0
1070
    42
1040
2.54
1070
    44
1040
1.166666666666664
1070
    76
1070
     0
1070
    75
1070
     0
1070
   279
1070
     0
1070
   271
1070
     0
1070
   144
1040
1.0
1070
   173
1070
     1
1070
    41
1040
3.0
1070
   140
1040
2.799999952316284
1070
   344
1005
1B5
1070
   343
1005
1B5
1002
}
  0
DIMENSION
  5
248
330
1F
100
AcDbEntity
  8
VIEW0001
 62
     7
100
AcDbDimension
  2
*D12
 10
-92.72645174025503
 20
185.6941725748966
 30
0.0
 11
-110.689897221994
 21
185.6941725748966
 31
0.0
 70
   160
 71
     5
 42
8.499999999999991
  3
ISO-25
100
AcDbAlignedDimension
 13
-101.226451740255
 23
142.4655391568392
 33
0.0
 14
-92.72645174025503
 24
175.7092684077177
 34
0.0
 50
180.0
100
AcDbRotatedDimension
1001
ACAD
1000
DSTYLE
1002
{
1070
   278
1070
    46
1070
   147
1040
0.699999988079071
1070
    77
1070
     1
1070
    74
1070
     0
1070
    73
1070
     0
1070
    42
1040
2.54
1070
    44
1040
1.166666666666686
1070
    76
1070
     0
1070
    75
1070
     0
1070
   279
1070
     0
1070
   271
1070
     1
1070
   144
1040
1.0
1070
   173
1070
     1
1070
    41
1040
3.0
1070
   140
1040
2.799999952316284
1070
   344
1005
1B5
1070
   343
1005
1B5
1002
}
  0
DIMENSION
  5
25E
330
1F
100
AcDbEntity
  8
VIEW0001
 62
     7
100
AcDbDimension
  2
*D13
 10
-92.72645174025503
 20
192.9029964538365
 30
0.0
 11
-114.976451740255
 21
192.9029964538365
 31
0.0
 70
   160
 71
     5
 42
44.49999999999996
  3
ISO-25
100
AcDbAlignedDimension
 13
-137.226451740255
 23
72.46553915683918
 33
0.0
 14
-92.72645174025503
 24
175.7092684077177
 34
0.0
 50
180.0
100
AcDbRotatedDimension
1001
ACAD
1000
DSTYLE
1002
{
1070
   278
1070
    46
1070
   147
1040
0.699999988079071
1070
    77
1070
     1
1070
    74
1070
     0
1070
    73
1070
     0
1070
    42
1040
2.54
1070
    44
1040
1.166666666666657
1070
    76
1070
     0
1070
    75
1070
     0
1070
   279
1070
     0
1070
   271
1070
     1
1070
   144
1040
1.0
1070
   173
1070
     1
1070
    41
1040
3.0
1070
   140
1040
2.799999952316284
1070
   344
1005
1B5
1070
   343
1005
1B5
1002
}
  0
DIMENSION
  5
26B
330
1F
100
AcDbEntity
  8
VIEW0001
 62
     7
100
AcDbDimension
  2
*D14
 10
-137.226451740255
 20
200.5119157006822
 30
0.0
 11
-106.976451740255
 21
200.5119157006822
 31
0.0
 70
   160
 71
     5
 42
60.49999999999997
  3
ISO-25
100
AcDbAlignedDimension
 13
-76.72645174025503
 23
138.4351942714421
 33
0.0
 14
-137.226451740255
 24
72.46553915683918
 34
0.0
100
AcDbRotatedDimension
1001
ACAD
1000
DSTYLE
1002
{
1070
   278
1070
    46
1070
   147
1040
0.699999988079071
1070
    77
1070
     1
1070
    74
1070
     0
1070
    73
1070
     0
1070
    42
1040
2.54
1070
    44
1040
1.166666666666686
1070
    76
1070
     1
1070
    75
1070
     0
1070
   279
1070
     0
1070
   271
1070
     1
1070
   144
1040
1.0
1070
   173
1070
     1
1070
    41
1040
3.0
1070
   140
1040
2.799999952316284
1070
   344
1005
1B5
1070
   343
1005
1B5
1002
}
  0
DIMENSION
  5
277
330
1F
100
AcDbEntity
  8
VIEW0001
 62
     7
100
AcDbDimension
  2
*D15
 10
-76.72645174025502
 20
200.5119157006822
 30
0.0
 11
-106.976451740255
 21
200.5119157006822
 31
0.0
 70
   160
 71
     5
 42
60.49999999999997
  3
ISO-25
100
AcDbAlignedDimension
 13
-137.226451740255
 23
72.46553915683918
 33
0.0
 14
-76.72645174025503
 24
138.4351942714421
 34
0.0
 50
180.0
100
AcDbRotatedDimension
1001
ACAD
1000
DSTYLE
1002
{
1070
   278
1070
    46
1070
   147
1040
0.699999988079071
1070
    77
1070
     1
1070
    74
1070
     0
1070
    73
1070
     0
1070
    42
1040
2.54
1070
    44
1040
1.166666666666686
1070
    76
1070
     1
1070
    75
1070
     0
1070
   279
1070
     0
1070
   271
1070
     1
1070
   144
1040
1.0
1070
   173
1070
     1
1070
    41
1040
3.0
1070
   140
1040
2.799999952316284
1070
   344
1005
1B5
1070
   343
1005
1B5
1002
}
  0
ENDSEC
  0
SECTION
  2
OBJECTS
  0
DICTIONARY
  5
C
330
0
100
AcDbDictionary
281
     1
  3
ACAD_GROUP
350
D
  3
ACAD_LAYOUT
350
1A
  3
ACAD_MLEADERSTYLE
350
285
  3
ACAD_MLINESTYLE
350
17
  3
ACAD_PLOTSETTINGS
350
19
  3
ACAD_PLOTSTYLENAME
350
E
  3
ACAD_SCALELIST
350
193
  3
ACAD_VISUALSTYLE
350
2A
  3
AcDbVariableDictionary
350
283
  0
DICTIONARY
  5
D
102
{ACAD_REACTORS
330
C
102
}
330
C
100
AcDbDictionary
281
     1
  0
DICTIONARY
  5
1A
102
{ACAD_REACTORS
330
C
102
}
330
C
100
AcDbDictionary
281
     1
  3
Layout1
350
1E
  3
Layout2
350
26
  3
Model
350
22
  0
DICTIONARY
  5
285
102
{ACAD_REACTORS
330
C
102
}
330
C
100
AcDbDictionary
281
     1
  0
DICTIONARY
  5
17
102
{ACAD_REACTORS
330
C
102
}
330
C
100
AcDbDictionary
281
     1
  3
Standard
350
18
  0
DICTIONARY
  5
19
102
{ACAD_REACTORS
330
C
102
}
330
C
100
AcDbDictionary
281
     1
  0
ACDBDICTIONARYWDFLT
  5
E
102
{ACAD_REACTORS
330
C
102
}
330
C
100
AcDbDictionary
281
     1
  3
Normal
350
F
100
AcDbDictionaryWithDefault
340
F
  0
DICTIONARY
  5
193
102
{ACAD_REACTORS
330
C
102
}
330
C
100
AcDbDictionary
281
     1
  3
A0
350
194
  3
A1
350
195
  3
A2
350
196
  3
A3
350
197
  3
A4
350
198
  3
A5
350
199
  3
A6
350
19A
  3
A7
350
19B
  3
A8
350
19C
  3
A9
350
19D
  3
B0
350
19E
  3
B1
350
19F
  3
B2
350
1A0
  3
B3
350
1A1
  3
B4
350
1A2
  3
B5
350
1A3
  3
B6
350
1A4
  3
B7
350
1A5
  3
B8
350
1A6
  3
B9
350
1A7
  3
C0
350
1A8
  3
C1
350
1A9
  3
C2
350
1AA
  3
C3
350
1AB
  3
C4
350
1AC
  3
C5
350
1AD
  3
C6
350
1AE
  3
C7
350
1AF
  3
C8
350
1B0
  3
C9
350
1B1
  3
D0
350
1B2
  3
D1
350
1B3
  3
D2
350
1B4
  0
DICTIONARY
  5
2A
102
{ACAD_REACTORS
330
C
102
}
330
C
100
AcDbDictionary
281
     1
  3
2dWireframe
350
2F
  3
3D Hidden
350
31
  3
3dWireframe
350
30
  3
Basic
350
32
  3
Brighten
350
36
  3
ColorChange
350
3A
  3
Conceptual
350
34
  3
Dim
350
35
  3
Facepattern
350
39
  3
Flat
350
2B
  3
FlatWithEdges
350
2C
  3
Gouraud
350
2D
  3
GouraudWithEdges
350
2E
  3
Linepattern
350
38
  3
Realistic
350
33
  3
Thicken
350
37
  0
DICTIONARY
  5
283
102
{ACAD_REACTORS
330
C
102
}
330
C
100
AcDbDictionary
281
     1
  3
CANNOSCALE
350
288
  3
PSOLHEIGHT
350
287
  3
PSOLWIDTH
350
286
  0
LAYOUT
  5
1E
102
{ACAD_REACTORS
330
1A
102
}
330
1A
100
AcDbPlotSettings
  1

  2
none_device
  4

  6

 40
0.0
 41
0.0
 42
0.0
 43
0.0
 44
0.0
 45
0.0
 46
0.0
 47
0.0
 48
0.0
 49
0.0
140
0.0
141
0.0
142
1.0
143
1.0
 70
   688
 72
     0
 73
     0
 74
     5
  7

 75
    16
147
1.0
148
0.0
149
0.0
100
AcDbLayout
  1
Layout1
 70
     1
 71
     1
 10
-246.5836601228726
 20
-33.02417669625642
 11
279.5775034930086
 21
204.5719156315408
 12
0.0
 22
0.0
 32
0.0
 14
1.000000000000000E+20
 24
1.000000000000000E+20
 34
1.000000000000000E+20
 15
-1.000000000000000E+20
 25
-1.000000000000000E+20
 35
-1.000000000000000E+20
146
0.0
 13
0.0
 23
0.0
 33
0.0
 16
1.0
 26
0.0
 36
0.0
 17
0.0
 27
1.0
 37
0.0
 76
     0
330
1B
  0
LAYOUT
  5
26
102
{ACAD_REACTORS
330
1A
102
}
330
1A
100
AcDbPlotSettings
  1

  2
none_device
  4

  6

 40
0.0
 41
0.0
 42
0.0
 43
0.0
 44
0.0
 45
0.0
 46
0.0
 47
0.0
 48
0.0
 49
0.0
140
0.0
141
0.0
142
1.0
143
1.0
 70
   688
 72
     0
 73
     0
 74
     5
  7

 75
    16
147
1.0
148
0.0
149
0.0
100
AcDbLayout
  1
Layout2
 70
     1
 71
     2
 10
0.0
 20
0.0
 11
0.0
 21
0.0
 12
0.0
 22
0.0
 32
0.0
 14
0.0
 24
0.0
 34
0.0
 15
0.0
 25
0.0
 35
0.0
146
0.0
 13
0.0
 23
0.0
 33
0.0
 16
1.0
 26
0.0
 36
0.0
 17
0.0
 27
1.0
 37
0.0
 76
     0
330
23
  0
LAYOUT
  5
22
102
{ACAD_REACTORS
330
1A
102
}
330
1A
100
AcDbPlotSettings
  1

  2
none_device
  4

  6

 40
0.0
 41
0.0
 42
0.0
 43
0.0
 44
0.0
 45
0.0
 46
0.0
 47
0.0
 48
0.0
 49
0.0
140
0.0
141
0.0
142
1.0
143
1.0
 70
  1712
 72
     0
 73
     0
 74
     0
  7

 75
     0
147
1.0
148
0.0
149
0.0
100
AcDbLayout
  1
Model
 70
     1
 71
     0
 10
-246.5836601228726
 20
-33.02417669625642
 11
279.5775034930086
 21
204.5719156315408
 12
0.0
 22
0.0
 32
0.0
 14
-246.5836601228726
 24
-33.02417669625642
 34
0.0
 15
279.5775034930086
 25
204.5719156315408
 35
0.0
146
0.0
 13
0.0
 23
0.0
 33
0.0
 16
1.0
 26
0.0
 36
0.0
 17
0.0
 27
1.0
 37
0.0
 76
     0
330
1F
331
29
  0
MLINESTYLE
  5
18
102
{ACAD_REACTORS
330
17
102
}
330
17
100
AcDbMlineStyle
  2
Standard
 70
     0
  3

 62
   256
 51
90.0
 52
90.0
 71
     2
 49
0.5
 62
   256
  6
BYLAYER
 49
-0.5
 62
   256
  6
BYLAYER
  0
ACDBPLACEHOLDER
  5
F
102
{ACAD_REACTORS
330
E
102
}
330
E
  0
SCALE
  5
194
102
{ACAD_REACTORS
330
193
102
}
330
193
100
AcDbScale
 70
     0
300
1:1
140
1.0
141
1.0
290
     1
  0
SCALE
  5
195
102
{ACAD_REACTORS
330
193
102
}
330
193
100
AcDbScale
 70
     0
300
1:2
140
1.0
141
2.0
290
     0
  0
SCALE
  5
196
102
{ACAD_REACTORS
330
193
102
}
330
193
100
AcDbScale
 70
     0
300
1:4
140
1.0
141
4.0
290
     0
  0
SCALE
  5
197
102
{ACAD_REACTORS
330
193
102
}
330
193
100
AcDbScale
 70
     0
300
1:5
140
1.0
141
5.0
290
     0
  0
SCALE
  5
198
102
{ACAD_REACTORS
330
193
102
}
330
193
100
AcDbScale
 70
     0
300
1:8
140
1.0
141
8.0
290
     0
  0
SCALE
  5
199
102
{ACAD_REACTORS
330
193
102
}
330
193
100
AcDbScale
 70
     0
300
1:10
140
1.0
141
10.0
290
     0
  0
SCALE
  5
19A
102
{ACAD_REACTORS
330
193
102
}
330
193
100
AcDbScale
 70
     0
300
1:16
140
1.0
141
16.0
290
     0
  0
SCALE
  5
19B
102
{ACAD_REACTORS
330
193
102
}
330
193
100
AcDbScale
 70
     0
300
1:20
140
1.0
141
20.0
290
     0
  0
SCALE
  5
19C
102
{ACAD_REACTORS
330
193
102
}
330
193
100
AcDbScale
 70
     0
300
1:30
140
1.0
141
30.0
290
     0
  0
SCALE
  5
19D
102
{ACAD_REACTORS
330
193
102
}
330
193
100
AcDbScale
 70
     0
300
1:40
140
1.0
141
40.0
290
     0
  0
SCALE
  5
19E
102
{ACAD_REACTORS
330
193
102
}
330
193
100
AcDbScale
 70
     0
300
1:50
140
1.0
141
50.0
290
     0
  0
SCALE
  5
19F
102
{ACAD_REACTORS
330
193
102
}
330
193
100
AcDbScale
 70
     0
300
1:100
140
1.0
141
100.0
290
     0
  0
SCALE
  5
1A0
102
{ACAD_REACTORS
330
193
102
}
330
193
100
AcDbScale
 70
     0
300
2:1
140
2.0
141
1.0
290
     0
  0
SCALE
  5
1A1
102
{ACAD_REACTORS
330
193
102
}
330
193
100
AcDbScale
 70
     0
300
4:1
140
4.0
141
1.0
290
     0
  0
SCALE
  5
1A2
102
{ACAD_REACTORS
330
193
102
}
330
193
100
AcDbScale
 70
     0
300
8:1
140
8.0
141
1.0
290
     0
  0
SCALE
  5
1A3
102
{ACAD_REACTORS
330
193
102
}
330
193
100
AcDbScale
 70
     0
300
10:1
140
10.0
141
1.0
290
     0
  0
SCALE
  5
1A4
102
{ACAD_REACTORS
330
193
102
}
330
193
100
AcDbScale
 70
     0
300
100:1
140
100.0
141
1.0
290
     0
  0
SCALE
  5
1A5
102
{ACAD_REACTORS
330
193
102
}
330
193
100
AcDbScale
 70
     0
300
1/128" = 1'-0"
140
0.0078125
141
12.0
290
     0
  0
SCALE
  5
1A6
102
{ACAD_REACTORS
330
193
102
}
330
193
100
AcDbScale
 70
     0
300
1/64" = 1'-0"
140
0.015625
141
12.0
290
     0
  0
SCALE
  5
1A7
102
{ACAD_REACTORS
330
193
102
}
330
193
100
AcDbScale
 70
     0
300
1/32" = 1'-0"
140
0.03125
141
12.0
290
     0
  0
SCALE
  5
1A8
102
{ACAD_REACTORS
330
193
102
}
330
193
100
AcDbScale
 70
     0
300
1/16" = 1'-0"
140
0.0625
141
12.0
290
     0
  0
SCALE
  5
1A9
102
{ACAD_REACTORS
330
193
102
}
330
193
100
AcDbScale
 70
     0
300
3/32" = 1'-0"
140
0.09375
141
12.0
290
     0
  0
SCALE
  5
1AA
102
{ACAD_REACTORS
330
193
102
}
330
193
100
AcDbScale
 70
     0
300
1/8" = 1'-0"
140
0.125
141
12.0
290
     0
  0
SCALE
  5
1AB
102
{ACAD_REACTORS
330
193
102
}
330
193
100
AcDbScale
 70
     0
300
3/16" = 1'-0"
140
0.1875
141
12.0
290
     0
  0
SCALE
  5
1AC
102
{ACAD_REACTORS
330
193
102
}
330
193
100
AcDbScale
 70
     0
300
1/4" = 1'-0"
140
0.25
141
12.0
290
     0
  0
SCALE
  5
1AD
102
{ACAD_REACTORS
330
193
102
}
330
193
100
AcDbScale
 70
     0
300
3/8" = 1'-0"
140
0.375
141
12.0
290
     0
  0
SCALE
  5
1AE
102
{ACAD_REACTORS
330
193
102
}
330
193
100
AcDbScale
 70
     0
300
1/2" = 1'-0"
140
0.5
141
12.0
290
     0
  0
SCALE
  5
1AF
102
{ACAD_REACTORS
330
193
102
}
330
193
100
AcDbScale
 70
     0
300
3/4" = 1'-0"
140
0.75
141
12.0
290
     0
  0
SCALE
  5
1B0
102
{ACAD_REACTORS
330
193
102
}
330
193
100
AcDbScale
 70
     0
300
1" = 1'-0"
140
1.0
141
12.0
290
     0
  0
SCALE
  5
1B1
102
{ACAD_REACTORS
330
193
102
}
330
193
100
AcDbScale
 70
     0
300
1-1/2" = 1'-0"
140
1.5
141
12.0
290
     0
  0
SCALE
  5
1B2
102
{ACAD_REACTORS
330
193
102
}
330
193
100
AcDbScale
 70
     0
300
3" = 1'-0"
140
3.0
141
12.0
290
     0
  0
SCALE
  5
1B3
102
{ACAD_REACTORS
330
193
102
}
330
193
100
AcDbScale
 70
     0
300
6" = 1'-0"
140
6.0
141
12.0
290
     0
  0
SCALE
  5
1B4
102
{ACAD_REACTORS
330
193
102
}
330
193
100
AcDbScale
 70
     0
300
1'-0" = 1'-0"
140
12.0
141
12.0
290
     0
  0
VISUALSTYLE
  5
2F
102
{ACAD_REACTORS
330
2A
102
}
330
2A
100
AcDbVisualStyle
  2
2dWireframe
 70
     4
 71
     0
 72
     2
 73
     0
 90
        0
 40
-0.6
 41
-30.0
 62
     5
 63
     7
 74
     1
 91
        4
 64
     7
 65
   257
 75
     1
175
     1
 42
1.0
 92
        0
 66
   257
 43
1.0
 76
     1
 77
     6
 78
     2
 67
     7
 79
     5
170
     0
171
     0
290
     0
174
     0
 93
        1
 44
0.0
173
     0
291
     0
 45
0.0
1001
ACAD
1000
AcDbSavedByObjectVersion
1070
     0
  0
VISUALSTYLE
  5
31
102
{ACAD_REACTORS
330
2A
102
}
330
2A
100
AcDbVisualStyle
  2
3D Hidden
 70
     6
 71
     1
 72
     2
 73
     2
 90
        0
 40
-0.6
 41
-30.0
 62
     5
 63
     7
 74
     2
 91
        2
 64
     7
 65
   257
 75
     2
175
     1
 42
40.0
 92
        0
 66
   257
 43
1.0
 76
     1
 77
     6
 78
     2
 67
     7
 79
     3
170
     0
171
     0
290
     0
174
     0
 93
        1
 44
0.0
173
     0
291
     0
 45
0.0
1001
ACAD
1000
AcDbSavedByObjectVersion
1070
     0
  0
VISUALSTYLE
  5
30
102
{ACAD_REACTORS
330
2A
102
}
330
2A
100
AcDbVisualStyle
  2
3dWireframe
 70
     5
 71
     0
 72
     2
 73
     0
 90
        0
 40
-0.6
 41
-30.0
 62
     5
 63
     7
 74
     1
 91
        4
 64
     7
 65
   257
 75
     1
175
     1
 42
1.0
 92
        0
 66
   257
 43
1.0
 76
     1
 77
     6
 78
     2
 67
     7
 79
     5
170
     0
171
     0
290
     0
174
     0
 93
        1
 44
0.0
173
     0
291
     0
 45
0.0
1001
ACAD
1000
AcDbSavedByObjectVersion
1070
     0
  0
VISUALSTYLE
  5
32
102
{ACAD_REACTORS
330
2A
102
}
330
2A
100
AcDbVisualStyle
  2
Basic
 70
     7
 71
     1
 72
     0
 73
     1
 90
        0
 40
-0.6
 41
-30.0
 62
     5
 63
     7
 74
     0
 91
        4
 64
     7
 65
   257
 75
     1
175
     1
 42
1.0
 92
        8
 66
     7
 43
1.0
 76
     1
 77
     6
 78
     2
 67
     7
 79
     5
170
     0
171
     0
290
     0
174
     0
 93
        1
 44
0.0
173
     0
291
     1
 45
0.0
1001
ACAD
1000
AcDbSavedByObjectVersion
1070
     0
  0
VISUALSTYLE
  5
36
102
{ACAD_REACTORS
330
2A
102
}
330
2A
100
AcDbVisualStyle
  2
Brighten
 70
    12
 71
     2
 72
     2
 73
     0
 90
        0
 40
-0.6
 41
-30.0
 62
     5
 63
     7
 74
     1
 91
        4
 64
     7
 65
   257
 75
     1
175
     1
 42
1.0
 92
        8
 66
     7
 43
1.0
 76
     1
 77
     6
 78
     2
 67
     7
 79
     5
170
     0
171
     0
290
     0
174
     0
 93
        1
 44
50.0
173
     0
291
     1
 45
0.0
1001
ACAD
1000
AcDbSavedByObjectVersion
1070
     0
  0
VISUALSTYLE
  5
3A
102
{ACAD_REACTORS
330
2A
102
}
330
2A
100
AcDbVisualStyle
  2
ColorChange
 70
    16
 71
     2
 72
     2
 73
     3
 90
        0
 40
-0.6
 41
-30.0
 62
     5
 63
     8
 74
     1
 91
        4
 64
     7
 65
   257
 75
     1
175
     1
 42
1.0
 92
        8
 66
     8
 43
1.0
 76
     1
 77
     6
 78
     2
 67
     7
 79
     5
170
     0
171
     0
290
     0
174
     0
 93
        1
 44
0.0
173
     0
291
     1
 45
0.0
1001
ACAD
1000
AcDbSavedByObjectVersion
1070
     0
  0
VISUALSTYLE
  5
34
102
{ACAD_REACTORS
330
2A
102
}
330
2A
100
AcDbVisualStyle
  2
Conceptual
 70
     9
 71
     3
 72
     2
 73
     0
 90
        0
 40
-0.6
 41
-30.0
 62
     5
 63
     7
 74
     2
 91
        2
 64
     7
 65
   257
 75
     1
175
     1
 42
40.0
 92
        8
 66
     7
 43
1.0
 76
     1
 77
     6
 78
     2
 67
     7
 79
     3
170
     0
171
     0
290
     0
174
     0
 93
        1
 44
0.0
173
     0
291
     0
 45
0.0
1001
ACAD
1000
AcDbSavedByObjectVersion
1070
     0
  0
VISUALSTYLE
  5
35
102
{ACAD_REACTORS
330
2A
102
}
330
2A
100
AcDbVisualStyle
  2
Dim
 70
    11
 71
     2
 72
     2
 73
     0
 90
        0
 40
-0.6
 41
-30.0
 62
     5
 63
     7
 74
     1
 91
        4
 64
     7
 65
   257
 75
     1
175
     1
 42
1.0
 92
        8
 66
     7
 43
1.0
 76
     1
 77
     6
 78
     2
 67
     7
 79
     5
170
     0
171
     0
290
     0
174
     0
 93
        1
 44
-50.0
173
     0
291
     1
 45
0.0
1001
ACAD
1000
AcDbSavedByObjectVersion
1070
     0
  0
VISUALSTYLE
  5
39
102
{ACAD_REACTORS
330
2A
102
}
330
2A
100
AcDbVisualStyle
  2
Facepattern
 70
    15
 71
     2
 72
     2
 73
     0
 90
        0
 40
-0.6
 41
-30.0
 62
     5
 63
     7
 74
     1
 91
        4
 64
     7
 65
   257
 75
     1
175
     1
 42
1.0
 92
        8
 66
     7
 43
1.0
 76
     1
 77
     6
 78
     2
 67
     7
 79
     5
170
     0
171
     0
290
     0
174
     0
 93
        1
 44
0.0
173
     0
291
     1
 45
0.0
1001
ACAD
1000
AcDbSavedByObjectVersion
1070
     0
  0
VISUALSTYLE
  5
2B
102
{ACAD_REACTORS
330
2A
102
}
330
2A
100
AcDbVisualStyle
  2
Flat
 70
     0
 71
     2
 72
     1
 73
     1
 90
        2
 40
-0.6
 41
30.0
 62
     5
 63
     7
 74
     0
 91
        4
 64
     7
 65
   257
 75
     1
175
     1
 42
1.0
 92
        8
 66
     7
 43
1.0
 76
     1
 77
     6
 78
     2
 67
     7
 79
     5
170
     0
171
     0
290
     0
174
     0
 93
       13
 44
0.0
173
     0
291
     1
 45
0.0
1001
ACAD
1000
AcDbSavedByObjectVersion
1070
     0
  0
VISUALSTYLE
  5
2C
102
{ACAD_REACTORS
330
2A
102
}
330
2A
100
AcDbVisualStyle
  2
FlatWithEdges
 70
     1
 71
     2
 72
     1
 73
     1
 90
        2
 40
-0.6
 41
30.0
 62
     5
 63
     7
 74
     1
 91
        4
 64
     7
 65
   257
 75
     1
175
     1
 42
1.0
 92
        0
 66
   257
 43
1.0
 76
     1
 77
     6
 78
     2
 67
     7
 79
     5
170
     0
171
     0
290
     0
174
     0
 93
       13
 44
0.0
173
     0
291
     1
 45
0.0
1001
ACAD
1000
AcDbSavedByObjectVersion
1070
     0
  0
VISUALSTYLE
  5
2D
102
{ACAD_REACTORS
330
2A
102
}
330
2A
100
AcDbVisualStyle
  2
Gouraud
 70
     2
 71
     2
 72
     2
 73
     1
 90
        2
 40
-0.6
 41
30.0
 62
     5
 63
     7
 74
     0
 91
        4
 64
     7
 65
   257
 75
     1
175
     1
 42
1.0
 92
        0
 66
     7
 43
1.0
 76
     1
 77
     6
 78
     2
 67
     7
 79
     5
170
     0
171
     0
290
     0
174
     0
 93
       13
 44
0.0
173
     0
291
     1
 45
0.0
1001
ACAD
1000
AcDbSavedByObjectVersion
1070
     0
  0
VISUALSTYLE
  5
2E
102
{ACAD_REACTORS
330
2A
102
}
330
2A
100
AcDbVisualStyle
  2
GouraudWithEdges
 70
     3
 71
     2
 72
     2
 73
     1
 90
        2
 40
-0.6
 41
30.0
 62
     5
 63
     7
 74
     1
 91
        4
 64
     7
 65
   257
 75
     1
175
     1
 42
1.0
 92
        0
 66
   257
 43
1.0
 76
     1
 77
     6
 78
     2
 67
     7
 79
     5
170
     0
171
     0
290
     0
174
     0
 93
       13
 44
0.0
173
     0
291
     1
 45
0.0
1001
ACAD
1000
AcDbSavedByObjectVersion
1070
     0
  0
VISUALSTYLE
  5
38
102
{ACAD_REACTORS
330
2A
102
}
330
2A
100
AcDbVisualStyle
  2
Linepattern
 70
    14
 71
     2
 72
     2
 73
     0
 90
        0
 40
-0.6
 41
-30.0
 62
     5
 63
     7
 74
     1
 91
        4
 64
     7
 65
   257
 75
     7
175
     7
 42
1.0
 92
        8
 66
     7
 43
1.0
 76
     1
 77
     6
 78
     2
 67
     7
 79
     5
170
     0
171
     0
290
     0
174
     0
 93
        1
 44
0.0
173
     0
291
     1
 45
0.0
1001
ACAD
1000
AcDbSavedByObjectVersion
1070
     0
  0
VISUALSTYLE
  5
33
102
{ACAD_REACTORS
330
2A
102
}
330
2A
100
AcDbVisualStyle
  2
Realistic
 70
     8
 71
     2
 72
     2
 73
     0
 90
        0
 40
-0.6
 41
-30.0
 62
     5
 63
     7
 74
     1
 91
        0
 64
     7
 65
   257
 75
     1
175
     1
 42
1.0
 92
        8
 66
     8
 43
1.0
 76
     1
 77
     6
 78
     2
 67
     7
 79
     5
170
     0
171
     0
290
     0
174
     0
 93
       13
 44
0.0
173
     0
291
     0
 45
0.0
1001
ACAD
1000
AcDbSavedByObjectVersion
1070
     0
  0
VISUALSTYLE
  5
37
102
{ACAD_REACTORS
330
2A
102
}
330
2A
100
AcDbVisualStyle
  2
Thicken
 70
    13
 71
     2
 72
     2
 73
     0
 90
        0
 40
-0.6
 41
-30.0
 62
     5
 63
     7
 74
     1
 91
        4
 64
     7
 65
   257
 75
     1
175
     1
 42
1.0
 92
       12
 66
     7
 43
1.0
 76
     1
 77
     6
 78
     2
 67
     7
 79
     5
170
     0
171
     0
290
     0
174
     0
 93
        1
 44
0.0
173
     0
291
     1
 45
0.0
1001
ACAD
1000
AcDbSavedByObjectVersion
1070
     0
  0
DICTIONARYVAR
  5
288
102
{ACAD_REACTORS
330
283
102
}
330
283
100
DictionaryVariables
280
     0
  1
1:1
  0
DICTIONARYVAR
  5
287
102
{ACAD_REACTORS
330
283
102
}
330
283
100
DictionaryVariables
280
     0
  1
80.000000
  0
DICTIONARYVAR
  5
286
102
{ACAD_REACTORS
330
283
102
}
330
283
100
DictionaryVariables
280
     0
  1
5.000000
  0
ENDSEC
  0
EOF
