  0
SECTION
  2
HEADER
  9
$ACADVER
  1
AC1015
  9
$ACADMAINTVER
 70
     6
  9
$DWGCODEPAGE
  3
ANSI_932
  9
$INSBASE
 10
0.0
 20
0.0
 30
0.0
  9
$EXTMIN
 10
-122.9961353236531
 20
-34.35615547047601
 30
0.0
  9
$EXTMAX
 10
78.1197205514223
 20
170.5892686921342
 30
0.0
  9
$LIMMIN
 10
-122.9961353236531
 20
-34.35615547047601
  9
$LIMMAX
 10
78.1197205514223
 20
170.5892686921342
  9
$ORTHOMODE
 70
     0
  9
$REGENMODE
 70
     1
  9
$FILLMODE
 70
     1
  9
$QTEXTMODE
 70
     0
  9
$MIRRTEXT
 70
     1
  9
$LTSCALE
 40
1.0
  9
$ATTMODE
 70
     1
  9
$TEXTSIZE
 40
2.5
  9
$TRACEWID
 40
1.0
  9
$TEXTSTYLE
  7
Standard
  9
$CLAYER
  8
0
  9
$CELTYPE
  6
ByLayer
  9
$CECOLOR
 62
   256
  9
$CELTSCALE
 40
1.0
  9
$DISPSILH
 70
     0
  9
$DIMSCALE
 40
1.0
  9
$DIMASZ
 40
2.5
  9
$DIMEXO
 40
0.625
  9
$DIMDLI
 40
3.75
  9
$DIMRND
 40
0.0
  9
$DIMDLE
 40
0.0
  9
$DIMEXE
 40
1.25
  9
$DIMTP
 40
0.0
  9
$DIMTM
 40
0.0
  9
$DIMTXT
 40
2.5
  9
$DIMCEN
 40
2.5
  9
$DIMTSZ
 40
0.0
  9
$DIMTOL
 70
     0
  9
$DIMLIM
 70
     0
  9
$DIMTIH
 70
     0
  9
$DIMTOH
 70
     0
  9
$DIMSE1
 70
     0
  9
$DIMSE2
 70
     0
  9
$DIMTAD
 70
     1
  9
$DIMZIN
 70
     8
  9
$DIMBLK
  1

  9
$DIMASO
 70
     1
  9
$DIMSHO
 70
     1
  9
$DIMPOST
  1

  9
$DIMAPOST
  1

  9
$DIMALT
 70
     0
  9
$DIMALTD
 70
     3
  9
$DIMALTF
 40
0.03937007874016
  9
$DIMLFAC
 40
1.0
  9
$DIMTOFL
 70
     1
  9
$DIMTVP
 40
0.0
  9
$DIMTIX
 70
     0
  9
$DIMSOXD
 70
     0
  9
$DIMSAH
 70
     0
  9
$DIMBLK1
  1

  9
$DIMBLK2
  1

  9
$DIMSTYLE
  2
ISO-25
  9
$DIMCLRD
 70
     0
  9
$DIMCLRE
 70
     0
  9
$DIMCLRT
 70
     0
  9
$DIMTFAC
 40
1.0
  9
$DIMGAP
 40
0.625
  9
$DIMJUST
 70
     0
  9
$DIMSD1
 70
     0
  9
$DIMSD2
 70
     0
  9
$DIMTOLJ
 70
     0
  9
$DIMTZIN
 70
     8
  9
$DIMALTZ
 70
     0
  9
$DIMALTTZ
 70
     0
  9
$DIMUPT
 70
     0
  9
$DIMDEC
 70
     2
  9
$DIMTDEC
 70
     2
  9
$DIMALTU
 70
     2
  9
$DIMALTTD
 70
     3
  9
$DIMTXSTY
  7
Standard
  9
$DIMAUNIT
 70
     0
  9
$DIMADEC
 70
     0
  9
$DIMALTRND
 40
0.0
  9
$DIMAZIN
 70
     0
  9
$DIMDSEP
 70
    44
  9
$DIMATFIT
 70
     3
  9
$DIMFRAC
 70
     0
  9
$DIMLDRBLK
  1

  9
$DIMLUNIT
 70
     2
  9
$DIMLWD
 70
    -2
  9
$DIMLWE
 70
    -2
  9
$DIMTMOVE
 70
     0
  9
$LUNITS
 70
     2
  9
$LUPREC
 70
     4
  9
$SKETCHINC
 40
1.0
  9
$FILLETRAD
 40
10.0
  9
$AUNITS
 70
     0
  9
$AUPREC
 70
     0
  9
$MENU
  1
.
  9
$ELEVATION
 40
0.0
  9
$PELEVATION
 40
0.0
  9
$THICKNESS
 40
0.0
  9
$LIMCHECK
 70
     0
  9
$CHAMFERA
 40
10.0
  9
$CHAMFERB
 40
10.0
  9
$CHAMFERC
 40
20.0
  9
$CHAMFERD
 40
0.0
  9
$SKPOLY
 70
     0
  9
$TDCREATE
 40
2456484.278929572
  9
$TDUCREATE
 40
2456483.903929572
  9
$TDUPDATE
 40
2456484.278929583
  9
$TDUUPDATE
 40
2456483.903929583
  9
$TDINDWG
 40
0.0000000116
  9
$TDUSRTIMER
 40
0.0000000116
  9
$USRTIMER
 70
     1
  9
$ANGBASE
 50
0.0
  9
$ANGDIR
 70
     0
  9
$PDMODE
 70
     0
  9
$PDSIZE
 40
0.0
  9
$PLINEWID
 40
0.0
  9
$SPLFRAME
 70
     0
  9
$SPLINETYPE
 70
     6
  9
$SPLINESEGS
 70
     8
  9
$HANDSEED
  5
350
  9
$SURFTAB1
 70
     6
  9
$SURFTAB2
 70
     6
  9
$SURFTYPE
 70
     6
  9
$SURFU
 70
     6
  9
$SURFV
 70
     6
  9
$UCSBASE
  2

  9
$UCSNAME
  2

  9
$UCSORG
 10
0.0
 20
0.0
 30
0.0
  9
$UCSXDIR
 10
1.0
 20
0.0
 30
0.0
  9
$UCSYDIR
 10
0.0
 20
1.0
 30
0.0
  9
$UCSORTHOREF
  2

  9
$UCSORTHOVIEW
 70
     0
  9
$UCSORGTOP
 10
0.0
 20
0.0
 30
0.0
  9
$UCSORGBOTTOM
 10
0.0
 20
0.0
 30
0.0
  9
$UCSORGLEFT
 10
0.0
 20
0.0
 30
0.0
  9
$UCSORGRIGHT
 10
0.0
 20
0.0
 30
0.0
  9
$UCSORGFRONT
 10
0.0
 20
0.0
 30
0.0
  9
$UCSORGBACK
 10
0.0
 20
0.0
 30
0.0
  9
$PUCSBASE
  2

  9
$PUCSNAME
  2

  9
$PUCSORG
 10
0.0
 20
0.0
 30
0.0
  9
$PUCSXDIR
 10
1.0
 20
0.0
 30
0.0
  9
$PUCSYDIR
 10
0.0
 20
1.0
 30
0.0
  9
$PUCSORTHOREF
  2

  9
$PUCSORTHOVIEW
 70
     0
  9
$PUCSORGTOP
 10
0.0
 20
0.0
 30
0.0
  9
$PUCSORGBOTTOM
 10
0.0
 20
0.0
 30
0.0
  9
$PUCSORGLEFT
 10
0.0
 20
0.0
 30
0.0
  9
$PUCSORGRIGHT
 10
0.0
 20
0.0
 30
0.0
  9
$PUCSORGFRONT
 10
0.0
 20
0.0
 30
0.0
  9
$PUCSORGBACK
 10
0.0
 20
0.0
 30
0.0
  9
$USERI1
 70
     0
  9
$USERI2
 70
     0
  9
$USERI3
 70
     0
  9
$USERI4
 70
     0
  9
$USERI5
 70
     0
  9
$USERR1
 40
0.0
  9
$USERR2
 40
0.0
  9
$USERR3
 40
0.0
  9
$USERR4
 40
0.0
  9
$USERR5
 40
0.0
  9
$WORLDVIEW
 70
     1
  9
$SHADEDGE
 70
     3
  9
$SHADEDIF
 70
    70
  9
$TILEMODE
 70
     1
  9
$MAXACTVP
 70
    64
  9
$PINSBASE
 10
0.0
 20
0.0
 30
0.0
  9
$PLIMCHECK
 70
     0
  9
$PEXTMIN
 10
1.000000000000000E+20
 20
1.000000000000000E+20
 30
1.000000000000000E+20
  9
$PEXTMAX
 10
-1.000000000000000E+20
 20
-1.000000000000000E+20
 30
-1.000000000000000E+20
  9
$PLIMMIN
 10
-122.9961353236531
 20
-34.35615547047601
  9
$PLIMMAX
 10
78.1197205514223
 20
170.5892686921342
  9
$UNITMODE
 70
     0
  9
$VISRETAIN
 70
     1
  9
$PLINEGEN
 70
     0
  9
$PSLTSCALE
 70
     1
  9
$TREEDEPTH
 70
  3020
  9
$CMLSTYLE
  2
Standard
  9
$CMLJUST
 70
     0
  9
$CMLSCALE
 40
20.0
  9
$PROXYGRAPHICS
 70
     1
  9
$MEASUREMENT
 70
     1
  9
$CELWEIGHT
370
    -1
  9
$ENDCAPS
280
     0
  9
$JOINSTYLE
280
     0
  9
$LWDISPLAY
290
     0
  9
$INSUNITS
 70
     4
  9
$HYPERLINKBASE
  1

  9
$STYLESHEET
  1

  9
$XEDIT
290
     1
  9
$CEPSNTYPE
380
     0
  9
$PSTYLEMODE
290
     1
  9
$FINGERPRINTGUID
  2
{39B3F98D-6040-46EB-BCAD-E888DDB19EB4}
  9
$VERSIONGUID
  2
{FAEB1C32-E019-11D5-929B-00C0DF256EC4}
  9
$EXTNAMES
290
     1
  9
$PSVPSCALE
 40
0.0
  9
$OLESTARTUP
290
     0
  0
ENDSEC
  0
SECTION
  2
CLASSES
  0
CLASS
  1
ACDBDICTIONARYWDFLT
  2
AcDbDictionaryWithDefault
  3
ObjectDBX Classes
 90
        0
280
     0
281
     0
  0
CLASS
  1
VISUALSTYLE
  2
AcDbVisualStyle
  3
ObjectDBX Classes
 90
     4095
280
     0
281
     0
  0
CLASS
  1
SCALE
  2
AcDbScale
  3
ObjectDBX Classes
 90
     1153
280
     0
281
     0
  0
CLASS
  1
DICTIONARYVAR
  2
AcDbDictionaryVar
  3
ObjectDBX Classes
 90
        0
280
     0
281
     0
  0
CLASS
  1
ACDBPLACEHOLDER
  2
AcDbPlaceHolder
  3
ObjectDBX Classes
 90
        0
280
     0
281
     0
  0
CLASS
  1
LAYOUT
  2
AcDbLayout
  3
ObjectDBX Classes
 90
        0
280
     0
281
     0
  0
ENDSEC
  0
SECTION
  2
TABLES
  0
TABLE
  2
VPORT
  5
8
330
0
100
AcDbSymbolTable
 70
     1
  0
VPORT
  5
29
330
8
100
AcDbSymbolTableRecord
100
AcDbViewportTableRecord
  2
*Active
 70
     0
 10
0.0
 20
0.0
 11
1.0
 21
1.0
 12
344.1869158878504
 22
148.5
 13
0.0
 23
0.0
 14
10.0
 24
10.0
 15
10.0
 25
10.0
 16
0.0
 26
0.0
 36
1.0
 17
0.0
 27
0.0
 37
0.0
 40
297.0
 41
1.972972972850329
 42
50.0
 43
0.0
 44
0.0
 50
0.0
 51
0.0
 71
     0
 72
   100
 73
     1
 74
     3
 75
     0
 76
     0
 77
     0
 78
     0
281
     0
 65
     1
110
0.0
120
0.0
130
0.0
111
1.0
121
0.0
131
0.0
112
0.0
122
1.0
132
0.0
 79
     0
146
0.0
  0
ENDTAB
  0
TABLE
  2
LTYPE
  5
5
330
0
100
AcDbSymbolTable
 70
     5
  0
LTYPE
  5
14
330
5
100
AcDbSymbolTableRecord
100
AcDbLinetypeTableRecord
  2
ByBlock
 70
     0
  3

 72
    65
 73
     0
 40
0.0
  0
LTYPE
  5
15
330
5
100
AcDbSymbolTableRecord
100
AcDbLinetypeTableRecord
  2
ByLayer
 70
     0
  3

 72
    65
 73
     0
 40
0.0
  0
LTYPE
  5
16
330
5
100
AcDbSymbolTableRecord
100
AcDbLinetypeTableRecord
  2
Continuous
 70
     0
  3
Solid line
 72
    65
 73
     0
 40
0.0
  0
LTYPE
  5
3B
330
5
100
AcDbSymbolTableRecord
100
AcDbLinetypeTableRecord
  2
CONTINOUS
 70
     0
  3
______________________________
 72
    65
 73
     0
 40
0.0
  0
LTYPE
  5
3C
330
5
100
AcDbSymbolTableRecord
100
AcDbLinetypeTableRecord
  2
DASHED
 70
     0
  3
__ __ __ __ __ __ __ __ __ __ __ __ __ __ __ __
 72
    65
 73
     2
 40
4.5
 49
3.0
 74
     0
 49
-1.5
 74
     0
  0
LTYPE
  5
3D
330
5
100
AcDbSymbolTableRecord
100
AcDbLinetypeTableRecord
  2
PHANTOM
 70
     0
  3
______  __  __  ______  __  __  _____
 72
    65
 73
     6
 40
15.0
 49
7.5
 74
     0
 49
-1.5
 74
     0
 49
1.5
 74
     0
 49
-1.5
 74
     0
 49
1.5
 74
     0
 49
-1.5
 74
     0
  0
LTYPE
  5
3E
330
5
100
AcDbSymbolTableRecord
100
AcDbLinetypeTableRecord
  2
CENTER
 70
     0
  3
____ _ ____ _ ____ _ ____ _ ____ _ ____
 72
    65
 73
     4
 40
12.0
 49
7.5
 74
     0
 49
-1.5
 74
     0
 49
1.5
 74
     0
 49
-1.5
 74
     0
  0
ENDTAB
  0
TABLE
  2
LAYER
  5
2
330
0
100
AcDbSymbolTable
 70
     3
  0
LAYER
  5
10
330
2
100
AcDbSymbolTableRecord
100
AcDbLayerTableRecord
  2
0
 70
     0
 62
     7
  6
Continuous
370
    -3
390
F
  0
LAYER
  5
D5
330
2
100
AcDbSymbolTableRecord
100
AcDbLayerTableRecord
  2
VIEW0001
 70
     0
 62
     7
  6
Continuous
370
    -3
390
F
  0
LAYER
  5
28B
330
2
100
AcDbSymbolTableRecord
100
AcDbLayerTableRecord
  2
Defpoints
 70
     0
 62
     7
  6
Continuous
290
     0
370
    -3
390
F
  0
ENDTAB
  0
TABLE
  2
STYLE
  5
3
330
0
100
AcDbSymbolTable
 70
     1
  0
STYLE
  5
11
330
3
100
AcDbSymbolTableRecord
100
AcDbTextStyleTableRecord
  2
Standard
 70
     0
 40
0.0
 41
1.0
 50
0.0
 71
     0
 42
2.5
  3
ROMANS
  4
EXTFONT
  0
ENDTAB
  0
TABLE
  2
VIEW
  5
6
330
0
100
AcDbSymbolTable
 70
     0
  0
ENDTAB
  0
TABLE
  2
UCS
  5
7
330
0
100
AcDbSymbolTable
 70
     0
  0
ENDTAB
  0
TABLE
  2
APPID
  5
9
330
0
100
AcDbSymbolTable
 70
     1
  0
APPID
  5
12
330
9
100
AcDbSymbolTableRecord
100
AcDbRegAppTableRecord
  2
ACAD
 70
     0
  0
ENDTAB
  0
TABLE
  2
DIMSTYLE
  5
A
330
0
100
AcDbSymbolTable
 70
     1
100
AcDbDimStyleTable
  0
DIMSTYLE
105
27
102
{ACAD_REACTORS
330
284
330
2A3
330
2B0
330
2BD
330
2CA
330
2D7
330
2E4
330
2F1
330
2FE
330
316
330
323
330
330
330
33D
102
}
330
A
100
AcDbSymbolTableRecord
100
AcDbDimStyleTableRecord
  2
ISO-25
 70
     0
 41
2.5
 42
0.625
 43
3.75
 44
1.25
 73
     0
 74
     0
 77
     1
 78
     8
140
2.5
141
2.5
143
0.03937007874016
147
0.625
171
     3
172
     1
271
     2
272
     2
274
     3
278
    44
283
     0
284
     8
340
11
  0
ENDTAB
  0
TABLE
  2
BLOCK_RECORD
  5
1
330
0
100
AcDbSymbolTable
 70
    16
  0
BLOCK_RECORD
  5
1F
330
1
100
AcDbSymbolTableRecord
100
AcDbBlockTableRecord
  2
*Model_Space
340
22
  0
BLOCK_RECORD
  5
1B
330
1
100
AcDbSymbolTableRecord
100
AcDbBlockTableRecord
  2
*Paper_Space
340
1E
  0
BLOCK_RECORD
  5
23
330
1
100
AcDbSymbolTableRecord
100
AcDbBlockTableRecord
  2
*Paper_Space0
340
26
  0
BLOCK_RECORD
  5
3F
330
1
100
AcDbSymbolTableRecord
100
AcDbBlockTableRecord
  2
DTL0001
340
0
  0
BLOCK_RECORD
  5
285
330
1
100
AcDbSymbolTableRecord
100
AcDbBlockTableRecord
  2
_OPEN30
340
0
102
{BLKREFS
331
294
331
293
331
2A9
331
2A8
331
2B6
331
2B5
331
2C1
331
2C0
331
2CE
331
2CD
331
2DD
331
2DC
331
2EA
331
2E9
331
2F7
331
2F6
331
307
331
306
331
31C
331
31B
331
329
331
328
331
336
331
335
331
343
331
342
102
}
  0
BLOCK_RECORD
  5
28C
330
1
100
AcDbSymbolTableRecord
100
AcDbBlockTableRecord
  2
*D3
340
0
  0
BLOCK_RECORD
  5
2A4
330
1
100
AcDbSymbolTableRecord
100
AcDbBlockTableRecord
  2
*D4
340
0
  0
BLOCK_RECORD
  5
2B1
330
1
100
AcDbSymbolTableRecord
100
AcDbBlockTableRecord
  2
*D5
340
0
  0
BLOCK_RECORD
  5
2BE
330
1
100
AcDbSymbolTableRecord
100
AcDbBlockTableRecord
  2
*D6
340
0
  0
BLOCK_RECORD
  5
2CB
330
1
100
AcDbSymbolTableRecord
100
AcDbBlockTableRecord
  2
*D7
340
0
  0
BLOCK_RECORD
  5
2D8
330
1
100
AcDbSymbolTableRecord
100
AcDbBlockTableRecord
  2
*D8
340
0
  0
BLOCK_RECORD
  5
2E5
330
1
100
AcDbSymbolTableRecord
100
AcDbBlockTableRecord
  2
*D9
340
0
  0
BLOCK_RECORD
  5
2F2
330
1
100
AcDbSymbolTableRecord
100
AcDbBlockTableRecord
  2
*D10
340
0
  0
BLOCK_RECORD
  5
2FF
330
1
100
AcDbSymbolTableRecord
100
AcDbBlockTableRecord
  2
*D11
340
0
  0
BLOCK_RECORD
  5
317
330
1
100
AcDbSymbolTableRecord
100
AcDbBlockTableRecord
  2
*D12
340
0
  0
BLOCK_RECORD
  5
324
330
1
100
AcDbSymbolTableRecord
100
AcDbBlockTableRecord
  2
*D13
340
0
  0
BLOCK_RECORD
  5
331
330
1
100
AcDbSymbolTableRecord
100
AcDbBlockTableRecord
  2
*D14
340
0
  0
BLOCK_RECORD
  5
33E
330
1
100
AcDbSymbolTableRecord
100
AcDbBlockTableRecord
  2
*D15
340
0
  0
ENDTAB
  0
ENDSEC
  0
SECTION
  2
BLOCKS
  0
BLOCK
  5
20
330
1F
100
AcDbEntity
  8
0
100
AcDbBlockBegin
  2
*Model_Space
 70
     0
 10
0.0
 20
0.0
 30
0.0
  3
*Model_Space
  1

  0
ENDBLK
  5
21
330
1F
100
AcDbEntity
  8
0
100
AcDbBlockEnd
  0
BLOCK
  5
1C
330
1B
100
AcDbEntity
 67
     1
  8
0
100
AcDbBlockBegin
  2
*Paper_Space
 70
     0
 10
0.0
 20
0.0
 30
0.0
  3
*Paper_Space
  1

  0
ENDBLK
  5
1D
330
1B
100
AcDbEntity
 67
     1
  8
0
100
AcDbBlockEnd
  0
BLOCK
  5
24
330
23
100
AcDbEntity
  8
0
100
AcDbBlockBegin
  2
*Paper_Space0
 70
     0
 10
0.0
 20
0.0
 30
0.0
  3
*Paper_Space0
  1

  0
ENDBLK
  5
25
330
23
100
AcDbEntity
  8
0
100
AcDbBlockEnd
  0
BLOCK
  5
40
330
3F
100
AcDbEntity
  8
0
100
AcDbBlockBegin
  2
DTL0001
 70
     0
 10
0.0
 20
0.0
 30
0.0
  3
DTL0001
  1

  0
POINT
  5
42
330
3F
100
AcDbEntity
  8
0
 62
     0
100
AcDbPoint
 10
0.0
 20
0.0
 30
0.0
  0
LINE
  5
43
330
3F
100
AcDbEntity
  8
0
  6
Continuous
 62
     0
100
AcDbLine
 10
-193.1
 20
3.5
 30
0.0
 11
-0.1
 21
3.5
 31
0.0
  0
LINE
  5
44
330
3F
100
AcDbEntity
  8
0
  6
Continuous
 62
     0
100
AcDbLine
 10
-6.099999999999971
 20
16.0
 30
0.0
 11
-6.099999999999971
 21
3.500000000000028
 31
0.0
  0
LINE
  5
45
330
3F
100
AcDbEntity
  8
0
  6
Continuous
 62
     0
100
AcDbLine
 10
-6.099999999999971
 20
11.0
 30
0.0
 11
-0.1
 21
11.0
 31
0.0
  0
LINE
  5
46
330
3F
100
AcDbEntity
  8
0
  6
Continuous
 62
     0
100
AcDbLine
 10
-128.1
 20
53.5
 30
0.0
 11
-128.1
 21
3.5
 31
0.0
  0
LINE
  5
47
330
3F
100
AcDbEntity
  8
0
  6
Continuous
 62
     0
100
AcDbLine
 10
-193.1
 20
53.5
 30
0.0
 11
-0.1
 21
53.5
 31
0.0
  0
LINE
  5
48
330
3F
100
AcDbEntity
  8
0
  6
Continuous
 62
     0
100
AcDbLine
 10
-89.6
 20
99.5
 30
0.0
 11
-89.6
 21
53.5
 31
0.0
  0
LINE
  5
49
330
3F
100
AcDbEntity
  8
0
  6
Continuous
 62
     0
100
AcDbLine
 10
-193.1
 20
99.5
 30
0.0
 11
-0.1
 21
99.5
 31
0.0
  0
LINE
  5
4A
330
3F
100
AcDbEntity
  8
0
  6
Continuous
 62
     0
100
AcDbLine
 10
-187.1
 20
53.5
 30
0.0
 11
-187.1
 21
3.5
 31
0.0
  0
LINE
  5
4B
330
3F
100
AcDbEntity
  8
0
  6
Continuous
 62
     0
100
AcDbLine
 10
-59.1
 20
99.5
 30
0.0
 11
-59.1
 21
53.5
 31
0.0
  0
LINE
  5
4C
330
3F
100
AcDbEntity
  8
0
  6
Continuous
 62
     0
100
AcDbLine
 10
-37.1
 20
99.5
 30
0.0
 11
-37.1
 21
53.5
 31
0.0
  0
LINE
  5
4D
330
3F
100
AcDbEntity
  8
0
  6
Continuous
 62
     0
100
AcDbLine
 10
-15.1
 20
99.5
 30
0.0
 11
-15.1
 21
53.5
 31
0.0
  0
LINE
  5
4E
330
3F
100
AcDbEntity
  8
0
  6
Continuous
 62
     0
100
AcDbLine
 10
-96.6
 20
99.5
 30
0.0
 11
-96.6
 21
53.5
 31
0.0
  0
LINE
  5
4F
330
3F
100
AcDbEntity
  8
0
  6
Continuous
 62
     0
100
AcDbLine
 10
-186.1
 20
99.5
 30
0.0
 11
-186.1
 21
53.5
 31
0.0
  0
LINE
  5
50
330
3F
100
AcDbEntity
  8
0
  6
Continuous
 62
     0
100
AcDbLine
 10
-133.6
 20
99.5
 30
0.0
 11
-133.6
 21
53.5
 31
0.0
  0
LINE
  5
51
330
3F
100
AcDbEntity
  8
0
  6
Continuous
 62
     0
100
AcDbLine
 10
-155.6
 20
99.5
 30
0.0
 11
-155.6
 21
53.5
 31
0.0
  0
LINE
  5
52
330
3F
100
AcDbEntity
  8
0
  6
Continuous
 62
     0
100
AcDbLine
 10
-111.6
 20
99.5
 30
0.0
 11
-111.6
 21
53.5
 31
0.0
  0
LINE
  5
53
330
3F
100
AcDbEntity
  8
0
  6
Continuous
 62
     0
100
AcDbLine
 10
-193.1
 20
93.78571428571429
 30
0.0
 11
-0.1
 21
93.78571428571429
 31
0.0
  0
LINE
  5
54
330
3F
100
AcDbEntity
  8
0
  6
Continuous
 62
     0
100
AcDbLine
 10
-193.1
 20
88.07142857142857
 30
0.0
 11
-0.1
 21
88.07142857142857
 31
0.0
  0
LINE
  5
55
330
3F
100
AcDbEntity
  8
0
  6
Continuous
 62
     0
100
AcDbLine
 10
-193.1
 20
82.35714285714286
 30
0.0
 11
-0.1
 21
82.35714285714286
 31
0.0
  0
LINE
  5
56
330
3F
100
AcDbEntity
  8
0
  6
Continuous
 62
     0
100
AcDbLine
 10
-193.1
 20
76.64285714285714
 30
0.0
 11
-0.1
 21
76.64285714285714
 31
0.0
  0
LINE
  5
57
330
3F
100
AcDbEntity
  8
0
  6
Continuous
 62
     0
100
AcDbLine
 10
-193.1
 20
70.92857142857143
 30
0.0
 11
-0.1
 21
70.92857142857143
 31
0.0
  0
LINE
  5
58
330
3F
100
AcDbEntity
  8
0
  6
Continuous
 62
     0
100
AcDbLine
 10
-193.1
 20
65.21428571428572
 30
0.0
 11
-0.1
 21
65.21428571428572
 31
0.0
  0
LINE
  5
59
330
3F
100
AcDbEntity
  8
0
  6
Continuous
 62
     0
100
AcDbLine
 10
-193.1
 20
59.5
 30
0.0
 11
-0.1
 21
59.5
 31
0.0
  0
LINE
  5
5A
330
3F
100
AcDbEntity
  8
0
  6
Continuous
 62
     0
100
AcDbLine
 10
-98.09999999999997
 20
28.5
 30
0.0
 11
-98.09999999999997
 21
16.0
 31
0.0
  0
LINE
  5
5B
330
3F
100
AcDbEntity
  8
0
  6
Continuous
 62
     0
100
AcDbLine
 10
-89.09999999999997
 20
53.5
 30
0.0
 11
-89.09999999999997
 21
28.5
 31
0.0
  0
LINE
  5
5C
330
3F
100
AcDbEntity
  8
0
  6
Continuous
 62
     0
100
AcDbLine
 10
-77.09999999999997
 20
16.0
 30
0.0
 11
-77.09999999999997
 21
3.500000000000028
 31
0.0
  0
LINE
  5
5D
330
3F
100
AcDbEntity
  8
0
  6
Continuous
 62
     0
100
AcDbLine
 10
-84.09999999999997
 20
53.5
 30
0.0
 11
-84.09999999999997
 21
28.5
 31
0.0
  0
LINE
  5
5E
330
3F
100
AcDbEntity
  8
0
  6
Continuous
 62
     0
100
AcDbLine
 10
-47.09999999999997
 20
28.5
 30
0.0
 11
-47.09999999999997
 21
16.0
 31
0.0
  0
LINE
  5
5F
330
3F
100
AcDbEntity
  8
0
  6
Continuous
 62
     0
100
AcDbLine
 10
-40.09999999999997
 20
28.5
 30
0.0
 11
-40.09999999999997
 21
16.0
 31
0.0
  0
LINE
  5
60
330
3F
100
AcDbEntity
  8
0
  6
Continuous
 62
     0
100
AcDbLine
 10
-24.09999999999997
 20
28.5
 30
0.0
 11
-24.09999999999997
 21
16.0
 31
0.0
  0
LINE
  5
61
330
3F
100
AcDbEntity
  8
0
  6
Continuous
 62
     0
100
AcDbLine
 10
-17.09999999999997
 20
28.5
 30
0.0
 11
-17.09999999999997
 21
16.0
 31
0.0
  0
LINE
  5
62
330
3F
100
AcDbEntity
  8
0
  6
Continuous
 62
     0
100
AcDbLine
 10
-128.1
 20
45.16666666666666
 30
0.0
 11
-0.1
 21
45.16666666666666
 31
0.0
  0
LINE
  5
63
330
3F
100
AcDbEntity
  8
0
  6
DASHED
 62
     0
100
AcDbLine
 10
-84.09999999999997
 20
36.83333333333333
 30
0.0
 11
-0.1
 21
36.83333333333333
 31
0.0
  0
LINE
  5
64
330
3F
100
AcDbEntity
  8
0
  6
Continuous
 62
     0
100
AcDbLine
 10
-134.1
 20
53.5
 30
0.0
 11
-134.1
 21
3.500000000000028
 31
0.0
  0
LINE
  5
65
330
3F
100
AcDbEntity
  8
0
  6
Continuous
 62
     0
100
AcDbLine
 10
-175.1
 20
53.5
 30
0.0
 11
-175.1
 21
3.5
 31
0.0
  0
LINE
  5
66
330
3F
100
AcDbEntity
  8
0
  6
Continuous
 62
     0
100
AcDbLine
 10
-128.1
 20
16.0
 30
0.0
 11
-0.1
 21
16.0
 31
0.0
  0
LINE
  5
67
330
3F
100
AcDbEntity
  8
0
  6
Continuous
 62
     0
100
AcDbLine
 10
-128.1
 20
28.5
 30
0.0
 11
-0.1
 21
28.5
 31
0.0
  0
LINE
  5
68
330
3F
100
AcDbEntity
  8
0
  6
Continuous
 62
     0
100
AcDbLine
 10
-0.1
 20
277.5
 30
0.0
 11
-0.1
 21
3.5
 31
0.0
  0
LINE
  5
69
330
3F
100
AcDbEntity
  8
0
  6
Continuous
 62
     0
100
AcDbLine
 10
-193.1
 20
282.5
 30
0.0
 11
-193.1
 21
3.5
 31
0.0
  0
LINE
  5
6A
330
3F
100
AcDbEntity
  8
0
  6
Continuous
 62
     0
100
AcDbLine
 10
-193.1
 20
282.5
 30
0.0
 11
-35.1
 21
282.5
 31
0.0
  0
LINE
  5
6B
330
3F
100
AcDbEntity
  8
0
  6
Continuous
 62
     0
100
AcDbLine
 10
-15.1
 20
282.5
 30
0.0
 11
-15.1
 21
277.5
 31
0.0
  0
LINE
  5
6C
330
3F
100
AcDbEntity
  8
0
  6
Continuous
 62
     0
100
AcDbLine
 10
-10.1
 20
282.5
 30
0.0
 11
-10.1
 21
277.5
 31
0.0
  0
LINE
  5
6D
330
3F
100
AcDbEntity
  8
0
  6
Continuous
 62
     0
100
AcDbLine
 10
-25.1
 20
282.5
 30
0.0
 11
-25.1
 21
277.5
 31
0.0
  0
LINE
  5
6E
330
3F
100
AcDbEntity
  8
0
  6
Continuous
 62
     0
100
AcDbLine
 10
-20.1
 20
282.5
 30
0.0
 11
-20.1
 21
277.5
 31
0.0
  0
LINE
  5
6F
330
3F
100
AcDbEntity
  8
0
  6
Continuous
 62
     0
100
AcDbLine
 10
-35.1
 20
277.5
 30
0.0
 11
-0.1
 21
277.5
 31
0.0
  0
LINE
  5
70
330
3F
100
AcDbEntity
  8
0
  6
Continuous
 62
     0
100
AcDbLine
 10
-5.1
 20
282.5
 30
0.0
 11
-5.1
 21
277.5
 31
0.0
  0
LINE
  5
71
330
3F
100
AcDbEntity
  8
0
  6
Continuous
 62
     0
100
AcDbLine
 10
-30.1
 20
282.5
 30
0.0
 11
-30.1
 21
277.5
 31
0.0
  0
LINE
  5
72
330
3F
100
AcDbEntity
  8
0
  6
Continuous
 62
     0
100
AcDbLine
 10
-35.1
 20
282.5
 30
0.0
 11
-35.1
 21
277.5
 31
0.0
  0
LINE
  5
73
330
3F
100
AcDbEntity
  8
0
  6
Continuous
 62
     0
100
AcDbLine
 10
-0.1
 20
277.5
 30
0.0
 11
-0.1
 21
282.5
 31
0.0
  0
LINE
  5
74
330
3F
100
AcDbEntity
  8
0
  6
Continuous
 62
     0
100
AcDbLine
 10
-35.1
 20
282.5
 30
0.0
 11
-0.1
 21
282.5
 31
0.0
  0
LINE
  5
75
330
3F
100
AcDbEntity
  8
0
  6
Continuous
 62
     0
100
AcDbLine
 10
-149.9925475344146
 20
277.5
 30
0.0
 11
-50.42227626193519
 21
277.5
 31
0.0
  0
LINE
  5
76
330
3F
100
AcDbEntity
  8
0
  6
Continuous
 62
     0
100
AcDbLine
 10
-70.09999999999997
 20
28.5
 30
0.0
 11
-70.09999999999997
 21
3.500000000000028
 31
0.0
  0
LINE
  5
77
330
3F
100
AcDbEntity
  8
0
  6
Continuous
 62
     0
100
AcDbLine
 10
-63.09999999999997
 20
28.5
 30
0.0
 11
-63.09999999999997
 21
16.0
 31
0.0
  0
LINE
  5
78
330
3F
100
AcDbEntity
  8
0
  6
Continuous
 62
     0
100
AcDbLine
 10
-123.1
 20
53.5
 30
0.0
 11
-123.1
 21
16.0
 31
0.0
  0
LINE
  5
79
330
3F
100
AcDbEntity
  8
0
  6
Continuous
 62
     0
100
AcDbLine
 10
-193.1
 20
8.5
 30
0.0
 11
-128.1
 21
8.5
 31
0.0
  0
LINE
  5
7A
330
3F
100
AcDbEntity
  8
0
  6
Continuous
 62
     0
100
AcDbLine
 10
-193.1
 20
44.50000000000001
 30
0.0
 11
-128.1
 21
44.50000000000001
 31
0.0
  0
LINE
  5
7B
330
3F
100
AcDbEntity
  8
0
  6
Continuous
 62
     0
100
AcDbLine
 10
-193.1
 20
35.5
 30
0.0
 11
-128.1
 21
35.5
 31
0.0
  0
LINE
  5
7C
330
3F
100
AcDbEntity
  8
0
  6
Continuous
 62
     0
100
AcDbLine
 10
-193.1
 20
26.5
 30
0.0
 11
-128.1
 21
26.5
 31
0.0
  0
LINE
  5
7D
330
3F
100
AcDbEntity
  8
0
  6
Continuous
 62
     0
100
AcDbLine
 10
-193.1
 20
17.5
 30
0.0
 11
-128.1
 21
17.5
 31
0.0
  0
MTEXT
  5
7E
330
3F
100
AcDbEntity
  8
0
 62
     0
100
AcDbMText
 10
-191.9392510137227
 20
5.930056100058094
 30
0.0
 40
2.200000047683716
 41
0.0
 71
     7
 72
     1
  1
{\W0.757576;符}
 73
     1
 44
1.0
  0
MTEXT
  5
A1
330
3F
100
AcDbEntity
  8
0
 62
     0
100
AcDbMText
 10
-191.9392510137227
 20
3.530056049394146
 30
0.0
 40
2.200000047683716
 41
0.0
 71
     7
 72
     1
  1
{\W0.757576;　号}
 73
     1
 44
1.0
  0
MTEXT
  5
A2
330
3F
100
AcDbEntity
  8
0
 62
     0
100
AcDbMText
 10
-169.6
 20
4.500000000000001
 30
0.0
 40
3.0
 41
0.0
 71
     7
 72
     1
  1
{\W2.5;図面来歴}
 73
     1
 44
1.0
  0
MTEXT
  5
A3
330
3F
100
AcDbEntity
  8
0
 62
     0
100
AcDbMText
 10
-132.6
 20
4.5
 30
0.0
 40
3.0
 41
0.0
 71
     7
 72
     1
  1
{\W0.833333;印}
 73
     1
 44
1.0
  0
MTEXT
  5
A4
330
3F
100
AcDbEntity
  8
0
 62
     0
100
AcDbMText
 10
-127.1
 20
39.83333333333333
 30
0.0
 40
3.0
 41
0.0
 71
     7
 72
     1
  1
{\W0.833333;納}
 73
     1
 44
1.0
  0
MTEXT
  5
A5
330
3F
100
AcDbEntity
  8
0
 62
     0
100
AcDbMText
 10
-127.1
 20
35.33333333333333
 30
0.0
 40
3.0
 41
0.0
 71
     7
 72
     1
  1
{\W0.833333;入}
 73
     1
 44
1.0
  0
MTEXT
  5
A6
330
3F
100
AcDbEntity
  8
0
 62
     0
100
AcDbMText
 10
-127.1
 20
30.83333333333333
 30
0.0
 40
3.0
 41
0.0
 71
     7
 72
     1
  1
{\W0.833333;先}
 73
     1
 44
1.0
  0
MTEXT
  5
A7
330
3F
100
AcDbEntity
  8
0
 62
     0
100
AcDbMText
 10
-127.1
 20
49.73333333929379
 30
0.0
 40
3.0
 41
0.0
 71
     7
 72
     1
  1
{\W0.833333;注}
 73
     1
 44
1.0
  0
MTEXT
  5
A8
330
3F
100
AcDbEntity
  8
0
 62
     0
100
AcDbMText
 10
-127.1
 20
45.93333332737286
 30
0.0
 40
3.0
 41
0.0
 71
     7
 72
     1
  1
{\W0.833333;番}
 73
     1
 44
1.0
  0
MTEXT
  5
A9
330
3F
100
AcDbEntity
  8
0
 62
     0
100
AcDbMText
 10
-127.1
 20
23.0
 30
0.0
 40
3.0
 41
0.0
 71
     7
 72
     1
  1
{\W0.833333;尺}
 73
     1
 44
1.0
  0
MTEXT
  5
AA
330
3F
100
AcDbEntity
  8
0
 62
     0
100
AcDbMText
 10
-127.1
 20
18.5
 30
0.0
 40
3.0
 41
0.0
 71
     7
 72
     1
  1
{\W0.833333;度}
 73
     1
 44
1.0
  0
MTEXT
  5
AB
330
3F
100
AcDbEntity
  8
0
 62
     0
100
AcDbMText
 10
-75.09999999999995
 20
11.37500000000001
 30
0.0
 40
3.0
 41
0.0
 71
     7
 72
     1
  1
{\W0.833333;図}
 73
     1
 44
1.0
  0
MTEXT
  5
AC
330
3F
100
AcDbEntity
  8
0
 62
     0
100
AcDbMText
 10
-75.09999999999997
 20
5.125000000000013
 30
0.0
 40
3.0
 41
0.0
 71
     7
 72
     1
  1
{\W0.833333;番}
 73
     1
 44
1.0
  0
MTEXT
  5
AD
330
3F
100
AcDbEntity
  8
0
 62
     0
100
AcDbMText
 10
-88.09999999999997
 20
49.73333333929379
 30
0.0
 40
3.0
 41
0.0
 71
     7
 72
     1
  1
{\W0.833333;形}
 73
     1
 44
1.0
  0
MTEXT
  5
AE
330
3F
100
AcDbEntity
  8
0
 62
     0
100
AcDbMText
 10
-88.09999999999997
 20
45.93333332737286
 30
0.0
 40
3.0
 41
0.0
 71
     7
 72
     1
  1
{\W0.833333;番}
 73
     1
 44
1.0
  0
MTEXT
  5
AF
330
3F
100
AcDbEntity
  8
0
 62
     0
100
AcDbMText
 10
-45.09999999999995
 20
23.875
 30
0.0
 40
3.0
 41
0.0
 71
     7
 72
     1
  1
{\W0.833333;点}
 73
     1
 44
1.0
  0
MTEXT
  5
B0
330
3F
100
AcDbEntity
  8
0
 62
     0
100
AcDbMText
 10
-45.09999999999995
 20
17.625
 30
0.0
 40
3.0
 41
0.0
 71
     7
 72
     1
  1
{\W0.833333;検}
 73
     1
 44
1.0
  0
MTEXT
  5
B1
330
3F
100
AcDbEntity
  8
0
 62
     0
100
AcDbMText
 10
-22.09999999999997
 20
23.875
 30
0.0
 40
3.0
 41
0.0
 71
     7
 72
     1
  1
{\W0.833333;設}
 73
     1
 44
1.0
  0
MTEXT
  5
B2
330
3F
100
AcDbEntity
  8
0
 62
     0
100
AcDbMText
 10
-22.09999999999998
 20
17.625
 30
0.0
 40
3.0
 41
0.0
 71
     7
 72
     1
  1
{\W0.833333;計}
 73
     1
 44
1.0
  0
MTEXT
  5
B3
330
3F
100
AcDbEntity
  8
0
 62
     0
100
AcDbMText
 10
-5.099999999999979
 20
12.60000002384186
 30
0.0
 40
1.799999952316284
 41
0.0
 71
     7
 72
     1
  1
{\W1.38889;改訂}
 73
     1
 44
1.0
  0
MTEXT
  5
B4
330
3F
100
AcDbEntity
  8
0
 62
     0
100
AcDbMText
 10
-67.99999999999994
 20
23.875
 30
0.0
 40
3.0
 41
0.0
 71
     7
 72
     1
  1
{\W0.833333;承}
 73
     1
 44
1.0
  0
MTEXT
  5
B5
330
3F
100
AcDbEntity
  8
0
 62
     0
100
AcDbMText
 10
-67.99999999999994
 20
17.625
 30
0.0
 40
3.0
 41
0.0
 71
     7
 72
     1
  1
{\W0.833333;認}
 73
     1
 44
1.0
  0
MTEXT
  5
B6
330
3F
100
AcDbEntity
  8
0
 62
     0
100
AcDbMText
 10
-94.38998717599351
 20
31.56159228421099
 30
0.0
 40
3.200000047683716
 41
0.0
 71
     7
 72
     1
  1
{\W2.34375;殿}
 73
     1
 44
1.0
  0
MTEXT
  5
B7
330
3F
100
AcDbEntity
  8
0
 62
     0
100
AcDbMText
 10
-123.4738152680865
 20
6.678405666061966
 30
0.0
 40
2.799999952316284
 41
0.0
 71
     7
 72
     1
  1
{\W0.952381;会社}
 73
     1
 44
1.0
  0
MTEXT
  5
B8
330
3F
100
AcDbEntity
  8
0
 62
     0
100
AcDbMText
 10
-123.4738152680865
 20
10.27840566606199
 30
0.0
 40
2.799999952316284
 41
0.0
 71
     7
 72
     1
  1
{\W0.952381;株式}
 73
     1
 44
1.0
  0
MTEXT
  5
B9
330
3F
100
AcDbEntity
  8
0
 62
     0
100
AcDbMText
 10
-114.9773025328955
 20
7.520653681409247
 30
0.0
 40
4.800000190734863
 41
0.0
 71
     7
 72
     1
  1
{\W0.954861;椿本ﾁｴｲﾝ}
 73
     1
 44
1.0
  0
MTEXT
  5
BA
330
3F
100
AcDbEntity
  8
0
 62
     0
100
AcDbMText
 10
-33.22499999999999
 20
55.0
 30
0.0
 40
3.0
 41
0.0
 71
     7
 72
     1
  1
{\W3.05556;材質}
 73
     1
 44
1.0
  0
MTEXT
  5
BB
330
3F
100
AcDbEntity
  8
0
 62
     0
100
AcDbMText
 10
-95.6
 20
54.99999999999999
 30
0.0
 40
3.0
 41
0.0
 71
     7
 72
     1
  1
{\W0.972222;品番}
 73
     1
 44
1.0
  0
MTEXT
  5
BC
330
3F
100
AcDbEntity
  8
0
 62
     0
100
AcDbMText
 10
-11.97499999999999
 20
55.0
 30
0.0
 40
3.0
 41
0.0
 71
     7
 72
     1
  1
{\W2.08333;数量}
 73
     1
 44
1.0
  0
MTEXT
  5
BD
330
3F
100
AcDbEntity
  8
0
 62
     0
100
AcDbMText
 10
-54.22499999999999
 20
55.0
 30
0.0
 40
3.0
 41
0.0
 71
     7
 72
     1
  1
{\W3.05556;図番}
 73
     1
 44
1.0
  0
MTEXT
  5
BE
330
3F
100
AcDbEntity
  8
0
 62
     0
100
AcDbMText
 10
-185.9999998867512
 20
4.899999976158141
 30
0.0
 40
2.200000047683716
 41
0.0
 71
     7
 72
     1
  1
{\W0.757576;年.月.日}
 73
     1
 44
1.0
  0
MTEXT
  5
BF
330
3F
100
AcDbEntity
  8
0
 62
     0
100
AcDbMText
 10
-150.725
 20
55.0
 30
0.0
 40
3.0
 41
0.0
 71
     7
 72
     1
  1
{\W3.05556;図番}
 73
     1
 44
1.0
  0
MTEXT
  5
C0
330
3F
100
AcDbEntity
  8
0
 62
     0
100
AcDbMText
 10
-192.1
 20
54.99999999999999
 30
0.0
 40
3.0
 41
0.0
 71
     7
 72
     1
  1
{\W0.972222;品番}
 73
     1
 44
1.0
  0
MTEXT
  5
C1
330
3F
100
AcDbEntity
  8
0
 62
     0
100
AcDbMText
 10
-129.725
 20
55.0
 30
0.0
 40
3.0
 41
0.0
 71
     7
 72
     1
  1
{\W3.05556;材質}
 73
     1
 44
1.0
  0
MTEXT
  5
C2
330
3F
100
AcDbEntity
  8
0
 62
     0
100
AcDbMText
 10
-108.475
 20
55.0
 30
0.0
 40
3.0
 41
0.0
 71
     7
 72
     1
  1
{\W2.08333;数量}
 73
     1
 44
1.0
  0
MTEXT
  5
C3
330
3F
100
AcDbEntity
  8
0
 62
     0
100
AcDbMText
 10
-182.35
 20
55.0
 30
0.0
 40
3.0
 41
0.0
 71
     7
 72
     1
  1
{\W2.77778;部品名}
 73
     1
 44
1.0
  0
MTEXT
  5
C4
330
3F
100
AcDbEntity
  8
0
 62
     0
100
AcDbMText
 10
-90.36045163168298
 20
17.81415349814945
 30
0.0
 40
3.0
 41
0.0
 71
     7
 72
     1
  1
{\W0.777778;年  月  日}
 73
     1
 44
1.0
  0
MTEXT
  5
C5
330
3F
100
AcDbEntity
  8
0
 62
     0
100
AcDbMText
 10
-135.186209823025
 20
278.6180466879098
 30
0.0
 40
2.625
 41
0.0
 71
     7
 72
     1
  1
{\W1;この図面の著作権は}
 73
     1
 44
1.0
  0
MTEXT
  5
C6
330
3F
100
AcDbEntity
  8
0
 62
     0
100
AcDbMText
 10
-120.3987098662384
 20
279.0555466879098
 30
0.0
 40
1.75
 41
0.0
 71
     7
 72
     1
  1
{\W1; }
 73
     1
 44
1.0
  0
MTEXT
  5
C7
330
3F
100
AcDbEntity
  8
0
 62
     0
100
AcDbMText
 10
-118.1237098751791
 20
278.1805466879098
 30
0.0
 40
3.5
 41
0.0
 71
     7
 72
     1
  1
{\W1;株式会社}
 73
     1
 44
1.0
  0
MTEXT
  5
C8
330
3F
100
AcDbEntity
  8
0
 62
     0
100
AcDbMText
 10
-101.4987099198826
 20
279.0555466879098
 30
0.0
 40
1.75
 41
0.0
 71
     7
 72
     1
  1
{\W1; }
 73
     1
 44
1.0
  0
MTEXT
  5
C9
330
3F
100
AcDbEntity
  8
0
 62
     0
100
AcDbMText
 10
-99.22370992882327
 20
278.1805466879098
 30
0.0
 40
3.5
 41
0.0
 71
     7
 72
     1
  1
{\W1;椿本チエイン}
 73
     1
 44
1.0
  0
MTEXT
  5
CA
330
3F
100
AcDbEntity
  8
0
 62
     0
100
AcDbMText
 10
-74.19870999736861
 20
279.0555466879098
 30
0.0
 40
1.75
 41
0.0
 71
     7
 72
     1
  1
{\W1; }
 73
     1
 44
1.0
  0
MTEXT
  5
CB
330
3F
100
AcDbEntity
  8
0
 62
     0
100
AcDbMText
 10
-62.56121003164128
 20
278.6180466879098
 30
0.0
 40
2.625
 41
0.0
 71
     7
 72
     1
  1
{\W1;に帰属します。}
 73
     1
 44
1.0
  0
MTEXT
  5
CC
330
3F
100
AcDbEntity
  8
0
 62
     0
100
AcDbMText
 10
-85.85
 20
55.0
 30
0.0
 40
3.0
 41
0.0
 71
     7
 72
     1
  1
{\W2.77778;部品名}
 73
     1
 44
1.0
  0
MTEXT
  5
CD
330
3F
100
AcDbEntity
  8
0
 62
     0
100
AcDbMText
 10
-88.09999999999997
 20
39.13333334525426
 30
0.0
 40
3.0
 41
0.0
 71
     7
 72
     1
  1
{\W0.833333;仕}
 73
     1
 44
1.0
  0
MTEXT
  5
CE
330
3F
100
AcDbEntity
  8
0
 62
     0
100
AcDbMText
 10
-86.59999999999997
 20
35.33333333333333
 30
0.0
 40
3.0
 41
0.0
 71
     7
 72
     1
  1
{\W0.833333;　}
 73
     1
 44
1.0
  0
MTEXT
  5
CF
330
3F
100
AcDbEntity
  8
0
 62
     0
100
AcDbMText
 10
-88.09999999999997
 20
31.5333333214124
 30
0.0
 40
3.0
 41
0.0
 71
     7
 72
     1
  1
{\W0.833333;様}
 73
     1
 44
1.0
  0
MTEXT
  5
D0
330
3F
100
AcDbEntity
  8
0
 62
     0
100
AcDbMText
 10
-26.23426684309805
 20
104.4389017580044
 30
0.0
 40
4.5
 41
0.0
 71
     7
 72
     1
  1
{\W1.01852;新形番}
 73
     1
 44
1.0
  0
LINE
  5
D1
330
3F
100
AcDbEntity
  8
0
  6
Continuous
 62
     0
100
AcDbLine
 10
-26.73426684309805
 20
103.3139017580044
 30
0.0
 11
-26.73426684309805
 21
110.0639017580044
 31
0.0
  0
LINE
  5
D2
330
3F
100
AcDbEntity
  8
0
  6
Continuous
 62
     0
100
AcDbLine
 10
-10.23426684309805
 20
103.3139017580044
 30
0.0
 11
-10.23426684309805
 21
110.0639017580044
 31
0.0
  0
LINE
  5
D3
330
3F
100
AcDbEntity
  8
0
  6
Continuous
 62
     0
100
AcDbLine
 10
-26.73426684309805
 20
103.3139017580044
 30
0.0
 11
-10.23426684309805
 21
103.3139017580044
 31
0.0
  0
LINE
  5
D4
330
3F
100
AcDbEntity
  8
0
  6
Continuous
 62
     0
100
AcDbLine
 10
-26.73426684309805
 20
110.0639017580044
 30
0.0
 11
-10.23426684309805
 21
110.0639017580044
 31
0.0
  0
ENDBLK
  5
41
330
3F
100
AcDbEntity
  8
0
100
AcDbBlockEnd
  0
BLOCK
  5
286
330
285
100
AcDbEntity
  8
0
100
AcDbBlockBegin
  2
_OPEN30
 70
     0
 10
0.0
 20
0.0
 30
0.0
  3
_OPEN30
  1

  0
LINE
  5
288
330
285
100
AcDbEntity
  8
0
  6
ByBlock
 62
     0
370
    -2
100
AcDbLine
 10
-1.0
 20
0.267949
 30
0.0
 11
0.0
 21
0.0
 31
0.0
  0
LINE
  5
289
330
285
100
AcDbEntity
  8
0
  6
ByBlock
 62
     0
370
    -2
100
AcDbLine
 10
0.0
 20
0.0
 30
0.0
 11
-1.0
 21
-0.267949
 31
0.0
  0
LINE
  5
28A
330
285
100
AcDbEntity
  8
0
  6
ByBlock
 62
     0
370
    -2
100
AcDbLine
 10
0.0
 20
0.0
 30
0.0
 11
-1.0
 21
0.0
 31
0.0
  0
ENDBLK
  5
287
330
285
100
AcDbEntity
  8
0
100
AcDbBlockEnd
  0
BLOCK
  5
299
330
28C
100
AcDbEntity
  8
0
100
AcDbBlockBegin
  2
*D3
 70
     1
 10
0.0
 20
0.0
 30
0.0
  3
*D3
  1

  0
LINE
  5
28D
330
28C
100
AcDbEntity
  8
0
 62
     0
 60
     1
370
    -2
100
AcDbLine
 10
-74.05099856192001
 20
115.4400790065693
 30
0.0
 11
-74.05099856192001
 21
152.4612456922748
 31
0.0
  0
LINE
  5
28E
330
28C
100
AcDbEntity
  8
0
 62
     0
 60
     1
370
    -2
100
AcDbLine
 10
-67.55099856192001
 20
144.6057928408557
 30
0.0
 11
-67.55099856192001
 21
152.4612456922748
 31
0.0
  0
LINE
  5
28F
330
28C
100
AcDbEntity
  8
0
 62
     0
 60
     1
370
    -2
100
AcDbLine
 10
-74.05099856192001
 20
151.5279123589415
 30
0.0
 11
-86.76493444701879
 21
151.5279123589415
 31
0.0
  0
LINE
  5
290
330
28C
100
AcDbEntity
  8
0
 62
     0
 60
     1
370
    -2
100
AcDbLine
 10
-74.05099856192001
 20
151.5279123589415
 30
0.0
 11
-67.55099856192001
 21
151.5279123589415
 31
0.0
  0
LINE
  5
291
330
28C
100
AcDbEntity
  8
0
 62
     0
 60
     1
370
    -2
100
AcDbLine
 10
-77.05099856192001
 20
151.5279123589415
 30
0.0
 11
-80.05099856192001
 21
151.5279123589415
 31
0.0
  0
LINE
  5
292
330
28C
100
AcDbEntity
  8
0
 62
     0
 60
     1
370
    -2
100
AcDbLine
 10
-64.55099856192001
 20
151.5279123589415
 30
0.0
 11
-61.55099856192001
 21
151.5279123589415
 31
0.0
  0
INSERT
  5
293
330
28C
100
AcDbEntity
  8
0
 62
     0
 60
     1
370
    -2
100
AcDbBlockReference
  2
_OPEN30
 10
-74.05099856192001
 20
151.5279123589415
 30
0.0
 41
3.0
 42
3.0
 43
3.0
  0
INSERT
  5
294
330
28C
100
AcDbEntity
  8
0
 62
     0
 60
     1
370
    -2
100
AcDbBlockReference
  2
_OPEN30
 10
-67.55099856192001
 20
151.5279123589415
 30
0.0
 41
3.0
 42
3.0
 43
3.0
 50
180.0
  0
MTEXT
  5
295
330
28C
100
AcDbEntity
  8
0
 62
     0
100
AcDbMText
 10
-83.19826784109209
 20
153.6279123231787
 30
0.0
 40
2.799999952316284
 41
0.0
 71
     5
 72
     1
  1
6.5
 73
     1
 44
1.0
  0
POINT
  5
296
330
28C
100
AcDbEntity
  8
Defpoints
 62
     0
100
AcDbPoint
 10
-74.05099856192001
 20
112.9000790065693
 30
0.0
  0
POINT
  5
297
330
28C
100
AcDbEntity
  8
Defpoints
 62
     0
100
AcDbPoint
 10
-67.55099856192001
 20
142.0657928408557
 30
0.0
  0
POINT
  5
298
330
28C
100
AcDbEntity
  8
Defpoints
 62
     0
100
AcDbPoint
 10
-67.55099856192001
 20
151.5279123589415
 30
0.0
  0
LINE
  5
29B
330
28C
100
AcDbEntity
  8
0
  6
Continuous
 62
     7
100
AcDbLine
 10
-74.05099856192001
 20
115.4400790065693
 30
0.0
 11
-74.05099856192001
 21
152.4612456922748
 31
0.0
  0
LINE
  5
29C
330
28C
100
AcDbEntity
  8
0
  6
Continuous
 62
     7
100
AcDbLine
 10
-67.55099856192001
 20
144.6057928408557
 30
0.0
 11
-67.55099856192001
 21
152.4612456922748
 31
0.0
  0
LINE
  5
29D
330
28C
100
AcDbEntity
  8
0
  6
Continuous
 62
     7
100
AcDbLine
 10
-80.40099856192
 20
151.5279123589415
 30
0.0
 11
-61.20099856192001
 21
151.5279123589415
 31
0.0
  0
LINE
  5
29E
330
28C
100
AcDbEntity
  8
0
  6
Continuous
 62
     7
100
AcDbLine
 10
-74.05099856192001
 20
151.5279123589415
 30
0.0
 11
-77.05099856192001
 21
150.5279123589415
 31
0.0
  0
LINE
  5
29F
330
28C
100
AcDbEntity
  8
0
  6
Continuous
 62
     7
100
AcDbLine
 10
-74.05099856192001
 20
151.5279123589415
 30
0.0
 11
-77.05099856192001
 21
152.5279123589415
 31
0.0
  0
LINE
  5
2A0
330
28C
100
AcDbEntity
  8
0
  6
Continuous
 62
     7
100
AcDbLine
 10
-67.55099856192001
 20
151.5279123589415
 30
0.0
 11
-64.55099856192001
 21
152.5279123589415
 31
0.0
  0
LINE
  5
2A1
330
28C
100
AcDbEntity
  8
0
  6
Continuous
 62
     7
100
AcDbLine
 10
-67.55099856192001
 20
151.5279123589415
 30
0.0
 11
-64.55099856192001
 21
150.5279123589415
 31
0.0
  0
LINE
  5
2A2
330
28C
100
AcDbEntity
  8
0
  6
Continuous
 62
     7
100
AcDbLine
 10
-74.05099856192001
 20
151.5279123589415
 30
0.0
 11
-87.36493450775873
 21
151.5279123589415
 31
0.0
  0
ENDBLK
  5
29A
330
28C
100
AcDbEntity
  8
0
100
AcDbBlockEnd
  0
BLOCK
  5
2AE
330
2A4
100
AcDbEntity
  8
0
100
AcDbBlockBegin
  2
*D4
 70
     1
 10
0.0
 20
0.0
 30
0.0
  3
*D4
  1

  0
LINE
  5
2A5
330
2A4
100
AcDbEntity
  8
0
 62
     0
370
    -2
100
AcDbLine
 10
-59.28601413798268
 20
136.9600790065693
 30
0.0
 11
-43.98588127955595
 21
136.9600790065693
 31
0.0
  0
LINE
  5
2A6
330
2A4
100
AcDbEntity
  8
0
 62
     0
370
    -2
100
AcDbLine
 10
-59.28601413798268
 20
67.8400790065693
 30
0.0
 11
-43.98588127955593
 21
67.8400790065693
 31
0.0
  0
LINE
  5
2A7
330
2A4
100
AcDbEntity
  8
0
 62
     0
370
    -2
100
AcDbLine
 10
-44.91921461288929
 20
133.9600790065693
 30
0.0
 11
-44.91921461288926
 21
70.8400790065693
 31
0.0
  0
INSERT
  5
2A8
330
2A4
100
AcDbEntity
  8
0
 62
     0
370
    -2
100
AcDbBlockReference
  2
_OPEN30
 10
-44.91921461288929
 20
136.9600790065693
 30
0.0
 41
3.0
 42
3.0
 43
3.0
 50
90.00000000000003
  0
INSERT
  5
2A9
330
2A4
100
AcDbEntity
  8
0
 62
     0
370
    -2
100
AcDbBlockReference
  2
_OPEN30
 10
-44.91921461288926
 20
67.8400790065693
 30
0.0
 41
3.0
 42
3.0
 43
3.0
 50
270.0
  0
MTEXT
  5
2AA
330
2A4
100
AcDbEntity
  8
0
 62
     0
100
AcDbMText
 10
-47.01921457712649
 20
102.4000790065693
 30
0.0
 40
2.799999952316284
 41
0.0
 71
     5
 72
     1
  1
\U+220569.12
 11
-4.111937128241322E-16
 21
1.0
 31
0.0
 73
     1
 44
1.0
  0
POINT
  5
2AB
330
2A4
100
AcDbEntity
  8
Defpoints
 62
     0
100
AcDbPoint
 10
-61.82601413798267
 20
136.9600790065693
 30
0.0
  0
POINT
  5
2AC
330
2A4
100
AcDbEntity
  8
Defpoints
 62
     0
100
AcDbPoint
 10
-61.82601413798267
 20
67.8400790065693
 30
0.0
  0
POINT
  5
2AD
330
2A4
100
AcDbEntity
  8
Defpoints
 62
     0
100
AcDbPoint
 10
-44.91921461288928
 20
67.84007900656931
 30
0.0
  0
ENDBLK
  5
2AF
330
2A4
100
AcDbEntity
  8
0
100
AcDbBlockEnd
  0
BLOCK
  5
2BB
330
2B1
100
AcDbEntity
  8
0
100
AcDbBlockBegin
  2
*D5
 70
     1
 10
0.0
 20
0.0
 30
0.0
  3
*D5
  1

  0
LINE
  5
2B2
330
2B1
100
AcDbEntity
  8
0
 62
     0
370
    -2
100
AcDbLine
 10
-63.7198515874094
 20
140.4000790065693
 30
0.0
 11
-35.87038635333827
 21
140.4000790065693
 31
0.0
  0
LINE
  5
2B3
330
2B1
100
AcDbEntity
  8
0
 62
     0
370
    -2
100
AcDbLine
 10
-63.7198515874094
 20
64.4000790065693
 30
0.0
 11
-35.87038635333824
 21
64.4000790065693
 31
0.0
  0
LINE
  5
2B4
330
2B1
100
AcDbEntity
  8
0
 62
     0
370
    -2
100
AcDbLine
 10
-36.8037196866716
 20
137.4000790065693
 30
0.0
 11
-36.80371968667157
 21
67.4000790065693
 31
0.0
  0
INSERT
  5
2B5
330
2B1
100
AcDbEntity
  8
0
 62
     0
370
    -2
100
AcDbBlockReference
  2
_OPEN30
 10
-36.8037196866716
 20
140.4000790065693
 30
0.0
 41
3.0
 42
3.0
 43
3.0
 50
90.00000000000003
  0
INSERT
  5
2B6
330
2B1
100
AcDbEntity
  8
0
 62
     0
370
    -2
100
AcDbBlockReference
  2
_OPEN30
 10
-36.80371968667157
 20
64.4000790065693
 30
0.0
 41
3.0
 42
3.0
 43
3.0
 50
270.0
  0
MTEXT
  5
2B7
330
2B1
100
AcDbEntity
  8
0
 62
     0
100
AcDbMText
 10
-39.63705297175353
 20
102.4000790065693
 30
0.0
 40
2.799999952316284
 41
0.0
 71
     5
 72
     1
  1
(\U+220576)
 11
-3.739698609263686E-16
 21
1.0
 31
0.0
 73
     1
 44
1.0
  0
POINT
  5
2B8
330
2B1
100
AcDbEntity
  8
Defpoints
 62
     0
100
AcDbPoint
 10
-66.2598515874094
 20
140.4000790065693
 30
0.0
  0
POINT
  5
2B9
330
2B1
100
AcDbEntity
  8
Defpoints
 62
     0
100
AcDbPoint
 10
-66.2598515874094
 20
64.4000790065693
 30
0.0
  0
POINT
  5
2BA
330
2B1
100
AcDbEntity
  8
Defpoints
 62
     0
100
AcDbPoint
 10
-36.80371968667158
 20
64.40007900656931
 30
0.0
  0
ENDBLK
  5
2BC
330
2B1
100
AcDbEntity
  8
0
100
AcDbBlockEnd
  0
BLOCK
  5
2C7
330
2BE
100
AcDbEntity
  8
0
100
AcDbBlockBegin
  2
*D6
 70
     1
 10
0.0
 20
0.0
 30
0.0
  3
*D6
  1

  0
ARC
  5
2BF
330
2BE
100
AcDbEntity
  8
0
 62
     0
370
    -2
100
AcDbCircle
 10
16.81083630046527
 20
15.90007900656929
 30
0.0
 40
18.68433405047272
100
AcDbArc
 50
54.20945392738627
 51
80.7905460726137
  0
INSERT
  5
2C0
330
2BE
100
AcDbEntity
  8
0
 62
     0
370
    -2
100
AcDbBlockReference
  2
_OPEN30
 10
30.02265560950925
 20
29.11189831561325
 30
0.0
 41
3.0
 42
3.0
 43
3.0
 50
319.6047269636931
  0
INSERT
  5
2C1
330
2BE
100
AcDbEntity
  8
0
 62
     0
370
    -2
100
AcDbBlockReference
  2
_OPEN30
 10
16.81083630046528
 20
34.58441305704201
 30
0.0
 41
3.0
 42
3.0
 43
3.0
 50
175.3952730363068
  0
MTEXT
  5
2C2
330
2BE
100
AcDbEntity
  8
0
 62
     0
 60
     1
100
AcDbMText
 10
24.79016880902684
 20
35.16389176742311
 30
0.0
 40
2.799999952316284
 41
0.0
 71
     5
 72
     1
  1
45%%d
 11
0.9238795325112865
 21
-0.3826834323650906
 31
0.0
 73
     1
 44
1.0
  0
POINT
  5
2C3
330
2BE
100
AcDbEntity
  8
Defpoints
 62
     0
100
AcDbPoint
 10
16.81083630046527
 20
15.90007900656929
 30
0.0
  0
POINT
  5
2C4
330
2BE
100
AcDbEntity
  8
Defpoints
 62
     0
100
AcDbPoint
 10
48.60546122479567
 20
47.69470393089966
 30
0.0
  0
POINT
  5
2C5
330
2BE
100
AcDbEntity
  8
Defpoints
 62
     0
100
AcDbPoint
 10
16.81083630046529
 20
65.29307441964139
 30
0.0
  0
POINT
  5
2C6
330
2BE
100
AcDbEntity
  8
Defpoints
 62
     0
100
AcDbPoint
 10
21.64669779778514
 20
33.94775981293312
 30
0.0
  0
MTEXT
  5
2C9
330
2BE
100
AcDbEntity
  8
0
 62
     7
100
AcDbMText
 10
20.76435153753241
 20
35.24393134751822
 30
0.0
 40
2.799999952316284
 41
0.0
 71
     7
 72
     1
  1
\W0.892857;45°
 11
0.9238795325112868
 21
-0.3826834323650896
 31
0.0
 73
     1
 44
1.0
  0
ENDBLK
  5
2C8
330
2BE
100
AcDbEntity
  8
0
100
AcDbBlockEnd
  0
BLOCK
  5
2D4
330
2CB
100
AcDbEntity
  8
0
100
AcDbBlockBegin
  2
*D7
 70
     1
 10
0.0
 20
0.0
 30
0.0
  3
*D7
  1

  0
ARC
  5
2CC
330
2CB
100
AcDbEntity
  8
0
 62
     0
370
    -2
100
AcDbCircle
 10
16.8108363004653
 20
15.90007900656928
 30
0.0
 40
18.68433405047272
100
AcDbArc
 50
99.20945392738632
 51
125.7905460726137
  0
INSERT
  5
2CD
330
2CB
100
AcDbEntity
  8
0
 62
     0
370
    -2
100
AcDbBlockReference
  2
_OPEN30
 10
16.81083630046529
 20
34.58441305704201
 30
0.0
 41
3.0
 42
3.0
 43
3.0
 50
4.604726963693172
  0
INSERT
  5
2CE
330
2CB
100
AcDbEntity
  8
0
 62
     0
370
    -2
100
AcDbBlockReference
  2
_OPEN30
 10
3.599016991421319
 20
29.11189831561325
 30
0.0
 41
3.0
 42
3.0
 43
3.0
 50
220.3952730363069
  0
MTEXT
  5
2CF
330
2CB
100
AcDbEntity
  8
0
 62
     0
 60
     1
100
AcDbMText
 10
8.831503791903733
 20
35.16389176742311
 30
0.0
 40
2.799999952316284
 41
0.0
 71
     5
 72
     1
  1
45%%d
 11
0.9238795325112865
 21
0.3826834323650903
 31
0.0
 73
     1
 44
1.0
  0
POINT
  5
2D0
330
2CB
100
AcDbEntity
  8
Defpoints
 62
     0
100
AcDbPoint
 10
16.8108363004653
 20
15.90007900656928
 30
0.0
  0
POINT
  5
2D1
330
2CB
100
AcDbEntity
  8
Defpoints
 62
     0
100
AcDbPoint
 10
16.81083630046528
 20
65.29307441964133
 30
0.0
  0
POINT
  5
2D2
330
2CB
100
AcDbEntity
  8
Defpoints
 62
     0
100
AcDbPoint
 10
-14.98378862386509
 20
47.69470393089965
 30
0.0
  0
POINT
  5
2D3
330
2CB
100
AcDbEntity
  8
Defpoints
 62
     0
100
AcDbPoint
 10
11.97497480314543
 20
33.94775981293312
 30
0.0
  0
MTEXT
  5
2D6
330
2CB
100
AcDbEntity
  8
0
 62
     7
100
AcDbMText
 10
5.92822456956352
 20
32.37380560478005
 30
0.0
 40
2.799999952316284
 41
0.0
 71
     7
 72
     1
  1
\W0.892857;45°
 11
0.9238795325112867
 21
0.3826834323650898
 31
0.0
 73
     1
 44
1.0
  0
ENDBLK
  5
2D5
330
2CB
100
AcDbEntity
  8
0
100
AcDbBlockEnd
  0
BLOCK
  5
2E2
330
2D8
100
AcDbEntity
  8
0
100
AcDbBlockBegin
  2
*D8
 70
     1
 10
0.0
 20
0.0
 30
0.0
  3
*D8
  1

  0
LINE
  5
2D9
330
2D8
100
AcDbEntity
  8
0
 62
     0
370
    -2
100
AcDbLine
 10
57.35083630046528
 20
102.4000790065693
 30
0.0
 11
66.56105708072799
 21
102.4000790065693
 31
0.0
  0
LINE
  5
2DA
330
2D8
100
AcDbEntity
  8
0
 62
     0
370
    -2
100
AcDbLine
 10
57.35083630046528
 20
15.90007900656928
 30
0.0
 11
66.56105708072802
 21
15.90007900656929
 31
0.0
  0
LINE
  5
2DB
330
2D8
100
AcDbEntity
  8
0
 62
     0
370
    -2
100
AcDbLine
 10
65.62772374739465
 20
99.4000790065693
 30
0.0
 11
65.62772374739468
 21
18.90007900656929
 31
0.0
  0
INSERT
  5
2DC
330
2D8
100
AcDbEntity
  8
0
 62
     0
370
    -2
100
AcDbBlockReference
  2
_OPEN30
 10
65.62772374739465
 20
102.4000790065693
 30
0.0
 41
3.0
 42
3.0
 43
3.0
 50
90.00000000000003
  0
INSERT
  5
2DD
330
2D8
100
AcDbEntity
  8
0
 62
     0
370
    -2
100
AcDbBlockReference
  2
_OPEN30
 10
65.62772374739468
 20
15.90007900656929
 30
0.0
 41
3.0
 42
3.0
 43
3.0
 50
270.0
  0
MTEXT
  5
2DE
330
2D8
100
AcDbEntity
  8
0
 62
     0
100
AcDbMText
 10
63.52772378315746
 20
59.15007900656928
 30
0.0
 40
2.799999952316284
 41
0.0
 71
     5
 72
     1
  1
86.5
 11
-3.285746754960000E-16
 21
1.0
 31
0.0
 73
     1
 44
1.0
  0
POINT
  5
2DF
330
2D8
100
AcDbEntity
  8
Defpoints
 62
     0
100
AcDbPoint
 10
54.81083630046528
 20
102.4000790065693
 30
0.0
  0
POINT
  5
2E0
330
2D8
100
AcDbEntity
  8
Defpoints
 62
     0
100
AcDbPoint
 10
54.81083630046528
 20
15.90007900656928
 30
0.0
  0
POINT
  5
2E1
330
2D8
100
AcDbEntity
  8
Defpoints
 62
     0
100
AcDbPoint
 10
65.62772374739467
 20
15.90007900656929
 30
0.0
  0
ENDBLK
  5
2E3
330
2D8
100
AcDbEntity
  8
0
100
AcDbBlockEnd
  0
BLOCK
  5
2EF
330
2E5
100
AcDbEntity
  8
0
100
AcDbBlockBegin
  2
*D9
 70
     1
 10
0.0
 20
0.0
 30
0.0
  3
*D9
  1

  0
LINE
  5
2E6
330
2E5
100
AcDbEntity
  8
0
 62
     0
370
    -2
100
AcDbLine
 10
57.35083630046528
 20
102.4000790065693
 30
0.0
 11
78.11972055142228
 21
102.4000790065693
 31
0.0
  0
LINE
  5
2E7
330
2E5
100
AcDbEntity
  8
0
 62
     0
370
    -2
100
AcDbLine
 10
19.35083630046529
 20
-18.59992099343071
 30
0.0
 11
78.11972055142232
 21
-18.59992099343067
 31
0.0
  0
LINE
  5
2E8
330
2E5
100
AcDbEntity
  8
0
 62
     0
370
    -2
100
AcDbLine
 10
77.18638721808894
 20
99.4000790065693
 30
0.0
 11
77.18638721808898
 21
-15.59992099343067
 31
0.0
  0
INSERT
  5
2E9
330
2E5
100
AcDbEntity
  8
0
 62
     0
370
    -2
100
AcDbBlockReference
  2
_OPEN30
 10
77.18638721808894
 20
102.4000790065693
 30
0.0
 41
3.0
 42
3.0
 43
3.0
 50
90.00000000000003
  0
INSERT
  5
2EA
330
2E5
100
AcDbEntity
  8
0
 62
     0
370
    -2
100
AcDbBlockReference
  2
_OPEN30
 10
77.18638721808898
 20
-18.59992099343067
 30
0.0
 41
3.0
 42
3.0
 43
3.0
 50
270.0
  0
MTEXT
  5
2EB
330
2E5
100
AcDbEntity
  8
0
 62
     0
100
AcDbMText
 10
75.08638725385175
 20
41.90007900656929
 30
0.0
 40
2.799999952316284
 41
0.0
 71
     5
 72
     1
  1
121
 11
-3.523352408727770E-16
 21
1.0
 31
0.0
 73
     1
 44
1.0
  0
POINT
  5
2EC
330
2E5
100
AcDbEntity
  8
Defpoints
 62
     0
100
AcDbPoint
 10
54.81083630046528
 20
102.4000790065693
 30
0.0
  0
POINT
  5
2ED
330
2E5
100
AcDbEntity
  8
Defpoints
 62
     0
100
AcDbPoint
 10
16.81083630046529
 20
-18.59992099343071
 30
0.0
  0
POINT
  5
2EE
330
2E5
100
AcDbEntity
  8
Defpoints
 62
     0
100
AcDbPoint
 10
77.18638721808897
 20
-18.59992099343069
 30
0.0
  0
ENDBLK
  5
2F0
330
2E5
100
AcDbEntity
  8
0
100
AcDbBlockEnd
  0
BLOCK
  5
2FC
330
2F2
100
AcDbEntity
  8
0
100
AcDbBlockBegin
  2
*D10
 70
     1
 10
0.0
 20
0.0
 30
0.0
  3
*D10
  1

  0
LINE
  5
2F3
330
2F2
100
AcDbEntity
  8
0
 62
     0
370
    -2
100
AcDbLine
 10
-17.68916369953471
 20
13.36007900656928
 30
0.0
 11
-17.68916369953472
 21
-32.063038896972
 31
0.0
  0
LINE
  5
2F4
330
2F2
100
AcDbEntity
  8
0
 62
     0
370
    -2
100
AcDbLine
 10
51.31083630046528
 20
13.36007900656928
 30
0.0
 11
51.31083630046528
 21
-32.063038896972
 31
0.0
  0
LINE
  5
2F5
330
2F2
100
AcDbEntity
  8
0
 62
     0
370
    -2
100
AcDbLine
 10
-14.68916369953472
 20
-31.12970556363867
 30
0.0
 11
48.31083630046528
 21
-31.12970556363868
 31
0.0
  0
INSERT
  5
2F6
330
2F2
100
AcDbEntity
  8
0
 62
     0
370
    -2
100
AcDbBlockReference
  2
_OPEN30
 10
-17.68916369953472
 20
-31.12970556363867
 30
0.0
 41
3.0
 42
3.0
 43
3.0
 50
180.0
  0
INSERT
  5
2F7
330
2F2
100
AcDbEntity
  8
0
 62
     0
370
    -2
100
AcDbBlockReference
  2
_OPEN30
 10
51.31083630046528
 20
-31.12970556363868
 30
0.0
 41
3.0
 42
3.0
 43
3.0
 50
360.0
  0
MTEXT
  5
2F8
330
2F2
100
AcDbEntity
  8
0
 62
     0
100
AcDbMText
 10
16.81083630046529
 20
-29.02970559940146
 30
0.0
 40
2.799999952316284
 41
0.0
 71
     5
 72
     1
  1
69
 73
     1
 44
1.0
  0
POINT
  5
2F9
330
2F2
100
AcDbEntity
  8
Defpoints
 62
     0
100
AcDbPoint
 10
-17.68916369953471
 20
15.90007900656928
 30
0.0
  0
POINT
  5
2FA
330
2F2
100
AcDbEntity
  8
Defpoints
 62
     0
100
AcDbPoint
 10
51.31083630046528
 20
15.90007900656928
 30
0.0
  0
POINT
  5
2FB
330
2F2
100
AcDbEntity
  8
Defpoints
 62
     0
100
AcDbPoint
 10
51.31083630046528
 20
-31.12970556363867
 30
0.0
  0
ENDBLK
  5
2FD
330
2F2
100
AcDbEntity
  8
0
100
AcDbBlockEnd
  0
BLOCK
  5
30C
330
2FF
100
AcDbEntity
  8
0
100
AcDbBlockBegin
  2
*D11
 70
     1
 10
0.0
 20
0.0
 30
0.0
  3
*D11
  1

  0
LINE
  5
300
330
2FF
100
AcDbEntity
  8
0
 62
     0
 60
     1
370
    -2
100
AcDbLine
 10
-74.05099856192001
 20
-21.13992099343071
 30
0.0
 11
-74.05099856192001
 21
-34.35615547047601
 31
0.0
  0
LINE
  5
301
330
2FF
100
AcDbEntity
  8
0
 62
     0
 60
     1
370
    -2
100
AcDbLine
 10
-69.05099856192012
 20
-0.13992099343097
 30
0.0
 11
-69.05099856192012
 21
-34.35615547047601
 31
0.0
  0
LINE
  5
302
330
2FF
100
AcDbEntity
  8
0
 62
     0
 60
     1
370
    -2
100
AcDbLine
 10
-69.05099856192012
 20
-33.42282213714267
 30
0.0
 11
-61.43489849651422
 21
-33.42282213714267
 31
0.0
  0
LINE
  5
303
330
2FF
100
AcDbEntity
  8
0
 62
     0
 60
     1
370
    -2
100
AcDbLine
 10
-74.05099856192001
 20
-33.42282213714267
 30
0.0
 11
-69.05099856192012
 21
-33.42282213714267
 31
0.0
  0
LINE
  5
304
330
2FF
100
AcDbEntity
  8
0
 62
     0
 60
     1
370
    -2
100
AcDbLine
 10
-77.05099856192001
 20
-33.42282213714267
 30
0.0
 11
-80.05099856192001
 21
-33.42282213714267
 31
0.0
  0
LINE
  5
305
330
2FF
100
AcDbEntity
  8
0
 62
     0
 60
     1
370
    -2
100
AcDbLine
 10
-66.05099856192012
 20
-33.42282213714267
 30
0.0
 11
-63.05099856192012
 21
-33.42282213714267
 31
0.0
  0
INSERT
  5
306
330
2FF
100
AcDbEntity
  8
0
 62
     0
 60
     1
370
    -2
100
AcDbBlockReference
  2
_OPEN30
 10
-74.05099856192001
 20
-33.42282213714267
 30
0.0
 41
3.0
 42
3.0
 43
3.0
  0
INSERT
  5
307
330
2FF
100
AcDbEntity
  8
0
 62
     0
 60
     1
370
    -2
100
AcDbBlockReference
  2
_OPEN30
 10
-69.05099856192012
 20
-33.42282213714267
 30
0.0
 41
3.0
 42
3.0
 43
3.0
 50
180.0
  0
MTEXT
  5
308
330
2FF
100
AcDbEntity
  8
0
 62
     0
100
AcDbMText
 10
-63.06823180203206
 20
-31.32282217290546
 30
0.0
 40
2.799999952316284
 41
0.0
 71
     5
 72
     1
  1
5
 73
     1
 44
1.0
  0
POINT
  5
309
330
2FF
100
AcDbEntity
  8
Defpoints
 62
     0
100
AcDbPoint
 10
-74.05099856192001
 20
-18.59992099343071
 30
0.0
  0
POINT
  5
30A
330
2FF
100
AcDbEntity
  8
Defpoints
 62
     0
100
AcDbPoint
 10
-69.05099856192012
 20
2.40007900656903
 30
0.0
  0
POINT
  5
30B
330
2FF
100
AcDbEntity
  8
Defpoints
 62
     0
100
AcDbPoint
 10
-69.05099856192012
 20
-33.42282213714267
 30
0.0
  0
LINE
  5
30E
330
2FF
100
AcDbEntity
  8
0
  6
Continuous
 62
     7
100
AcDbLine
 10
-74.05099856192001
 20
-21.13992099343071
 30
0.0
 11
-74.05099856192001
 21
-34.35615547047601
 31
0.0
  0
LINE
  5
30F
330
2FF
100
AcDbEntity
  8
0
  6
Continuous
 62
     7
100
AcDbLine
 10
-69.05099856192012
 20
-0.13992099343097
 30
0.0
 11
-69.05099856192012
 21
-34.35615547047601
 31
0.0
  0
LINE
  5
310
330
2FF
100
AcDbEntity
  8
0
  6
Continuous
 62
     7
100
AcDbLine
 10
-80.40099856192
 20
-33.42282213714267
 30
0.0
 11
-62.70099856192012
 21
-33.42282213714267
 31
0.0
  0
LINE
  5
311
330
2FF
100
AcDbEntity
  8
0
  6
Continuous
 62
     7
100
AcDbLine
 10
-74.05099856192001
 20
-33.42282213714267
 30
0.0
 11
-77.05099856192001
 21
-34.42282213714267
 31
0.0
  0
LINE
  5
312
330
2FF
100
AcDbEntity
  8
0
  6
Continuous
 62
     7
100
AcDbLine
 10
-74.05099856192001
 20
-33.42282213714267
 30
0.0
 11
-77.05099856192001
 21
-32.42282213714267
 31
0.0
  0
LINE
  5
313
330
2FF
100
AcDbEntity
  8
0
  6
Continuous
 62
     7
100
AcDbLine
 10
-69.05099856192012
 20
-33.42282213714267
 30
0.0
 11
-66.05099856192012
 21
-32.42282213714267
 31
0.0
  0
LINE
  5
314
330
2FF
100
AcDbEntity
  8
0
  6
Continuous
 62
     7
100
AcDbLine
 10
-69.05099856192012
 20
-33.42282213714267
 30
0.0
 11
-66.05099856192012
 21
-34.42282213714267
 31
0.0
  0
LINE
  5
315
330
2FF
100
AcDbEntity
  8
0
  6
Continuous
 62
     7
100
AcDbLine
 10
-69.05099856192012
 20
-33.42282213714267
 30
0.0
 11
-61.4015651353654
 21
-33.42282213714267
 31
0.0
  0
ENDBLK
  5
30D
330
2FF
100
AcDbEntity
  8
0
100
AcDbBlockEnd
  0
BLOCK
  5
321
330
317
100
AcDbEntity
  8
0
100
AcDbBlockBegin
  2
*D12
 70
     1
 10
0.0
 20
0.0
 30
0.0
  3
*D12
  1

  0
LINE
  5
318
330
317
100
AcDbEntity
  8
0
 62
     0
370
    -2
100
AcDbLine
 10
-105.05099856192
 20
-21.13992099343071
 30
0.0
 11
-105.05099856192
 21
-34.35615547047601
 31
0.0
  0
LINE
  5
319
330
317
100
AcDbEntity
  8
0
 62
     0
370
    -2
100
AcDbLine
 10
-89.55099856192003
 20
-21.13992099343071
 30
0.0
 11
-89.55099856192003
 21
-34.35615547047601
 31
0.0
  0
LINE
  5
31A
330
317
100
AcDbEntity
  8
0
 62
     0
370
    -2
100
AcDbLine
 10
-102.05099856192
 20
-33.42282213714267
 30
0.0
 11
-92.55099856192003
 21
-33.42282213714267
 31
0.0
  0
INSERT
  5
31B
330
317
100
AcDbEntity
  8
0
 62
     0
370
    -2
100
AcDbBlockReference
  2
_OPEN30
 10
-105.05099856192
 20
-33.42282213714267
 30
0.0
 41
3.0
 42
3.0
 43
3.0
 50
180.0
  0
INSERT
  5
31C
330
317
100
AcDbEntity
  8
0
 62
     0
370
    -2
100
AcDbBlockReference
  2
_OPEN30
 10
-89.55099856192003
 20
-33.42282213714267
 30
0.0
 41
3.0
 42
3.0
 43
3.0
  0
MTEXT
  5
31D
330
317
100
AcDbEntity
  8
0
 62
     0
100
AcDbMText
 10
-97.30099856192
 20
-31.32282217290546
 30
0.0
 40
2.799999952316284
 41
0.0
 71
     5
 72
     1
  1
15.5
 73
     1
 44
1.0
  0
POINT
  5
31E
330
317
100
AcDbEntity
  8
Defpoints
 62
     0
100
AcDbPoint
 10
-105.05099856192
 20
-18.59992099343071
 30
0.0
  0
POINT
  5
31F
330
317
100
AcDbEntity
  8
Defpoints
 62
     0
100
AcDbPoint
 10
-89.55099856192003
 20
-18.59992099343071
 30
0.0
  0
POINT
  5
320
330
317
100
AcDbEntity
  8
Defpoints
 62
     0
100
AcDbPoint
 10
-89.55099856192003
 20
-33.42282213714267
 30
0.0
  0
ENDBLK
  5
322
330
317
100
AcDbEntity
  8
0
100
AcDbBlockEnd
  0
BLOCK
  5
32E
330
324
100
AcDbEntity
  8
0
100
AcDbBlockBegin
  2
*D13
 70
     1
 10
0.0
 20
0.0
 30
0.0
  3
*D13
  1

  0
LINE
  5
325
330
324
100
AcDbEntity
  8
0
 62
     0
370
    -2
100
AcDbLine
 10
-89.55099856192003
 20
-21.13992099343071
 30
0.0
 11
-89.55099856192003
 21
-34.35615547047601
 31
0.0
  0
LINE
  5
326
330
324
100
AcDbEntity
  8
0
 62
     0
370
    -2
100
AcDbLine
 10
-74.05099856192001
 20
-20.13992099343071
 30
0.0
 11
-74.05099856192001
 21
-34.35615547047601
 31
0.0
  0
LINE
  5
327
330
324
100
AcDbEntity
  8
0
 62
     0
370
    -2
100
AcDbLine
 10
-86.55099856192003
 20
-33.42282213714267
 30
0.0
 11
-77.05099856192001
 21
-33.42282213714267
 31
0.0
  0
INSERT
  5
328
330
324
100
AcDbEntity
  8
0
 62
     0
370
    -2
100
AcDbBlockReference
  2
_OPEN30
 10
-89.55099856192003
 20
-33.42282213714267
 30
0.0
 41
3.0
 42
3.0
 43
3.0
 50
180.0
  0
INSERT
  5
329
330
324
100
AcDbEntity
  8
0
 62
     0
370
    -2
100
AcDbBlockReference
  2
_OPEN30
 10
-74.05099856192001
 20
-33.42282213714267
 30
0.0
 41
3.0
 42
3.0
 43
3.0
  0
MTEXT
  5
32A
330
324
100
AcDbEntity
  8
0
 62
     0
100
AcDbMText
 10
-81.80099856192001
 20
-31.32282217290546
 30
0.0
 40
2.799999952316284
 41
0.0
 71
     5
 72
     1
  1
15.5
 73
     1
 44
1.0
  0
POINT
  5
32B
330
324
100
AcDbEntity
  8
Defpoints
 62
     0
100
AcDbPoint
 10
-89.55099856192003
 20
-18.59992099343071
 30
0.0
  0
POINT
  5
32C
330
324
100
AcDbEntity
  8
Defpoints
 62
     0
100
AcDbPoint
 10
-74.05099856192001
 20
-17.59992099343071
 30
0.0
  0
POINT
  5
32D
330
324
100
AcDbEntity
  8
Defpoints
 62
     0
100
AcDbPoint
 10
-74.05099856192001
 20
-33.42282213714267
 30
0.0
  0
ENDBLK
  5
32F
330
324
100
AcDbEntity
  8
0
100
AcDbBlockEnd
  0
BLOCK
  5
33B
330
331
100
AcDbEntity
  8
0
100
AcDbBlockBegin
  2
*D14
 70
     1
 10
0.0
 20
0.0
 30
0.0
  3
*D14
  1

  0
LINE
  5
332
330
331
100
AcDbEntity
  8
0
 62
     0
370
    -2
100
AcDbLine
 10
-105.05099856192
 20
51.94007900656926
 30
0.0
 11
-105.05099856192
 21
159.4700520957113
 31
0.0
  0
LINE
  5
333
330
331
100
AcDbEntity
  8
0
 62
     0
370
    -2
100
AcDbLine
 10
-67.55099856192001
 20
144.6057928408557
 30
0.0
 11
-67.55099856192001
 21
159.4700520957113
 31
0.0
  0
LINE
  5
334
330
331
100
AcDbEntity
  8
0
 62
     0
370
    -2
100
AcDbLine
 10
-102.05099856192
 20
158.5367187623779
 30
0.0
 11
-70.55099856192001
 21
158.5367187623779
 31
0.0
  0
INSERT
  5
335
330
331
100
AcDbEntity
  8
0
 62
     0
370
    -2
100
AcDbBlockReference
  2
_OPEN30
 10
-105.05099856192
 20
158.5367187623779
 30
0.0
 41
3.0
 42
3.0
 43
3.0
 50
180.0
  0
INSERT
  5
336
330
331
100
AcDbEntity
  8
0
 62
     0
370
    -2
100
AcDbBlockReference
  2
_OPEN30
 10
-67.55099856192001
 20
158.5367187623779
 30
0.0
 41
3.0
 42
3.0
 43
3.0
  0
MTEXT
  5
337
330
331
100
AcDbEntity
  8
0
 62
     0
100
AcDbMText
 10
-86.30099856192
 20
160.6367187266152
 30
0.0
 40
2.799999952316284
 41
0.0
 71
     5
 72
     1
  1
37.5
 73
     1
 44
1.0
  0
POINT
  5
338
330
331
100
AcDbEntity
  8
Defpoints
 62
     0
100
AcDbPoint
 10
-105.05099856192
 20
49.40007900656926
 30
0.0
  0
POINT
  5
339
330
331
100
AcDbEntity
  8
Defpoints
 62
     0
100
AcDbPoint
 10
-67.55099856192001
 20
142.0657928408557
 30
0.0
  0
POINT
  5
33A
330
331
100
AcDbEntity
  8
Defpoints
 62
     0
100
AcDbPoint
 10
-67.55099856192001
 20
158.5367187623779
 30
0.0
  0
ENDBLK
  5
33C
330
331
100
AcDbEntity
  8
0
100
AcDbBlockEnd
  0
BLOCK
  5
348
330
33E
100
AcDbEntity
  8
0
100
AcDbBlockBegin
  2
*D15
 70
     1
 10
0.0
 20
0.0
 30
0.0
  3
*D15
  1

  0
LINE
  5
33F
330
33E
100
AcDbEntity
  8
0
 62
     0
370
    -2
100
AcDbLine
 10
-105.05099856192
 20
51.94007900656926
 30
0.0
 11
-105.05099856192
 21
167.4626020946089
 31
0.0
  0
LINE
  5
340
330
33E
100
AcDbEntity
  8
0
 62
     0
370
    -2
100
AcDbLine
 10
-54.55099856192001
 20
113.4271279636568
 30
0.0
 11
-54.55099856192
 21
167.4626020946089
 31
0.0
  0
LINE
  5
341
330
33E
100
AcDbEntity
  8
0
 62
     0
370
    -2
100
AcDbLine
 10
-102.05099856192
 20
166.5292687612756
 30
0.0
 11
-57.55099856192
 21
166.5292687612756
 31
0.0
  0
INSERT
  5
342
330
33E
100
AcDbEntity
  8
0
 62
     0
370
    -2
100
AcDbBlockReference
  2
_OPEN30
 10
-105.05099856192
 20
166.5292687612756
 30
0.0
 41
3.0
 42
3.0
 43
3.0
 50
180.0
  0
INSERT
  5
343
330
33E
100
AcDbEntity
  8
0
 62
     0
370
    -2
100
AcDbBlockReference
  2
_OPEN30
 10
-54.55099856192
 20
166.5292687612756
 30
0.0
 41
3.0
 42
3.0
 43
3.0
  0
MTEXT
  5
344
330
33E
100
AcDbEntity
  8
0
 62
     0
100
AcDbMText
 10
-79.80099856192
 20
168.6292687255128
 30
0.0
 40
2.799999952316284
 41
0.0
 71
     5
 72
     1
  1
50.5
 73
     1
 44
1.0
  0
POINT
  5
345
330
33E
100
AcDbEntity
  8
Defpoints
 62
     0
100
AcDbPoint
 10
-105.05099856192
 20
49.40007900656926
 30
0.0
  0
POINT
  5
346
330
33E
100
AcDbEntity
  8
Defpoints
 62
     0
100
AcDbPoint
 10
-54.55099856192001
 20
110.8871279636568
 30
0.0
  0
POINT
  5
347
330
33E
100
AcDbEntity
  8
Defpoints
 62
     0
100
AcDbPoint
 10
-54.55099856192
 20
166.5292687612756
 30
0.0
  0
ENDBLK
  5
349
330
33E
100
AcDbEntity
  8
0
100
AcDbBlockEnd
  0
ENDSEC
  0
SECTION
  2
ENTITIES
  0
POINT
  5
D6
330
1F
100
AcDbEntity
  8
VIEW0001
 62
     7
100
AcDbPoint
 10
-63.05099856192
 20
87.40007900656929
 30
0.0
  0
POINT
  5
D7
330
1F
100
AcDbEntity
  8
VIEW0001
 62
     7
100
AcDbPoint
 10
38.41083630046528
 20
77.40007900656929
 30
0.0
  0
POINT
  5
D8
330
1F
100
AcDbEntity
  8
VIEW0001
 62
     7
100
AcDbPoint
 10
-88.15099856192
 20
47.40007900656929
 30
0.0
  0
POINT
  5
D9
330
1F
100
AcDbEntity
  8
VIEW0001
 62
     7
100
AcDbPoint
 10
16.81083630046529
 20
112.4267096656774
 30
0.0
  0
POINT
  5
DA
330
1F
100
AcDbEntity
  8
VIEW0001
 62
     7
100
AcDbPoint
 10
-65.3866636995347
 20
117.4000790065693
 30
0.0
  0
POINT
  5
DB
330
1F
100
AcDbEntity
  8
VIEW0001
 62
     7
100
AcDbPoint
 10
-65.3866636995347
 20
87.40007900656929
 30
0.0
  0
POINT
  5
DC
330
1F
100
AcDbEntity
  8
VIEW0001
 62
     7
100
AcDbPoint
 10
-63.38666369953469
 20
102.4000790065693
 30
0.0
  0
POINT
  5
DD
330
1F
100
AcDbEntity
  8
VIEW0001
 62
     7
100
AcDbPoint
 10
-65.3866636995347
 20
102.4000790065693
 30
0.0
  0
POINT
  5
DE
330
1F
100
AcDbEntity
  8
VIEW0001
 62
     7
100
AcDbPoint
 10
16.81083630046529
 20
72.40007900656931
 30
0.0
  0
POINT
  5
DF
330
1F
100
AcDbEntity
  8
VIEW0001
 62
     7
100
AcDbPoint
 10
16.81083630046529
 20
112.4000790065693
 30
0.0
  0
POINT
  5
E0
330
1F
100
AcDbEntity
  8
VIEW0001
 62
     7
100
AcDbPoint
 10
-79.95099856192
 20
77.40007900656929
 30
0.0
  0
POINT
  5
E1
330
1F
100
AcDbEntity
  8
VIEW0001
 62
     7
100
AcDbPoint
 10
-94.05099856192
 20
112.4000790065693
 30
0.0
  0
POINT
  5
E2
330
1F
100
AcDbEntity
  8
VIEW0001
 62
     7
100
AcDbPoint
 10
-74.05099856192001
 20
112.4000790065693
 30
0.0
  0
POINT
  5
E3
330
1F
100
AcDbEntity
  8
VIEW0001
 62
     7
100
AcDbPoint
 10
-9.289163699534702
 20
45.40007900656926
 30
0.0
  0
POINT
  5
E4
330
1F
100
AcDbEntity
  8
VIEW0001
 62
     7
100
AcDbPoint
 10
16.81083630046529
 20
102.4000790065693
 30
0.0
  0
POINT
  5
E5
330
1F
100
AcDbEntity
  8
VIEW0001
 62
     7
100
AcDbPoint
 10
-79.95099856192
 20
47.40007900656929
 30
0.0
  0
POINT
  5
E6
330
1F
100
AcDbEntity
  8
VIEW0001
 62
     7
100
AcDbPoint
 10
-88.15099856192
 20
77.40007900656929
 30
0.0
  0
POINT
  5
E7
330
1F
100
AcDbEntity
  8
VIEW0001
 62
     7
100
AcDbPoint
 10
-94.05099856192
 20
77.40007900656929
 30
0.0
  0
POINT
  5
E8
330
1F
100
AcDbEntity
  8
VIEW0001
 62
     7
100
AcDbPoint
 10
-67.55099856192001
 20
144.4000790065693
 30
0.0
  0
POINT
  5
E9
330
1F
100
AcDbEntity
  8
VIEW0001
 62
     7
100
AcDbPoint
 10
16.81083630046529
 20
102.6267096656775
 30
0.0
  0
POINT
  5
EA
330
1F
100
AcDbEntity
  8
VIEW0001
 62
     7
100
AcDbPoint
 10
-94.05099856192
 20
107.4000790065693
 30
0.0
  0
POINT
  5
EB
330
1F
100
AcDbEntity
  8
VIEW0001
 62
     7
100
AcDbPoint
 10
-96.05099856192
 20
107.4000790065693
 30
0.0
  0
POINT
  5
EC
330
1F
100
AcDbEntity
  8
VIEW0001
 62
     7
100
AcDbPoint
 10
38.41083630046528
 20
65.38524228149655
 30
0.0
  0
POINT
  5
ED
330
1F
100
AcDbEntity
  8
VIEW0001
 62
     7
100
AcDbPoint
 10
-96.05099856192
 20
97.40007900656929
 30
0.0
  0
POINT
  5
EE
330
1F
100
AcDbEntity
  8
VIEW0001
 62
     7
100
AcDbPoint
 10
-54.05099856192001
 20
102.4000790065693
 30
0.0
  0
POINT
  5
EF
330
1F
100
AcDbEntity
  8
VIEW0001
 62
     7
100
AcDbPoint
 10
16.81083630046529
 20
-19.59992099343071
 30
0.0
  0
POINT
  5
F0
330
1F
100
AcDbEntity
  8
VIEW0001
 62
     7
100
AcDbPoint
 10
-11.2891636995347
 20
-26.59992099343071
 30
0.0
  0
POINT
  5
F1
330
1F
100
AcDbEntity
  8
VIEW0001
 62
     7
100
AcDbPoint
 10
44.91083630046528
 20
-26.59992099343071
 30
0.0
  0
POINT
  5
F2
330
1F
100
AcDbEntity
  8
VIEW0001
 62
     7
100
AcDbPoint
 10
16.81083630046529
 20
-14.09992099343071
 30
0.0
  0
POINT
  5
F3
330
1F
100
AcDbEntity
  8
VIEW0001
 62
     7
100
AcDbPoint
 10
16.81083630046529
 20
38.40007900656929
 30
0.0
  0
POINT
  5
F4
330
1F
100
AcDbEntity
  8
VIEW0001
 62
     7
100
AcDbPoint
 10
-65.3866636995347
 20
87.40007900656929
 30
0.0
  0
POINT
  5
F5
330
1F
100
AcDbEntity
  8
VIEW0001
 62
     7
100
AcDbPoint
 10
16.81083630046529
 20
32.9000790065693
 30
0.0
  0
POINT
  5
F6
330
1F
100
AcDbEntity
  8
VIEW0001
 62
     7
100
AcDbPoint
 10
16.81083630046529
 20
102.4000790065693
 30
0.0
  0
POINT
  5
F7
330
1F
100
AcDbEntity
  8
VIEW0001
 62
     7
100
AcDbPoint
 10
44.31083630046528
 20
77.40007900656929
 30
0.0
  0
POINT
  5
F8
330
1F
100
AcDbEntity
  8
VIEW0001
 62
     7
100
AcDbPoint
 10
44.31083630046528
 20
85.40007900656929
 30
0.0
  0
POINT
  5
F9
330
1F
100
AcDbEntity
  8
VIEW0001
 62
     7
100
AcDbPoint
 10
38.31083630046528
 20
85.40007900656929
 30
0.0
  0
POINT
  5
FA
330
1F
100
AcDbEntity
  8
VIEW0001
 62
     7
100
AcDbPoint
 10
-96.55099856192
 20
47.40007900656929
 30
0.0
  0
POINT
  5
FB
330
1F
100
AcDbEntity
  8
VIEW0001
 62
     7
100
AcDbPoint
 10
-73.55099856192001
 20
47.40007900656929
 30
0.0
  0
POINT
  5
FC
330
1F
100
AcDbEntity
  8
VIEW0001
 62
     7
100
AcDbPoint
 10
-73.55099856192001
 20
-26.59992099343071
 30
0.0
  0
POINT
  5
FD
330
1F
100
AcDbEntity
  8
VIEW0001
 62
     7
100
AcDbPoint
 10
-74.05099856192001
 20
77.40007900656929
 30
0.0
  0
POINT
  5
FE
330
1F
100
AcDbEntity
  8
VIEW0001
 62
     7
100
AcDbPoint
 10
-63.38666369953469
 20
112.9000790065693
 30
0.0
  0
POINT
  5
FF
330
1F
100
AcDbEntity
  8
VIEW0001
 62
     7
100
AcDbPoint
 10
-65.6366636995347
 20
140.3084092817986
 30
0.0
  0
POINT
  5
100
330
1F
100
AcDbEntity
  8
VIEW0001
 62
     7
100
AcDbPoint
 10
-69.8866636995347
 20
140.3084092817986
 30
0.0
  0
POINT
  5
101
330
1F
100
AcDbEntity
  8
VIEW0001
 62
     7
100
AcDbPoint
 10
-60.63666369953469
 20
140.3084092817986
 30
0.0
  0
POINT
  5
102
330
1F
100
AcDbEntity
  8
VIEW0001
 62
     7
100
AcDbPoint
 10
-69.8866636995347
 20
56.30840928179867
 30
0.0
  0
POINT
  5
103
330
1F
100
AcDbEntity
  8
VIEW0001
 62
     7
100
AcDbPoint
 10
-65.6366636995347
 20
56.30840928179867
 30
0.0
  0
POINT
  5
104
330
1F
100
AcDbEntity
  8
VIEW0001
 62
     7
100
AcDbPoint
 10
-74.1366636995347
 20
56.30840928179867
 30
0.0
  0
POINT
  5
105
330
1F
100
AcDbEntity
  8
VIEW0001
 62
     7
100
AcDbPoint
 10
-74.1366636995347
 20
140.3084092817986
 30
0.0
  0
POINT
  5
106
330
1F
100
AcDbEntity
  8
VIEW0001
 62
     7
100
AcDbPoint
 10
-61.05099856192
 20
122.0000790065693
 30
0.0
  0
POINT
  5
107
330
1F
100
AcDbEntity
  8
VIEW0001
 62
     7
100
AcDbPoint
 10
-61.05099856192
 20
112.2000790065693
 30
0.0
  0
POINT
  5
108
330
1F
100
AcDbEntity
  8
VIEW0001
 62
     7
100
AcDbPoint
 10
1.81083630046529
 20
-13.59992099343071
 30
0.0
  0
POINT
  5
109
330
1F
100
AcDbEntity
  8
VIEW0001
 62
     7
100
AcDbPoint
 10
3.810836300465289
 20
-13.59992099343071
 30
0.0
  0
POINT
  5
10A
330
1F
100
AcDbEntity
  8
VIEW0001
 62
     7
100
AcDbPoint
 10
9.310836300465288
 20
-19.59992099343071
 30
0.0
  0
POINT
  5
10B
330
1F
100
AcDbEntity
  8
VIEW0001
 62
     7
100
AcDbPoint
 10
3.810836300465289
 20
-19.59992099343071
 30
0.0
  0
POINT
  5
10C
330
1F
100
AcDbEntity
  8
VIEW0001
 62
     7
100
AcDbPoint
 10
-0.68916369953471
 20
-20.09992099343071
 30
0.0
  0
POINT
  5
10D
330
1F
100
AcDbEntity
  8
VIEW0001
 62
     7
100
AcDbPoint
 10
-0.68916369953471
 20
-26.59992099343071
 30
0.0
  0
POINT
  5
10E
330
1F
100
AcDbEntity
  8
VIEW0001
 62
     7
100
AcDbPoint
 10
-67.55099856192001
 20
144.6267096656775
 30
0.0
  0
POINT
  5
10F
330
1F
100
AcDbEntity
  8
VIEW0001
 62
     7
100
AcDbPoint
 10
-67.55099856192001
 20
133.0000790065693
 30
0.0
  0
POINT
  5
110
330
1F
100
AcDbEntity
  8
VIEW0001
 62
     7
100
AcDbPoint
 10
-96.05099856192
 20
106.8767096656775
 30
0.0
  0
POINT
  5
111
330
1F
100
AcDbEntity
  8
VIEW0001
 62
     7
100
AcDbPoint
 10
-95.30099856192003
 20
97.62670966567745
 30
0.0
  0
POINT
  5
112
330
1F
100
AcDbEntity
  8
VIEW0001
 62
     7
100
AcDbPoint
 10
-96.05099856192
 20
98.15007900656929
 30
0.0
  0
POINT
  5
113
330
1F
100
AcDbEntity
  8
VIEW0001
 62
     7
100
AcDbPoint
 10
-8.189163699534708
 20
76.40007900656929
 30
0.0
  0
POINT
  5
114
330
1F
100
AcDbEntity
  8
VIEW0001
 62
     7
100
AcDbPoint
 10
16.81083630046529
 20
76.40007900656929
 30
0.0
  0
POINT
  5
115
330
1F
100
AcDbEntity
  8
VIEW0001
 62
     7
100
AcDbPoint
 10
16.81083630046529
 20
73.4000790065693
 30
0.0
  0
POINT
  5
116
330
1F
100
AcDbEntity
  8
VIEW0001
 62
     7
100
AcDbPoint
 10
16.81083630046529
 20
73.62670966567747
 30
0.0
  0
POINT
  5
117
330
1F
100
AcDbEntity
  8
VIEW0001
 62
     7
100
AcDbPoint
 10
-8.189163699534708
 20
77.40007900656929
 30
0.0
  0
POINT
  5
118
330
1F
100
AcDbEntity
  8
VIEW0001
 62
     7
100
AcDbPoint
 10
-67.55099856192001
 20
140.4000790065693
 30
0.0
  0
POINT
  5
119
330
1F
100
AcDbEntity
  8
VIEW0001
 62
     7
100
AcDbPoint
 10
-64.05099856192001
 20
140.4000790065693
 30
0.0
  0
POINT
  5
11A
330
1F
100
AcDbEntity
  8
VIEW0001
 62
     7
100
AcDbPoint
 10
-64.05099856192001
 20
64.4000790065693
 30
0.0
  0
POINT
  5
11B
330
1F
100
AcDbEntity
  8
VIEW0001
 62
     7
100
AcDbPoint
 10
-71.05099856192001
 20
64.4000790065693
 30
0.0
  0
POINT
  5
11C
330
1F
100
AcDbEntity
  8
VIEW0001
 62
     7
100
AcDbPoint
 10
-71.05099856192001
 20
140.4000790065693
 30
0.0
  0
POINT
  5
11D
330
1F
100
AcDbEntity
  8
VIEW0001
 62
     7
100
AcDbPoint
 10
-67.55099856192001
 20
136.9600790065693
 30
0.0
  0
POINT
  5
11E
330
1F
100
AcDbEntity
  8
VIEW0001
 62
     7
100
AcDbPoint
 10
-63.05099856192
 20
117.4000790065693
 30
0.0
  0
POINT
  5
11F
330
1F
100
AcDbEntity
  8
VIEW0001
 62
     7
100
AcDbPoint
 10
-63.05099856192
 20
112.9000790065693
 30
0.0
  0
POINT
  5
120
330
1F
100
AcDbEntity
  8
VIEW0001
 62
     7
100
AcDbPoint
 10
-71.05099856192001
 20
117.4000790065693
 30
0.0
  0
POINT
  5
121
330
1F
100
AcDbEntity
  8
VIEW0001
 62
     7
100
AcDbPoint
 10
-64.05099856192001
 20
117.4000790065693
 30
0.0
  0
POINT
  5
122
330
1F
100
AcDbEntity
  8
VIEW0001
 62
     7
100
AcDbPoint
 10
-63.05099856192
 20
87.40007900656929
 30
0.0
  0
POINT
  5
123
330
1F
100
AcDbEntity
  8
VIEW0001
 62
     7
100
AcDbPoint
 10
-57.55099856192001
 20
133.0000790065693
 30
0.0
  0
POINT
  5
124
330
1F
100
AcDbEntity
  8
VIEW0001
 62
     7
100
AcDbPoint
 10
-54.55099856192001
 20
102.4000790065693
 30
0.0
  0
POINT
  5
125
330
1F
100
AcDbEntity
  8
VIEW0001
 62
     7
100
AcDbPoint
 10
16.81083630046529
 20
15.90007900656928
 30
0.0
  0
POINT
  5
126
330
1F
100
AcDbEntity
  8
VIEW0001
 62
     7
100
AcDbPoint
 10
16.81083630046529
 20
15.90007900656928
 30
0.0
  0
POINT
  5
127
330
1F
100
AcDbEntity
  8
VIEW0001
 62
     7
100
AcDbPoint
 10
16.81083630046529
 20
115.4000790065693
 30
0.0
  0
POINT
  5
128
330
1F
100
AcDbEntity
  8
VIEW0001
 62
     7
100
AcDbPoint
 10
31.56083630046528
 20
115.4000790065693
 30
0.0
  0
POINT
  5
129
330
1F
100
AcDbEntity
  8
VIEW0001
 62
     7
100
AcDbPoint
 10
31.56083630046528
 20
90.40007900656929
 30
0.0
  0
POINT
  5
12A
330
1F
100
AcDbEntity
  8
VIEW0001
 62
     7
100
AcDbPoint
 10
16.81083630046529
 20
90.40007900656929
 30
0.0
  0
POINT
  5
12B
330
1F
100
AcDbEntity
  8
VIEW0001
 62
     7
100
AcDbPoint
 10
28.18009590845354
 20
89.49421234871046
 30
0.0
  0
POINT
  5
12C
330
1F
100
AcDbEntity
  8
VIEW0001
 62
     7
100
AcDbPoint
 10
31.56083630046528
 20
115.4000790065693
 30
0.0
  0
POINT
  5
12D
330
1F
100
AcDbEntity
  8
VIEW0001
 62
     7
100
AcDbPoint
 10
31.56083630046528
 20
115.4000790065693
 30
0.0
  0
POINT
  5
12E
330
1F
100
AcDbEntity
  8
VIEW0001
 62
     7
100
AcDbPoint
 10
2.06083630046529
 20
115.4000790065693
 30
0.0
  0
POINT
  5
12F
330
1F
100
AcDbEntity
  8
VIEW0001
 62
     7
100
AcDbPoint
 10
2.06083630046529
 20
90.40007900656927
 30
0.0
  0
POINT
  5
130
330
1F
100
AcDbEntity
  8
VIEW0001
 62
     7
100
AcDbPoint
 10
5.684302931900564
 20
90.40007900656929
 30
0.0
  0
POINT
  5
131
330
1F
100
AcDbEntity
  8
VIEW0001
 62
     7
100
AcDbPoint
 10
27.93736966903
 20
90.40007900656929
 30
0.0
  0
POINT
  5
132
330
1F
100
AcDbEntity
  8
VIEW0001
 62
     7
100
AcDbPoint
 10
31.56083630046528
 20
90.40007900656929
 30
0.0
  0
POINT
  5
133
330
1F
100
AcDbEntity
  8
VIEW0001
 62
     7
100
AcDbPoint
 10
41.42104190395665
 20
40.07832915321725
 30
0.0
  0
POINT
  5
134
330
1F
100
AcDbEntity
  8
VIEW0001
 62
     7
100
AcDbPoint
 10
-7.799369303026078
 20
40.07832915321723
 30
0.0
  0
POINT
  5
135
330
1F
100
AcDbEntity
  8
VIEW0001
 62
     7
100
AcDbPoint
 10
47.09467703267961
 20
32.42699615726245
 30
0.0
  0
POINT
  5
136
330
1F
100
AcDbEntity
  8
VIEW0001
 62
     7
100
AcDbPoint
 10
-13.47300443174903
 20
32.42699615726248
 30
0.0
  0
POINT
  5
137
330
1F
100
AcDbEntity
  8
VIEW0001
 62
     7
100
AcDbPoint
 10
16.81083630046529
 20
44.65007900656926
 30
0.0
  0
POINT
  5
138
330
1F
100
AcDbEntity
  8
VIEW0001
 62
     7
100
AcDbPoint
 10
19.46083630046529
 20
44.65007900656926
 30
0.0
  0
POINT
  5
139
330
1F
100
AcDbEntity
  8
VIEW0001
 62
     7
100
AcDbPoint
 10
19.46083630046529
 20
35.65007900656927
 30
0.0
  0
POINT
  5
13A
330
1F
100
AcDbEntity
  8
VIEW0001
 62
     7
100
AcDbPoint
 10
19.46083630046529
 20
44.65007900656926
 30
0.0
  0
POINT
  5
13B
330
1F
100
AcDbEntity
  8
VIEW0001
 62
     7
100
AcDbPoint
 10
14.16083630046529
 20
44.65007900656926
 30
0.0
  0
POINT
  5
13C
330
1F
100
AcDbEntity
  8
VIEW0001
 62
     7
100
AcDbPoint
 10
14.16083630046529
 20
35.65007900656927
 30
0.0
  0
POINT
  5
13D
330
1F
100
AcDbEntity
  8
VIEW0001
 62
     7
100
AcDbPoint
 10
19.46083630046529
 20
35.65007900656927
 30
0.0
  0
POINT
  5
13E
330
1F
100
AcDbEntity
  8
VIEW0001
 62
     7
100
AcDbPoint
 10
-89.35099856192001
 20
115.4000790065693
 30
0.0
  0
POINT
  5
13F
330
1F
100
AcDbEntity
  8
VIEW0001
 62
     7
100
AcDbPoint
 10
-104.65099856192
 20
50.40007900656926
 30
0.0
  0
POINT
  5
140
330
1F
100
AcDbEntity
  8
VIEW0001
 62
     7
100
AcDbPoint
 10
-85.35099856192001
 20
90.40007900656929
 30
0.0
  0
POINT
  5
141
330
1F
100
AcDbEntity
  8
VIEW0001
 62
     7
100
AcDbPoint
 10
-99.15099856192
 20
44.65007900656926
 30
0.0
  0
POINT
  5
142
330
1F
100
AcDbEntity
  8
VIEW0001
 62
     7
100
AcDbPoint
 10
-74.05099856192001
 20
25.90007900656926
 30
0.0
  0
POINT
  5
143
330
1F
100
AcDbEntity
  8
VIEW0001
 62
     7
100
AcDbPoint
 10
-104.65099856192
 20
50.40007900656926
 30
0.0
  0
POINT
  5
144
330
1F
100
AcDbEntity
  8
VIEW0001
 62
     7
100
AcDbPoint
 10
-104.65099856192
 20
-18.59992099343071
 30
0.0
  0
POINT
  5
145
330
1F
100
AcDbEntity
  8
VIEW0001
 62
     7
100
AcDbPoint
 10
-74.05099856192001
 20
-18.59992099343071
 30
0.0
  0
POINT
  5
146
330
1F
100
AcDbEntity
  8
VIEW0001
 62
     7
100
AcDbPoint
 10
-74.05099856192001
 20
115.4000790065693
 30
0.0
  0
POINT
  5
147
330
1F
100
AcDbEntity
  8
VIEW0001
 62
     7
100
AcDbPoint
 10
-77.65099856192
 20
45.90007900656928
 30
0.0
  0
POINT
  5
148
330
1F
100
AcDbEntity
  8
VIEW0001
 62
     7
100
AcDbPoint
 10
-77.65099856192
 20
45.90007900656928
 30
0.0
  0
POINT
  5
149
330
1F
100
AcDbEntity
  8
VIEW0001
 62
     7
100
AcDbPoint
 10
-77.65099856192
 20
-14.09992099343072
 30
0.0
  0
POINT
  5
14A
330
1F
100
AcDbEntity
  8
VIEW0001
 62
     7
100
AcDbPoint
 10
-85.35099856192001
 20
43.73749754209845
 30
0.0
  0
POINT
  5
14B
330
1F
100
AcDbEntity
  8
VIEW0001
 62
     7
100
AcDbPoint
 10
-85.35099856192001
 20
90.40007900656929
 30
0.0
  0
POINT
  5
14C
330
1F
100
AcDbEntity
  8
VIEW0001
 62
     7
100
AcDbPoint
 10
-69.05099856192001
 20
15.90007900656929
 30
0.0
  0
POINT
  5
14D
330
1F
100
AcDbEntity
  8
VIEW0001
 62
     7
100
AcDbPoint
 10
-73.65099856192
 20
15.90007900656929
 30
0.0
  0
POINT
  5
14E
330
1F
100
AcDbEntity
  8
VIEW0001
 62
     7
100
AcDbPoint
 10
-89.55099856192003
 20
15.90007900656926
 30
0.0
  0
POINT
  5
14F
330
1F
100
AcDbEntity
  8
VIEW0001
 62
     7
100
AcDbPoint
 10
-105.05099856192
 20
15.90007900656922
 30
0.0
  0
LINE
  5
150
330
1F
100
AcDbEntity
  8
VIEW0001
  6
Continuous
 62
     7
100
AcDbLine
 10
-72.05099856192001
 20
117.4000790065693
 30
0.0
 11
-72.05099856192001
 21
87.40007900656929
 31
0.0
  0
LINE
  5
151
330
1F
100
AcDbEntity
  8
VIEW0001
  6
Continuous
 62
     7
100
AcDbLine
 10
-61.05099856192
 20
112.2000790065693
 30
0.0
 11
-55.30903119997835
 21
112.2000790065693
 31
0.0
  0
LINE
  5
152
330
1F
100
AcDbEntity
  8
VIEW0001
  6
CENTER
 62
     7
100
AcDbLine
 10
-67.55099856192001
 20
57.76047652328337
 30
0.0
 11
-67.55099856192001
 21
142.0657928408557
 31
0.0
  0
LINE
  5
153
330
1F
100
AcDbEntity
  8
VIEW0001
  6
Continuous
 62
     7
100
AcDbLine
 10
-68.84214553643062
 20
140.4000790065693
 30
0.0
 11
-66.2598515874094
 21
140.4000790065693
 31
0.0
  0
LINE
  5
154
330
1F
100
AcDbEntity
  8
VIEW0001
  6
Continuous
 62
     7
100
AcDbLine
 10
-72.05099856192
 20
112.9000790065693
 30
0.0
 11
-74.05099856192
 21
112.9000790065693
 31
0.0
  0
LINE
  5
155
330
1F
100
AcDbEntity
  8
VIEW0001
  6
DASHED
 62
     7
100
AcDbLine
 10
-71.05099856192001
 20
133.0000790065693
 30
0.0
 11
-64.05099856192001
 21
133.0000790065693
 31
0.0
  0
LINE
  5
156
330
1F
100
AcDbEntity
  8
VIEW0001
  6
Continuous
 62
     7
100
AcDbLine
 10
-63.30099856192
 20
117.4000790065693
 30
0.0
 11
-63.05099856192
 21
117.4000790065693
 31
0.0
  0
LINE
  5
157
330
1F
100
AcDbEntity
  8
VIEW0001
  6
Continuous
 62
     7
100
AcDbLine
 10
-61.05099856192
 20
92.60007900656927
 30
0.0
 11
-55.30903119997835
 21
92.60007900656927
 31
0.0
  0
LINE
  5
158
330
1F
100
AcDbEntity
  8
VIEW0001
  6
Continuous
 62
     7
100
AcDbLine
 10
-61.05099856192
 20
107.3000790065693
 30
0.0
 11
-55.30903119997835
 21
107.3000790065693
 31
0.0
  0
LINE
  5
159
330
1F
100
AcDbEntity
  8
VIEW0001
  6
Continuous
 62
     7
100
AcDbLine
 10
-63.05099856192
 20
112.9000790065693
 30
0.0
 11
-61.05099856192
 21
112.9000790065693
 31
0.0
  0
LINE
  5
15A
330
1F
100
AcDbEntity
  8
VIEW0001
  6
Continuous
 62
     7
100
AcDbLine
 10
-72.05099856192
 20
91.90007900656929
 30
0.0
 11
-74.05099856192
 21
91.90007900656929
 31
0.0
  0
LINE
  5
15B
330
1F
100
AcDbEntity
  8
VIEW0001
  6
CENTER
 62
     1
100
AcDbLine
 10
-21.18916369953471
 20
102.4000790065693
 30
0.0
 11
54.81083630046528
 21
102.4000790065693
 31
0.0
  0
LINE
  5
15C
330
1F
100
AcDbEntity
  8
VIEW0001
  6
Continuous
 62
     7
100
AcDbLine
 10
-71.80099856192001
 20
117.4000790065693
 30
0.0
 11
-72.05099856192
 21
117.4000790065693
 31
0.0
  0
LINE
  5
15D
330
1F
100
AcDbEntity
  8
VIEW0001
  6
Continuous
 62
     7
100
AcDbLine
 10
-71.80099856192001
 20
87.40007900656929
 30
0.0
 11
-72.05099856192
 21
87.40007900656929
 31
0.0
  0
LINE
  5
15E
330
1F
100
AcDbEntity
  8
VIEW0001
  6
Continuous
 62
     7
100
AcDbLine
 10
-63.05099856192
 20
91.90007900656929
 30
0.0
 11
-61.05099856192
 21
91.90007900656929
 31
0.0
  0
LINE
  5
15F
330
1F
100
AcDbEntity
  8
VIEW0001
  6
Continuous
 62
     7
100
AcDbLine
 10
-96.05099856192
 20
98.15007900656929
 30
0.0
 11
-95.30099856191997
 21
97.40007900656926
 31
0.0
  0
LINE
  5
160
330
1F
100
AcDbEntity
  8
VIEW0001
  6
Continuous
 62
     7
100
AcDbLine
 10
-96.05099856192
 20
106.6500790065693
 30
0.0
 11
-96.05099856192
 21
98.15007900656929
 31
0.0
  0
LINE
  5
161
330
1F
100
AcDbEntity
  8
VIEW0001
  6
Continuous
 62
     7
100
AcDbLine
 10
-95.30099856192004
 20
107.4000790065693
 30
0.0
 11
-89.55099856192003
 21
107.4000790065693
 31
0.0
  0
LINE
  5
162
330
1F
100
AcDbEntity
  8
VIEW0001
  6
Continuous
 62
     7
100
AcDbLine
 10
-95.30099856192003
 20
97.40007900656929
 30
0.0
 11
-89.55099856192003
 21
97.40007900656929
 31
0.0
  0
LINE
  5
163
330
1F
100
AcDbEntity
  8
VIEW0001
  6
Continuous
 62
     7
100
AcDbLine
 10
-61.05099856192
 20
91.90007900656927
 30
0.0
 11
-61.05099856192
 21
112.9000790065693
 31
0.0
  0
LINE
  5
164
330
1F
100
AcDbEntity
  8
VIEW0001
  6
CENTER
 62
     7
100
AcDbLine
 10
16.81083630046529
 20
142.0657928408557
 30
0.0
 11
16.81083630046529
 21
-25.422657328623
 31
0.0
  0
LINE
  5
165
330
1F
100
AcDbEntity
  8
VIEW0001
  6
Continuous
 62
     7
100
AcDbLine
 10
-64.05099856192001
 20
87.40007900656929
 30
0.0
 11
-63.05099856192002
 21
87.40007900656929
 31
0.0
  0
LINE
  5
166
330
1F
100
AcDbEntity
  8
VIEW0001
  6
Continuous
 62
     7
100
AcDbLine
 10
-61.05099856192
 20
111.9734483474611
 30
0.0
 11
-61.05099856192
 21
102.1734483474611
 31
0.0
  0
LINE
  5
167
330
1F
100
AcDbEntity
  8
VIEW0001
  6
Continuous
 62
     7
100
AcDbLine
 10
-61.05099856192
 20
97.50007900656928
 30
0.0
 11
-55.30903119997837
 21
97.50007900656928
 31
0.0
  0
LINE
  5
168
330
1F
100
AcDbEntity
  8
VIEW0001
  6
CENTER
 62
     7
100
AcDbLine
 10
-97.4656099986437
 20
102.4000790065693
 30
0.0
 11
-52.03186628485768
 21
102.4000790065693
 31
0.0
  0
LINE
  5
169
330
1F
100
AcDbEntity
  8
VIEW0001
  6
Continuous
 62
     7
100
AcDbLine
 10
-68.84214553643062
 20
64.4000790065693
 30
0.0
 11
-66.2598515874094
 21
64.4000790065693
 31
0.0
  0
LINE
  5
16A
330
1F
100
AcDbEntity
  8
VIEW0001
  6
Continuous
 62
     7
100
AcDbLine
 10
8.323787343377795
 20
107.3000790065693
 30
0.0
 11
16.81083630046532
 21
112.2000790065693
 31
0.0
  0
LINE
  5
16B
330
1F
100
AcDbEntity
  8
VIEW0001
  6
Continuous
 62
     7
100
AcDbLine
 10
8.323787343377774
 20
107.3000790065693
 30
0.0
 11
8.323787343377774
 21
97.50007900656931
 31
0.0
  0
LINE
  5
16C
330
1F
100
AcDbEntity
  8
VIEW0001
  6
DASHED
 62
     7
100
AcDbLine
 10
-71.05099856192001
 20
71.80007900656929
 30
0.0
 11
-64.05099856192001
 21
71.80007900656929
 31
0.0
  0
LINE
  5
16D
330
1F
100
AcDbEntity
  8
VIEW0001
  6
Continuous
 62
     7
100
AcDbLine
 10
-54.55099856192001
 20
110.8871279636568
 30
0.0
 11
-54.55099856192001
 21
93.91303004948175
 31
0.0
  0
LINE
  5
16E
330
1F
100
AcDbEntity
  8
VIEW0001
  6
Continuous
 62
     7
100
AcDbLine
 10
8.323787343377766
 20
97.5000790065693
 30
0.0
 11
16.81083630046529
 21
92.60007900656929
 31
0.0
  0
LINE
  5
16F
330
1F
100
AcDbEntity
  8
VIEW0001
  6
Continuous
 62
     7
100
AcDbLine
 10
16.8108363004653
 20
112.2000790065693
 30
0.0
 11
25.29788525755284
 21
107.3000790065693
 31
0.0
  0
LINE
  5
170
330
1F
100
AcDbEntity
  8
VIEW0001
  6
Continuous
 62
     7
100
AcDbLine
 10
16.81083630046534
 20
92.6000790065693
 30
0.0
 11
25.29788525755285
 21
97.50007900656931
 31
0.0
  0
LINE
  5
171
330
1F
100
AcDbEntity
  8
VIEW0001
  6
Continuous
 62
     7
100
AcDbLine
 10
25.29788525755284
 20
107.3000790065693
 30
0.0
 11
25.29788525755284
 21
97.50007900656931
 31
0.0
  0
LINE
  5
172
330
1F
100
AcDbEntity
  8
VIEW0001
  6
Continuous
 62
     7
100
AcDbLine
 10
-54.55099856192002
 20
110.8871279636568
 30
0.0
 11
-55.30903119997835
 21
112.2000790065693
 31
0.0
  0
LINE
  5
173
330
1F
100
AcDbEntity
  8
VIEW0001
  6
Continuous
 62
     7
100
AcDbLine
 10
-54.55099856192
 20
93.9130300494817
 30
0.0
 11
-55.30903119997832
 21
92.60007900656925
 31
0.0
  0
LINE
  5
174
330
1F
100
AcDbEntity
  8
VIEW0001
  6
Continuous
 62
     7
100
AcDbLine
 10
-96.05099856192001
 20
106.6500790065693
 30
0.0
 11
-89.55099856192003
 21
106.6500790065693
 31
0.0
  0
LINE
  5
175
330
1F
100
AcDbEntity
  8
VIEW0001
  6
Continuous
 62
     7
100
AcDbLine
 10
-96.05099856191998
 20
106.6500790065692
 30
0.0
 11
-95.30099856191998
 21
107.4000790065692
 31
0.0
  0
LINE
  5
176
330
1F
100
AcDbEntity
  8
VIEW0001
  6
Continuous
 62
     7
100
AcDbLine
 10
-96.05099856192001
 20
98.15007900656929
 30
0.0
 11
-89.55099856192003
 21
98.15007900656929
 31
0.0
  0
LINE
  5
177
330
1F
100
AcDbEntity
  8
VIEW0001
  6
Continuous
 62
     7
100
AcDbLine
 10
-95.30099856192003
 20
107.4000790065693
 30
0.0
 11
-95.30099856192003
 21
97.40007900656929
 31
0.0
  0
LINE
  5
178
330
1F
100
AcDbEntity
  8
VIEW0001
  6
DASHED
 62
     7
100
AcDbLine
 10
-73.27598298585735
 20
136.9600790065693
 30
0.0
 11
-61.82601413798267
 21
136.9600790065693
 31
0.0
  0
LINE
  5
179
330
1F
100
AcDbEntity
  8
VIEW0001
  6
Continuous
 62
     7
100
AcDbLine
 10
-64.05099856192001
 20
133.0000790065693
 30
0.0
 11
-64.05099856192001
 21
71.80007900656929
 31
0.0
  0
LINE
  5
17A
330
1F
100
AcDbEntity
  8
VIEW0001
  6
Continuous
 62
     7
100
AcDbLine
 10
-68.8421455364306
 20
64.4000790065693
 30
0.0
 11
-66.25985158740941
 21
64.4000790065693
 31
0.0
  0
LINE
  5
17B
330
1F
100
AcDbEntity
  8
VIEW0001
  6
Continuous
 62
     7
100
AcDbLine
 10
-71.05099856192001
 20
133.0000790065693
 30
0.0
 11
-71.05099856192001
 21
71.80007900656929
 31
0.0
  0
LINE
  5
17C
330
1F
100
AcDbEntity
  8
VIEW0001
  6
Continuous
 62
     7
100
AcDbLine
 10
6.055314652779174
 20
69.43467882980055
 30
0.0
 11
5.52964571939021
 21
68.66729619768535
 31
0.0
  0
LINE
  5
17D
330
1F
100
AcDbEntity
  8
VIEW0001
  6
Continuous
 62
     7
100
AcDbLine
 10
14.93158546330762
 20
67.77541624980876
 30
0.0
 11
15.14454656492504
 21
66.86995973467391
 31
0.0
  0
LINE
  5
17E
330
1F
100
AcDbEntity
  8
VIEW0001
  6
Continuous
 62
     7
100
AcDbLine
 10
27.56635794815136
 20
69.43467882980045
 30
0.0
 11
28.0920268815403
 21
68.66729619768529
 31
0.0
  0
LINE
  5
17F
330
1F
100
AcDbEntity
  8
VIEW0001
  6
Continuous
 62
     7
100
AcDbLine
 10
-5.126865035141734
 20
75.5461013712532
 30
0.0
 11
-5.894247298015909
 21
75.02043189883882
 31
0.0
  0
LINE
  5
180
330
1F
100
AcDbEntity
  8
VIEW0001
  6
Continuous
 62
     7
100
AcDbLine
 10
2.550616217310447
 20
70.7924062369973
 30
0.0
 11
2.422107910324735
 21
69.87116275851947
 31
0.0
  0
LINE
  5
181
330
1F
100
AcDbEntity
  8
VIEW0001
  6
Continuous
 62
     7
100
AcDbLine
 10
-13.34623659668922
 20
85.28430239538228
 30
0.0
 11
-14.25169296223556
 21
85.07134065775337
 31
0.0
  0
LINE
  5
182
330
1F
100
AcDbEntity
  8
VIEW0001
  6
Continuous
 62
     7
100
AcDbLine
 10
-7.904431287849388
 20
78.07818757587752
 30
0.0
 11
-8.35705324449071
 21
77.2655761706115
 31
0.0
  0
LINE
  5
183
330
1F
100
AcDbEntity
  8
VIEW0001
  6
Continuous
 62
     7
100
AcDbLine
 10
-15.0215449531819
 20
88.64877512472563
 30
0.0
 11
-15.73715145616958
 21
88.05454346578782
 31
0.0
  0
LINE
  5
184
330
1F
100
AcDbEntity
  8
VIEW0001
  6
Continuous
 62
     7
100
AcDbLine
 10
-17.4927283573663
 20
97.33408389264414
 30
0.0
 11
-18.41397192611083
 21
97.4625915525292
 31
0.0
  0
LINE
  5
185
330
1F
100
AcDbEntity
  8
VIEW0001
  6
Continuous
 62
     7
100
AcDbLine
 10
-17.00633362838973
 20
110.0680561016895
 30
0.0
 11
-17.8189453515867
 21
110.5206774875356
 31
0.0
  0
LINE
  5
186
330
1F
100
AcDbEntity
  8
VIEW0001
  6
Continuous
 62
     7
100
AcDbLine
 10
-17.83951914089559
 20
101.0765524614219
 30
0.0
 11
-18.72146356668861
 21
100.7809548271032
 31
0.0
  0
LINE
  5
187
330
1F
100
AcDbEntity
  8
VIEW0001
  6
Continuous
 62
     7
100
AcDbLine
 10
-11.95274271311367
 20
121.7664255143116
 30
0.0
 11
-12.54697487470832
 21
122.4820315998984
 31
0.0
  0
LINE
  5
188
330
1F
100
AcDbEntity
  8
VIEW0001
  6
Continuous
 62
     7
100
AcDbLine
 10
-15.97777082200578
 20
113.683079391954
 30
0.0
 11
-16.90694168887803
 21
113.7260378807321
 31
0.0
  0
LINE
  5
189
330
1F
100
AcDbEntity
  8
VIEW0001
  6
Continuous
 62
     7
100
AcDbLine
 10
-9.687739423282054
 20
124.7657745991769
 30
0.0
 11
-10.53864705694892
 21
125.1414874291011
 31
0.0
  0
LINE
  5
18A
330
1F
100
AcDbEntity
  8
VIEW0001
  6
Continuous
 62
     7
100
AcDbLine
 10
-3.014471067560528
 20
130.8492625184321
 30
0.0
 11
-3.310069321375373
 21
131.731206736591
 31
0.0
  0
LINE
  5
18B
330
1F
100
AcDbEntity
  8
VIEW0001
  6
Continuous
 62
     7
100
AcDbLine
 10
0.181071460610539
 20
132.82785868402
 30
0.0
 11
-0.476653148882292
 21
133.4855837555125
 31
0.0
  0
LINE
  5
18C
330
1F
100
AcDbEntity
  8
VIEW0001
  6
Continuous
 62
     7
100
AcDbLine
 10
21.32584836609705
 20
136.780502517276
 30
0.0
 11
21.70156059832593
 21
137.6314104148512
 31
0.0
  0
LINE
  5
18D
330
1F
100
AcDbEntity
  8
VIEW0001
  6
Continuous
 62
     7
100
AcDbLine
 10
12.2958242348336
 20
136.780502517276
 30
0.0
 11
11.92011200260471
 21
137.6314104148512
 31
0.0
  0
LINE
  5
18E
330
1F
100
AcDbEntity
  8
VIEW0001
  6
Continuous
 62
     7
100
AcDbLine
 10
8.60131819386491
 20
136.0898796469078
 30
0.0
 11
8.644276029973994
 21
137.0190505439548
 31
0.0
  0
LINE
  5
18F
330
1F
100
AcDbEntity
  8
VIEW0001
  6
Continuous
 62
     7
100
AcDbLine
 10
33.44060114032012
 20
132.82785868402
 30
0.0
 11
34.09832574981298
 21
133.4855837555125
 31
0.0
  0
LINE
  5
190
330
1F
100
AcDbEntity
  8
VIEW0001
  6
Continuous
 62
     7
100
AcDbLine
 10
41.52610388877982
 20
78.07818757587746
 30
0.0
 11
41.97872584542115
 21
77.26557617061141
 31
0.0
  0
LINE
  5
191
330
1F
100
AcDbEntity
  8
VIEW0001
  6
Continuous
 62
     7
100
AcDbLine
 10
46.9679091976198
 20
85.28430239538189
 30
0.0
 11
47.87336556316612
 21
85.07134065775298
 31
0.0
  0
LINE
  5
192
330
1F
100
AcDbEntity
  8
VIEW0001
  6
Continuous
 62
     7
100
AcDbLine
 10
48.6432175541123
 20
88.64877512472542
 30
0.0
 11
49.3588240571
 21
88.05454346578757
 31
0.0
  0
LINE
  5
193
330
1F
100
AcDbEntity
  8
VIEW0001
  6
Continuous
 62
     7
100
AcDbLine
 10
51.11440095829701
 20
97.33408389264396
 30
0.0
 11
52.03564452704151
 21
97.46259155252902
 31
0.0
  0
LINE
  5
194
330
1F
100
AcDbEntity
  8
VIEW0001
  6
Continuous
 62
     7
100
AcDbLine
 10
51.46119174182621
 20
101.076552461422
 30
0.0
 11
52.34313616761926
 21
100.7809548271032
 31
0.0
  0
LINE
  5
195
330
1F
100
AcDbEntity
  8
VIEW0001
  6
Continuous
 62
     7
100
AcDbLine
 10
50.62800622932058
 20
110.0680561016895
 30
0.0
 11
51.4406179525175
 21
110.5206774875355
 31
0.0
  0
LINE
  5
196
330
1F
100
AcDbEntity
  8
VIEW0001
  6
Continuous
 62
     7
100
AcDbLine
 10
45.57441531404456
 20
121.7664255143114
 30
0.0
 11
46.16864747563913
 21
122.4820315998982
 31
0.0
  0
LINE
  5
197
330
1F
100
AcDbEntity
  8
VIEW0001
  6
Continuous
 62
     7
100
AcDbLine
 10
49.5994434229364
 20
113.6830793919538
 30
0.0
 11
50.5286142898087
 21
113.7260378807319
 31
0.0
  0
LINE
  5
198
330
1F
100
AcDbEntity
  8
VIEW0001
  6
Continuous
 62
     7
100
AcDbLine
 10
36.63614366849141
 20
130.849262518432
 30
0.0
 11
36.93174192230625
 21
131.7312067365909
 31
0.0
  0
LINE
  5
199
330
1F
100
AcDbEntity
  8
VIEW0001
  6
Continuous
 62
     7
100
AcDbLine
 10
43.3094120242128
 20
124.7657745991765
 30
0.0
 11
44.1603196578797
 21
125.1414874291008
 31
0.0
  0
LINE
  5
19A
330
1F
100
AcDbEntity
  8
VIEW0001
  6
Continuous
 62
     7
100
AcDbLine
 10
25.02035440706579
 20
136.0898796469078
 30
0.0
 11
24.97739657095671
 21
137.0190505439547
 31
0.0
  0
LINE
  5
19B
330
1F
100
AcDbEntity
  8
VIEW0001
  6
Continuous
 62
     7
100
AcDbLine
 10
31.07105638361997
 20
70.79240623699732
 30
0.0
 11
31.19956469060569
 21
69.87116275851947
 31
0.0
  0
LINE
  5
19C
330
1F
100
AcDbEntity
  8
VIEW0001
  6
Continuous
 62
     7
100
AcDbLine
 10
38.74853763607219
 20
75.5461013712529
 30
0.0
 11
39.51591989894634
 21
75.02043189883855
 31
0.0
  0
LINE
  5
19D
330
1F
100
AcDbEntity
  8
VIEW0001
  6
Continuous
 62
     7
100
AcDbLine
 10
18.69008713762281
 20
67.77541624980883
 30
0.0
 11
18.47712603600538
 21
66.86995973467396
 31
0.0
  0
LINE
  5
19E
330
1F
100
AcDbEntity
  8
VIEW0001
  6
Continuous
 62
     7
100
AcDbLine
 10
-72.05099856192001
 20
117.4000790065693
 30
0.0
 11
-72.05099856192001
 21
87.40007900656929
 31
0.0
  0
LINE
  5
19F
330
1F
100
AcDbEntity
  8
VIEW0001
  6
Continuous
 62
     7
100
AcDbLine
 10
-71.05099856192001
 20
117.4000790065693
 30
0.0
 11
-72.05099856192001
 21
117.4000790065693
 31
0.0
  0
LINE
  5
1A0
330
1F
100
AcDbEntity
  8
VIEW0001
  6
Continuous
 62
     7
100
AcDbLine
 10
-64.05099856192001
 20
117.4000790065693
 30
0.0
 11
-63.05099856192002
 21
117.4000790065693
 31
0.0
  0
LINE
  5
1A1
330
1F
100
AcDbEntity
  8
VIEW0001
  6
Continuous
 62
     7
100
AcDbLine
 10
-71.05099856192001
 20
87.40007900656929
 30
0.0
 11
-72.05099856192001
 21
87.40007900656929
 31
0.0
  0
LINE
  5
1A2
330
1F
100
AcDbEntity
  8
VIEW0001
  6
Continuous
 62
     7
100
AcDbLine
 10
-63.05099856192
 20
117.4000790065693
 30
0.0
 11
-63.05099856192
 21
87.40007900656929
 31
0.0
  0
LINE
  5
1A3
330
1F
100
AcDbEntity
  8
VIEW0001
  6
CENTER
 62
     7
100
AcDbLine
 10
-67.55099856192001
 20
57.98710718239156
 30
0.0
 11
-67.55099856192001
 21
142.0657928408557
 31
0.0
  0
LINE
  5
1A4
330
1F
100
AcDbEntity
  8
VIEW0001
  6
CENTER
 62
     7
100
AcDbLine
 10
-67.55099856192001
 20
142.0657928408557
 30
0.0
 11
-67.55099856192001
 21
57.53384586417523
 31
0.0
  0
LINE
  5
1A5
330
1F
100
AcDbEntity
  8
VIEW0001
  6
DASHED
 62
     7
100
AcDbLine
 10
-61.82601413798267
 20
67.8400790065693
 30
0.0
 11
-73.27598298585735
 21
67.8400790065693
 31
0.0
  0
LINE
  5
1A6
330
1F
100
AcDbEntity
  8
VIEW0001
  6
DASHED
 62
     7
100
AcDbLine
 10
-61.82601413798267
 20
136.9600790065693
 30
0.0
 11
-73.27598298585735
 21
136.9600790065693
 31
0.0
  0
LINE
  5
1A7
330
1F
100
AcDbEntity
  8
VIEW0001
  6
CENTER
 62
     1
100
AcDbLine
 10
-21.18916369953471
 20
15.90007900656928
 30
0.0
 11
54.81083630046528
 21
15.90007900656928
 31
0.0
  0
LINE
  5
1A8
330
1F
100
AcDbEntity
  8
VIEW0001
  6
Continuous
 62
     7
100
AcDbLine
 10
30.31083630046528
 20
23.69430764062924
 30
0.0
 11
30.31083630046528
 21
8.10585037250933
 31
0.0
  0
LINE
  5
1A9
330
1F
100
AcDbEntity
  8
VIEW0001
  6
Continuous
 62
     7
100
AcDbLine
 10
3.310836300465287
 20
23.69430764062924
 30
0.0
 11
3.310836300465287
 21
8.105850372509328
 31
0.0
  0
LINE
  5
1AA
330
1F
100
AcDbEntity
  8
VIEW0001
  6
Continuous
 62
     7
100
AcDbLine
 10
16.8108363004653
 20
0.311621738449383
 30
0.0
 11
3.310836300465291
 21
8.105850372509336
 31
0.0
  0
LINE
  5
1AB
330
1F
100
AcDbEntity
  8
VIEW0001
  6
Continuous
 62
     7
100
AcDbLine
 10
16.81083630046529
 20
31.48853627468918
 30
0.0
 11
30.31083630046529
 21
23.69430764062923
 31
0.0
  0
LINE
  5
1AC
330
1F
100
AcDbEntity
  8
VIEW0001
  6
Continuous
 62
     7
100
AcDbLine
 10
16.8108363004653
 20
31.48853627468917
 30
0.0
 11
3.310836300465292
 21
23.69430764062922
 31
0.0
  0
LINE
  5
1AD
330
1F
100
AcDbEntity
  8
VIEW0001
  6
Continuous
 62
     7
100
AcDbLine
 10
16.81083630046528
 20
0.31162173844936
 30
0.0
 11
30.31083630046529
 21
8.105850372509313
 31
0.0
  0
LINE
  5
1AE
330
1F
100
AcDbEntity
  8
VIEW0001
  6
DASHED
 62
     7
100
AcDbLine
 10
31.56083630046528
 20
113.4000790065693
 30
0.0
 11
31.56083630046528
 21
90.66338400174408
 31
0.0
  0
LINE
  5
1AF
330
1F
100
AcDbEntity
  8
VIEW0001
  6
DASHED
 62
     7
100
AcDbLine
 10
2.06083630046529
 20
113.4000790065693
 30
0.0
 11
2.06083630046529
 21
90.66338400174406
 31
0.0
  0
LINE
  5
1B0
330
1F
100
AcDbEntity
  8
VIEW0001
  6
DASHED
 62
     7
100
AcDbLine
 10
4.060836300465289
 20
115.4000790065693
 30
0.0
 11
29.56083630046528
 21
115.4000790065693
 31
0.0
  0
LINE
  5
1B1
330
1F
100
AcDbEntity
  8
VIEW0001
  6
DASHED
 62
     7
100
AcDbLine
 10
31.62898464788717
 20
90.14574591153902
 30
0.0
 11
35.15535880822765
 21
76.98513837865033
 31
0.0
  0
LINE
  5
1B2
330
1F
100
AcDbEntity
  8
VIEW0001
  6
DASHED
 62
     7
100
AcDbLine
 10
28.33456734565022
 20
88.91771709677435
 30
0.0
 11
31.92570678287668
 21
75.51540225998087
 31
0.0
  0
LINE
  5
1B3
330
1F
100
AcDbEntity
  8
VIEW0001
  6
DASHED
 62
     7
100
AcDbLine
 10
5.287105255280334
 20
88.91771709677431
 30
0.0
 11
1.695965818053889
 21
75.51540225998092
 31
0.0
  0
LINE
  5
1B4
330
1F
100
AcDbEntity
  8
VIEW0001
  6
DASHED
 62
     7
100
AcDbLine
 10
1.992687953043422
 20
90.14574591153901
 30
0.0
 11
-1.533686207297045
 21
76.98513837865035
 31
0.0
  0
LINE
  5
1B5
330
1F
100
AcDbEntity
  8
VIEW0001
  6
DASHED
 62
     7
100
AcDbLine
 10
7.218956907858487
 20
90.40007900656929
 30
0.0
 11
26.40271569307207
 21
90.40007900656929
 31
0.0
  0
LINE
  5
1B6
330
1F
100
AcDbEntity
  8
VIEW0001
  6
DASHED
 62
     7
100
AcDbLine
 10
19.46083630046529
 20
42.00007900656928
 30
0.0
 11
19.46083630046529
 21
38.30007900656927
 31
0.0
  0
LINE
  5
1B7
330
1F
100
AcDbEntity
  8
VIEW0001
  6
DASHED
 62
     7
100
AcDbLine
 10
14.16083630046529
 20
42.00007900656928
 30
0.0
 11
14.16083630046529
 21
38.30007900656927
 31
0.0
  0
LINE
  5
1B8
330
1F
100
AcDbEntity
  8
VIEW0001
  6
Continuous
 62
     7
100
AcDbLine
 10
16.81083630046529
 20
44.65007900656926
 30
0.0
 11
16.81083630046529
 21
44.65007900656926
 31
0.0
  0
LINE
  5
1B9
330
1F
100
AcDbEntity
  8
VIEW0001
  6
Continuous
 62
     7
100
AcDbLine
 10
16.81083630046529
 20
35.65007900656927
 30
0.0
 11
16.81083630046529
 21
35.65007900656927
 31
0.0
  0
LINE
  5
1BA
330
1F
100
AcDbEntity
  8
VIEW0001
  6
DASHED
 62
     7
100
AcDbLine
 10
19.46083630046529
 20
-10.19992099343072
 30
0.0
 11
19.46083630046529
 21
-6.49992099343071
 31
0.0
  0
LINE
  5
1BB
330
1F
100
AcDbEntity
  8
VIEW0001
  6
DASHED
 62
     7
100
AcDbLine
 10
14.16083630046529
 20
-10.19992099343072
 30
0.0
 11
14.16083630046529
 21
-6.49992099343071
 31
0.0
  0
LINE
  5
1BC
330
1F
100
AcDbEntity
  8
VIEW0001
  6
Continuous
 62
     7
100
AcDbLine
 10
-1.533686207297045
 20
76.98513837865035
 30
0.0
 11
-13.41205848410704
 21
32.65444953037783
 31
0.0
  0
LINE
  5
1BD
330
1F
100
AcDbEntity
  8
VIEW0001
  6
Continuous
 62
     7
100
AcDbLine
 10
1.695965818053889
 20
75.51540225998092
 30
0.0
 11
-6.144298995151603
 21
46.25513563230349
 31
0.0
  0
LINE
  5
1BE
330
1F
100
AcDbEntity
  8
VIEW0001
  6
Continuous
 62
     7
100
AcDbLine
 10
31.92570678287668
 20
75.51540225998087
 30
0.0
 11
39.76597159608216
 21
46.25513563230352
 31
0.0
  0
LINE
  5
1BF
330
1F
100
AcDbEntity
  8
VIEW0001
  6
Continuous
 62
     7
100
AcDbLine
 10
35.15535880822765
 20
76.98513837865033
 30
0.0
 11
47.03373108503764
 21
32.65444953037782
 31
0.0
  0
LINE
  5
1C0
330
1F
100
AcDbEntity
  8
VIEW0001
  6
PHANTOM
 62
     7
100
AcDbLine
 10
16.81083630046528
 20
15.90007900656928
 30
0.0
 11
48.60546122479565
 21
47.69470393089965
 31
0.0
  0
LINE
  5
1C1
330
1F
100
AcDbEntity
  8
VIEW0001
  6
PHANTOM
 62
     7
100
AcDbLine
 10
16.81083630046528
 20
15.90007900656928
 30
0.0
 11
-14.9837886238651
 21
47.69470393089966
 31
0.0
  0
LINE
  5
1C2
330
1F
100
AcDbEntity
  8
VIEW0001
  6
Continuous
 62
     7
100
AcDbLine
 10
-74.05099856192001
 20
114.4000790065693
 30
0.0
 11
-74.05099856192001
 21
-17.59992099343071
 31
0.0
  0
LINE
  5
1C3
330
1F
100
AcDbEntity
  8
VIEW0001
  6
Continuous
 62
     7
100
AcDbLine
 10
-89.55099856192003
 20
115.4000790065693
 30
0.0
 11
-75.05099856192
 21
115.4000790065693
 31
0.0
  0
LINE
  5
1C4
330
1F
100
AcDbEntity
  8
VIEW0001
  6
Continuous
 62
     7
100
AcDbLine
 10
-104.05099856192
 20
-18.59992099343071
 30
0.0
 11
-75.05099856192
 21
-18.59992099343071
 31
0.0
  0
LINE
  5
1C5
330
1F
100
AcDbEntity
  8
VIEW0001
  6
Continuous
 62
     7
100
AcDbLine
 10
-89.55099856192003
 20
115.4000790065693
 30
0.0
 11
-89.55099856192003
 21
-18.59992099343071
 31
0.0
  0
LINE
  5
1C6
330
1F
100
AcDbEntity
  8
VIEW0001
  6
Continuous
 62
     7
100
AcDbLine
 10
-104.05099856192
 20
50.40007900656926
 30
0.0
 11
-89.55099856192003
 21
50.40007900656926
 31
0.0
  0
LINE
  5
1C7
330
1F
100
AcDbEntity
  8
VIEW0001
  6
Continuous
 62
     7
100
AcDbLine
 10
-105.05099856192
 20
49.40007900656926
 30
0.0
 11
-105.05099856192
 21
-17.59992099343071
 31
0.0
  0
LINE
  5
1C8
330
1F
100
AcDbEntity
  8
VIEW0001
  6
CENTER
 62
     1
100
AcDbLine
 10
-122.9961353236531
 20
15.90007900656918
 30
0.0
 11
-58.24909314400288
 21
15.90007900656932
 31
0.0
  0
LINE
  5
1C9
330
1F
100
AcDbEntity
  8
VIEW0001
  6
Continuous
 62
     7
100
AcDbLine
 10
-70.25699856192006
 20
31.48853627468933
 30
0.0
 11
-69.05099856192007
 21
29.40007900656944
 31
0.0
  0
LINE
  5
1CA
330
1F
100
AcDbEntity
  8
VIEW0001
  6
Continuous
 62
     7
100
AcDbLine
 10
-72.84499856192016
 20
23.69430764062927
 30
0.0
 11
-70.25699856192006
 21
23.69430764062927
 31
0.0
  0
LINE
  5
1CB
330
1F
100
AcDbEntity
  8
VIEW0001
  6
Continuous
 62
     7
100
AcDbLine
 10
-69.05099856192012
 20
29.40007900656934
 30
0.0
 11
-69.05099856192012
 21
2.400079006569309
 31
0.0
  0
LINE
  5
1CC
330
1F
100
AcDbEntity
  8
VIEW0001
  6
Continuous
 62
     7
100
AcDbLine
 10
-72.84499856192016
 20
31.48853627468925
 30
0.0
 11
-70.25699856192001
 21
31.48853627468925
 31
0.0
  0
LINE
  5
1CD
330
1F
100
AcDbEntity
  8
VIEW0001
  6
Continuous
 62
     7
100
AcDbLine
 10
-72.84499856192022
 20
8.105850372509355
 30
0.0
 11
-70.25699856192008
 21
8.105850372509355
 31
0.0
  0
LINE
  5
1CE
330
1F
100
AcDbEntity
  8
VIEW0001
  6
Continuous
 62
     7
100
AcDbLine
 10
-74.05099856192001
 20
2.400079006569456
 30
0.0
 11
-72.84499856192002
 21
0.311621738449414
 31
0.0
  0
LINE
  5
1CF
330
1F
100
AcDbEntity
  8
VIEW0001
  6
Continuous
 62
     7
100
AcDbLine
 10
-72.84499856192016
 20
0.311621738449313
 30
0.0
 11
-70.25699856191993
 21
0.311621738449313
 31
0.0
  0
LINE
  5
1D0
330
1F
100
AcDbEntity
  8
VIEW0001
  6
Continuous
 62
     7
100
AcDbLine
 10
-69.05099856191998
 20
2.400079006569261
 30
0.0
 11
-70.25699856192
 21
0.311621738449151
 31
0.0
  0
LINE
  5
1D1
330
1F
100
AcDbEntity
  8
VIEW0001
  6
Continuous
 62
     7
100
AcDbLine
 10
-72.84499856192004
 20
31.48853627468906
 30
0.0
 11
-74.05099856192003
 21
29.40007900656919
 31
0.0
  0
LINE
  5
1D2
330
1F
100
AcDbEntity
  8
VIEW0001
  6
DASHED
 62
     7
100
AcDbLine
 10
-105.05099856192
 20
20.9000790065693
 30
0.0
 11
-69.05099856192012
 21
20.9000790065693
 31
0.0
  0
LINE
  5
1D3
330
1F
100
AcDbEntity
  8
VIEW0001
  6
DASHED
 62
     7
100
AcDbLine
 10
-105.05099856192
 20
20.08807900656929
 30
0.0
 11
-69.05099856192012
 21
20.08807900656929
 31
0.0
  0
LINE
  5
1D4
330
1F
100
AcDbEntity
  8
VIEW0001
  6
DASHED
 62
     7
100
AcDbLine
 10
-89.55099856192003
 20
25.90007900656926
 30
0.0
 11
-74.05099856192001
 21
25.90007900656926
 31
0.0
  0
LINE
  5
1D5
330
1F
100
AcDbEntity
  8
VIEW0001
  6
DASHED
 62
     7
100
AcDbLine
 10
-105.05099856192
 20
23.90007900656924
 30
0.0
 11
-89.55099856192003
 21
23.90007900656924
 31
0.0
  0
LINE
  5
1D6
330
1F
100
AcDbEntity
  8
VIEW0001
  6
DASHED
 62
     7
100
AcDbLine
 10
-105.05099856192
 20
22.81757900656924
 30
0.0
 11
-89.55099856192003
 21
22.81757900656924
 31
0.0
  0
LINE
  5
1D7
330
1F
100
AcDbEntity
  8
VIEW0001
  6
DASHED
 62
     7
100
AcDbLine
 10
-84.35099856192001
 20
90.40007900656929
 30
0.0
 11
-74.05099856192001
 21
90.40007900656929
 31
0.0
  0
LINE
  5
1D8
330
1F
100
AcDbEntity
  8
VIEW0001
  6
DASHED
 62
     7
100
AcDbLine
 10
-84.35099856192001
 20
43.73749754209845
 30
0.0
 11
-74.05099856192001
 21
43.73749754209845
 31
0.0
  0
LINE
  5
1D9
330
1F
100
AcDbEntity
  8
VIEW0001
  6
DASHED
 62
     7
100
AcDbLine
 10
-85.35099856192001
 20
89.40007900656929
 30
0.0
 11
-85.35099856192001
 21
44.73749754209845
 31
0.0
  0
LINE
  5
1DA
330
1F
100
AcDbEntity
  8
VIEW0001
  6
DASHED
 62
     7
100
AcDbLine
 10
-105.05099856192
 20
44.65007900656926
 30
0.0
 11
-99.55099856192
 21
44.65007900656926
 31
0.0
  0
LINE
  5
1DB
330
1F
100
AcDbEntity
  8
VIEW0001
  6
DASHED
 62
     7
100
AcDbLine
 10
-99.55099856192
 20
44.65007900656928
 30
0.0
 11
-99.55099856192
 21
35.65007900656928
 31
0.0
  0
LINE
  5
1DC
330
1F
100
AcDbEntity
  8
VIEW0001
  6
DASHED
 62
     7
100
AcDbLine
 10
-105.05099856192
 20
-3.849920993430695
 30
0.0
 11
-99.55099856192
 21
-3.849920993430695
 31
0.0
  0
LINE
  5
1DD
330
1F
100
AcDbEntity
  8
VIEW0001
  6
DASHED
 62
     7
100
AcDbLine
 10
-99.55099856192
 20
-3.849920993430704
 30
0.0
 11
-99.55099856192
 21
-12.8499209934307
 31
0.0
  0
LINE
  5
1DE
330
1F
100
AcDbEntity
  8
VIEW0001
  6
DASHED
 62
     7
100
AcDbLine
 10
-99.55099856192
 20
35.65007900656927
 30
0.0
 11
-105.05099856192
 21
35.65007900656927
 31
0.0
  0
LINE
  5
1DF
330
1F
100
AcDbEntity
  8
VIEW0001
  6
DASHED
 62
     7
100
AcDbLine
 10
-99.55099856192
 20
-12.8499209934307
 30
0.0
 11
-105.05099856192
 21
-12.8499209934307
 31
0.0
  0
LINE
  5
1E0
330
1F
100
AcDbEntity
  8
VIEW0001
  6
DASHED
 62
     7
100
AcDbLine
 10
-105.05099856192
 20
10.90007900656915
 30
0.0
 11
-69.05099856192012
 21
10.9000790065693
 31
0.0
  0
LINE
  5
1E1
330
1F
100
AcDbEntity
  8
VIEW0001
  6
DASHED
 62
     7
100
AcDbLine
 10
-105.05099856192
 20
11.71207900656916
 30
0.0
 11
-69.05099856192014
 21
11.71207900656932
 31
0.0
  0
LINE
  5
1E2
330
1F
100
AcDbEntity
  8
VIEW0001
  6
DASHED
 62
     7
100
AcDbLine
 10
-105.05099856192
 20
8.982579006569186
 30
0.0
 11
-89.55099856192003
 21
8.982579006569253
 31
0.0
  0
LINE
  5
1E3
330
1F
100
AcDbEntity
  8
VIEW0001
  6
DASHED
 62
     7
100
AcDbLine
 10
-89.55099856192003
 20
5.900079006569214
 30
0.0
 11
-74.05099856191997
 21
5.900079006569282
 31
0.0
  0
LINE
  5
1E4
330
1F
100
AcDbEntity
  8
VIEW0001
  6
DASHED
 62
     7
100
AcDbLine
 10
-105.05099856192
 20
7.900079006569186
 30
0.0
 11
-89.55099856192001
 21
7.900079006569253
 31
0.0
  0
LINE
  5
1E5
330
1F
100
AcDbEntity
  8
VIEW0001
  6
DASHED
 62
     7
100
AcDbLine
 10
-76.65099856192
 20
45.90007900656928
 30
0.0
 11
-74.05099856192001
 21
45.90007900656928
 31
0.0
  0
LINE
  5
1E6
330
1F
100
AcDbEntity
  8
VIEW0001
  6
DASHED
 62
     7
100
AcDbLine
 10
-77.65099856192
 20
44.90007900656928
 30
0.0
 11
-77.65099856192
 21
-13.09992099343072
 31
0.0
  0
LINE
  5
1E7
330
1F
100
AcDbEntity
  8
VIEW0001
  6
DASHED
 62
     7
100
AcDbLine
 10
-76.65099856192
 20
-14.09992099343072
 30
0.0
 11
-74.05099856192001
 21
-14.09992099343072
 31
0.0
  0
LINE
  5
1E8
330
1F
100
AcDbEntity
  8
VIEW0001
  6
Continuous
 62
     7
100
AcDbLine
 10
-74.05099856192
 20
29.40007900656918
 30
0.0
 11
-74.05099856192001
 21
2.400079006569446
 31
0.0
  0
ARC
  5
1E9
330
1F
100
AcDbEntity
  8
VIEW0001
  6
Continuous
 62
     7
100
AcDbCircle
 10
-58.88927712022097
 20
109.7500790065693
 30
0.0
 40
4.338278558300969
100
AcDbArc
 50
325.6157525319573
 51
25.6157525319562
  0
ARC
  5
1EA
330
1F
100
AcDbEntity
  8
VIEW0001
  6
Continuous
 62
     7
100
AcDbCircle
 10
-4.689163699534709
 20
85.40007900656929
 30
0.0
 40
5.999999999999998
100
AcDbArc
 50
178.5179808799806
 51
180.0000010732608
  0
CIRCLE
  5
1EB
330
1F
100
AcDbEntity
  8
VIEW0001
  6
Continuous
 62
     7
100
AcDbCircle
 10
16.81083630046529
 20
102.4000790065693
 30
0.0
 40
15.0
  0
ARC
  5
1EC
330
1F
100
AcDbEntity
  8
VIEW0001
  6
Continuous
 62
     7
100
AcDbCircle
 10
38.31083630046528
 20
85.40007900656929
 30
0.0
 40
5.999999999999998
100
AcDbArc
 50
359.9999989267392
 51
1.482399341926425
  0
ARC
  5
1ED
330
1F
100
AcDbEntity
  8
VIEW0001
  6
Continuous
 62
     7
100
AcDbCircle
 10
-58.88927712022109
 20
95.05007900656925
 30
0.0
 40
4.338278558301061
100
AcDbArc
 50
334.3842474680452
 51
34.38424746804251
  0
CIRCLE
  5
1EE
330
1F
100
AcDbEntity
  8
VIEW0001
  6
Continuous
 62
     7
100
AcDbCircle
 10
16.81083630046529
 20
102.4000790065693
 30
0.0
 40
10.5
  0
CIRCLE
  5
1EF
330
1F
100
AcDbEntity
  8
VIEW0001
  6
Continuous
 62
     7
100
AcDbCircle
 10
16.81083630046529
 20
102.4000790065693
 30
0.0
 40
8.487048957087513
  0
ARC
  5
1F0
330
1F
100
AcDbEntity
  8
VIEW0001
  6
Continuous
 62
     7
100
AcDbCircle
 10
-70.76706383803631
 20
102.4000790065693
 30
0.0
 40
16.21606527611629
100
AcDbArc
 50
342.4120462260058
 51
17.58795377399424
  0
ARC
  5
1F1
330
1F
100
AcDbEntity
  8
VIEW0001
  6
Continuous
 62
     7
100
AcDbCircle
 10
18.41627944776745
 20
136.715714101793
 30
0.0
 40
6.568125371926978
100
AcDbArc
 50
2.647058823529398
 51
26.60322843444924
  0
ARC
  5
1F2
330
1F
100
AcDbEntity
  8
VIEW0001
  6
Continuous
 62
     7
100
AcDbCircle
 10
16.81083630046531
 20
102.4000790065693
 30
0.0
 40
38.0
100
AcDbArc
 50
290.4151331394827
 51
291.9378080369877
  0
ARC
  5
1F3
330
1F
100
AcDbEntity
  8
VIEW0001
  6
Continuous
 62
     7
100
AcDbCircle
 10
12.08346232501843
 20
68.37373340519687
 30
0.0
 40
6.568125371926978
100
AcDbArc
 50
322.8085362714331
 51
346.7647058823529
  0
ARC
  5
1F4
330
1F
100
AcDbEntity
  8
VIEW0001
  6
Continuous
 62
     7
100
AcDbCircle
 10
35.0336765840629
 20
72.96918142216757
 30
0.0
 40
4.017799999999999
100
AcDbArc
 50
70.29411764705881
 51
173.235294117647
  0
ARC
  5
1F5
330
1F
100
AcDbEntity
  8
VIEW0001
  6
Continuous
 62
     7
100
AcDbCircle
 10
23.17146232501831
 20
68.37373513596178
 30
0.0
 40
4.017799999999999
100
AcDbArc
 50
49.11764705882351
 51
152.0588235294118
  0
ARC
  5
1F6
330
1F
100
AcDbEntity
  8
VIEW0001
  6
Continuous
 62
     7
100
AcDbCircle
 10
32.89722522843414
 20
67.00424457379843
 30
0.0
 40
10.3538
100
AcDbArc
 50
55.58823529411762
 51
70.29411764705881
  0
ARC
  5
1F7
330
1F
100
AcDbEntity
  8
VIEW0001
  6
Continuous
 62
     7
100
AcDbCircle
 10
19.02449704061521
 20
63.58337242214195
 30
0.0
 40
10.3538
100
AcDbArc
 50
34.41176470588232
 51
49.11764705882351
  0
ARC
  5
1F8
330
1F
100
AcDbEntity
  8
VIEW0001
  6
Continuous
 62
     7
100
AcDbCircle
 10
33.51071502987806
 20
72.37918111675467
 30
0.0
 40
6.568125371926978
100
AcDbArc
 50
214.4117647058823
 51
238.3679343168022
  0
ARC
  5
1F9
330
1F
100
AcDbEntity
  8
VIEW0001
  6
Continuous
 62
     7
100
AcDbCircle
 10
28.76887089740923
 20
65.4049115855087
 30
0.0
 40
10.3538
100
AcDbArc
 50
152.0588235294118
 51
166.7647058823529
  0
ARC
  5
1FA
330
1F
100
AcDbEntity
  8
VIEW0001
  6
Continuous
 62
     7
100
AcDbCircle
 10
21.53821027591219
 20
68.37373340519686
 30
0.0
 40
6.568125371926978
100
AcDbArc
 50
193.235294117647
 51
217.1914637285669
  0
ARC
  5
1FB
330
1F
100
AcDbEntity
  8
VIEW0001
  6
Continuous
 62
     7
100
AcDbCircle
 10
0.110957571052552
 20
72.37918111675467
 30
0.0
 40
6.568125371926978
100
AcDbArc
 50
301.6320656831978
 51
325.5882352941177
  0
ARC
  5
1FC
330
1F
100
AcDbEntity
  8
VIEW0001
  6
Continuous
 62
     7
100
AcDbCircle
 10
14.59717556031541
 20
63.58337242214189
 30
0.0
 40
10.3538
100
AcDbArc
 50
130.8823529411765
 51
145.5882352941177
  0
ARC
  5
1FD
330
1F
100
AcDbEntity
  8
VIEW0001
  6
Continuous
 62
     7
100
AcDbCircle
 10
16.81083630046531
 20
102.4000790065693
 30
0.0
 40
38.0
100
AcDbArc
 50
269.2386625512475
 51
270.7613374487525
  0
ARC
  5
1FE
330
1F
100
AcDbEntity
  8
VIEW0001
  6
Continuous
 62
     7
100
AcDbCircle
 10
4.852801703521418
 20
65.40491158550877
 30
0.0
 40
10.3538
100
AcDbArc
 50
13.23529411764703
 51
27.94117647058822
  0
ARC
  5
1FF
330
1F
100
AcDbEntity
  8
VIEW0001
  6
Continuous
 62
     7
100
AcDbCircle
 10
8.92724747127873
 20
68.96373221359423
 30
0.0
 40
6.568125371926978
100
AcDbArc
 50
172.0588235294118
 51
196.0149931403316
  0
ARC
  5
200
330
1F
100
AcDbEntity
  8
VIEW0001
  6
Continuous
 62
     7
100
AcDbCircle
 10
-9.606136023283602
 20
80.43911743986979
 30
0.0
 40
6.568125371926978
100
AcDbArc
 50
280.4555950949625
 51
304.4117647058824
  0
ARC
  5
201
330
1F
100
AcDbEntity
  8
VIEW0001
  6
Continuous
 62
     7
100
AcDbCircle
 10
16.81083630046531
 20
102.4000790065693
 30
0.0
 40
38.0
100
AcDbArc
 50
248.0621919630122
 51
249.5848668605172
  0
ARC
  5
202
330
1F
100
AcDbEntity
  8
VIEW0001
  6
Continuous
 62
     7
100
AcDbCircle
 10
0.724447372496428
 20
67.00424457379837
 30
0.0
 40
10.3538
100
AcDbArc
 50
109.7058823529412
 51
124.4117647058824
  0
ARC
  5
203
330
1F
100
AcDbEntity
  8
VIEW0001
  6
Continuous
 62
     7
100
AcDbCircle
 10
10.45021027591233
 20
68.37373513596178
 30
0.0
 40
4.017799999999999
100
AcDbArc
 50
27.94117647058822
 51
130.8823529411765
  0
ARC
  5
204
330
1F
100
AcDbEntity
  8
VIEW0001
  6
Continuous
 62
     7
100
AcDbCircle
 10
16.81083630046531
 20
102.4000790065693
 30
0.0
 40
38.0
100
AcDbArc
 50
226.8857213747769
 51
228.4083962722819
  0
ARC
  5
205
330
1F
100
AcDbEntity
  8
VIEW0001
  6
Continuous
 62
     7
100
AcDbCircle
 10
-2.618992977499353
 20
74.06949493357644
 30
0.0
 40
6.568125371926978
100
AcDbArc
 50
150.8823529411765
 51
174.8385225520963
  0
ARC
  5
206
330
1F
100
AcDbEntity
  8
VIEW0001
  6
Continuous
 62
     7
100
AcDbCircle
 10
-15.75547112380057
 20
91.46500331245659
 30
0.0
 40
6.568125371926978
100
AcDbArc
 50
259.2791245067272
 51
283.2352941176471
  0
ARC
  5
207
330
1F
100
AcDbEntity
  8
VIEW0001
  6
Continuous
 62
     7
100
AcDbCircle
 10
-1.412003983132251
 20
72.96918142216757
 30
0.0
 40
4.017799999999999
100
AcDbArc
 50
6.764705882352924
 51
109.7058823529412
  0
ARC
  5
208
330
1F
100
AcDbEntity
  8
VIEW0001
  6
Continuous
 62
     7
100
AcDbCircle
 10
-10.97572485284211
 20
75.20552030068997
 30
0.0
 40
10.3538
100
AcDbArc
 50
88.52941176470588
 51
103.2352941176471
  0
ARC
  5
209
330
1F
100
AcDbEntity
  8
VIEW0001
  6
Continuous
 62
     7
100
AcDbCircle
 10
-7.703894799497955
 20
72.22285310638922
 30
0.0
 40
10.3538
100
AcDbArc
 50
352.0588235294117
 51
6.76470588235293
  0
ARC
  5
20A
330
1F
100
AcDbEntity
  8
VIEW0001
  6
Continuous
 62
     7
100
AcDbCircle
 10
-10.81312268563315
 20
81.5394335093801
 30
0.0
 40
4.017799999999999
100
AcDbArc
 50
345.5882352941176
 51
88.52941176470588
  0
ARC
  5
20B
330
1F
100
AcDbEntity
  8
VIEW0001
  6
Continuous
 62
     7
100
AcDbCircle
 10
-17.50654595053142
 20
103.9677317508795
 30
0.0
 40
6.568125371926978
100
AcDbArc
 50
238.1026539184919
 51
262.0588235294118
  0
ARC
  5
20C
330
1F
100
AcDbEntity
  8
VIEW0001
  6
Continuous
 62
     7
100
AcDbCircle
 10
-11.54112731788758
 20
83.00146001780199
 30
0.0
 40
6.568125371926978
100
AcDbArc
 50
129.7058823529412
 51
153.662051963861
  0
ARC
  5
20D
330
1F
100
AcDbEntity
  8
VIEW0001
  6
Continuous
 62
     7
100
AcDbCircle
 10
16.81083630046531
 20
102.4000790065693
 30
0.0
 40
38.0
100
AcDbArc
 50
205.7092507865416
 51
207.2319256840466
  0
ARC
  5
20E
330
1F
100
AcDbEntity
  8
VIEW0001
  6
Continuous
 62
     7
100
AcDbCircle
 10
-18.9231680237759
 20
87.07957187106234
 30
0.0
 40
10.3538
100
AcDbArc
 50
67.35294117647058
 51
82.05882352941177
  0
ARC
  5
20F
330
1F
100
AcDbEntity
  8
VIEW0001
  6
Continuous
 62
     7
100
AcDbCircle
 10
-16.94974102665288
 20
83.11639620287025
 30
0.0
 40
10.3538
100
AcDbArc
 50
330.8823529411764
 51
345.5882352941176
  0
ARC
  5
210
330
1F
100
AcDbEntity
  8
VIEW0001
  6
Continuous
 62
     7
100
AcDbCircle
 10
16.81083630046531
 20
102.4000790065693
 30
0.0
 40
38.0
100
AcDbArc
 50
184.5327801983063
 51
186.0554550958113
  0
ARC
  5
211
330
1F
100
AcDbEntity
  8
VIEW0001
  6
Continuous
 62
     7
100
AcDbCircle
 10
-16.63417186796344
 20
94.55331608791913
 30
0.0
 40
6.568125371926978
100
AcDbArc
 50
108.5294117647059
 51
132.4855813756257
  0
ARC
  5
212
330
1F
100
AcDbEntity
  8
VIEW0001
  6
Continuous
 62
     7
100
AcDbCircle
 10
-14.62286814508559
 20
116.2587399995196
 30
0.0
 40
6.568125371926978
100
AcDbArc
 50
216.9261833302566
 51
240.8823529411765
  0
ARC
  5
213
330
1F
100
AcDbEntity
  8
VIEW0001
  6
Continuous
 62
     7
100
AcDbCircle
 10
-16.48347265742058
 20
92.92703136381512
 30
0.0
 40
4.017799999999999
100
AcDbArc
 50
324.4117647058823
 51
67.3529411764706
  0
ARC
  5
214
330
1F
100
AcDbEntity
  8
VIEW0001
  6
Continuous
 62
     7
100
AcDbCircle
 10
-22.04453590176746
 20
101.0227428239456
 30
0.0
 40
10.3538
100
AcDbArc
 50
46.17647058823529
 51
60.88235294117646
  0
ARC
  5
215
330
1F
100
AcDbEntity
  8
VIEW0001
  6
Continuous
 62
     7
100
AcDbCircle
 10
-21.63603421196355
 20
96.614307516566
 30
0.0
 40
10.3538
100
AcDbArc
 50
309.7058823529412
 51
324.4117647058823
  0
ARC
  5
216
330
1F
100
AcDbEntity
  8
VIEW0001
  6
Continuous
 62
     7
100
AcDbCircle
 10
-17.65724171431075
 20
105.5940167943732
 30
0.0
 40
4.017799999999999
100
AcDbArc
 50
303.235294117647
 51
46.1764705882353
  0
ARC
  5
217
330
1F
100
AcDbEntity
  8
VIEW0001
  6
Continuous
 62
     7
100
AcDbCircle
 10
-7.493894374098891
 20
126.6780592875702
 30
0.0
 40
6.568125371926978
100
AcDbArc
 50
195.7497127420213
 51
219.7058823529412
  0
ARC
  5
218
330
1F
100
AcDbEntity
  8
VIEW0001
  6
Continuous
 62
     7
100
AcDbCircle
 10
-17.2102827397051
 20
107.1649209706143
 30
0.0
 40
6.568125371926978
100
AcDbArc
 50
87.3529411764706
 51
111.3091107873905
  0
ARC
  5
219
330
1F
100
AcDbEntity
  8
VIEW0001
  6
Continuous
 62
     7
100
AcDbCircle
 10
-14.17590584109178
 20
117.8296432284681
 30
0.0
 40
4.017799999999999
100
AcDbArc
 50
282.0588235294117
 51
24.99999999999997
  0
ARC
  5
21A
330
1F
100
AcDbEntity
  8
VIEW0001
  6
Continuous
 62
     7
100
AcDbCircle
 10
16.81083630046531
 20
102.4000790065693
 30
0.0
 40
38.0
100
AcDbArc
 50
163.356309610071
 51
164.878984507576
  0
ARC
  5
21B
330
1F
100
AcDbEntity
  8
VIEW0001
  6
Continuous
 62
     7
100
AcDbCircle
 10
-21.12986449310674
 20
110.8936193300533
 30
0.0
 40
10.3538
100
AcDbArc
 50
288.5294117647059
 51
303.235294117647
  0
ARC
  5
21C
330
1F
100
AcDbEntity
  8
VIEW0001
  6
Continuous
 62
     7
100
AcDbCircle
 10
-15.49959289539729
 20
124.0258314585224
 30
0.0
 40
10.3538
100
AcDbArc
 50
267.3529411764705
 51
282.0588235294117
  0
ARC
  5
21D
330
1F
100
AcDbEntity
  8
VIEW0001
  6
Continuous
 62
     7
100
AcDbCircle
 10
-13.19165296754326
 20
119.1330075431644
 30
0.0
 40
6.568125371926978
100
AcDbArc
 50
66.1764705882353
 51
90.13264019915515
  0
ARC
  5
21E
330
1F
100
AcDbEntity
  8
VIEW0001
  6
Continuous
 62
     7
100
AcDbCircle
 10
2.917567951649575
 20
133.8185028097387
 30
0.0
 40
6.568125371926978
100
AcDbArc
 50
174.5732421537861
 51
198.5294117647059
  0
ARC
  5
21F
330
1F
100
AcDbEntity
  8
VIEW0001
  6
Continuous
 62
     7
100
AcDbCircle
 10
16.81083630046531
 20
102.4000790065693
 30
0.0
 40
38.0
100
AcDbArc
 50
142.1798390218357
 51
143.7025139193407
  0
ARC
  5
220
330
1F
100
AcDbEntity
  8
VIEW0001
  6
Continuous
 62
     7
100
AcDbCircle
 10
-12.83153562498274
 20
127.5589102705095
 30
0.0
 40
10.3538
100
AcDbArc
 50
3.823529411764699
 51
18.52941176470588
  0
ARC
  5
221
330
1F
100
AcDbEntity
  8
VIEW0001
  6
Continuous
 62
     7
100
AcDbCircle
 10
-19.91827045879754
 20
115.1519306603755
 30
0.0
 40
10.3538
100
AcDbArc
 50
24.99999999999999
 51
39.70588235294117
  0
ARC
  5
222
330
1F
100
AcDbEntity
  8
VIEW0001
  6
Continuous
 62
     7
100
AcDbCircle
 10
-5.505618796517805
 20
134.2373658859242
 30
0.0
 40
10.3538
100
AcDbArc
 50
246.1764705882352
 51
260.8823529411765
  0
ARC
  5
223
330
1F
100
AcDbEntity
  8
VIEW0001
  6
Continuous
 62
     7
100
AcDbCircle
 10
15.20539315316317
 20
136.715714101793
 30
0.0
 40
6.568125371926978
100
AcDbArc
 50
153.3967715655508
 51
177.3529411764706
  0
ARC
  5
224
330
1F
100
AcDbEntity
  8
VIEW0001
  6
Continuous
 62
     7
100
AcDbCircle
 10
-1.741434208583143
 20
136.5680503085518
 30
0.0
 40
10.3538
100
AcDbArc
 50
342.6470588235294
 51
357.3529411764706
  0
ARC
  5
225
330
1F
100
AcDbEntity
  8
VIEW0001
  6
Continuous
 62
     7
100
AcDbCircle
 10
16.81083630046531
 20
102.4000790065693
 30
0.0
 40
38.0
100
AcDbArc
 50
121.0033684336005
 51
122.5260433311055
  0
ARC
  5
226
330
1F
100
AcDbEntity
  8
VIEW0001
  6
Continuous
 62
     7
100
AcDbCircle
 10
4.30618774189541
 20
134.6782977469475
 30
0.0
 40
4.017799999999999
100
AcDbArc
 50
239.7058823529412
 51
342.6470588235294
  0
ARC
  5
227
330
1F
100
AcDbEntity
  8
VIEW0001
  6
Continuous
 62
     7
100
AcDbCircle
 10
-5.121020770204729
 20
128.8412193964895
 30
0.0
 40
6.568125371926978
100
AcDbArc
 50
45.00000000000001
 51
68.95616961091986
  0
ARC
  5
228
330
1F
100
AcDbEntity
  8
VIEW0001
  6
Continuous
 62
     7
100
AcDbCircle
 10
-6.509638738189945
 20
127.9814215162287
 30
0.0
 40
4.017799999999999
100
AcDbArc
 50
260.8823529411765
 51
3.823529411764687
  0
ARC
  5
229
330
1F
100
AcDbEntity
  8
VIEW0001
  6
Continuous
 62
     7
100
AcDbCircle
 10
7.502316222955813
 20
140.1490983037723
 30
0.0
 40
10.3538
100
AcDbArc
 50
224.9999999999999
 51
239.7058823529412
  0
ARC
  5
22A
330
1F
100
AcDbEntity
  8
VIEW0001
  6
Continuous
 62
     7
100
AcDbCircle
 10
27.7100423477875
 20
134.9784087247391
 30
0.0
 40
6.568125371926978
100
AcDbArc
 50
132.2203009773155
 51
156.1764705882353
  0
ARC
  5
22B
330
1F
100
AcDbEntity
  8
VIEW0001
  6
Continuous
 62
     7
100
AcDbCircle
 10
16.81083630046531
 20
102.4000790065693
 30
0.0
 40
38.0
100
AcDbArc
 50
99.82689784536517
 51
101.3495727428702
  0
ARC
  5
22C
330
1F
100
AcDbEntity
  8
VIEW0001
  6
Continuous
 62
     7
100
AcDbCircle
 10
5.911630253143112
 20
134.9784087247391
 30
0.0
 40
6.568125371926978
100
AcDbArc
 50
23.82352941176471
 51
47.77969902268456
  0
ARC
  5
22D
330
1F
100
AcDbEntity
  8
VIEW0001
  6
Continuous
 62
     7
100
AcDbCircle
 10
16.81083630046531
 20
137.0158216769938
 30
0.0
 40
4.017799999999999
100
AcDbArc
 50
218.5294117647059
 51
321.4705882352941
  0
ARC
  5
22E
330
1F
100
AcDbEntity
  8
VIEW0001
  6
Continuous
 62
     7
100
AcDbCircle
 10
11.85425414174318
 20
140.9626164909964
 30
0.0
 40
10.3538
100
AcDbArc
 50
321.4705882352941
 51
336.1764705882353
  0
ARC
  5
22F
330
1F
100
AcDbEntity
  8
VIEW0001
  6
Continuous
 62
     7
100
AcDbCircle
 10
16.81083630046531
 20
102.4000790065693
 30
0.0
 40
38.0
100
AcDbArc
 50
78.65042725712985
 51
80.17310215463485
  0
ARC
  5
230
330
1F
100
AcDbEntity
  8
VIEW0001
  6
Continuous
 62
     7
100
AcDbCircle
 10
16.81083630046531
 20
102.4000790065693
 30
0.0
 40
38.0
100
AcDbArc
 50
311.5916037277181
 51
313.1142786252231
  0
ARC
  5
231
330
1F
100
AcDbEntity
  8
VIEW0001
  6
Continuous
 62
     7
100
AcDbCircle
 10
43.22780862421421
 20
80.43911743986975
 30
0.0
 40
6.568125371926978
100
AcDbArc
 50
235.5882352941176
 51
259.5444049050375
  0
ARC
  5
232
330
1F
100
AcDbEntity
  8
VIEW0001
  6
Continuous
 62
     7
100
AcDbCircle
 10
24.69442512965188
 20
68.96373221359424
 30
0.0
 40
6.568125371926978
100
AcDbArc
 50
343.9850068596684
 51
7.941176470588238
  0
ARC
  5
233
330
1F
100
AcDbEntity
  8
VIEW0001
  6
Continuous
 62
     7
100
AcDbCircle
 10
44.4347952865638
 20
81.5394335093801
 30
0.0
 40
4.017799999999999
100
AcDbArc
 50
91.4705882352941
 51
194.4117647058823
  0
ARC
  5
234
330
1F
100
AcDbEntity
  8
VIEW0001
  6
Continuous
 62
     7
100
AcDbCircle
 10
21.76741845918743
 20
140.9626164909964
 30
0.0
 40
10.3538
100
AcDbArc
 50
203.8235294117647
 51
218.5294117647059
  0
ARC
  5
235
330
1F
100
AcDbEntity
  8
VIEW0001
  6
Continuous
 62
     7
100
AcDbCircle
 10
44.59739745377269
 20
75.20552030069001
 30
0.0
 40
10.3538
100
AcDbArc
 50
76.76470588235291
 51
91.4705882352941
  0
ARC
  5
236
330
1F
100
AcDbEntity
  8
VIEW0001
  6
Continuous
 62
     7
100
AcDbCircle
 10
49.37714372473119
 20
91.46500331245657
 30
0.0
 40
6.568125371926978
100
AcDbArc
 50
256.7647058823529
 51
280.7208754932727
  0
ARC
  5
237
330
1F
100
AcDbEntity
  8
VIEW0001
  6
Continuous
 62
     7
100
AcDbCircle
 10
50.57141362758359
 20
83.11639620287023
 30
0.0
 40
10.3538
100
AcDbArc
 50
194.4117647058823
 51
209.1176470588235
  0
ARC
  5
238
330
1F
100
AcDbEntity
  8
VIEW0001
  6
Continuous
 62
     7
100
AcDbCircle
 10
36.24066557842996
 20
74.06949493357644
 30
0.0
 40
6.568125371926978
100
AcDbArc
 50
5.161477447903691
 51
29.11764705882355
  0
ARC
  5
239
330
1F
100
AcDbEntity
  8
VIEW0001
  6
Continuous
 62
     7
100
AcDbCircle
 10
38.74269337113535
 20
128.8412193964895
 30
0.0
 40
6.568125371926978
100
AcDbArc
 50
111.0438303890802
 51
135.0
  0
ARC
  5
23A
330
1F
100
AcDbEntity
  8
VIEW0001
  6
Continuous
 62
     7
100
AcDbCircle
 10
16.81083630046531
 20
102.4000790065693
 30
0.0
 40
38.0
100
AcDbArc
 50
332.7680743159534
 51
334.2907492134584
  0
ARC
  5
23B
330
1F
100
AcDbEntity
  8
VIEW0001
  6
Continuous
 62
     7
100
AcDbCircle
 10
51.12821855146203
 20
103.9677317508795
 30
0.0
 40
6.568125371926978
100
AcDbArc
 50
277.9411764705882
 51
301.897346081508
  0
ARC
  5
23C
330
1F
100
AcDbEntity
  8
VIEW0001
  6
Continuous
 62
     7
100
AcDbCircle
 10
55.25770681289425
 20
96.614307516566
 30
0.0
 40
10.3538
100
AcDbArc
 50
215.5882352941176
 51
230.2941176470588
  0
ARC
  5
23D
330
1F
100
AcDbEntity
  8
VIEW0001
  6
Continuous
 62
     7
100
AcDbCircle
 10
50.10514525835124
 20
92.92703136381515
 30
0.0
 40
4.017799999999999
100
AcDbArc
 50
112.6470588235294
 51
215.5882352941176
  0
ARC
  5
23E
330
1F
100
AcDbEntity
  8
VIEW0001
  6
Continuous
 62
     7
100
AcDbCircle
 10
16.81083630046531
 20
102.4000790065693
 30
0.0
 40
38.0
100
AcDbArc
 50
353.9445449041887
 51
355.4672198016937
  0
ARC
  5
23F
330
1F
100
AcDbEntity
  8
VIEW0001
  6
Continuous
 62
     7
100
AcDbCircle
 10
52.54484062470647
 20
87.07957187106238
 30
0.0
 40
10.3538
100
AcDbArc
 50
97.94117647058822
 51
112.6470588235294
  0
ARC
  5
240
330
1F
100
AcDbEntity
  8
VIEW0001
  6
Continuous
 62
     7
100
AcDbCircle
 10
45.1627999188182
 20
83.001460017802
 30
0.0
 40
6.568125371926978
100
AcDbArc
 50
26.33794803613899
 51
50.29411764705885
  0
ARC
  5
241
330
1F
100
AcDbEntity
  8
VIEW0001
  6
Continuous
 62
     7
100
AcDbCircle
 10
48.24454074601622
 20
116.2587399995196
 30
0.0
 40
6.568125371926978
100
AcDbArc
 50
299.1176470588235
 51
323.0738166697433
  0
ARC
  5
242
330
1F
100
AcDbEntity
  8
VIEW0001
  6
Continuous
 62
     7
100
AcDbCircle
 10
54.75153709403742
 20
110.8936193300533
 30
0.0
 40
10.3538
100
AcDbArc
 50
236.7647058823529
 51
251.4705882352941
  0
ARC
  5
243
330
1F
100
AcDbEntity
  8
VIEW0001
  6
Continuous
 62
     7
100
AcDbCircle
 10
55.66620850269803
 20
101.0227428239456
 30
0.0
 40
10.3538
100
AcDbArc
 50
119.1176470588235
 51
133.8235294117647
  0
ARC
  5
244
330
1F
100
AcDbEntity
  8
VIEW0001
  6
Continuous
 62
     7
100
AcDbCircle
 10
49.12126549632797
 20
124.0258314585225
 30
0.0
 40
10.3538
100
AcDbArc
 50
257.9411764705882
 51
272.6470588235294
  0
ARC
  5
245
330
1F
100
AcDbEntity
  8
VIEW0001
  6
Continuous
 62
     7
100
AcDbCircle
 10
51.27891431524139
 20
105.5940167943732
 30
0.0
 40
4.017799999999999
100
AcDbArc
 50
133.8235294117647
 51
236.7647058823529
  0
ARC
  5
246
330
1F
100
AcDbEntity
  8
VIEW0001
  6
Continuous
 62
     7
100
AcDbCircle
 10
50.25584446889406
 20
94.55331608791913
 30
0.0
 40
6.568125371926978
100
AcDbArc
 50
47.51441862437428
 51
71.47058823529414
  0
ARC
  5
247
330
1F
100
AcDbEntity
  8
VIEW0001
  6
Continuous
 62
     7
100
AcDbCircle
 10
41.11556697502952
 20
126.6780592875701
 30
0.0
 40
6.568125371926978
100
AcDbArc
 50
320.2941176470588
 51
344.2502872579786
  0
ARC
  5
248
330
1F
100
AcDbEntity
  8
VIEW0001
  6
Continuous
 62
     7
100
AcDbCircle
 10
47.79757844202243
 20
117.8296432284681
 30
0.0
 40
4.017799999999999
100
AcDbArc
 50
155.0
 51
257.9411764705882
  0
ARC
  5
249
330
1F
100
AcDbEntity
  8
VIEW0001
  6
Continuous
 62
     7
100
AcDbCircle
 10
53.53994305972811
 20
115.1519306603755
 30
0.0
 40
10.3538
100
AcDbArc
 50
140.2941176470588
 51
155.0
  0
ARC
  5
24A
330
1F
100
AcDbEntity
  8
VIEW0001
  6
Continuous
 62
     7
100
AcDbCircle
 10
50.83195534063572
 20
107.1649209706143
 30
0.0
 40
6.568125371926978
100
AcDbArc
 50
68.69088921260958
 51
92.64705882352945
  0
ARC
  5
24B
330
1F
100
AcDbEntity
  8
VIEW0001
  6
Continuous
 62
     7
100
AcDbCircle
 10
16.81083630046531
 20
102.4000790065693
 30
0.0
 40
38.0
100
AcDbArc
 50
15.12101549242396
 51
16.64369038992895
  0
ARC
  5
24C
330
1F
100
AcDbEntity
  8
VIEW0001
  6
Continuous
 62
     7
100
AcDbCircle
 10
16.81083630046531
 20
102.4000790065693
 30
0.0
 40
38.0
100
AcDbArc
 50
36.29748608065925
 51
37.82016097816425
  0
ARC
  5
24D
330
1F
100
AcDbEntity
  8
VIEW0001
  6
Continuous
 62
     7
100
AcDbCircle
 10
39.12729139744849
 20
134.2373658859243
 30
0.0
 40
10.3538
100
AcDbArc
 50
279.1176470588235
 51
293.8235294117646
  0
ARC
  5
24E
330
1F
100
AcDbEntity
  8
VIEW0001
  6
Continuous
 62
     7
100
AcDbCircle
 10
16.81083630046531
 20
102.4000790065693
 30
0.0
 40
38.0
100
AcDbArc
 50
57.47395666889455
 51
58.99663156639954
  0
ARC
  5
24F
330
1F
100
AcDbEntity
  8
VIEW0001
  6
Continuous
 62
     7
100
AcDbCircle
 10
40.13131133912055
 20
127.9814215162288
 30
0.0
 40
4.017799999999999
100
AcDbArc
 50
176.1764705882353
 51
279.1176470588235
  0
ARC
  5
250
330
1F
100
AcDbEntity
  8
VIEW0001
  6
Continuous
 62
     7
100
AcDbCircle
 10
35.36310680951375
 20
136.5680503085518
 30
0.0
 40
10.3538
100
AcDbArc
 50
182.6470588235294
 51
197.3529411764706
  0
ARC
  5
251
330
1F
100
AcDbEntity
  8
VIEW0001
  6
Continuous
 62
     7
100
AcDbCircle
 10
46.45320822591336
 20
127.5589102705095
 30
0.0
 40
10.3538
100
AcDbArc
 50
161.4705882352941
 51
176.1764705882353
  0
ARC
  5
252
330
1F
100
AcDbEntity
  8
VIEW0001
  6
Continuous
 62
     7
100
AcDbCircle
 10
30.70410464928103
 20
133.8185028097387
 30
0.0
 40
6.568125371926978
100
AcDbArc
 50
341.4705882352941
 51
5.426757846213945
  0
ARC
  5
253
330
1F
100
AcDbEntity
  8
VIEW0001
  6
Continuous
 62
     7
100
AcDbCircle
 10
41.32556740042865
 20
72.22285310638917
 30
0.0
 40
10.3538
100
AcDbArc
 50
173.235294117647
 51
187.9411764705882
  0
ARC
  5
254
330
1F
100
AcDbEntity
  8
VIEW0001
  6
Continuous
 62
     7
100
AcDbCircle
 10
46.81332556847388
 20
119.1330075431644
 30
0.0
 40
6.568125371926978
100
AcDbArc
 50
89.86735980084488
 51
113.8235294117647
  0
ARC
  5
255
330
1F
100
AcDbEntity
  8
VIEW0001
  6
Continuous
 62
     7
100
AcDbCircle
 10
29.31548485903516
 20
134.6782977469476
 30
0.0
 40
4.017799999999999
100
AcDbArc
 50
197.3529411764706
 51
300.2941176470588
  0
ARC
  5
256
330
1F
100
AcDbEntity
  8
VIEW0001
  6
Continuous
 62
     7
100
AcDbCircle
 10
26.11935637797484
 20
140.1490983037725
 30
0.0
 40
10.3538
100
AcDbArc
 50
300.2941176470588
 51
314.9999999999999
  0
CIRCLE
  5
257
330
1F
100
AcDbEntity
  8
VIEW0001
  6
DASHED
 62
     7
100
AcDbCircle
 10
16.81083630046531
 20
102.4000790065693
 30
0.0
 40
34.55794267042452
  0
ARC
  5
258
330
1F
100
AcDbEntity
  8
VIEW0001
  6
Continuous
 62
     7
100
AcDbCircle
 10
-77.55099856192
 20
71.80007900656929
 30
0.0
 40
13.5
100
AcDbArc
 50
326.7599392744806
 51
0.0
  0
ARC
  5
259
330
1F
100
AcDbEntity
  8
VIEW0001
  6
Continuous
 62
     7
100
AcDbCircle
 10
-77.55099856192
 20
133.0000790065693
 30
0.0
 40
13.5
100
AcDbArc
 50
359.9999999999999
 51
33.24006072551941
  0
ARC
  5
25A
330
1F
100
AcDbEntity
  8
VIEW0001
  6
Continuous
 62
     7
100
AcDbCircle
 10
-57.55099856192001
 20
71.80007900656929
 30
0.0
 40
13.5
100
AcDbArc
 50
180.0
 51
213.2400607255195
  0
ARC
  5
25B
330
1F
100
AcDbEntity
  8
VIEW0001
  6
Continuous
 62
     7
100
AcDbCircle
 10
-57.55099856192001
 20
133.0000790065693
 30
0.0
 40
13.5
100
AcDbArc
 50
146.7599392744805
 51
180.0
  0
ARC
  5
25C
330
1F
100
AcDbEntity
  8
VIEW0001
  6
Continuous
 62
     7
100
AcDbCircle
 10
16.81083630046529
 20
15.90007900656928
 30
0.0
 40
34.5
100
AcDbArc
 50
151.7574115054013
 51
28.24258849459867
  0
CIRCLE
  5
25D
330
1F
100
AcDbEntity
  8
VIEW0001
  6
Continuous
 62
     7
100
AcDbCircle
 10
16.81083630046529
 20
15.90007900656928
 30
0.0
 40
30.0
  0
CIRCLE
  5
25E
330
1F
100
AcDbEntity
  8
VIEW0001
  6
Continuous
 62
     7
100
AcDbCircle
 10
16.81083630046529
 20
15.90007900656928
 30
0.0
 40
16.5
  0
CIRCLE
  5
25F
330
1F
100
AcDbEntity
  8
VIEW0001
  6
Continuous
 62
     7
100
AcDbCircle
 10
16.81083630046529
 20
15.90007900656928
 30
0.0
 40
13.5
  0
CIRCLE
  5
260
330
1F
100
AcDbEntity
  8
VIEW0001
  6
Continuous
 62
     7
100
AcDbCircle
 10
16.81083630046529
 20
15.90007900656928
 30
0.0
 40
4.999999999999999
  0
CIRCLE
  5
261
330
1F
100
AcDbEntity
  8
VIEW0001
  6
Continuous
 62
     7
100
AcDbCircle
 10
16.81083630046529
 20
15.90007900656928
 30
0.0
 40
4.999999999999999
  0
CIRCLE
  5
262
330
1F
100
AcDbEntity
  8
VIEW0001
  6
Continuous
 62
     7
100
AcDbCircle
 10
16.81083630046529
 20
15.90007900656928
 30
0.0
 40
4.188
  0
ARC
  5
263
330
1F
100
AcDbEntity
  8
VIEW0001
  6
Continuous
 62
     7
100
AcDbCircle
 10
16.81083630046529
 20
15.90007900656928
 30
0.0
 40
34.5
100
AcDbArc
 50
54.83168268367633
 51
125.1683173163237
  0
ARC
  5
264
330
1F
100
AcDbEntity
  8
VIEW0001
  6
DASHED
 62
     7
100
AcDbCircle
 10
29.56083630046528
 20
113.4000790065693
 30
0.0
 40
2.0
100
AcDbArc
 50
0.0
 51
90.00000000000003
  0
ARC
  5
265
330
1F
100
AcDbEntity
  8
VIEW0001
  6
DASHED
 62
     7
100
AcDbCircle
 10
4.060836300465289
 20
113.4000790065693
 30
0.0
 40
2.0
100
AcDbArc
 50
90.00000000000003
 51
180.0
  0
ARC
  5
266
330
1F
100
AcDbEntity
  8
VIEW0001
  6
Continuous
 62
     7
100
AcDbCircle
 10
0.06083630046529
 20
90.66338400174406
 30
0.0
 40
2.0
100
AcDbArc
 50
344.9999999999999
 51
0.0
  0
ARC
  5
267
330
1F
100
AcDbEntity
  8
VIEW0001
  6
DASHED
 62
     7
100
AcDbCircle
 10
7.218956907858486
 20
88.40007900656929
 30
0.0
 40
2.0
100
AcDbArc
 50
90.00000000000003
 51
164.9999999999999
  0
ARC
  5
268
330
1F
100
AcDbEntity
  8
VIEW0001
  6
DASHED
 62
     7
100
AcDbCircle
 10
26.40271569307208
 20
88.40007900656929
 30
0.0
 40
2.0
100
AcDbArc
 50
15.00000000000008
 51
90.00000000000003
  0
ARC
  5
269
330
1F
100
AcDbEntity
  8
VIEW0001
  6
Continuous
 62
     7
100
AcDbCircle
 10
33.56083630046528
 20
90.66338400174408
 30
0.0
 40
2.0
100
AcDbArc
 50
180.0
 51
195.0000000000001
  0
ARC
  5
26A
330
1F
100
AcDbEntity
  8
VIEW0001
  6
Continuous
 62
     7
100
AcDbCircle
 10
37.83411994350402
 20
45.73749754209845
 30
0.0
 40
2.0
100
AcDbArc
 50
234.8316826836763
 51
15.00000000000009
  0
ARC
  5
26B
330
1F
100
AcDbEntity
  8
VIEW0001
  6
Continuous
 62
     7
100
AcDbCircle
 10
-4.212447342573457
 20
45.73749754209845
 30
0.0
 40
2.0
100
AcDbArc
 50
164.9999999999999
 51
305.1683173163237
  0
ARC
  5
26C
330
1F
100
AcDbEntity
  8
VIEW0001
  6
Continuous
 62
     7
100
AcDbCircle
 10
48.96558273761576
 20
33.17208762058284
 30
0.0
 40
2.0
100
AcDbArc
 50
194.9999999999999
 51
208.2425884945986
  0
ARC
  5
26D
330
1F
100
AcDbEntity
  8
VIEW0001
  6
Continuous
 62
     7
100
AcDbCircle
 10
-15.34391013668517
 20
33.17208762058287
 30
0.0
 40
2.0
100
AcDbArc
 50
331.7574115054013
 51
345.0000000000001
  0
ARC
  5
26E
330
1F
100
AcDbEntity
  8
VIEW0001
  6
DASHED
 62
     7
100
AcDbCircle
 10
16.81083630046529
 20
42.00007900656928
 30
0.0
 40
2.65
100
AcDbArc
 50
0.0
 51
90.00000000000003
  0
ARC
  5
26F
330
1F
100
AcDbEntity
  8
VIEW0001
  6
DASHED
 62
     7
100
AcDbCircle
 10
16.81083630046529
 20
42.00007900656928
 30
0.0
 40
2.65
100
AcDbArc
 50
90.00000000000003
 51
180.0
  0
ARC
  5
270
330
1F
100
AcDbEntity
  8
VIEW0001
  6
DASHED
 62
     7
100
AcDbCircle
 10
16.81083630046529
 20
38.30007900656927
 30
0.0
 40
2.65
100
AcDbArc
 50
180.0
 51
270.0
  0
ARC
  5
271
330
1F
100
AcDbEntity
  8
VIEW0001
  6
DASHED
 62
     7
100
AcDbCircle
 10
16.81083630046529
 20
38.30007900656927
 30
0.0
 40
2.65
100
AcDbArc
 50
270.0
 51
0.0
  0
ARC
  5
272
330
1F
100
AcDbEntity
  8
VIEW0001
  6
DASHED
 62
     7
100
AcDbCircle
 10
16.81083630046529
 20
-6.49992099343071
 30
0.0
 40
2.65
100
AcDbArc
 50
90.0
 51
180.0
  0
ARC
  5
273
330
1F
100
AcDbEntity
  8
VIEW0001
  6
DASHED
 62
     7
100
AcDbCircle
 10
16.81083630046529
 20
-6.49992099343071
 30
0.0
 40
2.65
100
AcDbArc
 50
0.0
 51
90.00000000000003
  0
ARC
  5
274
330
1F
100
AcDbEntity
  8
VIEW0001
  6
DASHED
 62
     7
100
AcDbCircle
 10
16.81083630046529
 20
-10.19992099343072
 30
0.0
 40
2.65
100
AcDbArc
 50
180.0
 51
270.0
  0
ARC
  5
275
330
1F
100
AcDbEntity
  8
VIEW0001
  6
DASHED
 62
     7
100
AcDbCircle
 10
16.81083630046529
 20
-10.19992099343072
 30
0.0
 40
2.65
100
AcDbArc
 50
270.0
 51
0.0
  0
ARC
  5
276
330
1F
100
AcDbEntity
  8
VIEW0001
  6
Continuous
 62
     7
100
AcDbCircle
 10
-94.84056572609934
 20
15.90007900656934
 30
0.0
 40
25.78956716417925
100
AcDbArc
 50
342.408763404531
 51
17.59123659546902
  0
ARC
  5
277
330
1F
100
AcDbEntity
  8
VIEW0001
  6
Continuous
 62
     7
100
AcDbCircle
 10
-67.15135677087532
 20
27.59142195765927
 30
0.0
 40
6.899641791044798
100
AcDbArc
 50
154.380974582593
 51
214.3903828280289
  0
ARC
  5
278
330
1F
100
AcDbEntity
  8
VIEW0001
  6
Continuous
 62
     7
100
AcDbCircle
 10
-75.95064035296495
 20
27.59142195765925
 30
0.0
 40
6.899641791044798
100
AcDbArc
 50
325.6096171719711
 51
25.61902541740701
  0
ARC
  5
279
330
1F
100
AcDbEntity
  8
VIEW0001
  6
Continuous
 62
     7
100
AcDbCircle
 10
-67.15135677087541
 20
4.20873605547941
 30
0.0
 40
6.899641791044798
100
AcDbArc
 50
145.6096171719709
 51
205.6190254173998
  0
ARC
  5
27A
330
1F
100
AcDbEntity
  8
VIEW0001
  6
Continuous
 62
     7
100
AcDbCircle
 10
-48.26143139774087
 20
15.90007900656936
 30
0.0
 40
25.78956716417925
100
AcDbArc
 50
162.408763404531
 51
197.5912365954691
  0
ARC
  5
27B
330
1F
100
AcDbEntity
  8
VIEW0001
  6
Continuous
 62
     7
100
AcDbCircle
 10
-75.95064035296487
 20
4.208736055479395
 30
0.0
 40
6.899641791044798
100
AcDbArc
 50
334.3809745826003
 51
34.3903828280291
  0
ARC
  5
27C
330
1F
100
AcDbEntity
  8
VIEW0001
  6
Continuous
 62
     7
100
AcDbCircle
 10
-104.05099856192
 20
49.40007900656926
 30
0.0
 40
0.9999999999999999
100
AcDbArc
 50
90.00000000000003
 51
180.0
  0
ARC
  5
27D
330
1F
100
AcDbEntity
  8
VIEW0001
  6
Continuous
 62
     7
100
AcDbCircle
 10
-104.05099856192
 20
-17.59992099343071
 30
0.0
 40
0.9999999999999999
100
AcDbArc
 50
180.0
 51
270.0
  0
ARC
  5
27E
330
1F
100
AcDbEntity
  8
VIEW0001
  6
Continuous
 62
     7
100
AcDbCircle
 10
-75.05099856192
 20
-17.59992099343071
 30
0.0
 40
0.9999999999999999
100
AcDbArc
 50
270.0
 51
0.0
  0
ARC
  5
27F
330
1F
100
AcDbEntity
  8
VIEW0001
  6
Continuous
 62
     7
100
AcDbCircle
 10
-75.05099856192
 20
114.4000790065693
 30
0.0
 40
0.9999999999999999
100
AcDbArc
 50
0.0
 51
90.00000000000003
  0
ARC
  5
280
330
1F
100
AcDbEntity
  8
VIEW0001
  6
DASHED
 62
     7
100
AcDbCircle
 10
-76.65099856192
 20
44.90007900656928
 30
0.0
 40
0.9999999999999999
100
AcDbArc
 50
90.00000000000003
 51
180.0
  0
ARC
  5
281
330
1F
100
AcDbEntity
  8
VIEW0001
  6
DASHED
 62
     7
100
AcDbCircle
 10
-76.65099856192
 20
-13.09992099343072
 30
0.0
 40
0.9999999999999999
100
AcDbArc
 50
180.0
 51
270.0
  0
ARC
  5
282
330
1F
100
AcDbEntity
  8
VIEW0001
  6
DASHED
 62
     7
100
AcDbCircle
 10
-84.35099856192001
 20
44.73749754209845
 30
0.0
 40
0.9999999999999999
100
AcDbArc
 50
180.0
 51
270.0
  0
ARC
  5
283
330
1F
100
AcDbEntity
  8
VIEW0001
  6
DASHED
 62
     7
100
AcDbCircle
 10
-84.35099856192001
 20
89.40007900656929
 30
0.0
 40
0.9999999999999999
100
AcDbArc
 50
90.00000000000003
 51
180.0
  0
DIMENSION
  5
284
330
1F
100
AcDbEntity
  8
VIEW0001
 62
     7
100
AcDbDimension
  2
*D3
 10
-67.55099856192001
 20
151.5279123589415
 30
0.0
 11
-83.19826784109209
 21
151.5279123589415
 31
0.0
 70
   160
 71
     5
 42
6.499999999999999
  3
ISO-25
100
AcDbAlignedDimension
 13
-74.05099856192001
 23
112.9000790065693
 33
0.0
 14
-67.55099856192001
 24
142.0657928408557
 34
0.0
 50
180.0
100
AcDbRotatedDimension
1001
ACAD
1000
DSTYLE
1002
{
1070
   278
1070
    46
1070
   147
1040
0.699999988079071
1070
    77
1070
     1
1070
    74
1070
     0
1070
    73
1070
     0
1070
    42
1040
2.54
1070
    44
1040
0.933333333333337
1070
    76
1070
     0
1070
    75
1070
     0
1070
   279
1070
     0
1070
   271
1070
     1
1070
   144
1040
1.0
1070
   173
1070
     1
1070
    41
1040
3.0
1070
   140
1040
2.799999952316284
1070
   344
1005
285
1070
   343
1005
285
1002
}
  0
DIMENSION
  5
2A3
330
1F
100
AcDbEntity
  8
VIEW0001
 62
     7
100
AcDbDimension
  2
*D4
 10
-44.91921461288926
 20
67.8400790065693
 30
0.0
 11
-44.91921461288928
 21
102.4000790065693
 31
0.0
 70
   160
  1
\U+2205<>
 71
     5
 42
69.11999999999999
  3
ISO-25
100
AcDbAlignedDimension
 13
-61.82601413798267
 23
136.9600790065693
 33
0.0
 14
-61.82601413798267
 24
67.8400790065693
 34
0.0
 50
90.00000000000003
100
AcDbRotatedDimension
1001
ACAD
1000
DSTYLE
1002
{
1070
   278
1070
    46
1070
   147
1040
0.699999988079071
1070
    77
1070
     1
1070
    74
1070
     0
1070
    73
1070
     0
1070
    42
1040
2.54
1070
    44
1040
0.933333333333337
1070
    76
1070
     0
1070
    75
1070
     0
1070
   279
1070
     0
1070
   271
1070
     2
1070
   144
1040
1.0
1070
   173
1070
     1
1070
    41
1040
3.0
1070
   140
1040
2.799999952316284
1070
   344
1005
285
1070
   343
1005
285
1002
}
  0
DIMENSION
  5
2B0
330
1F
100
AcDbEntity
  8
VIEW0001
 62
     7
100
AcDbDimension
  2
*D5
 10
-36.80371968667157
 20
64.4000790065693
 30
0.0
 11
-36.80371968667158
 21
102.4000790065693
 31
0.0
 70
   160
  1
(\U+2205<>)
 71
     5
 42
75.99999999999999
  3
ISO-25
100
AcDbAlignedDimension
 13
-66.2598515874094
 23
140.4000790065693
 33
0.0
 14
-66.2598515874094
 24
64.4000790065693
 34
0.0
 50
90.00000000000003
100
AcDbRotatedDimension
1001
ACAD
1000
DSTYLE
1002
{
1070
   278
1070
    46
1070
   147
1040
0.699999988079071
1070
    77
1070
     1
1070
    74
1070
     0
1070
    73
1070
     0
1070
    42
1040
2.54
1070
    44
1040
0.93333333333333
1070
    76
1070
     0
1070
    75
1070
     0
1070
   279
1070
     0
1070
   271
1070
     0
1070
   144
1040
1.0
1070
   173
1070
     1
1070
    41
1040
3.0
1070
   140
1040
2.799999952316284
1070
   344
1005
285
1070
   343
1005
285
1002
}
  0
DIMENSION
  5
2BD
330
1F
100
AcDbEntity
  8
VIEW0001
 62
     7
100
AcDbDimension
  2
*D6
 10
21.64669779778514
 20
33.94775981293312
 30
0.0
 11
23.96102138635611
 21
33.16215281440473
 31
0.0
 70
   165
 71
     5
 42
0.785398163397448
  3
ISO-25
100
AcDb3PointAngularDimension
 13
48.60546122479567
 23
47.69470393089966
 33
0.0
 14
16.81083630046529
 24
65.29307441964139
 34
0.0
 15
16.81083630046527
 25
15.90007900656929
 35
0.0
1001
ACAD
1000
DSTYLE
1002
{
1070
   278
1070
    46
1070
   275
1070
     1
1070
   147
1040
0.699999988079071
1070
    77
1070
     1
1070
    74
1070
     0
1070
    73
1070
     0
1070
    42
1040
2.54
1070
    44
1040
0.933333333333316
1070
    76
1070
     1
1070
    75
1070
     1
1070
   279
1070
     0
1070
   179
1070
     0
1070
   144
1040
0.010334186360493
1070
   173
1070
     1
1070
    41
1040
3.0
1070
   140
1040
2.799999952316284
1070
   344
1005
285
1070
   343
1005
285
1002
}
  0
DIMENSION
  5
2CA
330
1F
100
AcDbEntity
  8
VIEW0001
 62
     7
100
AcDbDimension
  2
*D7
 10
11.97497480314543
 20
33.94775981293312
 30
0.0
 11
9.660651214574466
 21
33.16215281440473
 31
0.0
 70
   165
 71
     5
 42
0.785398163397448
  3
ISO-25
100
AcDb3PointAngularDimension
 13
16.81083630046528
 23
65.29307441964133
 33
0.0
 14
-14.98378862386509
 24
47.69470393089965
 34
0.0
 15
16.8108363004653
 25
15.90007900656928
 35
0.0
1001
ACAD
1000
DSTYLE
1002
{
1070
   278
1070
    46
1070
   275
1070
     1
1070
   147
1040
0.699999988079071
1070
    77
1070
     1
1070
    74
1070
     0
1070
    73
1070
     0
1070
    42
1040
2.54
1070
    44
1040
0.933333333333333
1070
    76
1070
     1
1070
    75
1070
     1
1070
   279
1070
     0
1070
   179
1070
     0
1070
   144
1040
0.010334186360493
1070
   173
1070
     1
1070
    41
1040
3.0
1070
   140
1040
2.799999952316284
1070
   344
1005
285
1070
   343
1005
285
1002
}
  0
DIMENSION
  5
2D7
330
1F
100
AcDbEntity
  8
VIEW0001
 62
     7
100
AcDbDimension
  2
*D8
 10
65.62772374739468
 20
15.90007900656929
 30
0.0
 11
65.62772374739467
 21
59.15007900656928
 31
0.0
 70
   160
 71
     5
 42
86.5
  3
ISO-25
100
AcDbAlignedDimension
 13
54.81083630046528
 23
102.4000790065693
 33
0.0
 14
54.81083630046528
 24
15.90007900656928
 34
0.0
 50
90.00000000000003
100
AcDbRotatedDimension
1001
ACAD
1000
DSTYLE
1002
{
1070
   278
1070
    46
1070
   147
1040
0.699999988079071
1070
    77
1070
     1
1070
    74
1070
     0
1070
    73
1070
     0
1070
    42
1040
2.54
1070
    44
1040
0.933333333333337
1070
    76
1070
     0
1070
    75
1070
     0
1070
   279
1070
     0
1070
   271
1070
     1
1070
   144
1040
1.0
1070
   173
1070
     1
1070
    41
1040
3.0
1070
   140
1040
2.799999952316284
1070
   344
1005
285
1070
   343
1005
285
1002
}
  0
DIMENSION
  5
2E4
330
1F
100
AcDbEntity
  8
VIEW0001
 62
     7
100
AcDbDimension
  2
*D9
 10
77.18638721808898
 20
-18.59992099343067
 30
0.0
 11
77.18638721808897
 21
41.90007900656929
 31
0.0
 70
   160
 71
     5
 42
121.0
  3
ISO-25
100
AcDbAlignedDimension
 13
54.81083630046528
 23
102.4000790065693
 33
0.0
 14
16.81083630046529
 24
-18.59992099343071
 34
0.0
 50
90.00000000000003
100
AcDbRotatedDimension
1001
ACAD
1000
DSTYLE
1002
{
1070
   278
1070
    46
1070
   147
1040
0.699999988079071
1070
    77
1070
     1
1070
    74
1070
     0
1070
    73
1070
     0
1070
    42
1040
2.54
1070
    44
1040
0.933333333333337
1070
    76
1070
     0
1070
    75
1070
     0
1070
   279
1070
     0
1070
   271
1070
     0
1070
   144
1040
1.0
1070
   173
1070
     1
1070
    41
1040
3.0
1070
   140
1040
2.799999952316284
1070
   344
1005
285
1070
   343
1005
285
1002
}
  0
DIMENSION
  5
2F1
330
1F
100
AcDbEntity
  8
VIEW0001
 62
     7
100
AcDbDimension
  2
*D10
 10
51.31083630046528
 20
-31.12970556363868
 30
0.0
 11
16.81083630046529
 21
-31.12970556363867
 31
0.0
 70
   160
 71
     5
 42
69.0
  3
ISO-25
100
AcDbAlignedDimension
 13
-17.68916369953471
 23
15.90007900656928
 33
0.0
 14
51.31083630046528
 24
15.90007900656928
 34
0.0
 50
180.0
100
AcDbRotatedDimension
1001
ACAD
1000
DSTYLE
1002
{
1070
   278
1070
    46
1070
   147
1040
0.699999988079071
1070
    77
1070
     1
1070
    74
1070
     0
1070
    73
1070
     0
1070
    42
1040
2.54
1070
    44
1040
0.93333333333333
1070
    76
1070
     0
1070
    75
1070
     0
1070
   279
1070
     0
1070
   271
1070
     0
1070
   144
1040
1.0
1070
   173
1070
     1
1070
    41
1040
3.0
1070
   140
1040
2.799999952316284
1070
   344
1005
285
1070
   343
1005
285
1002
}
  0
DIMENSION
  5
2FE
330
1F
100
AcDbEntity
  8
VIEW0001
 62
     7
100
AcDbDimension
  2
*D11
 10
-69.05099856192012
 20
-33.42282213714267
 30
0.0
 11
-63.06823180203206
 21
-33.42282213714267
 31
0.0
 70
   160
 71
     5
 42
4.999999999999877
  3
ISO-25
100
AcDbAlignedDimension
 13
-74.05099856192001
 23
-18.59992099343071
 33
0.0
 14
-69.05099856192012
 24
2.40007900656903
 34
0.0
 50
180.0
100
AcDbRotatedDimension
1001
ACAD
1000
DSTYLE
1002
{
1070
   278
1070
    46
1070
   147
1040
0.699999988079071
1070
    77
1070
     1
1070
    74
1070
     0
1070
    73
1070
     0
1070
    42
1040
2.54
1070
    44
1040
0.933333333333337
1070
    76
1070
     0
1070
    75
1070
     0
1070
   279
1070
     0
1070
   271
1070
     0
1070
   144
1040
0.999999999999998
1070
   173
1070
     1
1070
    41
1040
3.0
1070
   140
1040
2.799999952316284
1070
   344
1005
285
1070
   343
1005
285
1002
}
  0
DIMENSION
  5
316
330
1F
100
AcDbEntity
  8
VIEW0001
 62
     7
100
AcDbDimension
  2
*D12
 10
-89.55099856192003
 20
-33.42282213714267
 30
0.0
 11
-97.30099856192
 21
-33.42282213714267
 31
0.0
 70
   160
 71
     5
 42
15.49999999999998
  3
ISO-25
100
AcDbAlignedDimension
 13
-105.05099856192
 23
-18.59992099343071
 33
0.0
 14
-89.55099856192003
 24
-18.59992099343071
 34
0.0
 50
180.0
100
AcDbRotatedDimension
1001
ACAD
1000
DSTYLE
1002
{
1070
   278
1070
    46
1070
   147
1040
0.699999988079071
1070
    77
1070
     1
1070
    74
1070
     0
1070
    73
1070
     0
1070
    42
1040
2.54
1070
    44
1040
0.933333333333337
1070
    76
1070
     0
1070
    75
1070
     0
1070
   279
1070
     0
1070
   271
1070
     1
1070
   144
1040
1.0
1070
   173
1070
     1
1070
    41
1040
3.0
1070
   140
1040
2.799999952316284
1070
   344
1005
285
1070
   343
1005
285
1002
}
  0
DIMENSION
  5
323
330
1F
100
AcDbEntity
  8
VIEW0001
 62
     7
100
AcDbDimension
  2
*D13
 10
-74.05099856192001
 20
-33.42282213714267
 30
0.0
 11
-81.80099856192001
 21
-33.42282213714267
 31
0.0
 70
   160
 71
     5
 42
15.50000000000002
  3
ISO-25
100
AcDbAlignedDimension
 13
-89.55099856192003
 23
-18.59992099343071
 33
0.0
 14
-74.05099856192001
 24
-17.59992099343071
 34
0.0
 50
180.0
100
AcDbRotatedDimension
1001
ACAD
1000
DSTYLE
1002
{
1070
   278
1070
    46
1070
   147
1040
0.699999988079071
1070
    77
1070
     1
1070
    74
1070
     0
1070
    73
1070
     0
1070
    42
1040
2.54
1070
    44
1040
0.933333333333337
1070
    76
1070
     0
1070
    75
1070
     0
1070
   279
1070
     0
1070
   271
1070
     1
1070
   144
1040
1.0
1070
   173
1070
     1
1070
    41
1040
3.0
1070
   140
1040
2.799999952316284
1070
   344
1005
285
1070
   343
1005
285
1002
}
  0
DIMENSION
  5
330
330
1F
100
AcDbEntity
  8
VIEW0001
 62
     7
100
AcDbDimension
  2
*D14
 10
-67.55099856192001
 20
158.5367187623779
 30
0.0
 11
-86.30099856192
 21
158.5367187623779
 31
0.0
 70
   160
 71
     5
 42
37.49999999999999
  3
ISO-25
100
AcDbAlignedDimension
 13
-105.05099856192
 23
49.40007900656926
 33
0.0
 14
-67.55099856192001
 24
142.0657928408557
 34
0.0
 50
180.0
100
AcDbRotatedDimension
1001
ACAD
1000
DSTYLE
1002
{
1070
   278
1070
    46
1070
   147
1040
0.699999988079071
1070
    77
1070
     1
1070
    74
1070
     0
1070
    73
1070
     0
1070
    42
1040
2.54
1070
    44
1040
0.933333333333337
1070
    76
1070
     0
1070
    75
1070
     0
1070
   279
1070
     0
1070
   271
1070
     1
1070
   144
1040
1.0
1070
   173
1070
     1
1070
    41
1040
3.0
1070
   140
1040
2.799999952316284
1070
   344
1005
285
1070
   343
1005
285
1002
}
  0
DIMENSION
  5
33D
330
1F
100
AcDbEntity
  8
VIEW0001
 62
     7
100
AcDbDimension
  2
*D15
 10
-54.55099856192
 20
166.5292687612756
 30
0.0
 11
-79.80099856192
 21
166.5292687612756
 31
0.0
 70
   160
 71
     5
 42
50.5
  3
ISO-25
100
AcDbAlignedDimension
 13
-105.05099856192
 23
49.40007900656926
 33
0.0
 14
-54.55099856192001
 24
110.8871279636568
 34
0.0
 50
180.0
100
AcDbRotatedDimension
1001
ACAD
1000
DSTYLE
1002
{
1070
   278
1070
    46
1070
   147
1040
0.699999988079071
1070
    77
1070
     1
1070
    74
1070
     0
1070
    73
1070
     0
1070
    42
1040
2.54
1070
    44
1040
0.933333333333337
1070
    76
1070
     0
1070
    75
1070
     0
1070
   279
1070
     0
1070
   271
1070
     1
1070
   144
1040
1.0
1070
   173
1070
     1
1070
    41
1040
3.0
1070
   140
1040
2.799999952316284
1070
   344
1005
285
1070
   343
1005
285
1002
}
  0
ENDSEC
  0
SECTION
  2
OBJECTS
  0
DICTIONARY
  5
C
330
0
100
AcDbDictionary
281
     1
  3
ACAD_GROUP
350
D
  3
ACAD_LAYOUT
350
1A
  3
ACAD_MLEADERSTYLE
350
34C
  3
ACAD_MLINESTYLE
350
17
  3
ACAD_PLOTSETTINGS
350
19
  3
ACAD_PLOTSTYLENAME
350
E
  3
ACAD_SCALELIST
350
7F
  3
ACAD_VISUALSTYLE
350
2A
  3
AcDbVariableDictionary
350
34A
  0
DICTIONARY
  5
D
102
{ACAD_REACTORS
330
C
102
}
330
C
100
AcDbDictionary
281
     1
  0
DICTIONARY
  5
1A
102
{ACAD_REACTORS
330
C
102
}
330
C
100
AcDbDictionary
281
     1
  3
Layout1
350
1E
  3
Layout2
350
26
  3
Model
350
22
  0
DICTIONARY
  5
34C
102
{ACAD_REACTORS
330
C
102
}
330
C
100
AcDbDictionary
281
     1
  0
DICTIONARY
  5
17
102
{ACAD_REACTORS
330
C
102
}
330
C
100
AcDbDictionary
281
     1
  3
Standard
350
18
  0
DICTIONARY
  5
19
102
{ACAD_REACTORS
330
C
102
}
330
C
100
AcDbDictionary
281
     1
  0
ACDBDICTIONARYWDFLT
  5
E
102
{ACAD_REACTORS
330
C
102
}
330
C
100
AcDbDictionary
281
     1
  3
Normal
350
F
100
AcDbDictionaryWithDefault
340
F
  0
DICTIONARY
  5
7F
102
{ACAD_REACTORS
330
C
102
}
330
C
100
AcDbDictionary
281
     1
  3
A0
350
80
  3
A1
350
81
  3
A2
350
82
  3
A3
350
83
  3
A4
350
84
  3
A5
350
85
  3
A6
350
86
  3
A7
350
87
  3
A8
350
88
  3
A9
350
89
  3
B0
350
8A
  3
B1
350
8B
  3
B2
350
8C
  3
B3
350
8D
  3
B4
350
8E
  3
B5
350
8F
  3
B6
350
90
  3
B7
350
91
  3
B8
350
92
  3
B9
350
93
  3
C0
350
94
  3
C1
350
95
  3
C2
350
96
  3
C3
350
97
  3
C4
350
98
  3
C5
350
99
  3
C6
350
9A
  3
C7
350
9B
  3
C8
350
9C
  3
C9
350
9D
  3
D0
350
9E
  3
D1
350
9F
  3
D2
350
A0
  0
DICTIONARY
  5
2A
102
{ACAD_REACTORS
330
C
102
}
330
C
100
AcDbDictionary
281
     1
  3
2dWireframe
350
2F
  3
3D Hidden
350
31
  3
3dWireframe
350
30
  3
Basic
350
32
  3
Brighten
350
36
  3
ColorChange
350
3A
  3
Conceptual
350
34
  3
Dim
350
35
  3
Facepattern
350
39
  3
Flat
350
2B
  3
FlatWithEdges
350
2C
  3
Gouraud
350
2D
  3
GouraudWithEdges
350
2E
  3
Linepattern
350
38
  3
Realistic
350
33
  3
Thicken
350
37
  0
DICTIONARY
  5
34A
102
{ACAD_REACTORS
330
C
102
}
330
C
100
AcDbDictionary
281
     1
  3
CANNOSCALE
350
34F
  3
PSOLHEIGHT
350
34E
  3
PSOLWIDTH
350
34D
  0
LAYOUT
  5
1E
102
{ACAD_REACTORS
330
1A
102
}
330
1A
100
AcDbPlotSettings
  1

  2
none_device
  4

  6

 40
0.0
 41
0.0
 42
0.0
 43
0.0
 44
0.0
 45
0.0
 46
0.0
 47
0.0
 48
0.0
 49
0.0
140
0.0
141
0.0
142
1.0
143
1.0
 70
   688
 72
     0
 73
     0
 74
     5
  7

 75
    16
147
1.0
148
0.0
149
0.0
100
AcDbLayout
  1
Layout1
 70
     1
 71
     1
 10
-122.9961353236531
 20
-34.35615547047601
 11
78.1197205514223
 21
170.5892686921342
 12
0.0
 22
0.0
 32
0.0
 14
1.000000000000000E+20
 24
1.000000000000000E+20
 34
1.000000000000000E+20
 15
-1.000000000000000E+20
 25
-1.000000000000000E+20
 35
-1.000000000000000E+20
146
0.0
 13
0.0
 23
0.0
 33
0.0
 16
1.0
 26
0.0
 36
0.0
 17
0.0
 27
1.0
 37
0.0
 76
     0
330
1B
  0
LAYOUT
  5
26
102
{ACAD_REACTORS
330
1A
102
}
330
1A
100
AcDbPlotSettings
  1

  2
none_device
  4

  6

 40
0.0
 41
0.0
 42
0.0
 43
0.0
 44
0.0
 45
0.0
 46
0.0
 47
0.0
 48
0.0
 49
0.0
140
0.0
141
0.0
142
1.0
143
1.0
 70
   688
 72
     0
 73
     0
 74
     5
  7

 75
    16
147
1.0
148
0.0
149
0.0
100
AcDbLayout
  1
Layout2
 70
     1
 71
     2
 10
0.0
 20
0.0
 11
0.0
 21
0.0
 12
0.0
 22
0.0
 32
0.0
 14
0.0
 24
0.0
 34
0.0
 15
0.0
 25
0.0
 35
0.0
146
0.0
 13
0.0
 23
0.0
 33
0.0
 16
1.0
 26
0.0
 36
0.0
 17
0.0
 27
1.0
 37
0.0
 76
     0
330
23
  0
LAYOUT
  5
22
102
{ACAD_REACTORS
330
1A
102
}
330
1A
100
AcDbPlotSettings
  1

  2
none_device
  4

  6

 40
0.0
 41
0.0
 42
0.0
 43
0.0
 44
0.0
 45
0.0
 46
0.0
 47
0.0
 48
0.0
 49
0.0
140
0.0
141
0.0
142
1.0
143
1.0
 70
  1712
 72
     0
 73
     0
 74
     0
  7

 75
     0
147
1.0
148
0.0
149
0.0
100
AcDbLayout
  1
Model
 70
     1
 71
     0
 10
-122.9961353236531
 20
-34.35615547047601
 11
78.1197205514223
 21
170.5892686921342
 12
0.0
 22
0.0
 32
0.0
 14
-122.9961353236531
 24
-34.35615547047601
 34
0.0
 15
78.1197205514223
 25
170.5892686921342
 35
0.0
146
0.0
 13
0.0
 23
0.0
 33
0.0
 16
1.0
 26
0.0
 36
0.0
 17
0.0
 27
1.0
 37
0.0
 76
     0
330
1F
331
29
  0
MLINESTYLE
  5
18
102
{ACAD_REACTORS
330
17
102
}
330
17
100
AcDbMlineStyle
  2
Standard
 70
     0
  3

 62
   256
 51
90.0
 52
90.0
 71
     2
 49
0.5
 62
   256
  6
BYLAYER
 49
-0.5
 62
   256
  6
BYLAYER
  0
ACDBPLACEHOLDER
  5
F
102
{ACAD_REACTORS
330
E
102
}
330
E
  0
SCALE
  5
80
102
{ACAD_REACTORS
330
7F
102
}
330
7F
100
AcDbScale
 70
     0
300
1:1
140
1.0
141
1.0
290
     1
  0
SCALE
  5
81
102
{ACAD_REACTORS
330
7F
102
}
330
7F
100
AcDbScale
 70
     0
300
1:2
140
1.0
141
2.0
290
     0
  0
SCALE
  5
82
102
{ACAD_REACTORS
330
7F
102
}
330
7F
100
AcDbScale
 70
     0
300
1:4
140
1.0
141
4.0
290
     0
  0
SCALE
  5
83
102
{ACAD_REACTORS
330
7F
102
}
330
7F
100
AcDbScale
 70
     0
300
1:5
140
1.0
141
5.0
290
     0
  0
SCALE
  5
84
102
{ACAD_REACTORS
330
7F
102
}
330
7F
100
AcDbScale
 70
     0
300
1:8
140
1.0
141
8.0
290
     0
  0
SCALE
  5
85
102
{ACAD_REACTORS
330
7F
102
}
330
7F
100
AcDbScale
 70
     0
300
1:10
140
1.0
141
10.0
290
     0
  0
SCALE
  5
86
102
{ACAD_REACTORS
330
7F
102
}
330
7F
100
AcDbScale
 70
     0
300
1:16
140
1.0
141
16.0
290
     0
  0
SCALE
  5
87
102
{ACAD_REACTORS
330
7F
102
}
330
7F
100
AcDbScale
 70
     0
300
1:20
140
1.0
141
20.0
290
     0
  0
SCALE
  5
88
102
{ACAD_REACTORS
330
7F
102
}
330
7F
100
AcDbScale
 70
     0
300
1:30
140
1.0
141
30.0
290
     0
  0
SCALE
  5
89
102
{ACAD_REACTORS
330
7F
102
}
330
7F
100
AcDbScale
 70
     0
300
1:40
140
1.0
141
40.0
290
     0
  0
SCALE
  5
8A
102
{ACAD_REACTORS
330
7F
102
}
330
7F
100
AcDbScale
 70
     0
300
1:50
140
1.0
141
50.0
290
     0
  0
SCALE
  5
8B
102
{ACAD_REACTORS
330
7F
102
}
330
7F
100
AcDbScale
 70
     0
300
1:100
140
1.0
141
100.0
290
     0
  0
SCALE
  5
8C
102
{ACAD_REACTORS
330
7F
102
}
330
7F
100
AcDbScale
 70
     0
300
2:1
140
2.0
141
1.0
290
     0
  0
SCALE
  5
8D
102
{ACAD_REACTORS
330
7F
102
}
330
7F
100
AcDbScale
 70
     0
300
4:1
140
4.0
141
1.0
290
     0
  0
SCALE
  5
8E
102
{ACAD_REACTORS
330
7F
102
}
330
7F
100
AcDbScale
 70
     0
300
8:1
140
8.0
141
1.0
290
     0
  0
SCALE
  5
8F
102
{ACAD_REACTORS
330
7F
102
}
330
7F
100
AcDbScale
 70
     0
300
10:1
140
10.0
141
1.0
290
     0
  0
SCALE
  5
90
102
{ACAD_REACTORS
330
7F
102
}
330
7F
100
AcDbScale
 70
     0
300
100:1
140
100.0
141
1.0
290
     0
  0
SCALE
  5
91
102
{ACAD_REACTORS
330
7F
102
}
330
7F
100
AcDbScale
 70
     0
300
1/128" = 1'-0"
140
0.0078125
141
12.0
290
     0
  0
SCALE
  5
92
102
{ACAD_REACTORS
330
7F
102
}
330
7F
100
AcDbScale
 70
     0
300
1/64" = 1'-0"
140
0.015625
141
12.0
290
     0
  0
SCALE
  5
93
102
{ACAD_REACTORS
330
7F
102
}
330
7F
100
AcDbScale
 70
     0
300
1/32" = 1'-0"
140
0.03125
141
12.0
290
     0
  0
SCALE
  5
94
102
{ACAD_REACTORS
330
7F
102
}
330
7F
100
AcDbScale
 70
     0
300
1/16" = 1'-0"
140
0.0625
141
12.0
290
     0
  0
SCALE
  5
95
102
{ACAD_REACTORS
330
7F
102
}
330
7F
100
AcDbScale
 70
     0
300
3/32" = 1'-0"
140
0.09375
141
12.0
290
     0
  0
SCALE
  5
96
102
{ACAD_REACTORS
330
7F
102
}
330
7F
100
AcDbScale
 70
     0
300
1/8" = 1'-0"
140
0.125
141
12.0
290
     0
  0
SCALE
  5
97
102
{ACAD_REACTORS
330
7F
102
}
330
7F
100
AcDbScale
 70
     0
300
3/16" = 1'-0"
140
0.1875
141
12.0
290
     0
  0
SCALE
  5
98
102
{ACAD_REACTORS
330
7F
102
}
330
7F
100
AcDbScale
 70
     0
300
1/4" = 1'-0"
140
0.25
141
12.0
290
     0
  0
SCALE
  5
99
102
{ACAD_REACTORS
330
7F
102
}
330
7F
100
AcDbScale
 70
     0
300
3/8" = 1'-0"
140
0.375
141
12.0
290
     0
  0
SCALE
  5
9A
102
{ACAD_REACTORS
330
7F
102
}
330
7F
100
AcDbScale
 70
     0
300
1/2" = 1'-0"
140
0.5
141
12.0
290
     0
  0
SCALE
  5
9B
102
{ACAD_REACTORS
330
7F
102
}
330
7F
100
AcDbScale
 70
     0
300
3/4" = 1'-0"
140
0.75
141
12.0
290
     0
  0
SCALE
  5
9C
102
{ACAD_REACTORS
330
7F
102
}
330
7F
100
AcDbScale
 70
     0
300
1" = 1'-0"
140
1.0
141
12.0
290
     0
  0
SCALE
  5
9D
102
{ACAD_REACTORS
330
7F
102
}
330
7F
100
AcDbScale
 70
     0
300
1-1/2" = 1'-0"
140
1.5
141
12.0
290
     0
  0
SCALE
  5
9E
102
{ACAD_REACTORS
330
7F
102
}
330
7F
100
AcDbScale
 70
     0
300
3" = 1'-0"
140
3.0
141
12.0
290
     0
  0
SCALE
  5
9F
102
{ACAD_REACTORS
330
7F
102
}
330
7F
100
AcDbScale
 70
     0
300
6" = 1'-0"
140
6.0
141
12.0
290
     0
  0
SCALE
  5
A0
102
{ACAD_REACTORS
330
7F
102
}
330
7F
100
AcDbScale
 70
     0
300
1'-0" = 1'-0"
140
12.0
141
12.0
290
     0
  0
VISUALSTYLE
  5
2F
102
{ACAD_REACTORS
330
2A
102
}
330
2A
100
AcDbVisualStyle
  2
2dWireframe
 70
     4
 71
     0
 72
     2
 73
     0
 90
        0
 40
-0.6
 41
-30.0
 62
     5
 63
     7
 74
     1
 91
        4
 64
     7
 65
   257
 75
     1
175
     1
 42
1.0
 92
        0
 66
   257
 43
1.0
 76
     1
 77
     6
 78
     2
 67
     7
 79
     5
170
     0
171
     0
290
     0
174
     0
 93
        1
 44
0.0
173
     0
291
     0
 45
0.0
1001
ACAD
1000
AcDbSavedByObjectVersion
1070
     0
  0
VISUALSTYLE
  5
31
102
{ACAD_REACTORS
330
2A
102
}
330
2A
100
AcDbVisualStyle
  2
3D Hidden
 70
     6
 71
     1
 72
     2
 73
     2
 90
        0
 40
-0.6
 41
-30.0
 62
     5
 63
     7
 74
     2
 91
        2
 64
     7
 65
   257
 75
     2
175
     1
 42
40.0
 92
        0
 66
   257
 43
1.0
 76
     1
 77
     6
 78
     2
 67
     7
 79
     3
170
     0
171
     0
290
     0
174
     0
 93
        1
 44
0.0
173
     0
291
     0
 45
0.0
1001
ACAD
1000
AcDbSavedByObjectVersion
1070
     0
  0
VISUALSTYLE
  5
30
102
{ACAD_REACTORS
330
2A
102
}
330
2A
100
AcDbVisualStyle
  2
3dWireframe
 70
     5
 71
     0
 72
     2
 73
     0
 90
        0
 40
-0.6
 41
-30.0
 62
     5
 63
     7
 74
     1
 91
        4
 64
     7
 65
   257
 75
     1
175
     1
 42
1.0
 92
        0
 66
   257
 43
1.0
 76
     1
 77
     6
 78
     2
 67
     7
 79
     5
170
     0
171
     0
290
     0
174
     0
 93
        1
 44
0.0
173
     0
291
     0
 45
0.0
1001
ACAD
1000
AcDbSavedByObjectVersion
1070
     0
  0
VISUALSTYLE
  5
32
102
{ACAD_REACTORS
330
2A
102
}
330
2A
100
AcDbVisualStyle
  2
Basic
 70
     7
 71
     1
 72
     0
 73
     1
 90
        0
 40
-0.6
 41
-30.0
 62
     5
 63
     7
 74
     0
 91
        4
 64
     7
 65
   257
 75
     1
175
     1
 42
1.0
 92
        8
 66
     7
 43
1.0
 76
     1
 77
     6
 78
     2
 67
     7
 79
     5
170
     0
171
     0
290
     0
174
     0
 93
        1
 44
0.0
173
     0
291
     1
 45
0.0
1001
ACAD
1000
AcDbSavedByObjectVersion
1070
     0
  0
VISUALSTYLE
  5
36
102
{ACAD_REACTORS
330
2A
102
}
330
2A
100
AcDbVisualStyle
  2
Brighten
 70
    12
 71
     2
 72
     2
 73
     0
 90
        0
 40
-0.6
 41
-30.0
 62
     5
 63
     7
 74
     1
 91
        4
 64
     7
 65
   257
 75
     1
175
     1
 42
1.0
 92
        8
 66
     7
 43
1.0
 76
     1
 77
     6
 78
     2
 67
     7
 79
     5
170
     0
171
     0
290
     0
174
     0
 93
        1
 44
50.0
173
     0
291
     1
 45
0.0
1001
ACAD
1000
AcDbSavedByObjectVersion
1070
     0
  0
VISUALSTYLE
  5
3A
102
{ACAD_REACTORS
330
2A
102
}
330
2A
100
AcDbVisualStyle
  2
ColorChange
 70
    16
 71
     2
 72
     2
 73
     3
 90
        0
 40
-0.6
 41
-30.0
 62
     5
 63
     8
 74
     1
 91
        4
 64
     7
 65
   257
 75
     1
175
     1
 42
1.0
 92
        8
 66
     8
 43
1.0
 76
     1
 77
     6
 78
     2
 67
     7
 79
     5
170
     0
171
     0
290
     0
174
     0
 93
        1
 44
0.0
173
     0
291
     1
 45
0.0
1001
ACAD
1000
AcDbSavedByObjectVersion
1070
     0
  0
VISUALSTYLE
  5
34
102
{ACAD_REACTORS
330
2A
102
}
330
2A
100
AcDbVisualStyle
  2
Conceptual
 70
     9
 71
     3
 72
     2
 73
     0
 90
        0
 40
-0.6
 41
-30.0
 62
     5
 63
     7
 74
     2
 91
        2
 64
     7
 65
   257
 75
     1
175
     1
 42
40.0
 92
        8
 66
     7
 43
1.0
 76
     1
 77
     6
 78
     2
 67
     7
 79
     3
170
     0
171
     0
290
     0
174
     0
 93
        1
 44
0.0
173
     0
291
     0
 45
0.0
1001
ACAD
1000
AcDbSavedByObjectVersion
1070
     0
  0
VISUALSTYLE
  5
35
102
{ACAD_REACTORS
330
2A
102
}
330
2A
100
AcDbVisualStyle
  2
Dim
 70
    11
 71
     2
 72
     2
 73
     0
 90
        0
 40
-0.6
 41
-30.0
 62
     5
 63
     7
 74
     1
 91
        4
 64
     7
 65
   257
 75
     1
175
     1
 42
1.0
 92
        8
 66
     7
 43
1.0
 76
     1
 77
     6
 78
     2
 67
     7
 79
     5
170
     0
171
     0
290
     0
174
     0
 93
        1
 44
-50.0
173
     0
291
     1
 45
0.0
1001
ACAD
1000
AcDbSavedByObjectVersion
1070
     0
  0
VISUALSTYLE
  5
39
102
{ACAD_REACTORS
330
2A
102
}
330
2A
100
AcDbVisualStyle
  2
Facepattern
 70
    15
 71
     2
 72
     2
 73
     0
 90
        0
 40
-0.6
 41
-30.0
 62
     5
 63
     7
 74
     1
 91
        4
 64
     7
 65
   257
 75
     1
175
     1
 42
1.0
 92
        8
 66
     7
 43
1.0
 76
     1
 77
     6
 78
     2
 67
     7
 79
     5
170
     0
171
     0
290
     0
174
     0
 93
        1
 44
0.0
173
     0
291
     1
 45
0.0
1001
ACAD
1000
AcDbSavedByObjectVersion
1070
     0
  0
VISUALSTYLE
  5
2B
102
{ACAD_REACTORS
330
2A
102
}
330
2A
100
AcDbVisualStyle
  2
Flat
 70
     0
 71
     2
 72
     1
 73
     1
 90
        2
 40
-0.6
 41
30.0
 62
     5
 63
     7
 74
     0
 91
        4
 64
     7
 65
   257
 75
     1
175
     1
 42
1.0
 92
        8
 66
     7
 43
1.0
 76
     1
 77
     6
 78
     2
 67
     7
 79
     5
170
     0
171
     0
290
     0
174
     0
 93
       13
 44
0.0
173
     0
291
     1
 45
0.0
1001
ACAD
1000
AcDbSavedByObjectVersion
1070
     0
  0
VISUALSTYLE
  5
2C
102
{ACAD_REACTORS
330
2A
102
}
330
2A
100
AcDbVisualStyle
  2
FlatWithEdges
 70
     1
 71
     2
 72
     1
 73
     1
 90
        2
 40
-0.6
 41
30.0
 62
     5
 63
     7
 74
     1
 91
        4
 64
     7
 65
   257
 75
     1
175
     1
 42
1.0
 92
        0
 66
   257
 43
1.0
 76
     1
 77
     6
 78
     2
 67
     7
 79
     5
170
     0
171
     0
290
     0
174
     0
 93
       13
 44
0.0
173
     0
291
     1
 45
0.0
1001
ACAD
1000
AcDbSavedByObjectVersion
1070
     0
  0
VISUALSTYLE
  5
2D
102
{ACAD_REACTORS
330
2A
102
}
330
2A
100
AcDbVisualStyle
  2
Gouraud
 70
     2
 71
     2
 72
     2
 73
     1
 90
        2
 40
-0.6
 41
30.0
 62
     5
 63
     7
 74
     0
 91
        4
 64
     7
 65
   257
 75
     1
175
     1
 42
1.0
 92
        0
 66
     7
 43
1.0
 76
     1
 77
     6
 78
     2
 67
     7
 79
     5
170
     0
171
     0
290
     0
174
     0
 93
       13
 44
0.0
173
     0
291
     1
 45
0.0
1001
ACAD
1000
AcDbSavedByObjectVersion
1070
     0
  0
VISUALSTYLE
  5
2E
102
{ACAD_REACTORS
330
2A
102
}
330
2A
100
AcDbVisualStyle
  2
GouraudWithEdges
 70
     3
 71
     2
 72
     2
 73
     1
 90
        2
 40
-0.6
 41
30.0
 62
     5
 63
     7
 74
     1
 91
        4
 64
     7
 65
   257
 75
     1
175
     1
 42
1.0
 92
        0
 66
   257
 43
1.0
 76
     1
 77
     6
 78
     2
 67
     7
 79
     5
170
     0
171
     0
290
     0
174
     0
 93
       13
 44
0.0
173
     0
291
     1
 45
0.0
1001
ACAD
1000
AcDbSavedByObjectVersion
1070
     0
  0
VISUALSTYLE
  5
38
102
{ACAD_REACTORS
330
2A
102
}
330
2A
100
AcDbVisualStyle
  2
Linepattern
 70
    14
 71
     2
 72
     2
 73
     0
 90
        0
 40
-0.6
 41
-30.0
 62
     5
 63
     7
 74
     1
 91
        4
 64
     7
 65
   257
 75
     7
175
     7
 42
1.0
 92
        8
 66
     7
 43
1.0
 76
     1
 77
     6
 78
     2
 67
     7
 79
     5
170
     0
171
     0
290
     0
174
     0
 93
        1
 44
0.0
173
     0
291
     1
 45
0.0
1001
ACAD
1000
AcDbSavedByObjectVersion
1070
     0
  0
VISUALSTYLE
  5
33
102
{ACAD_REACTORS
330
2A
102
}
330
2A
100
AcDbVisualStyle
  2
Realistic
 70
     8
 71
     2
 72
     2
 73
     0
 90
        0
 40
-0.6
 41
-30.0
 62
     5
 63
     7
 74
     1
 91
        0
 64
     7
 65
   257
 75
     1
175
     1
 42
1.0
 92
        8
 66
     8
 43
1.0
 76
     1
 77
     6
 78
     2
 67
     7
 79
     5
170
     0
171
     0
290
     0
174
     0
 93
       13
 44
0.0
173
     0
291
     0
 45
0.0
1001
ACAD
1000
AcDbSavedByObjectVersion
1070
     0
  0
VISUALSTYLE
  5
37
102
{ACAD_REACTORS
330
2A
102
}
330
2A
100
AcDbVisualStyle
  2
Thicken
 70
    13
 71
     2
 72
     2
 73
     0
 90
        0
 40
-0.6
 41
-30.0
 62
     5
 63
     7
 74
     1
 91
        4
 64
     7
 65
   257
 75
     1
175
     1
 42
1.0
 92
       12
 66
     7
 43
1.0
 76
     1
 77
     6
 78
     2
 67
     7
 79
     5
170
     0
171
     0
290
     0
174
     0
 93
        1
 44
0.0
173
     0
291
     1
 45
0.0
1001
ACAD
1000
AcDbSavedByObjectVersion
1070
     0
  0
DICTIONARYVAR
  5
34F
102
{ACAD_REACTORS
330
34A
102
}
330
34A
100
DictionaryVariables
280
     0
  1
1:1
  0
DICTIONARYVAR
  5
34E
102
{ACAD_REACTORS
330
34A
102
}
330
34A
100
DictionaryVariables
280
     0
  1
80.000000
  0
DICTIONARYVAR
  5
34D
102
{ACAD_REACTORS
330
34A
102
}
330
34A
100
DictionaryVariables
280
     0
  1
5.000000
  0
ENDSEC
  0
EOF
