  0
SECTION
  2
HEADER
  9
$ACADVER
  1
AC1015
  9
$ACADMAINTVER
 70
     6
  9
$DWGCODEPAGE
  3
ANSI_932
  9
$INSBASE
 10
0.0
 20
0.0
 30
0.0
  9
$EXTMIN
 10
-67.0
 20
-100.7
 30
0.0
  9
$EXTMAX
 10
135.7
 20
93.55999993085861
 30
0.0
  9
$LIMMIN
 10
-67.0
 20
-100.7
  9
$LIMMAX
 10
135.7
 20
93.55999993085861
  9
$ORTHOMODE
 70
     0
  9
$REGENMODE
 70
     1
  9
$FILLMODE
 70
     1
  9
$QTEXTMODE
 70
     0
  9
$MIRRTEXT
 70
     1
  9
$LTSCALE
 40
1.0
  9
$ATTMODE
 70
     1
  9
$TEXTSIZE
 40
2.5
  9
$TRACEWID
 40
1.0
  9
$TEXTSTYLE
  7
Standard
  9
$CLAYER
  8
0
  9
$CELTYPE
  6
ByLayer
  9
$CECOLOR
 62
   256
  9
$CELTSCALE
 40
1.0
  9
$DISPSILH
 70
     0
  9
$DIMSCALE
 40
1.0
  9
$DIMASZ
 40
2.5
  9
$DIMEXO
 40
0.625
  9
$DIMDLI
 40
3.75
  9
$DIMRND
 40
0.0
  9
$DIMDLE
 40
0.0
  9
$DIMEXE
 40
1.25
  9
$DIMTP
 40
0.0
  9
$DIMTM
 40
0.0
  9
$DIMTXT
 40
2.5
  9
$DIMCEN
 40
2.5
  9
$DIMTSZ
 40
0.0
  9
$DIMTOL
 70
     0
  9
$DIMLIM
 70
     0
  9
$DIMTIH
 70
     0
  9
$DIMTOH
 70
     0
  9
$DIMSE1
 70
     0
  9
$DIMSE2
 70
     0
  9
$DIMTAD
 70
     1
  9
$DIMZIN
 70
     8
  9
$DIMBLK
  1

  9
$DIMASO
 70
     1
  9
$DIMSHO
 70
     1
  9
$DIMPOST
  1

  9
$DIMAPOST
  1

  9
$DIMALT
 70
     0
  9
$DIMALTD
 70
     3
  9
$DIMALTF
 40
0.03937007874016
  9
$DIMLFAC
 40
1.0
  9
$DIMTOFL
 70
     1
  9
$DIMTVP
 40
0.0
  9
$DIMTIX
 70
     0
  9
$DIMSOXD
 70
     0
  9
$DIMSAH
 70
     0
  9
$DIMBLK1
  1

  9
$DIMBLK2
  1

  9
$DIMSTYLE
  2
ISO-25
  9
$DIMCLRD
 70
     0
  9
$DIMCLRE
 70
     0
  9
$DIMCLRT
 70
     0
  9
$DIMTFAC
 40
1.0
  9
$DIMGAP
 40
0.625
  9
$DIMJUST
 70
     0
  9
$DIMSD1
 70
     0
  9
$DIMSD2
 70
     0
  9
$DIMTOLJ
 70
     0
  9
$DIMTZIN
 70
     8
  9
$DIMALTZ
 70
     0
  9
$DIMALTTZ
 70
     0
  9
$DIMUPT
 70
     0
  9
$DIMDEC
 70
     2
  9
$DIMTDEC
 70
     2
  9
$DIMALTU
 70
     2
  9
$DIMALTTD
 70
     3
  9
$DIMTXSTY
  7
Standard
  9
$DIMAUNIT
 70
     0
  9
$DIMADEC
 70
     0
  9
$DIMALTRND
 40
0.0
  9
$DIMAZIN
 70
     0
  9
$DIMDSEP
 70
    44
  9
$DIMATFIT
 70
     3
  9
$DIMFRAC
 70
     0
  9
$DIMLDRBLK
  1

  9
$DIMLUNIT
 70
     2
  9
$DIMLWD
 70
    -2
  9
$DIMLWE
 70
    -2
  9
$DIMTMOVE
 70
     0
  9
$LUNITS
 70
     2
  9
$LUPREC
 70
     4
  9
$SKETCHINC
 40
1.0
  9
$FILLETRAD
 40
10.0
  9
$AUNITS
 70
     0
  9
$AUPREC
 70
     0
  9
$MENU
  1
.
  9
$ELEVATION
 40
0.0
  9
$PELEVATION
 40
0.0
  9
$THICKNESS
 40
0.0
  9
$LIMCHECK
 70
     0
  9
$CHAMFERA
 40
10.0
  9
$CHAMFERB
 40
10.0
  9
$CHAMFERC
 40
20.0
  9
$CHAMFERD
 40
0.0
  9
$SKPOLY
 70
     0
  9
$TDCREATE
 40
2456185.410668194
  9
$TDUCREATE
 40
2456185.035668194
  9
$TDUPDATE
 40
2456185.410668206
  9
$TDUUPDATE
 40
2456185.035668206
  9
$TDINDWG
 40
0.0000000116
  9
$TDUSRTIMER
 40
0.0000000116
  9
$USRTIMER
 70
     1
  9
$ANGBASE
 50
0.0
  9
$ANGDIR
 70
     0
  9
$PDMODE
 70
     0
  9
$PDSIZE
 40
0.0
  9
$PLINEWID
 40
0.0
  9
$SPLFRAME
 70
     0
  9
$SPLINETYPE
 70
     6
  9
$SPLINESEGS
 70
     8
  9
$HANDSEED
  5
151
  9
$SURFTAB1
 70
     6
  9
$SURFTAB2
 70
     6
  9
$SURFTYPE
 70
     6
  9
$SURFU
 70
     6
  9
$SURFV
 70
     6
  9
$UCSBASE
  2

  9
$UCSNAME
  2

  9
$UCSORG
 10
0.0
 20
0.0
 30
0.0
  9
$UCSXDIR
 10
1.0
 20
0.0
 30
0.0
  9
$UCSYDIR
 10
0.0
 20
1.0
 30
0.0
  9
$UCSORTHOREF
  2

  9
$UCSORTHOVIEW
 70
     0
  9
$UCSORGTOP
 10
0.0
 20
0.0
 30
0.0
  9
$UCSORGBOTTOM
 10
0.0
 20
0.0
 30
0.0
  9
$UCSORGLEFT
 10
0.0
 20
0.0
 30
0.0
  9
$UCSORGRIGHT
 10
0.0
 20
0.0
 30
0.0
  9
$UCSORGFRONT
 10
0.0
 20
0.0
 30
0.0
  9
$UCSORGBACK
 10
0.0
 20
0.0
 30
0.0
  9
$PUCSBASE
  2

  9
$PUCSNAME
  2

  9
$PUCSORG
 10
0.0
 20
0.0
 30
0.0
  9
$PUCSXDIR
 10
1.0
 20
0.0
 30
0.0
  9
$PUCSYDIR
 10
0.0
 20
1.0
 30
0.0
  9
$PUCSORTHOREF
  2

  9
$PUCSORTHOVIEW
 70
     0
  9
$PUCSORGTOP
 10
0.0
 20
0.0
 30
0.0
  9
$PUCSORGBOTTOM
 10
0.0
 20
0.0
 30
0.0
  9
$PUCSORGLEFT
 10
0.0
 20
0.0
 30
0.0
  9
$PUCSORGRIGHT
 10
0.0
 20
0.0
 30
0.0
  9
$PUCSORGFRONT
 10
0.0
 20
0.0
 30
0.0
  9
$PUCSORGBACK
 10
0.0
 20
0.0
 30
0.0
  9
$USERI1
 70
     0
  9
$USERI2
 70
     0
  9
$USERI3
 70
     0
  9
$USERI4
 70
     0
  9
$USERI5
 70
     0
  9
$USERR1
 40
0.0
  9
$USERR2
 40
0.0
  9
$USERR3
 40
0.0
  9
$USERR4
 40
0.0
  9
$USERR5
 40
0.0
  9
$WORLDVIEW
 70
     1
  9
$SHADEDGE
 70
     3
  9
$SHADEDIF
 70
    70
  9
$TILEMODE
 70
     1
  9
$MAXACTVP
 70
    64
  9
$PINSBASE
 10
0.0
 20
0.0
 30
0.0
  9
$PLIMCHECK
 70
     0
  9
$PEXTMIN
 10
1.000000000000000E+20
 20
1.000000000000000E+20
 30
1.000000000000000E+20
  9
$PEXTMAX
 10
-1.000000000000000E+20
 20
-1.000000000000000E+20
 30
-1.000000000000000E+20
  9
$PLIMMIN
 10
-67.0
 20
-100.7
  9
$PLIMMAX
 10
135.7
 20
93.55999993085861
  9
$UNITMODE
 70
     0
  9
$VISRETAIN
 70
     1
  9
$PLINEGEN
 70
     0
  9
$PSLTSCALE
 70
     1
  9
$TREEDEPTH
 70
  3020
  9
$CMLSTYLE
  2
Standard
  9
$CMLJUST
 70
     0
  9
$CMLSCALE
 40
20.0
  9
$PROXYGRAPHICS
 70
     1
  9
$MEASUREMENT
 70
     1
  9
$CELWEIGHT
370
    -1
  9
$ENDCAPS
280
     0
  9
$JOINSTYLE
280
     0
  9
$LWDISPLAY
290
     0
  9
$INSUNITS
 70
     4
  9
$HYPERLINKBASE
  1

  9
$STYLESHEET
  1

  9
$XEDIT
290
     1
  9
$CEPSNTYPE
380
     0
  9
$PSTYLEMODE
290
     1
  9
$FINGERPRINTGUID
  2
{701DA414-BFDC-4A86-90C7-745616DB4B83}
  9
$VERSIONGUID
  2
{FAEB1C32-E019-11D5-929B-00C0DF256EC4}
  9
$EXTNAMES
290
     1
  9
$PSVPSCALE
 40
0.0
  9
$OLESTARTUP
290
     0
  0
ENDSEC
  0
SECTION
  2
CLASSES
  0
CLASS
  1
ACDBDICTIONARYWDFLT
  2
AcDbDictionaryWithDefault
  3
ObjectDBX Classes
 90
        0
280
     0
281
     0
  0
CLASS
  1
VISUALSTYLE
  2
AcDbVisualStyle
  3
ObjectDBX Classes
 90
     4095
280
     0
281
     0
  0
CLASS
  1
SCALE
  2
AcDbScale
  3
ObjectDBX Classes
 90
     1153
280
     0
281
     0
  0
CLASS
  1
DICTIONARYVAR
  2
AcDbDictionaryVar
  3
ObjectDBX Classes
 90
        0
280
     0
281
     0
  0
CLASS
  1
ACDBPLACEHOLDER
  2
AcDbPlaceHolder
  3
ObjectDBX Classes
 90
        0
280
     0
281
     0
  0
CLASS
  1
LAYOUT
  2
AcDbLayout
  3
ObjectDBX Classes
 90
        0
280
     0
281
     0
  0
ENDSEC
  0
SECTION
  2
TABLES
  0
TABLE
  2
VPORT
  5
8
330
0
100
AcDbSymbolTable
 70
     1
  0
VPORT
  5
29
330
8
100
AcDbSymbolTableRecord
100
AcDbViewportTableRecord
  2
*Active
 70
     0
 10
0.0
 20
0.0
 11
1.0
 21
1.0
 12
344.1869158878504
 22
148.5
 13
0.0
 23
0.0
 14
10.0
 24
10.0
 15
10.0
 25
10.0
 16
0.0
 26
0.0
 36
1.0
 17
0.0
 27
0.0
 37
0.0
 40
297.0
 41
1.972972972850329
 42
50.0
 43
0.0
 44
0.0
 50
0.0
 51
0.0
 71
     0
 72
   100
 73
     1
 74
     3
 75
     0
 76
     0
 77
     0
 78
     0
281
     0
 65
     1
110
0.0
120
0.0
130
0.0
111
1.0
121
0.0
131
0.0
112
0.0
122
1.0
132
0.0
 79
     0
146
0.0
  0
ENDTAB
  0
TABLE
  2
LTYPE
  5
5
330
0
100
AcDbSymbolTable
 70
     5
  0
LTYPE
  5
14
330
5
100
AcDbSymbolTableRecord
100
AcDbLinetypeTableRecord
  2
ByBlock
 70
     0
  3

 72
    65
 73
     0
 40
0.0
  0
LTYPE
  5
15
330
5
100
AcDbSymbolTableRecord
100
AcDbLinetypeTableRecord
  2
ByLayer
 70
     0
  3

 72
    65
 73
     0
 40
0.0
  0
LTYPE
  5
16
330
5
100
AcDbSymbolTableRecord
100
AcDbLinetypeTableRecord
  2
Continuous
 70
     0
  3
Solid line
 72
    65
 73
     0
 40
0.0
  0
LTYPE
  5
3B
330
5
100
AcDbSymbolTableRecord
100
AcDbLinetypeTableRecord
  2
CONTINOUS
 70
     0
  3
______________________________
 72
    65
 73
     0
 40
0.0
  0
LTYPE
  5
3C
330
5
100
AcDbSymbolTableRecord
100
AcDbLinetypeTableRecord
  2
DASHED
 70
     0
  3
__ __ __ __ __ __ __ __ __ __ __ __ __ __ __ __
 72
    65
 73
     2
 40
4.5
 49
3.0
 74
     0
 49
-1.5
 74
     0
  0
LTYPE
  5
3D
330
5
100
AcDbSymbolTableRecord
100
AcDbLinetypeTableRecord
  2
PHANTOM
 70
     0
  3
______  __  __  ______  __  __  _____
 72
    65
 73
     6
 40
15.0
 49
7.5
 74
     0
 49
-1.5
 74
     0
 49
1.5
 74
     0
 49
-1.5
 74
     0
 49
1.5
 74
     0
 49
-1.5
 74
     0
  0
LTYPE
  5
3E
330
5
100
AcDbSymbolTableRecord
100
AcDbLinetypeTableRecord
  2
CENTER
 70
     0
  3
____ _ ____ _ ____ _ ____ _ ____ _ ____
 72
    65
 73
     4
 40
12.0
 49
7.5
 74
     0
 49
-1.5
 74
     0
 49
1.5
 74
     0
 49
-1.5
 74
     0
  0
ENDTAB
  0
TABLE
  2
LAYER
  5
2
330
0
100
AcDbSymbolTable
 70
     3
  0
LAYER
  5
10
330
2
100
AcDbSymbolTableRecord
100
AcDbLayerTableRecord
  2
0
 70
     0
 62
     7
  6
Continuous
370
    -3
390
F
  0
LAYER
  5
3F
330
2
100
AcDbSymbolTableRecord
100
AcDbLayerTableRecord
  2
VIEW0001
 70
     0
 62
     7
  6
Continuous
370
    -3
390
F
  0
LAYER
  5
AF
330
2
100
AcDbSymbolTableRecord
100
AcDbLayerTableRecord
  2
Defpoints
 70
     0
 62
     7
  6
Continuous
290
     0
370
    -3
390
F
  0
ENDTAB
  0
TABLE
  2
STYLE
  5
3
330
0
100
AcDbSymbolTable
 70
     1
  0
STYLE
  5
11
330
3
100
AcDbSymbolTableRecord
100
AcDbTextStyleTableRecord
  2
Standard
 70
     0
 40
0.0
 41
1.0
 50
0.0
 71
     0
 42
2.5
  3
ROMANS
  4
EXTFONT
  0
ENDTAB
  0
TABLE
  2
VIEW
  5
6
330
0
100
AcDbSymbolTable
 70
     0
  0
ENDTAB
  0
TABLE
  2
UCS
  5
7
330
0
100
AcDbSymbolTable
 70
     0
  0
ENDTAB
  0
TABLE
  2
APPID
  5
9
330
0
100
AcDbSymbolTable
 70
     1
  0
APPID
  5
12
330
9
100
AcDbSymbolTableRecord
100
AcDbRegAppTableRecord
  2
ACAD
 70
     0
  0
ENDTAB
  0
TABLE
  2
DIMSTYLE
  5
A
330
0
100
AcDbSymbolTable
 70
     1
100
AcDbDimStyleTable
  0
DIMSTYLE
105
27
102
{ACAD_REACTORS
330
86
330
BC
330
C9
330
D6
330
E3
330
F0
330
FD
330
109
330
116
330
122
330
12F
102
}
330
A
100
AcDbSymbolTableRecord
100
AcDbDimStyleTableRecord
  2
ISO-25
 70
     0
 41
2.5
 42
0.625
 43
3.75
 44
1.25
 73
     0
 74
     0
 77
     1
 78
     8
140
2.5
141
2.5
143
0.03937007874016
147
0.625
171
     3
172
     1
271
     2
272
     2
274
     3
278
    44
283
     0
284
     8
340
11
  0
ENDTAB
  0
TABLE
  2
BLOCK_RECORD
  5
1
330
0
100
AcDbSymbolTable
 70
    15
  0
BLOCK_RECORD
  5
1F
330
1
100
AcDbSymbolTableRecord
100
AcDbBlockTableRecord
  2
*Model_Space
340
22
  0
BLOCK_RECORD
  5
1B
330
1
100
AcDbSymbolTableRecord
100
AcDbBlockTableRecord
  2
*Paper_Space
340
1E
  0
BLOCK_RECORD
  5
23
330
1
100
AcDbSymbolTableRecord
100
AcDbBlockTableRecord
  2
*Paper_Space0
340
26
  0
BLOCK_RECORD
  5
A9
330
1
100
AcDbSymbolTableRecord
100
AcDbBlockTableRecord
  2
_OPEN30
340
0
102
{BLKREFS
331
B5
331
B4
331
C2
331
C1
331
CF
331
CE
331
DC
331
DB
331
E9
331
E8
331
F6
331
F5
331
102
331
101
331
10F
331
10E
331
11B
331
11A
331
128
331
127
331
136
102
}
  0
BLOCK_RECORD
  5
B0
330
1
100
AcDbSymbolTableRecord
100
AcDbBlockTableRecord
  2
*D2
340
0
  0
BLOCK_RECORD
  5
BD
330
1
100
AcDbSymbolTableRecord
100
AcDbBlockTableRecord
  2
*D3
340
0
  0
BLOCK_RECORD
  5
CA
330
1
100
AcDbSymbolTableRecord
100
AcDbBlockTableRecord
  2
*D4
340
0
  0
BLOCK_RECORD
  5
D7
330
1
100
AcDbSymbolTableRecord
100
AcDbBlockTableRecord
  2
*D5
340
0
  0
BLOCK_RECORD
  5
E4
330
1
100
AcDbSymbolTableRecord
100
AcDbBlockTableRecord
  2
*D6
340
0
  0
BLOCK_RECORD
  5
F1
330
1
100
AcDbSymbolTableRecord
100
AcDbBlockTableRecord
  2
*D7
340
0
  0
BLOCK_RECORD
  5
FE
330
1
100
AcDbSymbolTableRecord
100
AcDbBlockTableRecord
  2
*D8
340
0
  0
BLOCK_RECORD
  5
10A
330
1
100
AcDbSymbolTableRecord
100
AcDbBlockTableRecord
  2
*D9
340
0
  0
BLOCK_RECORD
  5
117
330
1
100
AcDbSymbolTableRecord
100
AcDbBlockTableRecord
  2
*D10
340
0
  0
BLOCK_RECORD
  5
123
330
1
100
AcDbSymbolTableRecord
100
AcDbBlockTableRecord
  2
*D11
340
0
  0
BLOCK_RECORD
  5
130
330
1
100
AcDbSymbolTableRecord
100
AcDbBlockTableRecord
  2
_NONE
340
0
  0
BLOCK_RECORD
  5
133
330
1
100
AcDbSymbolTableRecord
100
AcDbBlockTableRecord
  2
*D13
340
0
  0
BLOCK_RECORD
  5
142
330
1
100
AcDbSymbolTableRecord
100
AcDbBlockTableRecord
  2
DIM0001
340
0
102
{BLKREFS
331
148
102
}
  0
ENDTAB
  0
ENDSEC
  0
SECTION
  2
BLOCKS
  0
BLOCK
  5
20
330
1F
100
AcDbEntity
  8
0
100
AcDbBlockBegin
  2
*Model_Space
 70
     0
 10
0.0
 20
0.0
 30
0.0
  3
*Model_Space
  1

  0
ENDBLK
  5
21
330
1F
100
AcDbEntity
  8
0
100
AcDbBlockEnd
  0
BLOCK
  5
1C
330
1B
100
AcDbEntity
 67
     1
  8
0
100
AcDbBlockBegin
  2
*Paper_Space
 70
     0
 10
0.0
 20
0.0
 30
0.0
  3
*Paper_Space
  1

  0
ENDBLK
  5
1D
330
1B
100
AcDbEntity
 67
     1
  8
0
100
AcDbBlockEnd
  0
BLOCK
  5
24
330
23
100
AcDbEntity
  8
0
100
AcDbBlockBegin
  2
*Paper_Space0
 70
     0
 10
0.0
 20
0.0
 30
0.0
  3
*Paper_Space0
  1

  0
ENDBLK
  5
25
330
23
100
AcDbEntity
  8
0
100
AcDbBlockEnd
  0
BLOCK
  5
AA
330
A9
100
AcDbEntity
  8
0
100
AcDbBlockBegin
  2
_OPEN30
 70
     0
 10
0.0
 20
0.0
 30
0.0
  3
_OPEN30
  1

  0
LINE
  5
AC
330
A9
100
AcDbEntity
  8
0
  6
ByBlock
 62
     0
370
    -2
100
AcDbLine
 10
-1.0
 20
0.267949
 30
0.0
 11
0.0
 21
0.0
 31
0.0
  0
LINE
  5
AD
330
A9
100
AcDbEntity
  8
0
  6
ByBlock
 62
     0
370
    -2
100
AcDbLine
 10
0.0
 20
0.0
 30
0.0
 11
-1.0
 21
-0.267949
 31
0.0
  0
LINE
  5
AE
330
A9
100
AcDbEntity
  8
0
  6
ByBlock
 62
     0
370
    -2
100
AcDbLine
 10
0.0
 20
0.0
 30
0.0
 11
-1.0
 21
0.0
 31
0.0
  0
ENDBLK
  5
AB
330
A9
100
AcDbEntity
  8
0
100
AcDbBlockEnd
  0
BLOCK
  5
BA
330
B0
100
AcDbEntity
  8
0
100
AcDbBlockBegin
  2
*D2
 70
     1
 10
0.0
 20
0.0
 30
0.0
  3
*D2
  1

  0
LINE
  5
B1
330
B0
100
AcDbEntity
  8
0
 62
     0
370
    -2
100
AcDbLine
 10
-59.99999999999999
 20
81.03999999999998
 30
0.0
 11
-59.99999999999998
 21
90.19999999999997
 31
0.0
  0
LINE
  5
B2
330
B0
100
AcDbEntity
  8
0
 62
     0
370
    -2
100
AcDbLine
 10
-37.99999999999999
 20
81.03999999999998
 30
0.0
 11
-37.99999999999998
 21
90.19999999999997
 31
0.0
  0
LINE
  5
B3
330
B0
100
AcDbEntity
  8
0
 62
     0
370
    -2
100
AcDbLine
 10
-56.99999999999998
 20
89.5
 30
0.0
 11
-40.99999999999998
 21
89.5
 31
0.0
  0
INSERT
  5
B4
330
B0
100
AcDbEntity
  8
0
 62
     0
370
    -2
100
AcDbBlockReference
  2
_OPEN30
 10
-59.99999999999998
 20
89.5
 30
0.0
 41
3.0
 42
3.0
 43
3.0
 50
180.0
  0
INSERT
  5
B5
330
B0
100
AcDbEntity
  8
0
 62
     0
370
    -2
100
AcDbBlockReference
  2
_OPEN30
 10
-37.99999999999998
 20
89.5
 30
0.0
 41
3.0
 42
3.0
 43
3.0
  0
MTEXT
  5
B6
330
B0
100
AcDbEntity
  8
0
 62
     0
100
AcDbMText
 10
-49.0
 20
91.59999996423721
 30
0.0
 40
2.799999952316284
 41
0.0
 71
     5
 72
     1
  1
22
 73
     1
 44
1.0
  0
POINT
  5
B7
330
B0
100
AcDbEntity
  8
Defpoints
 62
     0
100
AcDbPoint
 10
-59.99999999999999
 20
78.49999999999997
 30
0.0
  0
POINT
  5
B8
330
B0
100
AcDbEntity
  8
Defpoints
 62
     0
100
AcDbPoint
 10
-37.99999999999999
 20
78.49999999999997
 30
0.0
  0
POINT
  5
B9
330
B0
100
AcDbEntity
  8
Defpoints
 62
     0
100
AcDbPoint
 10
-37.99999999999998
 20
89.5
 30
0.0
  0
ENDBLK
  5
BB
330
B0
100
AcDbEntity
  8
0
100
AcDbBlockEnd
  0
BLOCK
  5
C7
330
BD
100
AcDbEntity
  8
0
100
AcDbBlockBegin
  2
*D3
 70
     1
 10
0.0
 20
0.0
 30
0.0
  3
*D3
  1

  0
LINE
  5
BE
330
BD
100
AcDbEntity
  8
0
 62
     0
370
    -2
100
AcDbLine
 10
-64.0
 20
-84.54
 30
0.0
 11
-64.0
 21
-91.7
 31
0.0
  0
LINE
  5
BF
330
BD
100
AcDbEntity
  8
0
 62
     0
370
    -2
100
AcDbLine
 10
-49.0
 20
-87.54
 30
0.0
 11
-49.0
 21
-91.7
 31
0.0
  0
LINE
  5
C0
330
BD
100
AcDbEntity
  8
0
 62
     0
370
    -2
100
AcDbLine
 10
-61.0
 20
-91.0
 30
0.0
 11
-52.0
 21
-91.0
 31
0.0
  0
INSERT
  5
C1
330
BD
100
AcDbEntity
  8
0
 62
     0
370
    -2
100
AcDbBlockReference
  2
_OPEN30
 10
-64.0
 20
-91.0
 30
0.0
 41
3.0
 42
3.0
 43
3.0
 50
180.0
  0
INSERT
  5
C2
330
BD
100
AcDbEntity
  8
0
 62
     0
370
    -2
100
AcDbBlockReference
  2
_OPEN30
 10
-49.0
 20
-91.0
 30
0.0
 41
3.0
 42
3.0
 43
3.0
  0
MTEXT
  5
C3
330
BD
100
AcDbEntity
  8
0
 62
     0
100
AcDbMText
 10
-56.5
 20
-88.90000003576279
 30
0.0
 40
2.799999952316284
 41
0.0
 71
     5
 72
     1
  1
15
 73
     1
 44
1.0
  0
POINT
  5
C4
330
BD
100
AcDbEntity
  8
Defpoints
 62
     0
100
AcDbPoint
 10
-64.0
 20
-82.0
 30
0.0
  0
POINT
  5
C5
330
BD
100
AcDbEntity
  8
Defpoints
 62
     0
100
AcDbPoint
 10
-49.0
 20
-85.0
 30
0.0
  0
POINT
  5
C6
330
BD
100
AcDbEntity
  8
Defpoints
 62
     0
100
AcDbPoint
 10
-49.00000000000001
 20
-91.0
 30
0.0
  0
ENDBLK
  5
C8
330
BD
100
AcDbEntity
  8
0
100
AcDbBlockEnd
  0
BLOCK
  5
D4
330
CA
100
AcDbEntity
  8
0
100
AcDbBlockBegin
  2
*D4
 70
     1
 10
0.0
 20
0.0
 30
0.0
  3
*D4
  1

  0
LINE
  5
CB
330
CA
100
AcDbEntity
  8
0
 62
     0
370
    -2
100
AcDbLine
 10
-64.0
 20
-84.54
 30
0.0
 11
-64.0
 21
-100.7
 31
0.0
  0
LINE
  5
CC
330
CA
100
AcDbEntity
  8
0
 62
     0
370
    -2
100
AcDbLine
 10
-36.0
 20
-84.54
 30
0.0
 11
-36.0
 21
-100.7
 31
0.0
  0
LINE
  5
CD
330
CA
100
AcDbEntity
  8
0
 62
     0
370
    -2
100
AcDbLine
 10
-61.0
 20
-100.0
 30
0.0
 11
-39.0
 21
-100.0
 31
0.0
  0
INSERT
  5
CE
330
CA
100
AcDbEntity
  8
0
 62
     0
370
    -2
100
AcDbBlockReference
  2
_OPEN30
 10
-64.0
 20
-100.0
 30
0.0
 41
3.0
 42
3.0
 43
3.0
 50
180.0
  0
INSERT
  5
CF
330
CA
100
AcDbEntity
  8
0
 62
     0
370
    -2
100
AcDbBlockReference
  2
_OPEN30
 10
-36.0
 20
-100.0
 30
0.0
 41
3.0
 42
3.0
 43
3.0
  0
MTEXT
  5
D0
330
CA
100
AcDbEntity
  8
0
 62
     0
100
AcDbMText
 10
-50.0
 20
-97.90000003576279
 30
0.0
 40
2.799999952316284
 41
0.0
 71
     5
 72
     1
  1
28
 73
     1
 44
1.0
  0
POINT
  5
D1
330
CA
100
AcDbEntity
  8
Defpoints
 62
     0
100
AcDbPoint
 10
-64.0
 20
-82.0
 30
0.0
  0
POINT
  5
D2
330
CA
100
AcDbEntity
  8
Defpoints
 62
     0
100
AcDbPoint
 10
-36.0
 20
-82.0
 30
0.0
  0
POINT
  5
D3
330
CA
100
AcDbEntity
  8
Defpoints
 62
     0
100
AcDbPoint
 10
-36.00000000000001
 20
-100.0
 30
0.0
  0
ENDBLK
  5
D5
330
CA
100
AcDbEntity
  8
0
100
AcDbBlockEnd
  0
BLOCK
  5
E1
330
D7
100
AcDbEntity
  8
0
100
AcDbBlockBegin
  2
*D5
 70
     1
 10
0.0
 20
0.0
 30
0.0
  3
*D5
  1

  0
LINE
  5
D8
330
D7
100
AcDbEntity
  8
0
 62
     0
370
    -2
100
AcDbLine
 10
43.75
 20
-69.29
 30
0.0
 11
43.74999999999999
 21
-91.7
 31
0.0
  0
LINE
  5
D9
330
D7
100
AcDbEntity
  8
0
 62
     0
370
    -2
100
AcDbLine
 10
56.25
 20
-69.29
 30
0.0
 11
56.24999999999999
 21
-91.7
 31
0.0
  0
LINE
  5
DA
330
D7
100
AcDbEntity
  8
0
 62
     0
370
    -2
100
AcDbLine
 10
46.74999999999999
 20
-91.0
 30
0.0
 11
53.24999999999999
 21
-91.0
 31
0.0
  0
INSERT
  5
DB
330
D7
100
AcDbEntity
  8
0
 62
     0
370
    -2
100
AcDbBlockReference
  2
_OPEN30
 10
43.74999999999999
 20
-91.0
 30
0.0
 41
3.0
 42
3.0
 43
3.0
 50
180.0
  0
INSERT
  5
DC
330
D7
100
AcDbEntity
  8
0
 62
     0
370
    -2
100
AcDbBlockReference
  2
_OPEN30
 10
56.24999999999999
 20
-91.0
 30
0.0
 41
3.0
 42
3.0
 43
3.0
  0
MTEXT
  5
DD
330
D7
100
AcDbEntity
  8
0
 62
     0
100
AcDbMText
 10
50.0
 20
-88.90000003576279
 30
0.0
 40
2.799999952316284
 41
0.0
 71
     5
 72
     1
  1
12.5
 73
     1
 44
1.0
  0
POINT
  5
DE
330
D7
100
AcDbEntity
  8
Defpoints
 62
     0
100
AcDbPoint
 10
43.75
 20
-66.75
 30
0.0
  0
POINT
  5
DF
330
D7
100
AcDbEntity
  8
Defpoints
 62
     0
100
AcDbPoint
 10
56.25
 20
-66.75
 30
0.0
  0
POINT
  5
E0
330
D7
100
AcDbEntity
  8
Defpoints
 62
     0
100
AcDbPoint
 10
56.24999999999999
 20
-91.0
 30
0.0
  0
ENDBLK
  5
E2
330
D7
100
AcDbEntity
  8
0
100
AcDbBlockEnd
  0
BLOCK
  5
EE
330
E4
100
AcDbEntity
  8
0
100
AcDbBlockBegin
  2
*D6
 70
     1
 10
0.0
 20
0.0
 30
0.0
  3
*D6
  1

  0
LINE
  5
E5
330
E4
100
AcDbEntity
  8
0
 62
     0
370
    -2
100
AcDbLine
 10
14.75
 20
-84.54
 30
0.0
 11
14.75
 21
-100.7
 31
0.0
  0
LINE
  5
E6
330
E4
100
AcDbEntity
  8
0
 62
     0
370
    -2
100
AcDbLine
 10
85.25
 20
-84.54
 30
0.0
 11
85.25
 21
-100.7
 31
0.0
  0
LINE
  5
E7
330
E4
100
AcDbEntity
  8
0
 62
     0
370
    -2
100
AcDbLine
 10
17.75
 20
-100.0
 30
0.0
 11
82.25
 21
-100.0
 31
0.0
  0
INSERT
  5
E8
330
E4
100
AcDbEntity
  8
0
 62
     0
370
    -2
100
AcDbBlockReference
  2
_OPEN30
 10
14.75
 20
-100.0
 30
0.0
 41
3.0
 42
3.0
 43
3.0
 50
180.0
  0
INSERT
  5
E9
330
E4
100
AcDbEntity
  8
0
 62
     0
370
    -2
100
AcDbBlockReference
  2
_OPEN30
 10
85.25
 20
-100.0
 30
0.0
 41
3.0
 42
3.0
 43
3.0
 50
360.0
  0
MTEXT
  5
EA
330
E4
100
AcDbEntity
  8
0
 62
     0
100
AcDbMText
 10
50.0
 20
-97.90000003576279
 30
0.0
 40
2.799999952316284
 41
0.0
 71
     5
 72
     1
  1
70.5
 73
     1
 44
1.0
  0
POINT
  5
EB
330
E4
100
AcDbEntity
  8
Defpoints
 62
     0
100
AcDbPoint
 10
14.75
 20
-82.0
 30
0.0
  0
POINT
  5
EC
330
E4
100
AcDbEntity
  8
Defpoints
 62
     0
100
AcDbPoint
 10
85.25
 20
-82.0
 30
0.0
  0
POINT
  5
ED
330
E4
100
AcDbEntity
  8
Defpoints
 62
     0
100
AcDbPoint
 10
85.25
 20
-100.0
 30
0.0
  0
ENDBLK
  5
EF
330
E4
100
AcDbEntity
  8
0
100
AcDbBlockEnd
  0
BLOCK
  5
FB
330
F1
100
AcDbEntity
  8
0
100
AcDbBlockBegin
  2
*D7
 70
     1
 10
0.0
 20
0.0
 30
0.0
  3
*D7
  1

  0
LINE
  5
F2
330
F1
100
AcDbEntity
  8
0
 62
     0
370
    -2
100
AcDbLine
 10
52.53999999999998
 20
-72.99999999999997
 30
0.0
 11
94.95
 21
-72.99999999999994
 31
0.0
  0
LINE
  5
F3
330
F1
100
AcDbEntity
  8
0
 62
     0
370
    -2
100
AcDbLine
 10
87.79
 20
-82.0
 30
0.0
 11
94.95
 21
-82.0
 31
0.0
  0
LINE
  5
F4
330
F1
100
AcDbEntity
  8
0
 62
     0
370
    -2
100
AcDbLine
 10
94.25
 20
-75.99999999999994
 30
0.0
 11
94.25
 21
-79.0
 31
0.0
  0
INSERT
  5
F5
330
F1
100
AcDbEntity
  8
0
 62
     0
370
    -2
100
AcDbBlockReference
  2
_OPEN30
 10
94.25
 20
-72.99999999999994
 30
0.0
 41
3.0
 42
3.0
 43
3.0
 50
90.0
  0
INSERT
  5
F6
330
F1
100
AcDbEntity
  8
0
 62
     0
370
    -2
100
AcDbBlockReference
  2
_OPEN30
 10
94.25
 20
-82.0
 30
0.0
 41
3.0
 42
3.0
 43
3.0
 50
270.0
  0
MTEXT
  5
F7
330
F1
100
AcDbEntity
  8
0
 62
     0
100
AcDbMText
 10
92.15000003576279
 20
-77.5
 30
0.0
 40
2.799999952316284
 41
0.0
 71
     5
 72
     1
  1
9
 11
0.0
 21
1.0
 31
0.0
 73
     1
 44
1.0
  0
POINT
  5
F8
330
F1
100
AcDbEntity
  8
Defpoints
 62
     0
100
AcDbPoint
 10
49.99999999999999
 20
-72.99999999999997
 30
0.0
  0
POINT
  5
F9
330
F1
100
AcDbEntity
  8
Defpoints
 62
     0
100
AcDbPoint
 10
85.25
 20
-82.0
 30
0.0
  0
POINT
  5
FA
330
F1
100
AcDbEntity
  8
Defpoints
 62
     0
100
AcDbPoint
 10
94.25
 20
-81.99999999999999
 30
0.0
  0
ENDBLK
  5
FC
330
F1
100
AcDbEntity
  8
0
100
AcDbBlockEnd
  0
BLOCK
  5
107
330
FE
100
AcDbEntity
  8
0
100
AcDbBlockBegin
  2
*D8
 70
     1
 10
0.0
 20
0.0
 30
0.0
  3
*D8
  1

  0
LINE
  5
FF
330
FE
100
AcDbEntity
  8
0
 62
     0
370
    -2
100
AcDbLine
 10
52.53999999999997
 20
-2.999999999999998
 30
0.0
 11
94.94999999999999
 21
-3.0
 31
0.0
  0
LINE
  5
100
330
FE
100
AcDbEntity
  8
0
 62
     0
370
    -2
100
AcDbLine
 10
94.25
 20
-69.99999999999994
 30
0.0
 11
94.25000000000001
 21
-6.0
 31
0.0
  0
INSERT
  5
101
330
FE
100
AcDbEntity
  8
0
 62
     0
370
    -2
100
AcDbBlockReference
  2
_OPEN30
 10
94.25
 20
-72.99999999999994
 30
0.0
 41
3.0
 42
3.0
 43
3.0
 50
270.0
  0
INSERT
  5
102
330
FE
100
AcDbEntity
  8
0
 62
     0
370
    -2
100
AcDbBlockReference
  2
_OPEN30
 10
94.25000000000001
 20
-3.0
 30
0.0
 41
3.0
 42
3.0
 43
3.0
 50
89.99999999999999
  0
MTEXT
  5
103
330
FE
100
AcDbEntity
  8
0
 62
     0
100
AcDbMText
 10
92.15000003576279
 20
-38.0
 30
0.0
 40
2.799999952316284
 41
0.0
 71
     5
 72
     1
  1
70
 11
2.030122102171716E-16
 21
1.0
 31
0.0
 73
     1
 44
1.0
  0
POINT
  5
104
330
FE
100
AcDbEntity
  8
Defpoints
 62
     0
100
AcDbPoint
 10
49.99999999999997
 20
-72.99999999999994
 30
0.0
  0
POINT
  5
105
330
FE
100
AcDbEntity
  8
Defpoints
 62
     0
100
AcDbPoint
 10
49.99999999999997
 20
-2.999999999999998
 30
0.0
  0
POINT
  5
106
330
FE
100
AcDbEntity
  8
Defpoints
 62
     0
100
AcDbPoint
 10
94.25
 20
-3.000000000000006
 30
0.0
  0
ENDBLK
  5
108
330
FE
100
AcDbEntity
  8
0
100
AcDbBlockEnd
  0
BLOCK
  5
114
330
10A
100
AcDbEntity
  8
0
100
AcDbBlockBegin
  2
*D9
 70
     1
 10
0.0
 20
0.0
 30
0.0
  3
*D9
  1

  0
LINE
  5
10B
330
10A
100
AcDbEntity
  8
0
 62
     0
370
    -2
100
AcDbLine
 10
85.78999999999998
 20
4.999999999999999
 30
0.0
 11
128.1999999999999
 21
5.000000000000014
 31
0.0
  0
LINE
  5
10C
330
10A
100
AcDbEntity
  8
0
 62
     0
370
    -2
100
AcDbLine
 10
87.78999999999998
 20
-81.99999999999997
 30
0.0
 11
128.1999999999999
 21
-81.99999999999996
 31
0.0
  0
LINE
  5
10D
330
10A
100
AcDbEntity
  8
0
 62
     0
370
    -2
100
AcDbLine
 10
127.5
 20
2.000000000000015
 30
0.0
 11
127.5
 21
-78.99999999999996
 31
0.0
  0
INSERT
  5
10E
330
10A
100
AcDbEntity
  8
0
 62
     0
370
    -2
100
AcDbBlockReference
  2
_OPEN30
 10
127.5
 20
5.000000000000014
 30
0.0
 41
3.0
 42
3.0
 43
3.0
 50
90.00000000000003
  0
INSERT
  5
10F
330
10A
100
AcDbEntity
  8
0
 62
     0
370
    -2
100
AcDbBlockReference
  2
_OPEN30
 10
127.5
 20
-81.99999999999996
 30
0.0
 41
3.0
 42
3.0
 43
3.0
 50
270.0
  0
MTEXT
  5
110
330
10A
100
AcDbEntity
  8
0
 62
     0
100
AcDbMText
 10
125.4000000357628
 20
-38.5
 30
0.0
 40
2.799999952316284
 41
0.0
 71
     5
 72
     1
  1
87
 11
-3.266863152920002E-16
 21
1.0
 31
0.0
 73
     1
 44
1.0
  0
POINT
  5
111
330
10A
100
AcDbEntity
  8
Defpoints
 62
     0
100
AcDbPoint
 10
83.24999999999997
 20
4.999999999999998
 30
0.0
  0
POINT
  5
112
330
10A
100
AcDbEntity
  8
Defpoints
 62
     0
100
AcDbPoint
 10
85.24999999999997
 20
-81.99999999999997
 30
0.0
  0
POINT
  5
113
330
10A
100
AcDbEntity
  8
Defpoints
 62
     0
100
AcDbPoint
 10
127.5
 20
-81.99999999999996
 30
0.0
  0
ENDBLK
  5
115
330
10A
100
AcDbEntity
  8
0
100
AcDbBlockEnd
  0
BLOCK
  5
120
330
117
100
AcDbEntity
  8
0
100
AcDbBlockBegin
  2
*D10
 70
     1
 10
0.0
 20
0.0
 30
0.0
  3
*D10
  1

  0
LINE
  5
118
330
117
100
AcDbEntity
  8
0
 62
     0
370
    -2
100
AcDbLine
 10
122.54
 20
43.0
 30
0.0
 11
128.2
 21
43.0
 31
0.0
  0
LINE
  5
119
330
117
100
AcDbEntity
  8
0
 62
     0
370
    -2
100
AcDbLine
 10
127.5
 20
7.999999999999993
 30
0.0
 11
127.5
 21
40.0
 31
0.0
  0
INSERT
  5
11A
330
117
100
AcDbEntity
  8
0
 62
     0
370
    -2
100
AcDbBlockReference
  2
_OPEN30
 10
127.5
 20
4.999999999999993
 30
0.0
 41
3.0
 42
3.0
 43
3.0
 50
270.0
  0
INSERT
  5
11B
330
117
100
AcDbEntity
  8
0
 62
     0
370
    -2
100
AcDbBlockReference
  2
_OPEN30
 10
127.5
 20
43.0
 30
0.0
 41
3.0
 42
3.0
 43
3.0
 50
90.0
  0
MTEXT
  5
11C
330
117
100
AcDbEntity
  8
0
 62
     0
100
AcDbMText
 10
125.4000000357628
 20
24.0
 30
0.0
 40
2.799999952316284
 41
0.0
 71
     5
 72
     1
  1
38
 11
0.0
 21
1.0
 31
0.0
 73
     1
 44
1.0
  0
POINT
  5
11D
330
117
100
AcDbEntity
  8
Defpoints
 62
     0
100
AcDbPoint
 10
83.24999999999994
 20
4.999999999999996
 30
0.0
  0
POINT
  5
11E
330
117
100
AcDbEntity
  8
Defpoints
 62
     0
100
AcDbPoint
 10
120.0
 20
43.0
 30
0.0
  0
POINT
  5
11F
330
117
100
AcDbEntity
  8
Defpoints
 62
     0
100
AcDbPoint
 10
127.5
 20
43.0
 30
0.0
  0
ENDBLK
  5
121
330
117
100
AcDbEntity
  8
0
100
AcDbBlockEnd
  0
BLOCK
  5
12D
330
123
100
AcDbEntity
  8
0
100
AcDbBlockBegin
  2
*D11
 70
     1
 10
0.0
 20
0.0
 30
0.0
  3
*D11
  1

  0
LINE
  5
124
330
123
100
AcDbEntity
  8
0
 62
     0
370
    -2
100
AcDbLine
 10
87.78999999999998
 20
-81.99999999999997
 30
0.0
 11
135.7
 21
-82.0
 31
0.0
  0
LINE
  5
125
330
123
100
AcDbEntity
  8
0
 62
     0
370
    -2
100
AcDbLine
 10
52.54
 20
82.0
 30
0.0
 11
135.7
 21
81.99999999999996
 31
0.0
  0
LINE
  5
126
330
123
100
AcDbEntity
  8
0
 62
     0
370
    -2
100
AcDbLine
 10
135.0
 20
-79.0
 30
0.0
 11
135.0
 21
78.99999999999996
 31
0.0
  0
INSERT
  5
127
330
123
100
AcDbEntity
  8
0
 62
     0
370
    -2
100
AcDbBlockReference
  2
_OPEN30
 10
135.0
 20
-82.0
 30
0.0
 41
3.0
 42
3.0
 43
3.0
 50
270.0
  0
INSERT
  5
128
330
123
100
AcDbEntity
  8
0
 62
     0
370
    -2
100
AcDbBlockReference
  2
_OPEN30
 10
135.0
 20
81.99999999999996
 30
0.0
 41
3.0
 42
3.0
 43
3.0
 50
89.99999999999999
  0
MTEXT
  5
129
330
123
100
AcDbEntity
  8
0
 62
     0
100
AcDbMText
 10
132.9000000357628
 20
0.0
 30
0.0
 40
2.799999952316284
 41
0.0
 71
     5
 72
     1
  1
164
 11
1.733031062829513E-16
 21
1.0
 31
0.0
 73
     1
 44
1.0
  0
POINT
  5
12A
330
123
100
AcDbEntity
  8
Defpoints
 62
     0
100
AcDbPoint
 10
85.24999999999997
 20
-81.99999999999997
 30
0.0
  0
POINT
  5
12B
330
123
100
AcDbEntity
  8
Defpoints
 62
     0
100
AcDbPoint
 10
50.0
 20
82.0
 30
0.0
  0
POINT
  5
12C
330
123
100
AcDbEntity
  8
Defpoints
 62
     0
100
AcDbPoint
 10
135.0
 20
81.99999999999999
 30
0.0
  0
ENDBLK
  5
12E
330
123
100
AcDbEntity
  8
0
100
AcDbBlockEnd
  0
BLOCK
  5
131
330
130
100
AcDbEntity
  8
0
100
AcDbBlockBegin
  2
_NONE
 70
     0
 10
0.0
 20
0.0
 30
0.0
  3
_NONE
  1

  0
ENDBLK
  5
132
330
130
100
AcDbEntity
  8
0
100
AcDbBlockEnd
  0
BLOCK
  5
139
330
133
100
AcDbEntity
  8
0
100
AcDbBlockBegin
  2
*D13
 70
     1
 10
0.0
 20
0.0
 30
0.0
  3
*D13
  1

  0
LINE
  5
134
330
133
100
AcDbEntity
  8
0
 62
     0
 60
     1
370
    -2
100
AcDbLine
 10
19.13937357322177
 20
57.17342577813922
 30
0.0
 11
14.54179082095468
 21
74.33183820160235
 31
0.0
  0
MTEXT
  5
135
330
133
100
AcDbEntity
  8
0
 62
     0
 60
     1
100
AcDbMText
 10
19.70980384463692
 20
63.15832782569399
 30
0.0
 40
2.799999952316284
 41
0.0
 71
     5
 72
     1
  1
R140
 11
0.2588190451025206
 21
-0.9659258262890684
 31
0.0
 73
     1
 44
1.0
  0
INSERT
  5
136
330
133
100
AcDbEntity
  8
0
 62
     0
 60
     1
370
    -2
100
AcDbBlockReference
  2
_OPEN30
 10
13.76533368564712
 20
77.22961568046956
 30
0.0
 41
3.0
 42
3.0
 43
3.0
 50
105.0
  0
POINT
  5
137
330
133
100
AcDbEntity
  8
Defpoints
 62
     0
100
AcDbPoint
 10
13.76533368564712
 20
77.22961568046956
 30
0.0
  0
POINT
  5
138
330
133
100
AcDbEntity
  8
Defpoints
 62
     0
100
AcDbPoint
 10
21.59738560230102
 20
48.0
 30
0.0
  0
LINE
  5
13B
330
133
100
AcDbEntity
  8
0
  6
Continuous
 62
     7
 60
     1
100
AcDbLine
 10
21.59738560230102
 20
48.0
 30
0.0
 11
13.76533368564712
 21
77.22961568046956
 31
0.0
  0
LINE
  5
13C
330
133
100
AcDbEntity
  8
0
  6
Continuous
 62
     7
 60
     1
100
AcDbLine
 10
13.76533368564712
 20
77.22961568046956
 30
0.0
 11
15.50771664724375
 21
74.59065724670488
 31
0.0
  0
LINE
  5
13D
330
133
100
AcDbEntity
  8
0
  6
Continuous
 62
     7
 60
     1
100
AcDbLine
 10
13.76533368564712
 20
77.22961568046956
 30
0.0
 11
13.57586499466561
 21
74.07301915649984
 31
0.0
  0
MTEXT
  5
13E
330
133
100
AcDbEntity
  8
0
 62
     7
100
AcDbMText
 10
16.41636487259277
 20
70.0404248658892
 30
0.0
 40
2.799999952316284
 41
0.0
 71
     7
 72
     1
  1
\W0.892857;R140.0
 11
0.2588190451025212
 21
-0.9659258262890682
 31
0.0
 73
     1
 44
1.0
  0
LINE
  5
13F
330
133
100
AcDbEntity
  8
0
  6
Continuous
 62
     7
100
AcDbLine
 10
21.59738560230102
 20
48.0
 30
0.0
 11
13.76533368564712
 21
77.22961568046956
 31
0.0
  0
LINE
  5
140
330
133
100
AcDbEntity
  8
0
  6
Continuous
 62
     7
100
AcDbLine
 10
13.76533368564712
 20
77.22961568046956
 30
0.0
 11
15.50771664724375
 21
74.59065724670488
 31
0.0
  0
LINE
  5
141
330
133
100
AcDbEntity
  8
0
  6
Continuous
 62
     7
100
AcDbLine
 10
13.76533368564712
 20
77.22961568046956
 30
0.0
 11
13.57586499466561
 21
74.07301915649984
 31
0.0
  0
ENDBLK
  5
13A
330
133
100
AcDbEntity
  8
0
100
AcDbBlockEnd
  0
BLOCK
  5
149
330
142
100
AcDbEntity
  8
0
100
AcDbBlockBegin
  2
DIM0001
 70
     0
 10
0.0
 20
0.0
 30
0.0
  3
DIM0001
  1

  0
LINE
  5
143
330
142
100
AcDbEntity
  8
0
  6
Continuous
 62
     7
100
AcDbLine
 10
0.0
 20
0.0
 30
0.0
 11
-12.37499999999996
 21
-21.43412874366484
 31
0.0
  0
LINE
  5
144
330
142
100
AcDbEntity
  8
0
  6
Continuous
 62
     7
100
AcDbLine
 10
0.0
 20
0.0
 30
0.0
 11
-0.633974596215559
 21
-3.098076211353316
 31
0.0
  0
LINE
  5
145
330
142
100
AcDbEntity
  8
0
  6
Continuous
 62
     7
100
AcDbLine
 10
0.0
 20
0.0
 30
0.0
 11
-2.366025403784434
 21
-2.098076211353316
 31
0.0
  0
LINE
  5
146
330
142
100
AcDbEntity
  8
0
  6
Continuous
 62
     7
100
AcDbLine
 10
-12.37499999999996
 20
-21.43412874366484
 30
0.0
 11
-22.77374999999999
 21
-21.43412874366484
 31
0.0
  0
MTEXT
  5
147
330
142
100
AcDbEntity
  8
0
 62
     7
100
AcDbMText
 10
-22.77374999999999
 20
-20.73412875558579
 30
0.0
 40
2.799999952316284
 41
0.0
 71
     7
 72
     1
  1
\W0.892857;TO-2
 73
     1
 44
1.0
  0
ENDBLK
  5
14A
330
142
100
AcDbEntity
  8
0
100
AcDbBlockEnd
  0
ENDSEC
  0
SECTION
  2
ENTITIES
  0
LINE
  5
40
330
1F
100
AcDbEntity
  8
VIEW0001
  6
CENTER
 62
     7
100
AcDbLine
 10
50.0
 20
85.0
 30
0.0
 11
50.0
 21
-85.0
 31
0.0
  0
LINE
  5
41
330
1F
100
AcDbEntity
  8
VIEW0001
  6
Continuous
 62
     7
100
AcDbLine
 10
-20.0
 20
43.0
 30
0.0
 11
120.0
 21
43.0
 31
0.0
  0
LINE
  5
42
330
1F
100
AcDbEntity
  8
VIEW0001
  6
Continuous
 62
     7
100
AcDbLine
 10
119.1075524759105
 20
53.20072187781294
 30
0.0
 11
120.0
 21
43.0
 31
0.0
  0
LINE
  5
43
330
1F
100
AcDbEntity
  8
VIEW0001
  6
Continuous
 62
     7
100
AcDbLine
 10
-19.99999999999999
 20
43.00000000000001
 30
0.0
 11
-19.10755247591048
 21
53.20072187781293
 31
0.0
  0
LINE
  5
44
330
1F
100
AcDbEntity
  8
VIEW0001
  6
CENTER
 62
     7
100
AcDbLine
 10
-49.0
 20
85.0
 30
0.0
 11
-49.0
 21
-85.0
 31
0.0
  0
LINE
  5
45
330
1F
100
AcDbEntity
  8
VIEW0001
  6
Continuous
 62
     7
100
AcDbLine
 10
14.75
 20
-82.0
 30
0.0
 11
85.25
 21
-82.0
 31
0.0
  0
LINE
  5
46
330
1F
100
AcDbEntity
  8
VIEW0001
  6
Continuous
 62
     7
100
AcDbLine
 10
115.6208710325894
 20
52.89567677819613
 30
0.0
 11
116.5133185566789
 21
42.69495490038319
 31
0.0
  0
LINE
  5
47
330
1F
100
AcDbEntity
  8
VIEW0001
  6
Continuous
 62
     7
100
AcDbLine
 10
-16.51331855667888
 20
42.69495490038321
 30
0.0
 11
-15.62087103258937
 21
52.89567677819613
 31
0.0
  0
LINE
  5
48
330
1F
100
AcDbEntity
  8
VIEW0001
  6
Continuous
 62
     7
100
AcDbLine
 10
16.75
 20
5.0
 30
0.0
 11
83.25
 21
5.0
 31
0.0
  0
LINE
  5
49
330
1F
100
AcDbEntity
  8
VIEW0001
  6
Continuous
 62
     7
100
AcDbLine
 10
85.25
 20
3.0
 30
0.0
 11
85.25
 21
-82.0
 31
0.0
  0
LINE
  5
4A
330
1F
100
AcDbEntity
  8
VIEW0001
  6
Continuous
 62
     7
100
AcDbLine
 10
14.75
 20
3.0
 30
0.0
 11
14.75
 21
-82.0
 31
0.0
  0
LINE
  5
4B
330
1F
100
AcDbEntity
  8
VIEW0001
  6
CENTER
 62
     7
100
AcDbLine
 10
27.0
 20
46.0
 30
0.0
 11
27.0
 21
2.0
 31
0.0
  0
LINE
  5
4C
330
1F
100
AcDbEntity
  8
VIEW0001
  6
CENTER
 62
     7
100
AcDbLine
 10
73.0
 20
46.0
 30
0.0
 11
73.0
 21
2.0
 31
0.0
  0
LINE
  5
4D
330
1F
100
AcDbEntity
  8
VIEW0001
  6
Continuous
 62
     7
100
AcDbLine
 10
21.0
 20
43.0
 30
0.0
 11
21.0
 21
5.0
 31
0.0
  0
LINE
  5
4E
330
1F
100
AcDbEntity
  8
VIEW0001
  6
Continuous
 62
     7
100
AcDbLine
 10
33.0
 20
43.0
 30
0.0
 11
33.0
 21
5.0
 31
0.0
  0
LINE
  5
4F
330
1F
100
AcDbEntity
  8
VIEW0001
  6
Continuous
 62
     7
100
AcDbLine
 10
67.0
 20
43.0
 30
0.0
 11
67.0
 21
5.0
 31
0.0
  0
LINE
  5
50
330
1F
100
AcDbEntity
  8
VIEW0001
  6
Continuous
 62
     7
100
AcDbLine
 10
79.0
 20
43.0
 30
0.0
 11
79.0
 21
5.0
 31
0.0
  0
LINE
  5
51
330
1F
100
AcDbEntity
  8
VIEW0001
  6
Continuous
 62
     7
100
AcDbLine
 10
43.75
 20
-9.25
 30
0.0
 11
43.75
 21
-66.75
 31
0.0
  0
LINE
  5
52
330
1F
100
AcDbEntity
  8
VIEW0001
  6
Continuous
 62
     7
100
AcDbLine
 10
56.25
 20
-9.25
 30
0.0
 11
56.25
 21
-66.75
 31
0.0
  0
LINE
  5
53
330
1F
100
AcDbEntity
  8
VIEW0001
  6
CENTER
 62
     7
100
AcDbLine
 10
40.75
 20
-9.25
 30
0.0
 11
59.25
 21
-9.25
 31
0.0
  0
LINE
  5
54
330
1F
100
AcDbEntity
  8
VIEW0001
  6
CENTER
 62
     7
100
AcDbLine
 10
40.75
 20
-66.75
 30
0.0
 11
59.25
 21
-66.75
 31
0.0
  0
LINE
  5
55
330
1F
100
AcDbEntity
  8
VIEW0001
  6
Continuous
 62
     7
100
AcDbLine
 10
-64.0
 20
5.0
 30
0.0
 11
-64.0
 21
-82.0
 31
0.0
  0
LINE
  5
56
330
1F
100
AcDbEntity
  8
VIEW0001
  6
Continuous
 62
     7
100
AcDbLine
 10
-36.0
 20
3.0
 30
0.0
 11
-36.0
 21
-82.0
 31
0.0
  0
LINE
  5
57
330
1F
100
AcDbEntity
  8
VIEW0001
  6
Continuous
 62
     7
100
AcDbLine
 10
-64.0
 20
5.0
 30
0.0
 11
-38.0
 21
5.0
 31
0.0
  0
LINE
  5
58
330
1F
100
AcDbEntity
  8
VIEW0001
  6
Continuous
 62
     7
100
AcDbLine
 10
-64.0
 20
-82.0
 30
0.0
 11
-36.0
 21
-82.0
 31
0.0
  0
LINE
  5
59
330
1F
100
AcDbEntity
  8
VIEW0001
  6
Continuous
 62
     7
100
AcDbLine
 10
-53.25
 20
82.0
 30
0.0
 11
-44.75
 21
82.0
 31
0.0
  0
LINE
  5
5A
330
1F
100
AcDbEntity
  8
VIEW0001
  6
Continuous
 62
     7
100
AcDbLine
 10
-60.0
 20
43.0
 30
0.0
 11
-38.0
 21
43.0
 31
0.0
  0
LINE
  5
5B
330
1F
100
AcDbEntity
  8
VIEW0001
  6
Continuous
 62
     7
100
AcDbLine
 10
-60.0
 20
78.5
 30
0.0
 11
-60.0
 21
43.0
 31
0.0
  0
LINE
  5
5C
330
1F
100
AcDbEntity
  8
VIEW0001
  6
Continuous
 62
     7
100
AcDbLine
 10
-38.0
 20
78.5
 30
0.0
 11
-38.0
 21
43.0
 31
0.0
  0
LINE
  5
5D
330
1F
100
AcDbEntity
  8
VIEW0001
  6
Continuous
 62
     7
100
AcDbLine
 10
-53.25
 20
82.0
 30
0.0
 11
-53.25
 21
43.0
 31
0.0
  0
LINE
  5
5E
330
1F
100
AcDbEntity
  8
VIEW0001
  6
Continuous
 62
     7
100
AcDbLine
 10
-44.75
 20
82.0
 30
0.0
 11
-44.75
 21
43.0
 31
0.0
  0
LINE
  5
5F
330
1F
100
AcDbEntity
  8
VIEW0001
  6
Continuous
 62
     7
100
AcDbLine
 10
-43.0
 20
43.0
 30
0.0
 11
-43.0
 21
5.0
 31
0.0
  0
LINE
  5
60
330
1F
100
AcDbEntity
  8
VIEW0001
  6
Continuous
 62
     7
100
AcDbLine
 10
-55.0
 20
43.0
 30
0.0
 11
-55.0
 21
5.0
 31
0.0
  0
LINE
  5
61
330
1F
100
AcDbEntity
  8
VIEW0001
  6
Continuous
 62
     7
100
AcDbLine
 10
-60.0
 20
78.5
 30
0.0
 11
-53.25
 21
78.5
 31
0.0
  0
LINE
  5
62
330
1F
100
AcDbEntity
  8
VIEW0001
  6
Continuous
 62
     7
100
AcDbLine
 10
-44.75
 20
78.5
 30
0.0
 11
-38.0
 21
78.5
 31
0.0
  0
LINE
  5
63
330
1F
100
AcDbEntity
  8
VIEW0001
  6
Continuous
 62
     7
100
AcDbLine
 10
27.5
 20
-69.0
 30
0.0
 11
34.0
 21
-69.0
 31
0.0
  0
LINE
  5
64
330
1F
100
AcDbEntity
  8
VIEW0001
  6
CENTER
 62
     7
100
AcDbLine
 10
72.5
 20
-66.0
 30
0.0
 11
72.5
 21
-85.0
 31
0.0
  0
LINE
  5
65
330
1F
100
AcDbEntity
  8
VIEW0001
  6
CENTER
 62
     7
100
AcDbLine
 10
27.5
 20
-66.0
 30
0.0
 11
27.5
 21
-85.0
 31
0.0
  0
LINE
  5
66
330
1F
100
AcDbEntity
  8
VIEW0001
  6
CENTER
 62
     7
100
AcDbLine
 10
18.0
 20
-75.5
 30
0.0
 11
82.0
 21
-75.5
 31
0.0
  0
LINE
  5
67
330
1F
100
AcDbEntity
  8
VIEW0001
  6
Continuous
 62
     7
100
AcDbLine
 10
63.0
 20
-5.0
 30
0.0
 11
63.0
 21
-66.0
 31
0.0
  0
LINE
  5
68
330
1F
100
AcDbEntity
  8
VIEW0001
  6
Continuous
 62
     7
100
AcDbLine
 10
37.0
 20
-5.0
 30
0.0
 11
37.0
 21
-66.0
 31
0.0
  0
LINE
  5
69
330
1F
100
AcDbEntity
  8
VIEW0001
  6
Continuous
 62
     7
100
AcDbLine
 10
66.0
 20
-69.0
 30
0.0
 11
72.5
 21
-69.0
 31
0.0
  0
LINE
  5
6A
330
1F
100
AcDbEntity
  8
VIEW0001
  6
Continuous
 62
     7
100
AcDbLine
 10
27.0
 20
-2.0
 30
0.0
 11
34.0
 21
-2.0
 31
0.0
  0
LINE
  5
6B
330
1F
100
AcDbEntity
  8
VIEW0001
  6
Continuous
 62
     7
100
AcDbLine
 10
66.0
 20
-2.0
 30
0.0
 11
73.0
 21
-2.0
 31
0.0
  0
LINE
  5
6C
330
1F
100
AcDbEntity
  8
VIEW0001
  6
Continuous
 62
     7
100
AcDbLine
 10
-38.5
 20
-2.0
 30
0.0
 11
-38.5
 21
-69.0
 31
0.0
  0
LINE
  5
6D
330
1F
100
AcDbEntity
  8
VIEW0001
  6
Continuous
 62
     7
100
AcDbLine
 10
-38.5
 20
-2.0
 30
0.0
 11
-36.0
 21
-2.0
 31
0.0
  0
LINE
  5
6E
330
1F
100
AcDbEntity
  8
VIEW0001
  6
Continuous
 62
     7
100
AcDbLine
 10
-38.5
 20
-69.0
 30
0.0
 11
-36.0
 21
-69.0
 31
0.0
  0
LINE
  5
6F
330
1F
100
AcDbEntity
  8
VIEW0001
  6
DASHED
 62
     7
100
AcDbLine
 10
-64.0
 20
-3.0
 30
0.0
 11
-36.0
 21
-3.0
 31
0.0
  0
LINE
  5
70
330
1F
100
AcDbEntity
  8
VIEW0001
  6
CENTER
 62
     7
100
AcDbLine
 10
-67.0
 20
-9.25
 30
0.0
 11
-33.0
 21
-9.25
 31
0.0
  0
LINE
  5
71
330
1F
100
AcDbEntity
  8
VIEW0001
  6
CENTER
 62
     7
100
AcDbLine
 10
-67.0
 20
-66.75
 30
0.0
 11
-33.0
 21
-66.75
 31
0.0
  0
LINE
  5
72
330
1F
100
AcDbEntity
  8
VIEW0001
  6
DASHED
 62
     7
100
AcDbLine
 10
-64.0
 20
-73.0
 30
0.0
 11
-36.0
 21
-73.0
 31
0.0
  0
ARC
  5
73
330
1F
100
AcDbEntity
  8
VIEW0001
  6
Continuous
 62
     7
100
AcDbCircle
 10
50.0
 20
-58.0
 30
0.0
 40
140.0
100
AcDbArc
 50
65.80371946544845
 51
114.1962805345515
  0
ARC
  5
74
330
1F
100
AcDbEntity
  8
VIEW0001
  6
Continuous
 62
     7
100
AcDbCircle
 10
0.816341485924411
 20
51.45760702285977
 30
0.0
 40
20.0
100
AcDbArc
 50
114.1962805345515
 51
175.0
  0
ARC
  5
75
330
1F
100
AcDbEntity
  8
VIEW0001
  6
Continuous
 62
     7
100
AcDbCircle
 10
99.18365851407557
 20
51.45760702285977
 30
0.0
 40
20.0
100
AcDbArc
 50
4.999999999999996
 51
65.80371946544845
  0
ARC
  5
76
330
1F
100
AcDbEntity
  8
VIEW0001
  6
Continuous
 62
     7
100
AcDbCircle
 10
50.0
 20
-58.0
 30
0.0
 40
136.5
100
AcDbArc
 50
65.80371946544845
 51
114.1962805345515
  0
ARC
  5
77
330
1F
100
AcDbEntity
  8
VIEW0001
  6
Continuous
 62
     7
100
AcDbCircle
 10
99.18365851407557
 20
51.45760702285977
 30
0.0
 40
16.5
100
AcDbArc
 50
4.999999999999996
 51
65.80371946544845
  0
ARC
  5
78
330
1F
100
AcDbEntity
  8
VIEW0001
  6
Continuous
 62
     7
100
AcDbCircle
 10
0.816341485924411
 20
51.45760702285977
 30
0.0
 40
16.5
100
AcDbArc
 50
114.1962805345515
 51
175.0
  0
ARC
  5
79
330
1F
100
AcDbEntity
  8
VIEW0001
  6
Continuous
 62
     7
100
AcDbCircle
 10
83.25
 20
3.0
 30
0.0
 40
2.0
100
AcDbArc
 50
0.0
 51
90.00000000000003
  0
ARC
  5
7A
330
1F
100
AcDbEntity
  8
VIEW0001
  6
Continuous
 62
     7
100
AcDbCircle
 10
16.75
 20
3.0
 30
0.0
 40
2.0
100
AcDbArc
 50
90.00000000000003
 51
180.0
  0
ARC
  5
7B
330
1F
100
AcDbEntity
  8
VIEW0001
  6
Continuous
 62
     7
100
AcDbCircle
 10
50.0
 20
-9.25
 30
0.0
 40
6.25
100
AcDbArc
 50
0.0
 51
180.0
  0
ARC
  5
7C
330
1F
100
AcDbEntity
  8
VIEW0001
  6
Continuous
 62
     7
100
AcDbCircle
 10
50.0
 20
-66.75
 30
0.0
 40
6.25
100
AcDbArc
 50
180.0
 51
0.0
  0
ARC
  5
7D
330
1F
100
AcDbEntity
  8
VIEW0001
  6
Continuous
 62
     7
100
AcDbCircle
 10
-38.0
 20
3.0
 30
0.0
 40
2.0
100
AcDbArc
 50
0.0
 51
90.00000000000003
  0
ARC
  5
7E
330
1F
100
AcDbEntity
  8
VIEW0001
  6
Continuous
 62
     7
100
AcDbCircle
 10
27.5
 20
-75.5
 30
0.0
 40
6.5
100
AcDbArc
 50
90.00000000000003
 51
270.0
  0
ARC
  5
7F
330
1F
100
AcDbEntity
  8
VIEW0001
  6
Continuous
 62
     7
100
AcDbCircle
 10
72.5
 20
-75.5
 30
0.0
 40
6.5
100
AcDbArc
 50
270.0
 51
90.0
  0
CIRCLE
  5
80
330
1F
100
AcDbEntity
  8
VIEW0001
  6
Continuous
 62
     7
100
AcDbCircle
 10
27.5
 20
-75.5
 30
0.0
 40
2.5
  0
CIRCLE
  5
81
330
1F
100
AcDbEntity
  8
VIEW0001
  6
Continuous
 62
     7
100
AcDbCircle
 10
72.5
 20
-75.5
 30
0.0
 40
2.5
  0
ARC
  5
82
330
1F
100
AcDbEntity
  8
VIEW0001
  6
Continuous
 62
     7
100
AcDbCircle
 10
34.0
 20
-66.0
 30
0.0
 40
3.0
100
AcDbArc
 50
270.0
 51
0.0
  0
ARC
  5
83
330
1F
100
AcDbEntity
  8
VIEW0001
  6
Continuous
 62
     7
100
AcDbCircle
 10
66.0
 20
-66.0
 30
0.0
 40
3.0
100
AcDbArc
 50
180.0
 51
270.0
  0
ARC
  5
84
330
1F
100
AcDbEntity
  8
VIEW0001
  6
Continuous
 62
     7
100
AcDbCircle
 10
34.0
 20
-5.0
 30
0.0
 40
3.0
100
AcDbArc
 50
0.0
 51
90.00000000000003
  0
ARC
  5
85
330
1F
100
AcDbEntity
  8
VIEW0001
  6
Continuous
 62
     7
100
AcDbCircle
 10
66.0
 20
-5.0
 30
0.0
 40
3.0
100
AcDbArc
 50
90.00000000000003
 51
180.0
  0
DIMENSION
  5
86
330
1F
100
AcDbEntity
  8
VIEW0001
 62
     7
100
AcDbDimension
  2
*D2
 10
-37.99999999999998
 20
89.5
 30
0.0
 11
-49.0
 21
89.5
 31
0.0
 70
   160
 71
     5
 42
22.00000000000001
  3
ISO-25
100
AcDbAlignedDimension
 13
-59.99999999999999
 23
78.49999999999997
 33
0.0
 14
-37.99999999999999
 24
78.49999999999997
 34
0.0
 50
180.0
100
AcDbRotatedDimension
1001
ACAD
1000
DSTYLE
1002
{
1070
   278
1070
    46
1070
   147
1040
0.699999988079071
1070
    77
1070
     1
1070
    74
1070
     0
1070
    73
1070
     0
1070
    42
1040
2.54
1070
    44
1040
0.699999999999974
1070
    76
1070
     0
1070
    75
1070
     0
1070
   279
1070
     0
1070
   271
1070
     1
1070
   144
1040
1.000000000000001
1070
   173
1070
     1
1070
    41
1040
3.0
1070
   140
1040
2.799999952316284
1070
   344
1005
A9
1070
   343
1005
A9
1002
}
  0
DIMENSION
  5
BC
330
1F
100
AcDbEntity
  8
VIEW0001
 62
     7
100
AcDbDimension
  2
*D3
 10
-49.0
 20
-91.0
 30
0.0
 11
-56.5
 21
-91.0
 31
0.0
 70
   160
 71
     5
 42
15.0
  3
ISO-25
100
AcDbAlignedDimension
 13
-64.0
 23
-82.0
 33
0.0
 14
-49.0
 24
-85.0
 34
0.0
 50
180.0
100
AcDbRotatedDimension
1001
ACAD
1000
DSTYLE
1002
{
1070
   278
1070
    46
1070
   147
1040
0.699999988079071
1070
    77
1070
     1
1070
    74
1070
     0
1070
    73
1070
     0
1070
    42
1040
2.54
1070
    44
1040
0.700000000000003
1070
    76
1070
     0
1070
    75
1070
     0
1070
   279
1070
     0
1070
   271
1070
     1
1070
   144
1040
1.0
1070
   173
1070
     1
1070
    41
1040
3.0
1070
   140
1040
2.799999952316284
1070
   344
1005
A9
1070
   343
1005
A9
1002
}
  0
DIMENSION
  5
C9
330
1F
100
AcDbEntity
  8
VIEW0001
 62
     7
100
AcDbDimension
  2
*D4
 10
-36.0
 20
-100.0
 30
0.0
 11
-50.0
 21
-100.0
 31
0.0
 70
   160
 71
     5
 42
28.0
  3
ISO-25
100
AcDbAlignedDimension
 13
-64.0
 23
-82.0
 33
0.0
 14
-36.0
 24
-82.0
 34
0.0
 50
180.0
100
AcDbRotatedDimension
1001
ACAD
1000
DSTYLE
1002
{
1070
   278
1070
    46
1070
   147
1040
0.699999988079071
1070
    77
1070
     1
1070
    74
1070
     0
1070
    73
1070
     0
1070
    42
1040
2.54
1070
    44
1040
0.700000000000003
1070
    76
1070
     0
1070
    75
1070
     0
1070
   279
1070
     0
1070
   271
1070
     1
1070
   144
1040
1.0
1070
   173
1070
     1
1070
    41
1040
3.0
1070
   140
1040
2.799999952316284
1070
   344
1005
A9
1070
   343
1005
A9
1002
}
  0
DIMENSION
  5
D6
330
1F
100
AcDbEntity
  8
VIEW0001
 62
     7
100
AcDbDimension
  2
*D5
 10
56.24999999999999
 20
-91.0
 30
0.0
 11
50.0
 21
-91.0
 31
0.0
 70
   160
 71
     5
 42
12.5
  3
ISO-25
100
AcDbAlignedDimension
 13
43.75
 23
-66.75
 33
0.0
 14
56.25
 24
-66.75
 34
0.0
 50
180.0
100
AcDbRotatedDimension
1001
ACAD
1000
DSTYLE
1002
{
1070
   278
1070
    46
1070
   147
1040
0.699999988079071
1070
    77
1070
     1
1070
    74
1070
     0
1070
    73
1070
     0
1070
    42
1040
2.54
1070
    44
1040
0.700000000000003
1070
    76
1070
     0
1070
    75
1070
     0
1070
   279
1070
     0
1070
   271
1070
     1
1070
   144
1040
1.0
1070
   173
1070
     1
1070
    41
1040
3.0
1070
   140
1040
2.799999952316284
1070
   344
1005
A9
1070
   343
1005
A9
1002
}
  0
DIMENSION
  5
E3
330
1F
100
AcDbEntity
  8
VIEW0001
 62
     7
100
AcDbDimension
  2
*D6
 10
85.25
 20
-100.0
 30
0.0
 11
50.0
 21
-100.0
 31
0.0
 70
   160
 71
     5
 42
70.5
  3
ISO-25
100
AcDbAlignedDimension
 13
14.75
 23
-82.0
 33
0.0
 14
85.25
 24
-82.0
 34
0.0
 50
180.0
100
AcDbRotatedDimension
1001
ACAD
1000
DSTYLE
1002
{
1070
   278
1070
    46
1070
   147
1040
0.699999988079071
1070
    77
1070
     1
1070
    74
1070
     0
1070
    73
1070
     0
1070
    42
1040
2.54
1070
    44
1040
0.700000000000003
1070
    76
1070
     0
1070
    75
1070
     0
1070
   279
1070
     0
1070
   271
1070
     1
1070
   144
1040
1.0
1070
   173
1070
     1
1070
    41
1040
3.0
1070
   140
1040
2.799999952316284
1070
   344
1005
A9
1070
   343
1005
A9
1002
}
  0
DIMENSION
  5
F0
330
1F
100
AcDbEntity
  8
VIEW0001
 62
     7
100
AcDbDimension
  2
*D7
 10
94.25
 20
-82.0
 30
0.0
 11
94.25
 21
-77.5
 31
0.0
 70
   160
 71
     5
 42
9.0
  3
ISO-25
100
AcDbAlignedDimension
 13
49.99999999999999
 23
-72.99999999999997
 33
0.0
 14
85.25
 24
-82.0
 34
0.0
 50
90.00000000000003
100
AcDbRotatedDimension
1001
ACAD
1000
DSTYLE
1002
{
1070
   278
1070
    46
1070
   147
1040
0.699999988079071
1070
    77
1070
     1
1070
    74
1070
     0
1070
    73
1070
     0
1070
    42
1040
2.54
1070
    44
1040
0.700000000000003
1070
    76
1070
     0
1070
    75
1070
     0
1070
   279
1070
     0
1070
   271
1070
     1
1070
   144
1040
0.999999999999997
1070
   173
1070
     1
1070
    41
1040
3.0
1070
   140
1040
2.799999952316284
1070
   344
1005
A9
1070
   343
1005
A9
1002
}
  0
DIMENSION
  5
FD
330
1F
100
AcDbEntity
  8
VIEW0001
 62
     7
100
AcDbDimension
  2
*D8
 10
94.25000000000001
 20
-3.0
 30
0.0
 11
94.25
 21
-38.0
 31
0.0
 70
   160
 71
     5
 42
70.00000000000001
  3
ISO-25
100
AcDbAlignedDimension
 13
49.99999999999997
 23
-72.99999999999994
 33
0.0
 14
49.99999999999997
 24
-2.999999999999998
 34
0.0
 50
270.0
100
AcDbRotatedDimension
1001
ACAD
1000
DSTYLE
1002
{
1070
   278
1070
    46
1070
   147
1040
0.699999988079071
1070
    77
1070
     1
1070
    74
1070
     0
1070
    73
1070
     0
1070
    42
1040
2.54
1070
    44
1040
0.699999999999974
1070
    76
1070
     0
1070
    75
1070
     1
1070
   279
1070
     0
1070
   271
1070
     1
1070
   144
1040
1.000000000000001
1070
   173
1070
     1
1070
    41
1040
3.0
1070
   140
1040
2.799999952316284
1070
   344
1005
A9
1070
   343
1005
A9
1002
}
  0
DIMENSION
  5
109
330
1F
100
AcDbEntity
  8
VIEW0001
 62
     7
100
AcDbDimension
  2
*D9
 10
127.5
 20
-81.99999999999996
 30
0.0
 11
127.5
 21
-38.5
 31
0.0
 70
   160
 71
     5
 42
86.99999999999997
  3
ISO-25
100
AcDbAlignedDimension
 13
83.24999999999997
 23
4.999999999999998
 33
0.0
 14
85.24999999999997
 24
-81.99999999999997
 34
0.0
 50
90.00000000000003
100
AcDbRotatedDimension
1001
ACAD
1000
DSTYLE
1002
{
1070
   278
1070
    46
1070
   147
1040
0.699999988079071
1070
    77
1070
     1
1070
    74
1070
     0
1070
    73
1070
     0
1070
    42
1040
2.54
1070
    44
1040
0.699999999999932
1070
    76
1070
     0
1070
    75
1070
     0
1070
   279
1070
     0
1070
   271
1070
     1
1070
   144
1040
1.0
1070
   173
1070
     1
1070
    41
1040
3.0
1070
   140
1040
2.799999952316284
1070
   344
1005
A9
1070
   343
1005
A9
1002
}
  0
DIMENSION
  5
116
330
1F
100
AcDbEntity
  8
VIEW0001
 62
     7
100
AcDbDimension
  2
*D10
 10
127.5
 20
43.0
 30
0.0
 11
127.5
 21
24.0
 31
0.0
 70
   160
 71
     5
 42
38.0
  3
ISO-25
100
AcDbAlignedDimension
 13
83.24999999999994
 23
4.999999999999996
 33
0.0
 14
120.0
 24
43.0
 34
0.0
 50
270.0
100
AcDbRotatedDimension
1001
ACAD
1000
DSTYLE
1002
{
1070
   278
1070
    46
1070
   147
1040
0.699999988079071
1070
    77
1070
     1
1070
    74
1070
     0
1070
    73
1070
     0
1070
    42
1040
2.54
1070
    44
1040
0.699999999999989
1070
    76
1070
     0
1070
    75
1070
     1
1070
   279
1070
     0
1070
   271
1070
     1
1070
   144
1040
1.0
1070
   173
1070
     1
1070
    41
1040
3.0
1070
   140
1040
2.799999952316284
1070
   344
1005
A9
1070
   343
1005
A9
1002
}
  0
DIMENSION
  5
122
330
1F
100
AcDbEntity
  8
VIEW0001
 62
     7
100
AcDbDimension
  2
*D11
 10
135.0
 20
81.99999999999996
 30
0.0
 11
135.0
 21
0.0
 31
0.0
 70
   160
 71
     5
 42
164.0
  3
ISO-25
100
AcDbAlignedDimension
 13
85.24999999999997
 23
-81.99999999999997
 33
0.0
 14
50.0
 24
82.0
 34
0.0
 50
270.0
100
AcDbRotatedDimension
1001
ACAD
1000
DSTYLE
1002
{
1070
   278
1070
    46
1070
   147
1040
0.699999988079071
1070
    77
1070
     1
1070
    74
1070
     0
1070
    73
1070
     0
1070
    42
1040
2.54
1070
    44
1040
0.699999999999989
1070
    76
1070
     0
1070
    75
1070
     0
1070
   279
1070
     0
1070
   271
1070
     1
1070
   144
1040
1.0
1070
   173
1070
     1
1070
    41
1040
3.0
1070
   140
1040
2.799999952316284
1070
   344
1005
A9
1070
   343
1005
A9
1002
}
  0
DIMENSION
  5
12F
330
1F
100
AcDbEntity
  8
VIEW0001
 62
     7
100
AcDbDimension
  2
*D13
 10
21.59738560230102
 20
48.0
 30
0.0
 11
17.68135964397407
 21
62.61480784023478
 31
0.0
 70
   164
  1
<>
 71
     5
 42
140.0
  3
ISO-25
100
AcDbRadialDimension
 15
13.76533368564712
 25
77.22961568046956
 35
0.0
 40
0.0
1001
ACAD
1000
DSTYLE
1002
{
1070
   278
1070
    46
1070
   147
1040
0.699999988079071
1070
    77
1070
     1
1070
    74
1070
     0
1070
    73
1070
     0
1070
   279
1070
     0
1070
   271
1070
     1
1070
   144
1040
4.626458902462625
1070
   173
1070
     1
1070
    41
1040
3.0
1070
   140
1040
2.799999952316284
1070
   344
1005
A9
1070
   343
1005
130
1002
}
  0
INSERT
  5
148
330
1F
100
AcDbEntity
  8
VIEW0001
 62
     7
100
AcDbBlockReference
  2
DIM0001
 10
24.62499999999999
 20
-40.66506350946109
 30
0.0
  0
ENDSEC
  0
SECTION
  2
OBJECTS
  0
DICTIONARY
  5
C
330
0
100
AcDbDictionary
281
     1
  3
ACAD_GROUP
350
D
  3
ACAD_LAYOUT
350
1A
  3
ACAD_MLEADERSTYLE
350
14D
  3
ACAD_MLINESTYLE
350
17
  3
ACAD_PLOTSETTINGS
350
19
  3
ACAD_PLOTSTYLENAME
350
E
  3
ACAD_SCALELIST
350
87
  3
ACAD_VISUALSTYLE
350
2A
  3
AcDbVariableDictionary
350
14B
  0
DICTIONARY
  5
D
102
{ACAD_REACTORS
330
C
102
}
330
C
100
AcDbDictionary
281
     1
  0
DICTIONARY
  5
1A
102
{ACAD_REACTORS
330
C
102
}
330
C
100
AcDbDictionary
281
     1
  3
Layout1
350
1E
  3
Layout2
350
26
  3
Model
350
22
  0
DICTIONARY
  5
14D
102
{ACAD_REACTORS
330
C
102
}
330
C
100
AcDbDictionary
281
     1
  0
DICTIONARY
  5
17
102
{ACAD_REACTORS
330
C
102
}
330
C
100
AcDbDictionary
281
     1
  3
Standard
350
18
  0
DICTIONARY
  5
19
102
{ACAD_REACTORS
330
C
102
}
330
C
100
AcDbDictionary
281
     1
  0
ACDBDICTIONARYWDFLT
  5
E
102
{ACAD_REACTORS
330
C
102
}
330
C
100
AcDbDictionary
281
     1
  3
Normal
350
F
100
AcDbDictionaryWithDefault
340
F
  0
DICTIONARY
  5
87
102
{ACAD_REACTORS
330
C
102
}
330
C
100
AcDbDictionary
281
     1
  3
A0
350
88
  3
A1
350
89
  3
A2
350
8A
  3
A3
350
8B
  3
A4
350
8C
  3
A5
350
8D
  3
A6
350
8E
  3
A7
350
8F
  3
A8
350
90
  3
A9
350
91
  3
B0
350
92
  3
B1
350
93
  3
B2
350
94
  3
B3
350
95
  3
B4
350
96
  3
B5
350
97
  3
B6
350
98
  3
B7
350
99
  3
B8
350
9A
  3
B9
350
9B
  3
C0
350
9C
  3
C1
350
9D
  3
C2
350
9E
  3
C3
350
9F
  3
C4
350
A0
  3
C5
350
A1
  3
C6
350
A2
  3
C7
350
A3
  3
C8
350
A4
  3
C9
350
A5
  3
D0
350
A6
  3
D1
350
A7
  3
D2
350
A8
  0
DICTIONARY
  5
2A
102
{ACAD_REACTORS
330
C
102
}
330
C
100
AcDbDictionary
281
     1
  3
2dWireframe
350
2F
  3
3D Hidden
350
31
  3
3dWireframe
350
30
  3
Basic
350
32
  3
Brighten
350
36
  3
ColorChange
350
3A
  3
Conceptual
350
34
  3
Dim
350
35
  3
Facepattern
350
39
  3
Flat
350
2B
  3
FlatWithEdges
350
2C
  3
Gouraud
350
2D
  3
GouraudWithEdges
350
2E
  3
Linepattern
350
38
  3
Realistic
350
33
  3
Thicken
350
37
  0
DICTIONARY
  5
14B
102
{ACAD_REACTORS
330
C
102
}
330
C
100
AcDbDictionary
281
     1
  3
CANNOSCALE
350
150
  3
PSOLHEIGHT
350
14F
  3
PSOLWIDTH
350
14E
  0
LAYOUT
  5
1E
102
{ACAD_REACTORS
330
1A
102
}
330
1A
100
AcDbPlotSettings
  1

  2
none_device
  4

  6

 40
0.0
 41
0.0
 42
0.0
 43
0.0
 44
0.0
 45
0.0
 46
0.0
 47
0.0
 48
0.0
 49
0.0
140
0.0
141
0.0
142
1.0
143
1.0
 70
   688
 72
     0
 73
     0
 74
     5
  7

 75
    16
147
1.0
148
0.0
149
0.0
100
AcDbLayout
  1
Layout1
 70
     1
 71
     1
 10
-67.0
 20
-100.7
 11
135.7
 21
93.55999993085861
 12
0.0
 22
0.0
 32
0.0
 14
1.000000000000000E+20
 24
1.000000000000000E+20
 34
1.000000000000000E+20
 15
-1.000000000000000E+20
 25
-1.000000000000000E+20
 35
-1.000000000000000E+20
146
0.0
 13
0.0
 23
0.0
 33
0.0
 16
1.0
 26
0.0
 36
0.0
 17
0.0
 27
1.0
 37
0.0
 76
     0
330
1B
  0
LAYOUT
  5
26
102
{ACAD_REACTORS
330
1A
102
}
330
1A
100
AcDbPlotSettings
  1

  2
none_device
  4

  6

 40
0.0
 41
0.0
 42
0.0
 43
0.0
 44
0.0
 45
0.0
 46
0.0
 47
0.0
 48
0.0
 49
0.0
140
0.0
141
0.0
142
1.0
143
1.0
 70
   688
 72
     0
 73
     0
 74
     5
  7

 75
    16
147
1.0
148
0.0
149
0.0
100
AcDbLayout
  1
Layout2
 70
     1
 71
     2
 10
0.0
 20
0.0
 11
0.0
 21
0.0
 12
0.0
 22
0.0
 32
0.0
 14
0.0
 24
0.0
 34
0.0
 15
0.0
 25
0.0
 35
0.0
146
0.0
 13
0.0
 23
0.0
 33
0.0
 16
1.0
 26
0.0
 36
0.0
 17
0.0
 27
1.0
 37
0.0
 76
     0
330
23
  0
LAYOUT
  5
22
102
{ACAD_REACTORS
330
1A
102
}
330
1A
100
AcDbPlotSettings
  1

  2
none_device
  4

  6

 40
0.0
 41
0.0
 42
0.0
 43
0.0
 44
0.0
 45
0.0
 46
0.0
 47
0.0
 48
0.0
 49
0.0
140
0.0
141
0.0
142
1.0
143
1.0
 70
  1712
 72
     0
 73
     0
 74
     0
  7

 75
     0
147
1.0
148
0.0
149
0.0
100
AcDbLayout
  1
Model
 70
     1
 71
     0
 10
-67.0
 20
-100.7
 11
135.7
 21
93.55999993085861
 12
0.0
 22
0.0
 32
0.0
 14
-67.0
 24
-100.7
 34
0.0
 15
135.7
 25
93.55999993085861
 35
0.0
146
0.0
 13
0.0
 23
0.0
 33
0.0
 16
1.0
 26
0.0
 36
0.0
 17
0.0
 27
1.0
 37
0.0
 76
     0
330
1F
331
29
  0
MLINESTYLE
  5
18
102
{ACAD_REACTORS
330
17
102
}
330
17
100
AcDbMlineStyle
  2
Standard
 70
     0
  3

 62
   256
 51
90.0
 52
90.0
 71
     2
 49
0.5
 62
   256
  6
BYLAYER
 49
-0.5
 62
   256
  6
BYLAYER
  0
ACDBPLACEHOLDER
  5
F
102
{ACAD_REACTORS
330
E
102
}
330
E
  0
SCALE
  5
88
102
{ACAD_REACTORS
330
87
102
}
330
87
100
AcDbScale
 70
     0
300
1:1
140
1.0
141
1.0
290
     1
  0
SCALE
  5
89
102
{ACAD_REACTORS
330
87
102
}
330
87
100
AcDbScale
 70
     0
300
1:2
140
1.0
141
2.0
290
     0
  0
SCALE
  5
8A
102
{ACAD_REACTORS
330
87
102
}
330
87
100
AcDbScale
 70
     0
300
1:4
140
1.0
141
4.0
290
     0
  0
SCALE
  5
8B
102
{ACAD_REACTORS
330
87
102
}
330
87
100
AcDbScale
 70
     0
300
1:5
140
1.0
141
5.0
290
     0
  0
SCALE
  5
8C
102
{ACAD_REACTORS
330
87
102
}
330
87
100
AcDbScale
 70
     0
300
1:8
140
1.0
141
8.0
290
     0
  0
SCALE
  5
8D
102
{ACAD_REACTORS
330
87
102
}
330
87
100
AcDbScale
 70
     0
300
1:10
140
1.0
141
10.0
290
     0
  0
SCALE
  5
8E
102
{ACAD_REACTORS
330
87
102
}
330
87
100
AcDbScale
 70
     0
300
1:16
140
1.0
141
16.0
290
     0
  0
SCALE
  5
8F
102
{ACAD_REACTORS
330
87
102
}
330
87
100
AcDbScale
 70
     0
300
1:20
140
1.0
141
20.0
290
     0
  0
SCALE
  5
90
102
{ACAD_REACTORS
330
87
102
}
330
87
100
AcDbScale
 70
     0
300
1:30
140
1.0
141
30.0
290
     0
  0
SCALE
  5
91
102
{ACAD_REACTORS
330
87
102
}
330
87
100
AcDbScale
 70
     0
300
1:40
140
1.0
141
40.0
290
     0
  0
SCALE
  5
92
102
{ACAD_REACTORS
330
87
102
}
330
87
100
AcDbScale
 70
     0
300
1:50
140
1.0
141
50.0
290
     0
  0
SCALE
  5
93
102
{ACAD_REACTORS
330
87
102
}
330
87
100
AcDbScale
 70
     0
300
1:100
140
1.0
141
100.0
290
     0
  0
SCALE
  5
94
102
{ACAD_REACTORS
330
87
102
}
330
87
100
AcDbScale
 70
     0
300
2:1
140
2.0
141
1.0
290
     0
  0
SCALE
  5
95
102
{ACAD_REACTORS
330
87
102
}
330
87
100
AcDbScale
 70
     0
300
4:1
140
4.0
141
1.0
290
     0
  0
SCALE
  5
96
102
{ACAD_REACTORS
330
87
102
}
330
87
100
AcDbScale
 70
     0
300
8:1
140
8.0
141
1.0
290
     0
  0
SCALE
  5
97
102
{ACAD_REACTORS
330
87
102
}
330
87
100
AcDbScale
 70
     0
300
10:1
140
10.0
141
1.0
290
     0
  0
SCALE
  5
98
102
{ACAD_REACTORS
330
87
102
}
330
87
100
AcDbScale
 70
     0
300
100:1
140
100.0
141
1.0
290
     0
  0
SCALE
  5
99
102
{ACAD_REACTORS
330
87
102
}
330
87
100
AcDbScale
 70
     0
300
1/128" = 1'-0"
140
0.0078125
141
12.0
290
     0
  0
SCALE
  5
9A
102
{ACAD_REACTORS
330
87
102
}
330
87
100
AcDbScale
 70
     0
300
1/64" = 1'-0"
140
0.015625
141
12.0
290
     0
  0
SCALE
  5
9B
102
{ACAD_REACTORS
330
87
102
}
330
87
100
AcDbScale
 70
     0
300
1/32" = 1'-0"
140
0.03125
141
12.0
290
     0
  0
SCALE
  5
9C
102
{ACAD_REACTORS
330
87
102
}
330
87
100
AcDbScale
 70
     0
300
1/16" = 1'-0"
140
0.0625
141
12.0
290
     0
  0
SCALE
  5
9D
102
{ACAD_REACTORS
330
87
102
}
330
87
100
AcDbScale
 70
     0
300
3/32" = 1'-0"
140
0.09375
141
12.0
290
     0
  0
SCALE
  5
9E
102
{ACAD_REACTORS
330
87
102
}
330
87
100
AcDbScale
 70
     0
300
1/8" = 1'-0"
140
0.125
141
12.0
290
     0
  0
SCALE
  5
9F
102
{ACAD_REACTORS
330
87
102
}
330
87
100
AcDbScale
 70
     0
300
3/16" = 1'-0"
140
0.1875
141
12.0
290
     0
  0
SCALE
  5
A0
102
{ACAD_REACTORS
330
87
102
}
330
87
100
AcDbScale
 70
     0
300
1/4" = 1'-0"
140
0.25
141
12.0
290
     0
  0
SCALE
  5
A1
102
{ACAD_REACTORS
330
87
102
}
330
87
100
AcDbScale
 70
     0
300
3/8" = 1'-0"
140
0.375
141
12.0
290
     0
  0
SCALE
  5
A2
102
{ACAD_REACTORS
330
87
102
}
330
87
100
AcDbScale
 70
     0
300
1/2" = 1'-0"
140
0.5
141
12.0
290
     0
  0
SCALE
  5
A3
102
{ACAD_REACTORS
330
87
102
}
330
87
100
AcDbScale
 70
     0
300
3/4" = 1'-0"
140
0.75
141
12.0
290
     0
  0
SCALE
  5
A4
102
{ACAD_REACTORS
330
87
102
}
330
87
100
AcDbScale
 70
     0
300
1" = 1'-0"
140
1.0
141
12.0
290
     0
  0
SCALE
  5
A5
102
{ACAD_REACTORS
330
87
102
}
330
87
100
AcDbScale
 70
     0
300
1-1/2" = 1'-0"
140
1.5
141
12.0
290
     0
  0
SCALE
  5
A6
102
{ACAD_REACTORS
330
87
102
}
330
87
100
AcDbScale
 70
     0
300
3" = 1'-0"
140
3.0
141
12.0
290
     0
  0
SCALE
  5
A7
102
{ACAD_REACTORS
330
87
102
}
330
87
100
AcDbScale
 70
     0
300
6" = 1'-0"
140
6.0
141
12.0
290
     0
  0
SCALE
  5
A8
102
{ACAD_REACTORS
330
87
102
}
330
87
100
AcDbScale
 70
     0
300
1'-0" = 1'-0"
140
12.0
141
12.0
290
     0
  0
VISUALSTYLE
  5
2F
102
{ACAD_REACTORS
330
2A
102
}
330
2A
100
AcDbVisualStyle
  2
2dWireframe
 70
     4
 71
     0
 72
     2
 73
     0
 90
        0
 40
-0.6
 41
-30.0
 62
     5
 63
     7
 74
     1
 91
        4
 64
     7
 65
   257
 75
     1
175
     1
 42
1.0
 92
        0
 66
   257
 43
1.0
 76
     1
 77
     6
 78
     2
 67
     7
 79
     5
170
     0
171
     0
290
     0
174
     0
 93
        1
 44
0.0
173
     0
291
     0
 45
0.0
1001
ACAD
1000
AcDbSavedByObjectVersion
1070
     0
  0
VISUALSTYLE
  5
31
102
{ACAD_REACTORS
330
2A
102
}
330
2A
100
AcDbVisualStyle
  2
3D Hidden
 70
     6
 71
     1
 72
     2
 73
     2
 90
        0
 40
-0.6
 41
-30.0
 62
     5
 63
     7
 74
     2
 91
        2
 64
     7
 65
   257
 75
     2
175
     1
 42
40.0
 92
        0
 66
   257
 43
1.0
 76
     1
 77
     6
 78
     2
 67
     7
 79
     3
170
     0
171
     0
290
     0
174
     0
 93
        1
 44
0.0
173
     0
291
     0
 45
0.0
1001
ACAD
1000
AcDbSavedByObjectVersion
1070
     0
  0
VISUALSTYLE
  5
30
102
{ACAD_REACTORS
330
2A
102
}
330
2A
100
AcDbVisualStyle
  2
3dWireframe
 70
     5
 71
     0
 72
     2
 73
     0
 90
        0
 40
-0.6
 41
-30.0
 62
     5
 63
     7
 74
     1
 91
        4
 64
     7
 65
   257
 75
     1
175
     1
 42
1.0
 92
        0
 66
   257
 43
1.0
 76
     1
 77
     6
 78
     2
 67
     7
 79
     5
170
     0
171
     0
290
     0
174
     0
 93
        1
 44
0.0
173
     0
291
     0
 45
0.0
1001
ACAD
1000
AcDbSavedByObjectVersion
1070
     0
  0
VISUALSTYLE
  5
32
102
{ACAD_REACTORS
330
2A
102
}
330
2A
100
AcDbVisualStyle
  2
Basic
 70
     7
 71
     1
 72
     0
 73
     1
 90
        0
 40
-0.6
 41
-30.0
 62
     5
 63
     7
 74
     0
 91
        4
 64
     7
 65
   257
 75
     1
175
     1
 42
1.0
 92
        8
 66
     7
 43
1.0
 76
     1
 77
     6
 78
     2
 67
     7
 79
     5
170
     0
171
     0
290
     0
174
     0
 93
        1
 44
0.0
173
     0
291
     1
 45
0.0
1001
ACAD
1000
AcDbSavedByObjectVersion
1070
     0
  0
VISUALSTYLE
  5
36
102
{ACAD_REACTORS
330
2A
102
}
330
2A
100
AcDbVisualStyle
  2
Brighten
 70
    12
 71
     2
 72
     2
 73
     0
 90
        0
 40
-0.6
 41
-30.0
 62
     5
 63
     7
 74
     1
 91
        4
 64
     7
 65
   257
 75
     1
175
     1
 42
1.0
 92
        8
 66
     7
 43
1.0
 76
     1
 77
     6
 78
     2
 67
     7
 79
     5
170
     0
171
     0
290
     0
174
     0
 93
        1
 44
50.0
173
     0
291
     1
 45
0.0
1001
ACAD
1000
AcDbSavedByObjectVersion
1070
     0
  0
VISUALSTYLE
  5
3A
102
{ACAD_REACTORS
330
2A
102
}
330
2A
100
AcDbVisualStyle
  2
ColorChange
 70
    16
 71
     2
 72
     2
 73
     3
 90
        0
 40
-0.6
 41
-30.0
 62
     5
 63
     8
 74
     1
 91
        4
 64
     7
 65
   257
 75
     1
175
     1
 42
1.0
 92
        8
 66
     8
 43
1.0
 76
     1
 77
     6
 78
     2
 67
     7
 79
     5
170
     0
171
     0
290
     0
174
     0
 93
        1
 44
0.0
173
     0
291
     1
 45
0.0
1001
ACAD
1000
AcDbSavedByObjectVersion
1070
     0
  0
VISUALSTYLE
  5
34
102
{ACAD_REACTORS
330
2A
102
}
330
2A
100
AcDbVisualStyle
  2
Conceptual
 70
     9
 71
     3
 72
     2
 73
     0
 90
        0
 40
-0.6
 41
-30.0
 62
     5
 63
     7
 74
     2
 91
        2
 64
     7
 65
   257
 75
     1
175
     1
 42
40.0
 92
        8
 66
     7
 43
1.0
 76
     1
 77
     6
 78
     2
 67
     7
 79
     3
170
     0
171
     0
290
     0
174
     0
 93
        1
 44
0.0
173
     0
291
     0
 45
0.0
1001
ACAD
1000
AcDbSavedByObjectVersion
1070
     0
  0
VISUALSTYLE
  5
35
102
{ACAD_REACTORS
330
2A
102
}
330
2A
100
AcDbVisualStyle
  2
Dim
 70
    11
 71
     2
 72
     2
 73
     0
 90
        0
 40
-0.6
 41
-30.0
 62
     5
 63
     7
 74
     1
 91
        4
 64
     7
 65
   257
 75
     1
175
     1
 42
1.0
 92
        8
 66
     7
 43
1.0
 76
     1
 77
     6
 78
     2
 67
     7
 79
     5
170
     0
171
     0
290
     0
174
     0
 93
        1
 44
-50.0
173
     0
291
     1
 45
0.0
1001
ACAD
1000
AcDbSavedByObjectVersion
1070
     0
  0
VISUALSTYLE
  5
39
102
{ACAD_REACTORS
330
2A
102
}
330
2A
100
AcDbVisualStyle
  2
Facepattern
 70
    15
 71
     2
 72
     2
 73
     0
 90
        0
 40
-0.6
 41
-30.0
 62
     5
 63
     7
 74
     1
 91
        4
 64
     7
 65
   257
 75
     1
175
     1
 42
1.0
 92
        8
 66
     7
 43
1.0
 76
     1
 77
     6
 78
     2
 67
     7
 79
     5
170
     0
171
     0
290
     0
174
     0
 93
        1
 44
0.0
173
     0
291
     1
 45
0.0
1001
ACAD
1000
AcDbSavedByObjectVersion
1070
     0
  0
VISUALSTYLE
  5
2B
102
{ACAD_REACTORS
330
2A
102
}
330
2A
100
AcDbVisualStyle
  2
Flat
 70
     0
 71
     2
 72
     1
 73
     1
 90
        2
 40
-0.6
 41
30.0
 62
     5
 63
     7
 74
     0
 91
        4
 64
     7
 65
   257
 75
     1
175
     1
 42
1.0
 92
        8
 66
     7
 43
1.0
 76
     1
 77
     6
 78
     2
 67
     7
 79
     5
170
     0
171
     0
290
     0
174
     0
 93
       13
 44
0.0
173
     0
291
     1
 45
0.0
1001
ACAD
1000
AcDbSavedByObjectVersion
1070
     0
  0
VISUALSTYLE
  5
2C
102
{ACAD_REACTORS
330
2A
102
}
330
2A
100
AcDbVisualStyle
  2
FlatWithEdges
 70
     1
 71
     2
 72
     1
 73
     1
 90
        2
 40
-0.6
 41
30.0
 62
     5
 63
     7
 74
     1
 91
        4
 64
     7
 65
   257
 75
     1
175
     1
 42
1.0
 92
        0
 66
   257
 43
1.0
 76
     1
 77
     6
 78
     2
 67
     7
 79
     5
170
     0
171
     0
290
     0
174
     0
 93
       13
 44
0.0
173
     0
291
     1
 45
0.0
1001
ACAD
1000
AcDbSavedByObjectVersion
1070
     0
  0
VISUALSTYLE
  5
2D
102
{ACAD_REACTORS
330
2A
102
}
330
2A
100
AcDbVisualStyle
  2
Gouraud
 70
     2
 71
     2
 72
     2
 73
     1
 90
        2
 40
-0.6
 41
30.0
 62
     5
 63
     7
 74
     0
 91
        4
 64
     7
 65
   257
 75
     1
175
     1
 42
1.0
 92
        0
 66
     7
 43
1.0
 76
     1
 77
     6
 78
     2
 67
     7
 79
     5
170
     0
171
     0
290
     0
174
     0
 93
       13
 44
0.0
173
     0
291
     1
 45
0.0
1001
ACAD
1000
AcDbSavedByObjectVersion
1070
     0
  0
VISUALSTYLE
  5
2E
102
{ACAD_REACTORS
330
2A
102
}
330
2A
100
AcDbVisualStyle
  2
GouraudWithEdges
 70
     3
 71
     2
 72
     2
 73
     1
 90
        2
 40
-0.6
 41
30.0
 62
     5
 63
     7
 74
     1
 91
        4
 64
     7
 65
   257
 75
     1
175
     1
 42
1.0
 92
        0
 66
   257
 43
1.0
 76
     1
 77
     6
 78
     2
 67
     7
 79
     5
170
     0
171
     0
290
     0
174
     0
 93
       13
 44
0.0
173
     0
291
     1
 45
0.0
1001
ACAD
1000
AcDbSavedByObjectVersion
1070
     0
  0
VISUALSTYLE
  5
38
102
{ACAD_REACTORS
330
2A
102
}
330
2A
100
AcDbVisualStyle
  2
Linepattern
 70
    14
 71
     2
 72
     2
 73
     0
 90
        0
 40
-0.6
 41
-30.0
 62
     5
 63
     7
 74
     1
 91
        4
 64
     7
 65
   257
 75
     7
175
     7
 42
1.0
 92
        8
 66
     7
 43
1.0
 76
     1
 77
     6
 78
     2
 67
     7
 79
     5
170
     0
171
     0
290
     0
174
     0
 93
        1
 44
0.0
173
     0
291
     1
 45
0.0
1001
ACAD
1000
AcDbSavedByObjectVersion
1070
     0
  0
VISUALSTYLE
  5
33
102
{ACAD_REACTORS
330
2A
102
}
330
2A
100
AcDbVisualStyle
  2
Realistic
 70
     8
 71
     2
 72
     2
 73
     0
 90
        0
 40
-0.6
 41
-30.0
 62
     5
 63
     7
 74
     1
 91
        0
 64
     7
 65
   257
 75
     1
175
     1
 42
1.0
 92
        8
 66
     8
 43
1.0
 76
     1
 77
     6
 78
     2
 67
     7
 79
     5
170
     0
171
     0
290
     0
174
     0
 93
       13
 44
0.0
173
     0
291
     0
 45
0.0
1001
ACAD
1000
AcDbSavedByObjectVersion
1070
     0
  0
VISUALSTYLE
  5
37
102
{ACAD_REACTORS
330
2A
102
}
330
2A
100
AcDbVisualStyle
  2
Thicken
 70
    13
 71
     2
 72
     2
 73
     0
 90
        0
 40
-0.6
 41
-30.0
 62
     5
 63
     7
 74
     1
 91
        4
 64
     7
 65
   257
 75
     1
175
     1
 42
1.0
 92
       12
 66
     7
 43
1.0
 76
     1
 77
     6
 78
     2
 67
     7
 79
     5
170
     0
171
     0
290
     0
174
     0
 93
        1
 44
0.0
173
     0
291
     1
 45
0.0
1001
ACAD
1000
AcDbSavedByObjectVersion
1070
     0
  0
DICTIONARYVAR
  5
150
102
{ACAD_REACTORS
330
14B
102
}
330
14B
100
DictionaryVariables
280
     0
  1
1:1
  0
DICTIONARYVAR
  5
14F
102
{ACAD_REACTORS
330
14B
102
}
330
14B
100
DictionaryVariables
280
     0
  1
80.000000
  0
DICTIONARYVAR
  5
14E
102
{ACAD_REACTORS
330
14B
102
}
330
14B
100
DictionaryVariables
280
     0
  1
5.000000
  0
ENDSEC
  0
EOF
