  0
SECTION
  2
HEADER
  9
$ACADVER
  1
AC1015
  9
$ACADMAINTVER
 70
     6
  9
$DWGCODEPAGE
  3
ANSI_932
  9
$INSBASE
 10
0.0
 20
0.0
 30
0.0
  9
$EXTMIN
 10
-152.1482096735932
 20
-61.49723375547153
 30
0.0
  9
$EXTMAX
 10
112.332443884293
 20
205.5354645796878
 30
0.0
  9
$LIMMIN
 10
-152.1482096735932
 20
-61.49723375547153
  9
$LIMMAX
 10
112.332443884293
 20
205.5354645796878
  9
$ORTHOMODE
 70
     0
  9
$REGENMODE
 70
     1
  9
$FILLMODE
 70
     1
  9
$QTEXTMODE
 70
     0
  9
$MIRRTEXT
 70
     1
  9
$LTSCALE
 40
1.0
  9
$ATTMODE
 70
     1
  9
$TEXTSIZE
 40
2.5
  9
$TRACEWID
 40
1.0
  9
$TEXTSTYLE
  7
Standard
  9
$CLAYER
  8
0
  9
$CELTYPE
  6
ByLayer
  9
$CECOLOR
 62
   256
  9
$CELTSCALE
 40
1.0
  9
$DISPSILH
 70
     0
  9
$DIMSCALE
 40
1.0
  9
$DIMASZ
 40
2.5
  9
$DIMEXO
 40
0.625
  9
$DIMDLI
 40
3.75
  9
$DIMRND
 40
0.0
  9
$DIMDLE
 40
0.0
  9
$DIMEXE
 40
1.25
  9
$DIMTP
 40
0.0
  9
$DIMTM
 40
0.0
  9
$DIMTXT
 40
2.5
  9
$DIMCEN
 40
2.5
  9
$DIMTSZ
 40
0.0
  9
$DIMTOL
 70
     0
  9
$DIMLIM
 70
     0
  9
$DIMTIH
 70
     0
  9
$DIMTOH
 70
     0
  9
$DIMSE1
 70
     0
  9
$DIMSE2
 70
     0
  9
$DIMTAD
 70
     1
  9
$DIMZIN
 70
     8
  9
$DIMBLK
  1

  9
$DIMASO
 70
     1
  9
$DIMSHO
 70
     1
  9
$DIMPOST
  1

  9
$DIMAPOST
  1

  9
$DIMALT
 70
     0
  9
$DIMALTD
 70
     3
  9
$DIMALTF
 40
0.03937007874016
  9
$DIMLFAC
 40
1.0
  9
$DIMTOFL
 70
     1
  9
$DIMTVP
 40
0.0
  9
$DIMTIX
 70
     0
  9
$DIMSOXD
 70
     0
  9
$DIMSAH
 70
     0
  9
$DIMBLK1
  1

  9
$DIMBLK2
  1

  9
$DIMSTYLE
  2
ISO-25
  9
$DIMCLRD
 70
     0
  9
$DIMCLRE
 70
     0
  9
$DIMCLRT
 70
     0
  9
$DIMTFAC
 40
1.0
  9
$DIMGAP
 40
0.625
  9
$DIMJUST
 70
     0
  9
$DIMSD1
 70
     0
  9
$DIMSD2
 70
     0
  9
$DIMTOLJ
 70
     0
  9
$DIMTZIN
 70
     8
  9
$DIMALTZ
 70
     0
  9
$DIMALTTZ
 70
     0
  9
$DIMUPT
 70
     0
  9
$DIMDEC
 70
     2
  9
$DIMTDEC
 70
     2
  9
$DIMALTU
 70
     2
  9
$DIMALTTD
 70
     3
  9
$DIMTXSTY
  7
Standard
  9
$DIMAUNIT
 70
     0
  9
$DIMADEC
 70
     0
  9
$DIMALTRND
 40
0.0
  9
$DIMAZIN
 70
     0
  9
$DIMDSEP
 70
    44
  9
$DIMATFIT
 70
     3
  9
$DIMFRAC
 70
     0
  9
$DIMLDRBLK
  1

  9
$DIMLUNIT
 70
     2
  9
$DIMLWD
 70
    -2
  9
$DIMLWE
 70
    -2
  9
$DIMTMOVE
 70
     0
  9
$LUNITS
 70
     2
  9
$LUPREC
 70
     4
  9
$SKETCHINC
 40
1.0
  9
$FILLETRAD
 40
10.0
  9
$AUNITS
 70
     0
  9
$AUPREC
 70
     0
  9
$MENU
  1
.
  9
$ELEVATION
 40
0.0
  9
$PELEVATION
 40
0.0
  9
$THICKNESS
 40
0.0
  9
$LIMCHECK
 70
     0
  9
$CHAMFERA
 40
10.0
  9
$CHAMFERB
 40
10.0
  9
$CHAMFERC
 40
20.0
  9
$CHAMFERD
 40
0.0
  9
$SKPOLY
 70
     0
  9
$TDCREATE
 40
2456484.29727941
  9
$TDUCREATE
 40
2456483.92227941
  9
$TDUPDATE
 40
2456484.297279421
  9
$TDUUPDATE
 40
2456483.922279421
  9
$TDINDWG
 40
0.0000000116
  9
$TDUSRTIMER
 40
0.0000000116
  9
$USRTIMER
 70
     1
  9
$ANGBASE
 50
0.0
  9
$ANGDIR
 70
     0
  9
$PDMODE
 70
     0
  9
$PDSIZE
 40
0.0
  9
$PLINEWID
 40
0.0
  9
$SPLFRAME
 70
     0
  9
$SPLINETYPE
 70
     6
  9
$SPLINESEGS
 70
     8
  9
$HANDSEED
  5
298
  9
$SURFTAB1
 70
     6
  9
$SURFTAB2
 70
     6
  9
$SURFTYPE
 70
     6
  9
$SURFU
 70
     6
  9
$SURFV
 70
     6
  9
$UCSBASE
  2

  9
$UCSNAME
  2

  9
$UCSORG
 10
0.0
 20
0.0
 30
0.0
  9
$UCSXDIR
 10
1.0
 20
0.0
 30
0.0
  9
$UCSYDIR
 10
0.0
 20
1.0
 30
0.0
  9
$UCSORTHOREF
  2

  9
$UCSORTHOVIEW
 70
     0
  9
$UCSORGTOP
 10
0.0
 20
0.0
 30
0.0
  9
$UCSORGBOTTOM
 10
0.0
 20
0.0
 30
0.0
  9
$UCSORGLEFT
 10
0.0
 20
0.0
 30
0.0
  9
$UCSORGRIGHT
 10
0.0
 20
0.0
 30
0.0
  9
$UCSORGFRONT
 10
0.0
 20
0.0
 30
0.0
  9
$UCSORGBACK
 10
0.0
 20
0.0
 30
0.0
  9
$PUCSBASE
  2

  9
$PUCSNAME
  2

  9
$PUCSORG
 10
0.0
 20
0.0
 30
0.0
  9
$PUCSXDIR
 10
1.0
 20
0.0
 30
0.0
  9
$PUCSYDIR
 10
0.0
 20
1.0
 30
0.0
  9
$PUCSORTHOREF
  2

  9
$PUCSORTHOVIEW
 70
     0
  9
$PUCSORGTOP
 10
0.0
 20
0.0
 30
0.0
  9
$PUCSORGBOTTOM
 10
0.0
 20
0.0
 30
0.0
  9
$PUCSORGLEFT
 10
0.0
 20
0.0
 30
0.0
  9
$PUCSORGRIGHT
 10
0.0
 20
0.0
 30
0.0
  9
$PUCSORGFRONT
 10
0.0
 20
0.0
 30
0.0
  9
$PUCSORGBACK
 10
0.0
 20
0.0
 30
0.0
  9
$USERI1
 70
     0
  9
$USERI2
 70
     0
  9
$USERI3
 70
     0
  9
$USERI4
 70
     0
  9
$USERI5
 70
     0
  9
$USERR1
 40
0.0
  9
$USERR2
 40
0.0
  9
$USERR3
 40
0.0
  9
$USERR4
 40
0.0
  9
$USERR5
 40
0.0
  9
$WORLDVIEW
 70
     1
  9
$SHADEDGE
 70
     3
  9
$SHADEDIF
 70
    70
  9
$TILEMODE
 70
     1
  9
$MAXACTVP
 70
    64
  9
$PINSBASE
 10
0.0
 20
0.0
 30
0.0
  9
$PLIMCHECK
 70
     0
  9
$PEXTMIN
 10
1.000000000000000E+20
 20
1.000000000000000E+20
 30
1.000000000000000E+20
  9
$PEXTMAX
 10
-1.000000000000000E+20
 20
-1.000000000000000E+20
 30
-1.000000000000000E+20
  9
$PLIMMIN
 10
-152.1482096735932
 20
-61.49723375547153
  9
$PLIMMAX
 10
112.332443884293
 20
205.5354645796878
  9
$UNITMODE
 70
     0
  9
$VISRETAIN
 70
     1
  9
$PLINEGEN
 70
     0
  9
$PSLTSCALE
 70
     1
  9
$TREEDEPTH
 70
  3020
  9
$CMLSTYLE
  2
Standard
  9
$CMLJUST
 70
     0
  9
$CMLSCALE
 40
20.0
  9
$PROXYGRAPHICS
 70
     1
  9
$MEASUREMENT
 70
     1
  9
$CELWEIGHT
370
    -1
  9
$ENDCAPS
280
     0
  9
$JOINSTYLE
280
     0
  9
$LWDISPLAY
290
     0
  9
$INSUNITS
 70
     4
  9
$HYPERLINKBASE
  1

  9
$STYLESHEET
  1

  9
$XEDIT
290
     1
  9
$CEPSNTYPE
380
     0
  9
$PSTYLEMODE
290
     1
  9
$FINGERPRINTGUID
  2
{C8898613-7771-44C5-B244-A53FD7D64E28}
  9
$VERSIONGUID
  2
{FAEB1C32-E019-11D5-929B-00C0DF256EC4}
  9
$EXTNAMES
290
     1
  9
$PSVPSCALE
 40
0.0
  9
$OLESTARTUP
290
     0
  0
ENDSEC
  0
SECTION
  2
CLASSES
  0
CLASS
  1
ACDBDICTIONARYWDFLT
  2
AcDbDictionaryWithDefault
  3
ObjectDBX Classes
 90
        0
280
     0
281
     0
  0
CLASS
  1
VISUALSTYLE
  2
AcDbVisualStyle
  3
ObjectDBX Classes
 90
     4095
280
     0
281
     0
  0
CLASS
  1
SCALE
  2
AcDbScale
  3
ObjectDBX Classes
 90
     1153
280
     0
281
     0
  0
CLASS
  1
DICTIONARYVAR
  2
AcDbDictionaryVar
  3
ObjectDBX Classes
 90
        0
280
     0
281
     0
  0
CLASS
  1
ACDBPLACEHOLDER
  2
AcDbPlaceHolder
  3
ObjectDBX Classes
 90
        0
280
     0
281
     0
  0
CLASS
  1
LAYOUT
  2
AcDbLayout
  3
ObjectDBX Classes
 90
        0
280
     0
281
     0
  0
ENDSEC
  0
SECTION
  2
TABLES
  0
TABLE
  2
VPORT
  5
8
330
0
100
AcDbSymbolTable
 70
     1
  0
VPORT
  5
29
330
8
100
AcDbSymbolTableRecord
100
AcDbViewportTableRecord
  2
*Active
 70
     0
 10
0.0
 20
0.0
 11
1.0
 21
1.0
 12
344.1869158878504
 22
148.5
 13
0.0
 23
0.0
 14
10.0
 24
10.0
 15
10.0
 25
10.0
 16
0.0
 26
0.0
 36
1.0
 17
0.0
 27
0.0
 37
0.0
 40
297.0
 41
1.972972972850329
 42
50.0
 43
0.0
 44
0.0
 50
0.0
 51
0.0
 71
     0
 72
   100
 73
     1
 74
     3
 75
     0
 76
     0
 77
     0
 78
     0
281
     0
 65
     1
110
0.0
120
0.0
130
0.0
111
1.0
121
0.0
131
0.0
112
0.0
122
1.0
132
0.0
 79
     0
146
0.0
  0
ENDTAB
  0
TABLE
  2
LTYPE
  5
5
330
0
100
AcDbSymbolTable
 70
     5
  0
LTYPE
  5
14
330
5
100
AcDbSymbolTableRecord
100
AcDbLinetypeTableRecord
  2
ByBlock
 70
     0
  3

 72
    65
 73
     0
 40
0.0
  0
LTYPE
  5
15
330
5
100
AcDbSymbolTableRecord
100
AcDbLinetypeTableRecord
  2
ByLayer
 70
     0
  3

 72
    65
 73
     0
 40
0.0
  0
LTYPE
  5
16
330
5
100
AcDbSymbolTableRecord
100
AcDbLinetypeTableRecord
  2
Continuous
 70
     0
  3
Solid line
 72
    65
 73
     0
 40
0.0
  0
LTYPE
  5
3B
330
5
100
AcDbSymbolTableRecord
100
AcDbLinetypeTableRecord
  2
CONTINOUS
 70
     0
  3
______________________________
 72
    65
 73
     0
 40
0.0
  0
LTYPE
  5
3C
330
5
100
AcDbSymbolTableRecord
100
AcDbLinetypeTableRecord
  2
DASHED
 70
     0
  3
__ __ __ __ __ __ __ __ __ __ __ __ __ __ __ __
 72
    65
 73
     2
 40
4.5
 49
3.0
 74
     0
 49
-1.5
 74
     0
  0
LTYPE
  5
3D
330
5
100
AcDbSymbolTableRecord
100
AcDbLinetypeTableRecord
  2
PHANTOM
 70
     0
  3
______  __  __  ______  __  __  _____
 72
    65
 73
     6
 40
15.0
 49
7.5
 74
     0
 49
-1.5
 74
     0
 49
1.5
 74
     0
 49
-1.5
 74
     0
 49
1.5
 74
     0
 49
-1.5
 74
     0
  0
LTYPE
  5
3E
330
5
100
AcDbSymbolTableRecord
100
AcDbLinetypeTableRecord
  2
CENTER
 70
     0
  3
____ _ ____ _ ____ _ ____ _ ____ _ ____
 72
    65
 73
     4
 40
12.0
 49
7.5
 74
     0
 49
-1.5
 74
     0
 49
1.5
 74
     0
 49
-1.5
 74
     0
  0
ENDTAB
  0
TABLE
  2
LAYER
  5
2
330
0
100
AcDbSymbolTable
 70
     4
  0
LAYER
  5
10
330
2
100
AcDbSymbolTableRecord
100
AcDbLayerTableRecord
  2
0
 70
     0
 62
     7
  6
Continuous
370
    -3
390
F
  0
LAYER
  5
D5
330
2
100
AcDbSymbolTableRecord
100
AcDbLayerTableRecord
  2
VIEW0001
 70
     0
 62
     7
  6
Continuous
370
    -3
390
F
  0
LAYER
  5
1B4
330
2
100
AcDbSymbolTableRecord
100
AcDbLayerTableRecord
  2
Defpoints
 70
     0
 62
     7
  6
Continuous
290
     0
370
    -3
390
F
  0
LAYER
  5
291
330
2
100
AcDbSymbolTableRecord
100
AcDbLayerTableRecord
  2
VIEW0002
 70
     0
 62
     7
  6
Continuous
370
    -3
390
F
  0
ENDTAB
  0
TABLE
  2
STYLE
  5
3
330
0
100
AcDbSymbolTable
 70
     1
  0
STYLE
  5
11
330
3
100
AcDbSymbolTableRecord
100
AcDbTextStyleTableRecord
  2
Standard
 70
     0
 40
0.0
 41
1.0
 50
0.0
 71
     0
 42
2.5
  3
ROMANS
  4
EXTFONT
  0
ENDTAB
  0
TABLE
  2
VIEW
  5
6
330
0
100
AcDbSymbolTable
 70
     0
  0
ENDTAB
  0
TABLE
  2
UCS
  5
7
330
0
100
AcDbSymbolTable
 70
     0
  0
ENDTAB
  0
TABLE
  2
APPID
  5
9
330
0
100
AcDbSymbolTable
 70
     1
  0
APPID
  5
12
330
9
100
AcDbSymbolTableRecord
100
AcDbRegAppTableRecord
  2
ACAD
 70
     0
  0
ENDTAB
  0
TABLE
  2
DIMSTYLE
  5
A
330
0
100
AcDbSymbolTable
 70
     1
100
AcDbDimStyleTable
  0
DIMSTYLE
105
27
102
{ACAD_REACTORS
330
1AD
330
1CA
330
1D6
330
1E3
330
1EF
330
1FC
330
209
330
216
330
22A
330
246
330
261
330
26E
330
27B
102
}
330
A
100
AcDbSymbolTableRecord
100
AcDbDimStyleTableRecord
  2
ISO-25
 70
     0
 41
2.5
 42
0.625
 43
3.75
 44
1.25
 73
     0
 74
     0
 77
     1
 78
     8
140
2.5
141
2.5
143
0.03937007874016
147
0.625
171
     3
172
     1
271
     2
272
     2
274
     3
278
    44
283
     0
284
     8
340
11
  0
ENDTAB
  0
TABLE
  2
BLOCK_RECORD
  5
1
330
0
100
AcDbSymbolTable
 70
    18
  0
BLOCK_RECORD
  5
1F
330
1
100
AcDbSymbolTableRecord
100
AcDbBlockTableRecord
  2
*Model_Space
340
22
  0
BLOCK_RECORD
  5
1B
330
1
100
AcDbSymbolTableRecord
100
AcDbBlockTableRecord
  2
*Paper_Space
340
1E
  0
BLOCK_RECORD
  5
23
330
1
100
AcDbSymbolTableRecord
100
AcDbBlockTableRecord
  2
*Paper_Space0
340
26
  0
BLOCK_RECORD
  5
3F
330
1
100
AcDbSymbolTableRecord
100
AcDbBlockTableRecord
  2
DTL0001
340
0
  0
BLOCK_RECORD
  5
1AE
330
1
100
AcDbSymbolTableRecord
100
AcDbBlockTableRecord
  2
_OPEN30
340
0
102
{BLKREFS
331
1BB
331
1BA
331
1CF
331
1CE
331
1DC
331
1DB
331
1E8
331
1E7
331
1F5
331
1F4
331
202
331
201
331
20F
331
20E
331
21C
331
21B
331
230
331
22F
331
24C
331
24B
331
267
331
266
331
274
331
273
331
282
331
281
102
}
  0
BLOCK_RECORD
  5
1B5
330
1
100
AcDbSymbolTableRecord
100
AcDbBlockTableRecord
  2
*D3
340
0
  0
BLOCK_RECORD
  5
1CB
330
1
100
AcDbSymbolTableRecord
100
AcDbBlockTableRecord
  2
*D4
340
0
  0
BLOCK_RECORD
  5
1D7
330
1
100
AcDbSymbolTableRecord
100
AcDbBlockTableRecord
  2
*D5
340
0
  0
BLOCK_RECORD
  5
1E4
330
1
100
AcDbSymbolTableRecord
100
AcDbBlockTableRecord
  2
*D6
340
0
  0
BLOCK_RECORD
  5
1F0
330
1
100
AcDbSymbolTableRecord
100
AcDbBlockTableRecord
  2
*D7
340
0
  0
BLOCK_RECORD
  5
1FD
330
1
100
AcDbSymbolTableRecord
100
AcDbBlockTableRecord
  2
*D8
340
0
  0
BLOCK_RECORD
  5
20A
330
1
100
AcDbSymbolTableRecord
100
AcDbBlockTableRecord
  2
*D9
340
0
  0
BLOCK_RECORD
  5
217
330
1
100
AcDbSymbolTableRecord
100
AcDbBlockTableRecord
  2
*D10
340
0
  0
BLOCK_RECORD
  5
22B
330
1
100
AcDbSymbolTableRecord
100
AcDbBlockTableRecord
  2
*D11
340
0
  0
BLOCK_RECORD
  5
237
330
1
100
AcDbSymbolTableRecord
100
AcDbBlockTableRecord
  2
DIM0001
340
0
102
{BLKREFS
331
243
102
}
  0
BLOCK_RECORD
  5
247
330
1
100
AcDbSymbolTableRecord
100
AcDbBlockTableRecord
  2
*D13
340
0
  0
BLOCK_RECORD
  5
253
330
1
100
AcDbSymbolTableRecord
100
AcDbBlockTableRecord
  2
DIM0002
340
0
102
{BLKREFS
331
25E
102
}
  0
BLOCK_RECORD
  5
262
330
1
100
AcDbSymbolTableRecord
100
AcDbBlockTableRecord
  2
*D15
340
0
  0
BLOCK_RECORD
  5
26F
330
1
100
AcDbSymbolTableRecord
100
AcDbBlockTableRecord
  2
*D16
340
0
  0
BLOCK_RECORD
  5
27C
330
1
100
AcDbSymbolTableRecord
100
AcDbBlockTableRecord
  2
*D17
340
0
  0
ENDTAB
  0
ENDSEC
  0
SECTION
  2
BLOCKS
  0
BLOCK
  5
20
330
1F
100
AcDbEntity
  8
0
100
AcDbBlockBegin
  2
*Model_Space
 70
     0
 10
0.0
 20
0.0
 30
0.0
  3
*Model_Space
  1

  0
ENDBLK
  5
21
330
1F
100
AcDbEntity
  8
0
100
AcDbBlockEnd
  0
BLOCK
  5
1C
330
1B
100
AcDbEntity
 67
     1
  8
0
100
AcDbBlockBegin
  2
*Paper_Space
 70
     0
 10
0.0
 20
0.0
 30
0.0
  3
*Paper_Space
  1

  0
ENDBLK
  5
1D
330
1B
100
AcDbEntity
 67
     1
  8
0
100
AcDbBlockEnd
  0
BLOCK
  5
24
330
23
100
AcDbEntity
  8
0
100
AcDbBlockBegin
  2
*Paper_Space0
 70
     0
 10
0.0
 20
0.0
 30
0.0
  3
*Paper_Space0
  1

  0
ENDBLK
  5
25
330
23
100
AcDbEntity
  8
0
100
AcDbBlockEnd
  0
BLOCK
  5
40
330
3F
100
AcDbEntity
  8
0
100
AcDbBlockBegin
  2
DTL0001
 70
     0
 10
0.0
 20
0.0
 30
0.0
  3
DTL0001
  1

  0
POINT
  5
42
330
3F
100
AcDbEntity
  8
0
 62
     0
100
AcDbPoint
 10
0.0
 20
0.0
 30
0.0
  0
LINE
  5
43
330
3F
100
AcDbEntity
  8
0
  6
Continuous
 62
     0
100
AcDbLine
 10
-193.1
 20
3.5
 30
0.0
 11
-0.1
 21
3.5
 31
0.0
  0
LINE
  5
44
330
3F
100
AcDbEntity
  8
0
  6
Continuous
 62
     0
100
AcDbLine
 10
-6.099999999999971
 20
16.0
 30
0.0
 11
-6.099999999999971
 21
3.500000000000028
 31
0.0
  0
LINE
  5
45
330
3F
100
AcDbEntity
  8
0
  6
Continuous
 62
     0
100
AcDbLine
 10
-6.099999999999971
 20
11.0
 30
0.0
 11
-0.1
 21
11.0
 31
0.0
  0
LINE
  5
46
330
3F
100
AcDbEntity
  8
0
  6
Continuous
 62
     0
100
AcDbLine
 10
-128.1
 20
53.5
 30
0.0
 11
-128.1
 21
3.5
 31
0.0
  0
LINE
  5
47
330
3F
100
AcDbEntity
  8
0
  6
Continuous
 62
     0
100
AcDbLine
 10
-193.1
 20
53.5
 30
0.0
 11
-0.1
 21
53.5
 31
0.0
  0
LINE
  5
48
330
3F
100
AcDbEntity
  8
0
  6
Continuous
 62
     0
100
AcDbLine
 10
-89.6
 20
99.5
 30
0.0
 11
-89.6
 21
53.5
 31
0.0
  0
LINE
  5
49
330
3F
100
AcDbEntity
  8
0
  6
Continuous
 62
     0
100
AcDbLine
 10
-193.1
 20
99.5
 30
0.0
 11
-0.1
 21
99.5
 31
0.0
  0
LINE
  5
4A
330
3F
100
AcDbEntity
  8
0
  6
Continuous
 62
     0
100
AcDbLine
 10
-187.1
 20
53.5
 30
0.0
 11
-187.1
 21
3.5
 31
0.0
  0
LINE
  5
4B
330
3F
100
AcDbEntity
  8
0
  6
Continuous
 62
     0
100
AcDbLine
 10
-59.1
 20
99.5
 30
0.0
 11
-59.1
 21
53.5
 31
0.0
  0
LINE
  5
4C
330
3F
100
AcDbEntity
  8
0
  6
Continuous
 62
     0
100
AcDbLine
 10
-37.1
 20
99.5
 30
0.0
 11
-37.1
 21
53.5
 31
0.0
  0
LINE
  5
4D
330
3F
100
AcDbEntity
  8
0
  6
Continuous
 62
     0
100
AcDbLine
 10
-15.1
 20
99.5
 30
0.0
 11
-15.1
 21
53.5
 31
0.0
  0
LINE
  5
4E
330
3F
100
AcDbEntity
  8
0
  6
Continuous
 62
     0
100
AcDbLine
 10
-96.6
 20
99.5
 30
0.0
 11
-96.6
 21
53.5
 31
0.0
  0
LINE
  5
4F
330
3F
100
AcDbEntity
  8
0
  6
Continuous
 62
     0
100
AcDbLine
 10
-186.1
 20
99.5
 30
0.0
 11
-186.1
 21
53.5
 31
0.0
  0
LINE
  5
50
330
3F
100
AcDbEntity
  8
0
  6
Continuous
 62
     0
100
AcDbLine
 10
-133.6
 20
99.5
 30
0.0
 11
-133.6
 21
53.5
 31
0.0
  0
LINE
  5
51
330
3F
100
AcDbEntity
  8
0
  6
Continuous
 62
     0
100
AcDbLine
 10
-155.6
 20
99.5
 30
0.0
 11
-155.6
 21
53.5
 31
0.0
  0
LINE
  5
52
330
3F
100
AcDbEntity
  8
0
  6
Continuous
 62
     0
100
AcDbLine
 10
-111.6
 20
99.5
 30
0.0
 11
-111.6
 21
53.5
 31
0.0
  0
LINE
  5
53
330
3F
100
AcDbEntity
  8
0
  6
Continuous
 62
     0
100
AcDbLine
 10
-193.1
 20
93.78571428571429
 30
0.0
 11
-0.1
 21
93.78571428571429
 31
0.0
  0
LINE
  5
54
330
3F
100
AcDbEntity
  8
0
  6
Continuous
 62
     0
100
AcDbLine
 10
-193.1
 20
88.07142857142857
 30
0.0
 11
-0.1
 21
88.07142857142857
 31
0.0
  0
LINE
  5
55
330
3F
100
AcDbEntity
  8
0
  6
Continuous
 62
     0
100
AcDbLine
 10
-193.1
 20
82.35714285714286
 30
0.0
 11
-0.1
 21
82.35714285714286
 31
0.0
  0
LINE
  5
56
330
3F
100
AcDbEntity
  8
0
  6
Continuous
 62
     0
100
AcDbLine
 10
-193.1
 20
76.64285714285714
 30
0.0
 11
-0.1
 21
76.64285714285714
 31
0.0
  0
LINE
  5
57
330
3F
100
AcDbEntity
  8
0
  6
Continuous
 62
     0
100
AcDbLine
 10
-193.1
 20
70.92857142857143
 30
0.0
 11
-0.1
 21
70.92857142857143
 31
0.0
  0
LINE
  5
58
330
3F
100
AcDbEntity
  8
0
  6
Continuous
 62
     0
100
AcDbLine
 10
-193.1
 20
65.21428571428572
 30
0.0
 11
-0.1
 21
65.21428571428572
 31
0.0
  0
LINE
  5
59
330
3F
100
AcDbEntity
  8
0
  6
Continuous
 62
     0
100
AcDbLine
 10
-193.1
 20
59.5
 30
0.0
 11
-0.1
 21
59.5
 31
0.0
  0
LINE
  5
5A
330
3F
100
AcDbEntity
  8
0
  6
Continuous
 62
     0
100
AcDbLine
 10
-98.09999999999997
 20
28.5
 30
0.0
 11
-98.09999999999997
 21
16.0
 31
0.0
  0
LINE
  5
5B
330
3F
100
AcDbEntity
  8
0
  6
Continuous
 62
     0
100
AcDbLine
 10
-89.09999999999997
 20
53.5
 30
0.0
 11
-89.09999999999997
 21
28.5
 31
0.0
  0
LINE
  5
5C
330
3F
100
AcDbEntity
  8
0
  6
Continuous
 62
     0
100
AcDbLine
 10
-77.09999999999997
 20
16.0
 30
0.0
 11
-77.09999999999997
 21
3.500000000000028
 31
0.0
  0
LINE
  5
5D
330
3F
100
AcDbEntity
  8
0
  6
Continuous
 62
     0
100
AcDbLine
 10
-84.09999999999997
 20
53.5
 30
0.0
 11
-84.09999999999997
 21
28.5
 31
0.0
  0
LINE
  5
5E
330
3F
100
AcDbEntity
  8
0
  6
Continuous
 62
     0
100
AcDbLine
 10
-47.09999999999997
 20
28.5
 30
0.0
 11
-47.09999999999997
 21
16.0
 31
0.0
  0
LINE
  5
5F
330
3F
100
AcDbEntity
  8
0
  6
Continuous
 62
     0
100
AcDbLine
 10
-40.09999999999997
 20
28.5
 30
0.0
 11
-40.09999999999997
 21
16.0
 31
0.0
  0
LINE
  5
60
330
3F
100
AcDbEntity
  8
0
  6
Continuous
 62
     0
100
AcDbLine
 10
-24.09999999999997
 20
28.5
 30
0.0
 11
-24.09999999999997
 21
16.0
 31
0.0
  0
LINE
  5
61
330
3F
100
AcDbEntity
  8
0
  6
Continuous
 62
     0
100
AcDbLine
 10
-17.09999999999997
 20
28.5
 30
0.0
 11
-17.09999999999997
 21
16.0
 31
0.0
  0
LINE
  5
62
330
3F
100
AcDbEntity
  8
0
  6
Continuous
 62
     0
100
AcDbLine
 10
-128.1
 20
45.16666666666666
 30
0.0
 11
-0.1
 21
45.16666666666666
 31
0.0
  0
LINE
  5
63
330
3F
100
AcDbEntity
  8
0
  6
DASHED
 62
     0
100
AcDbLine
 10
-84.09999999999997
 20
36.83333333333333
 30
0.0
 11
-0.1
 21
36.83333333333333
 31
0.0
  0
LINE
  5
64
330
3F
100
AcDbEntity
  8
0
  6
Continuous
 62
     0
100
AcDbLine
 10
-134.1
 20
53.5
 30
0.0
 11
-134.1
 21
3.500000000000028
 31
0.0
  0
LINE
  5
65
330
3F
100
AcDbEntity
  8
0
  6
Continuous
 62
     0
100
AcDbLine
 10
-175.1
 20
53.5
 30
0.0
 11
-175.1
 21
3.5
 31
0.0
  0
LINE
  5
66
330
3F
100
AcDbEntity
  8
0
  6
Continuous
 62
     0
100
AcDbLine
 10
-128.1
 20
16.0
 30
0.0
 11
-0.1
 21
16.0
 31
0.0
  0
LINE
  5
67
330
3F
100
AcDbEntity
  8
0
  6
Continuous
 62
     0
100
AcDbLine
 10
-128.1
 20
28.5
 30
0.0
 11
-0.1
 21
28.5
 31
0.0
  0
LINE
  5
68
330
3F
100
AcDbEntity
  8
0
  6
Continuous
 62
     0
100
AcDbLine
 10
-0.1
 20
277.5
 30
0.0
 11
-0.1
 21
3.5
 31
0.0
  0
LINE
  5
69
330
3F
100
AcDbEntity
  8
0
  6
Continuous
 62
     0
100
AcDbLine
 10
-193.1
 20
282.5
 30
0.0
 11
-193.1
 21
3.5
 31
0.0
  0
LINE
  5
6A
330
3F
100
AcDbEntity
  8
0
  6
Continuous
 62
     0
100
AcDbLine
 10
-193.1
 20
282.5
 30
0.0
 11
-35.1
 21
282.5
 31
0.0
  0
LINE
  5
6B
330
3F
100
AcDbEntity
  8
0
  6
Continuous
 62
     0
100
AcDbLine
 10
-15.1
 20
282.5
 30
0.0
 11
-15.1
 21
277.5
 31
0.0
  0
LINE
  5
6C
330
3F
100
AcDbEntity
  8
0
  6
Continuous
 62
     0
100
AcDbLine
 10
-10.1
 20
282.5
 30
0.0
 11
-10.1
 21
277.5
 31
0.0
  0
LINE
  5
6D
330
3F
100
AcDbEntity
  8
0
  6
Continuous
 62
     0
100
AcDbLine
 10
-25.1
 20
282.5
 30
0.0
 11
-25.1
 21
277.5
 31
0.0
  0
LINE
  5
6E
330
3F
100
AcDbEntity
  8
0
  6
Continuous
 62
     0
100
AcDbLine
 10
-20.1
 20
282.5
 30
0.0
 11
-20.1
 21
277.5
 31
0.0
  0
LINE
  5
6F
330
3F
100
AcDbEntity
  8
0
  6
Continuous
 62
     0
100
AcDbLine
 10
-35.1
 20
277.5
 30
0.0
 11
-0.1
 21
277.5
 31
0.0
  0
LINE
  5
70
330
3F
100
AcDbEntity
  8
0
  6
Continuous
 62
     0
100
AcDbLine
 10
-5.1
 20
282.5
 30
0.0
 11
-5.1
 21
277.5
 31
0.0
  0
LINE
  5
71
330
3F
100
AcDbEntity
  8
0
  6
Continuous
 62
     0
100
AcDbLine
 10
-30.1
 20
282.5
 30
0.0
 11
-30.1
 21
277.5
 31
0.0
  0
LINE
  5
72
330
3F
100
AcDbEntity
  8
0
  6
Continuous
 62
     0
100
AcDbLine
 10
-35.1
 20
282.5
 30
0.0
 11
-35.1
 21
277.5
 31
0.0
  0
LINE
  5
73
330
3F
100
AcDbEntity
  8
0
  6
Continuous
 62
     0
100
AcDbLine
 10
-0.1
 20
277.5
 30
0.0
 11
-0.1
 21
282.5
 31
0.0
  0
LINE
  5
74
330
3F
100
AcDbEntity
  8
0
  6
Continuous
 62
     0
100
AcDbLine
 10
-35.1
 20
282.5
 30
0.0
 11
-0.1
 21
282.5
 31
0.0
  0
LINE
  5
75
330
3F
100
AcDbEntity
  8
0
  6
Continuous
 62
     0
100
AcDbLine
 10
-149.9925475344146
 20
277.5
 30
0.0
 11
-50.42227626193519
 21
277.5
 31
0.0
  0
LINE
  5
76
330
3F
100
AcDbEntity
  8
0
  6
Continuous
 62
     0
100
AcDbLine
 10
-70.09999999999997
 20
28.5
 30
0.0
 11
-70.09999999999997
 21
3.500000000000028
 31
0.0
  0
LINE
  5
77
330
3F
100
AcDbEntity
  8
0
  6
Continuous
 62
     0
100
AcDbLine
 10
-63.09999999999997
 20
28.5
 30
0.0
 11
-63.09999999999997
 21
16.0
 31
0.0
  0
LINE
  5
78
330
3F
100
AcDbEntity
  8
0
  6
Continuous
 62
     0
100
AcDbLine
 10
-123.1
 20
53.5
 30
0.0
 11
-123.1
 21
16.0
 31
0.0
  0
LINE
  5
79
330
3F
100
AcDbEntity
  8
0
  6
Continuous
 62
     0
100
AcDbLine
 10
-193.1
 20
8.5
 30
0.0
 11
-128.1
 21
8.5
 31
0.0
  0
LINE
  5
7A
330
3F
100
AcDbEntity
  8
0
  6
Continuous
 62
     0
100
AcDbLine
 10
-193.1
 20
44.50000000000001
 30
0.0
 11
-128.1
 21
44.50000000000001
 31
0.0
  0
LINE
  5
7B
330
3F
100
AcDbEntity
  8
0
  6
Continuous
 62
     0
100
AcDbLine
 10
-193.1
 20
35.5
 30
0.0
 11
-128.1
 21
35.5
 31
0.0
  0
LINE
  5
7C
330
3F
100
AcDbEntity
  8
0
  6
Continuous
 62
     0
100
AcDbLine
 10
-193.1
 20
26.5
 30
0.0
 11
-128.1
 21
26.5
 31
0.0
  0
LINE
  5
7D
330
3F
100
AcDbEntity
  8
0
  6
Continuous
 62
     0
100
AcDbLine
 10
-193.1
 20
17.5
 30
0.0
 11
-128.1
 21
17.5
 31
0.0
  0
MTEXT
  5
7E
330
3F
100
AcDbEntity
  8
0
 62
     0
100
AcDbMText
 10
-191.9392510137227
 20
5.930056100058094
 30
0.0
 40
2.200000047683716
 41
0.0
 71
     7
 72
     1
  1
{\W0.757576;符}
 73
     1
 44
1.0
  0
MTEXT
  5
A1
330
3F
100
AcDbEntity
  8
0
 62
     0
100
AcDbMText
 10
-191.9392510137227
 20
3.530056049394146
 30
0.0
 40
2.200000047683716
 41
0.0
 71
     7
 72
     1
  1
{\W0.757576;　号}
 73
     1
 44
1.0
  0
MTEXT
  5
A2
330
3F
100
AcDbEntity
  8
0
 62
     0
100
AcDbMText
 10
-169.6
 20
4.500000000000001
 30
0.0
 40
3.0
 41
0.0
 71
     7
 72
     1
  1
{\W2.5;図面来歴}
 73
     1
 44
1.0
  0
MTEXT
  5
A3
330
3F
100
AcDbEntity
  8
0
 62
     0
100
AcDbMText
 10
-132.6
 20
4.5
 30
0.0
 40
3.0
 41
0.0
 71
     7
 72
     1
  1
{\W0.833333;印}
 73
     1
 44
1.0
  0
MTEXT
  5
A4
330
3F
100
AcDbEntity
  8
0
 62
     0
100
AcDbMText
 10
-127.1
 20
39.83333333333333
 30
0.0
 40
3.0
 41
0.0
 71
     7
 72
     1
  1
{\W0.833333;納}
 73
     1
 44
1.0
  0
MTEXT
  5
A5
330
3F
100
AcDbEntity
  8
0
 62
     0
100
AcDbMText
 10
-127.1
 20
35.33333333333333
 30
0.0
 40
3.0
 41
0.0
 71
     7
 72
     1
  1
{\W0.833333;入}
 73
     1
 44
1.0
  0
MTEXT
  5
A6
330
3F
100
AcDbEntity
  8
0
 62
     0
100
AcDbMText
 10
-127.1
 20
30.83333333333333
 30
0.0
 40
3.0
 41
0.0
 71
     7
 72
     1
  1
{\W0.833333;先}
 73
     1
 44
1.0
  0
MTEXT
  5
A7
330
3F
100
AcDbEntity
  8
0
 62
     0
100
AcDbMText
 10
-127.1
 20
49.73333333929379
 30
0.0
 40
3.0
 41
0.0
 71
     7
 72
     1
  1
{\W0.833333;注}
 73
     1
 44
1.0
  0
MTEXT
  5
A8
330
3F
100
AcDbEntity
  8
0
 62
     0
100
AcDbMText
 10
-127.1
 20
45.93333332737286
 30
0.0
 40
3.0
 41
0.0
 71
     7
 72
     1
  1
{\W0.833333;番}
 73
     1
 44
1.0
  0
MTEXT
  5
A9
330
3F
100
AcDbEntity
  8
0
 62
     0
100
AcDbMText
 10
-127.1
 20
23.0
 30
0.0
 40
3.0
 41
0.0
 71
     7
 72
     1
  1
{\W0.833333;尺}
 73
     1
 44
1.0
  0
MTEXT
  5
AA
330
3F
100
AcDbEntity
  8
0
 62
     0
100
AcDbMText
 10
-127.1
 20
18.5
 30
0.0
 40
3.0
 41
0.0
 71
     7
 72
     1
  1
{\W0.833333;度}
 73
     1
 44
1.0
  0
MTEXT
  5
AB
330
3F
100
AcDbEntity
  8
0
 62
     0
100
AcDbMText
 10
-75.09999999999995
 20
11.37500000000001
 30
0.0
 40
3.0
 41
0.0
 71
     7
 72
     1
  1
{\W0.833333;図}
 73
     1
 44
1.0
  0
MTEXT
  5
AC
330
3F
100
AcDbEntity
  8
0
 62
     0
100
AcDbMText
 10
-75.09999999999997
 20
5.125000000000013
 30
0.0
 40
3.0
 41
0.0
 71
     7
 72
     1
  1
{\W0.833333;番}
 73
     1
 44
1.0
  0
MTEXT
  5
AD
330
3F
100
AcDbEntity
  8
0
 62
     0
100
AcDbMText
 10
-88.09999999999997
 20
49.73333333929379
 30
0.0
 40
3.0
 41
0.0
 71
     7
 72
     1
  1
{\W0.833333;形}
 73
     1
 44
1.0
  0
MTEXT
  5
AE
330
3F
100
AcDbEntity
  8
0
 62
     0
100
AcDbMText
 10
-88.09999999999997
 20
45.93333332737286
 30
0.0
 40
3.0
 41
0.0
 71
     7
 72
     1
  1
{\W0.833333;番}
 73
     1
 44
1.0
  0
MTEXT
  5
AF
330
3F
100
AcDbEntity
  8
0
 62
     0
100
AcDbMText
 10
-45.09999999999995
 20
23.875
 30
0.0
 40
3.0
 41
0.0
 71
     7
 72
     1
  1
{\W0.833333;点}
 73
     1
 44
1.0
  0
MTEXT
  5
B0
330
3F
100
AcDbEntity
  8
0
 62
     0
100
AcDbMText
 10
-45.09999999999995
 20
17.625
 30
0.0
 40
3.0
 41
0.0
 71
     7
 72
     1
  1
{\W0.833333;検}
 73
     1
 44
1.0
  0
MTEXT
  5
B1
330
3F
100
AcDbEntity
  8
0
 62
     0
100
AcDbMText
 10
-22.09999999999997
 20
23.875
 30
0.0
 40
3.0
 41
0.0
 71
     7
 72
     1
  1
{\W0.833333;設}
 73
     1
 44
1.0
  0
MTEXT
  5
B2
330
3F
100
AcDbEntity
  8
0
 62
     0
100
AcDbMText
 10
-22.09999999999998
 20
17.625
 30
0.0
 40
3.0
 41
0.0
 71
     7
 72
     1
  1
{\W0.833333;計}
 73
     1
 44
1.0
  0
MTEXT
  5
B3
330
3F
100
AcDbEntity
  8
0
 62
     0
100
AcDbMText
 10
-5.099999999999979
 20
12.60000002384186
 30
0.0
 40
1.799999952316284
 41
0.0
 71
     7
 72
     1
  1
{\W1.38889;改訂}
 73
     1
 44
1.0
  0
MTEXT
  5
B4
330
3F
100
AcDbEntity
  8
0
 62
     0
100
AcDbMText
 10
-67.99999999999994
 20
23.875
 30
0.0
 40
3.0
 41
0.0
 71
     7
 72
     1
  1
{\W0.833333;承}
 73
     1
 44
1.0
  0
MTEXT
  5
B5
330
3F
100
AcDbEntity
  8
0
 62
     0
100
AcDbMText
 10
-67.99999999999994
 20
17.625
 30
0.0
 40
3.0
 41
0.0
 71
     7
 72
     1
  1
{\W0.833333;認}
 73
     1
 44
1.0
  0
MTEXT
  5
B6
330
3F
100
AcDbEntity
  8
0
 62
     0
100
AcDbMText
 10
-94.38998717599351
 20
31.56159228421099
 30
0.0
 40
3.200000047683716
 41
0.0
 71
     7
 72
     1
  1
{\W2.34375;殿}
 73
     1
 44
1.0
  0
MTEXT
  5
B7
330
3F
100
AcDbEntity
  8
0
 62
     0
100
AcDbMText
 10
-123.4738152680865
 20
6.678405666061966
 30
0.0
 40
2.799999952316284
 41
0.0
 71
     7
 72
     1
  1
{\W0.952381;会社}
 73
     1
 44
1.0
  0
MTEXT
  5
B8
330
3F
100
AcDbEntity
  8
0
 62
     0
100
AcDbMText
 10
-123.4738152680865
 20
10.27840566606199
 30
0.0
 40
2.799999952316284
 41
0.0
 71
     7
 72
     1
  1
{\W0.952381;株式}
 73
     1
 44
1.0
  0
MTEXT
  5
B9
330
3F
100
AcDbEntity
  8
0
 62
     0
100
AcDbMText
 10
-114.9773025328955
 20
7.520653681409247
 30
0.0
 40
4.800000190734863
 41
0.0
 71
     7
 72
     1
  1
{\W0.954861;椿本ﾁｴｲﾝ}
 73
     1
 44
1.0
  0
MTEXT
  5
BA
330
3F
100
AcDbEntity
  8
0
 62
     0
100
AcDbMText
 10
-33.22499999999999
 20
55.0
 30
0.0
 40
3.0
 41
0.0
 71
     7
 72
     1
  1
{\W3.05556;材質}
 73
     1
 44
1.0
  0
MTEXT
  5
BB
330
3F
100
AcDbEntity
  8
0
 62
     0
100
AcDbMText
 10
-95.6
 20
54.99999999999999
 30
0.0
 40
3.0
 41
0.0
 71
     7
 72
     1
  1
{\W0.972222;品番}
 73
     1
 44
1.0
  0
MTEXT
  5
BC
330
3F
100
AcDbEntity
  8
0
 62
     0
100
AcDbMText
 10
-11.97499999999999
 20
55.0
 30
0.0
 40
3.0
 41
0.0
 71
     7
 72
     1
  1
{\W2.08333;数量}
 73
     1
 44
1.0
  0
MTEXT
  5
BD
330
3F
100
AcDbEntity
  8
0
 62
     0
100
AcDbMText
 10
-54.22499999999999
 20
55.0
 30
0.0
 40
3.0
 41
0.0
 71
     7
 72
     1
  1
{\W3.05556;図番}
 73
     1
 44
1.0
  0
MTEXT
  5
BE
330
3F
100
AcDbEntity
  8
0
 62
     0
100
AcDbMText
 10
-185.9999998867512
 20
4.899999976158141
 30
0.0
 40
2.200000047683716
 41
0.0
 71
     7
 72
     1
  1
{\W0.757576;年.月.日}
 73
     1
 44
1.0
  0
MTEXT
  5
BF
330
3F
100
AcDbEntity
  8
0
 62
     0
100
AcDbMText
 10
-150.725
 20
55.0
 30
0.0
 40
3.0
 41
0.0
 71
     7
 72
     1
  1
{\W3.05556;図番}
 73
     1
 44
1.0
  0
MTEXT
  5
C0
330
3F
100
AcDbEntity
  8
0
 62
     0
100
AcDbMText
 10
-192.1
 20
54.99999999999999
 30
0.0
 40
3.0
 41
0.0
 71
     7
 72
     1
  1
{\W0.972222;品番}
 73
     1
 44
1.0
  0
MTEXT
  5
C1
330
3F
100
AcDbEntity
  8
0
 62
     0
100
AcDbMText
 10
-129.725
 20
55.0
 30
0.0
 40
3.0
 41
0.0
 71
     7
 72
     1
  1
{\W3.05556;材質}
 73
     1
 44
1.0
  0
MTEXT
  5
C2
330
3F
100
AcDbEntity
  8
0
 62
     0
100
AcDbMText
 10
-108.475
 20
55.0
 30
0.0
 40
3.0
 41
0.0
 71
     7
 72
     1
  1
{\W2.08333;数量}
 73
     1
 44
1.0
  0
MTEXT
  5
C3
330
3F
100
AcDbEntity
  8
0
 62
     0
100
AcDbMText
 10
-182.35
 20
55.0
 30
0.0
 40
3.0
 41
0.0
 71
     7
 72
     1
  1
{\W2.77778;部品名}
 73
     1
 44
1.0
  0
MTEXT
  5
C4
330
3F
100
AcDbEntity
  8
0
 62
     0
100
AcDbMText
 10
-90.36045163168298
 20
17.81415349814945
 30
0.0
 40
3.0
 41
0.0
 71
     7
 72
     1
  1
{\W0.777778;年  月  日}
 73
     1
 44
1.0
  0
MTEXT
  5
C5
330
3F
100
AcDbEntity
  8
0
 62
     0
100
AcDbMText
 10
-135.186209823025
 20
278.6180466879098
 30
0.0
 40
2.625
 41
0.0
 71
     7
 72
     1
  1
{\W1;この図面の著作権は}
 73
     1
 44
1.0
  0
MTEXT
  5
C6
330
3F
100
AcDbEntity
  8
0
 62
     0
100
AcDbMText
 10
-120.3987098662384
 20
279.0555466879098
 30
0.0
 40
1.75
 41
0.0
 71
     7
 72
     1
  1
{\W1; }
 73
     1
 44
1.0
  0
MTEXT
  5
C7
330
3F
100
AcDbEntity
  8
0
 62
     0
100
AcDbMText
 10
-118.1237098751791
 20
278.1805466879098
 30
0.0
 40
3.5
 41
0.0
 71
     7
 72
     1
  1
{\W1;株式会社}
 73
     1
 44
1.0
  0
MTEXT
  5
C8
330
3F
100
AcDbEntity
  8
0
 62
     0
100
AcDbMText
 10
-101.4987099198826
 20
279.0555466879098
 30
0.0
 40
1.75
 41
0.0
 71
     7
 72
     1
  1
{\W1; }
 73
     1
 44
1.0
  0
MTEXT
  5
C9
330
3F
100
AcDbEntity
  8
0
 62
     0
100
AcDbMText
 10
-99.22370992882327
 20
278.1805466879098
 30
0.0
 40
3.5
 41
0.0
 71
     7
 72
     1
  1
{\W1;椿本チエイン}
 73
     1
 44
1.0
  0
MTEXT
  5
CA
330
3F
100
AcDbEntity
  8
0
 62
     0
100
AcDbMText
 10
-74.19870999736861
 20
279.0555466879098
 30
0.0
 40
1.75
 41
0.0
 71
     7
 72
     1
  1
{\W1; }
 73
     1
 44
1.0
  0
MTEXT
  5
CB
330
3F
100
AcDbEntity
  8
0
 62
     0
100
AcDbMText
 10
-62.56121003164128
 20
278.6180466879098
 30
0.0
 40
2.625
 41
0.0
 71
     7
 72
     1
  1
{\W1;に帰属します。}
 73
     1
 44
1.0
  0
MTEXT
  5
CC
330
3F
100
AcDbEntity
  8
0
 62
     0
100
AcDbMText
 10
-85.85
 20
55.0
 30
0.0
 40
3.0
 41
0.0
 71
     7
 72
     1
  1
{\W2.77778;部品名}
 73
     1
 44
1.0
  0
MTEXT
  5
CD
330
3F
100
AcDbEntity
  8
0
 62
     0
100
AcDbMText
 10
-88.09999999999997
 20
39.13333334525426
 30
0.0
 40
3.0
 41
0.0
 71
     7
 72
     1
  1
{\W0.833333;仕}
 73
     1
 44
1.0
  0
MTEXT
  5
CE
330
3F
100
AcDbEntity
  8
0
 62
     0
100
AcDbMText
 10
-86.59999999999997
 20
35.33333333333333
 30
0.0
 40
3.0
 41
0.0
 71
     7
 72
     1
  1
{\W0.833333;　}
 73
     1
 44
1.0
  0
MTEXT
  5
CF
330
3F
100
AcDbEntity
  8
0
 62
     0
100
AcDbMText
 10
-88.09999999999997
 20
31.5333333214124
 30
0.0
 40
3.0
 41
0.0
 71
     7
 72
     1
  1
{\W0.833333;様}
 73
     1
 44
1.0
  0
MTEXT
  5
D0
330
3F
100
AcDbEntity
  8
0
 62
     0
100
AcDbMText
 10
-26.23426684309805
 20
104.4389017580044
 30
0.0
 40
4.5
 41
0.0
 71
     7
 72
     1
  1
{\W1.01852;新形番}
 73
     1
 44
1.0
  0
LINE
  5
D1
330
3F
100
AcDbEntity
  8
0
  6
Continuous
 62
     0
100
AcDbLine
 10
-26.73426684309805
 20
103.3139017580044
 30
0.0
 11
-26.73426684309805
 21
110.0639017580044
 31
0.0
  0
LINE
  5
D2
330
3F
100
AcDbEntity
  8
0
  6
Continuous
 62
     0
100
AcDbLine
 10
-10.23426684309805
 20
103.3139017580044
 30
0.0
 11
-10.23426684309805
 21
110.0639017580044
 31
0.0
  0
LINE
  5
D3
330
3F
100
AcDbEntity
  8
0
  6
Continuous
 62
     0
100
AcDbLine
 10
-26.73426684309805
 20
103.3139017580044
 30
0.0
 11
-10.23426684309805
 21
103.3139017580044
 31
0.0
  0
LINE
  5
D4
330
3F
100
AcDbEntity
  8
0
  6
Continuous
 62
     0
100
AcDbLine
 10
-26.73426684309805
 20
110.0639017580044
 30
0.0
 11
-10.23426684309805
 21
110.0639017580044
 31
0.0
  0
ENDBLK
  5
41
330
3F
100
AcDbEntity
  8
0
100
AcDbBlockEnd
  0
BLOCK
  5
1AF
330
1AE
100
AcDbEntity
  8
0
100
AcDbBlockBegin
  2
_OPEN30
 70
     0
 10
0.0
 20
0.0
 30
0.0
  3
_OPEN30
  1

  0
LINE
  5
1B1
330
1AE
100
AcDbEntity
  8
0
  6
ByBlock
 62
     0
370
    -2
100
AcDbLine
 10
-1.0
 20
0.267949
 30
0.0
 11
0.0
 21
0.0
 31
0.0
  0
LINE
  5
1B2
330
1AE
100
AcDbEntity
  8
0
  6
ByBlock
 62
     0
370
    -2
100
AcDbLine
 10
0.0
 20
0.0
 30
0.0
 11
-1.0
 21
-0.267949
 31
0.0
  0
LINE
  5
1B3
330
1AE
100
AcDbEntity
  8
0
  6
ByBlock
 62
     0
370
    -2
100
AcDbLine
 10
0.0
 20
0.0
 30
0.0
 11
-1.0
 21
0.0
 31
0.0
  0
ENDBLK
  5
1B0
330
1AE
100
AcDbEntity
  8
0
100
AcDbBlockEnd
  0
BLOCK
  5
1C0
330
1B5
100
AcDbEntity
  8
0
100
AcDbBlockBegin
  2
*D3
 70
     1
 10
0.0
 20
0.0
 30
0.0
  3
*D3
  1

  0
LINE
  5
1B6
330
1B5
100
AcDbEntity
  8
0
 62
     0
 60
     1
370
    -2
100
AcDbLine
 10
23.41686121981691
 20
-12.20588402270882
 30
0.0
 11
74.61171700716912
 21
-12.2058840227088
 31
0.0
  0
LINE
  5
1B7
330
1B5
100
AcDbEntity
  8
0
 62
     0
 60
     1
370
    -2
100
AcDbLine
 10
58.66686121981691
 20
-21.20588402270883
 30
0.0
 11
74.61171700716912
 21
-21.20588402270882
 31
0.0
  0
LINE
  5
1B8
330
1B5
100
AcDbEntity
  8
0
 62
     0
 60
     1
370
    -2
100
AcDbLine
 10
73.44505034050245
 20
-21.20588402270882
 30
0.0
 11
73.44505034050245
 21
-34.31206226302305
 31
0.0
  0
LINE
  5
1B9
330
1B5
100
AcDbEntity
  8
0
 62
     0
 60
     1
370
    -2
100
AcDbLine
 10
73.44505034050245
 20
-15.2058840227088
 30
0.0
 11
73.44505034050245
 21
-18.20588402270882
 31
0.0
  0
INSERT
  5
1BA
330
1B5
100
AcDbEntity
  8
0
 62
     0
 60
     1
370
    -2
100
AcDbBlockReference
  2
_OPEN30
 10
73.44505034050245
 20
-12.2058840227088
 30
0.0
 41
3.0
 42
3.0
 43
3.0
 50
90.0
  0
INSERT
  5
1BB
330
1B5
100
AcDbEntity
  8
0
 62
     0
 60
     1
370
    -2
100
AcDbBlockReference
  2
_OPEN30
 10
73.44505034050245
 20
-21.20588402270882
 30
0.0
 41
3.0
 42
3.0
 43
3.0
 50
270.0
  0
MTEXT
  5
1BC
330
1B5
100
AcDbEntity
  8
0
 62
     0
100
AcDbMText
 10
71.34505037626523
 20
-32.74539562303656
 30
0.0
 40
2.799999952316284
 41
0.0
 71
     5
 72
     1
  1
9
 11
0.0
 21
1.0
 31
0.0
 73
     1
 44
1.0
  0
POINT
  5
1BD
330
1B5
100
AcDbEntity
  8
Defpoints
 62
     0
100
AcDbPoint
 10
20.87686121981691
 20
-12.20588402270882
 30
0.0
  0
POINT
  5
1BE
330
1B5
100
AcDbEntity
  8
Defpoints
 62
     0
100
AcDbPoint
 10
56.12686121981691
 20
-21.20588402270883
 30
0.0
  0
POINT
  5
1BF
330
1B5
100
AcDbEntity
  8
Defpoints
 62
     0
100
AcDbPoint
 10
73.44505034050245
 20
-21.20588402270882
 30
0.0
  0
LINE
  5
1C2
330
1B5
100
AcDbEntity
  8
0
  6
Continuous
 62
     7
100
AcDbLine
 10
23.41686121981691
 20
-12.20588402270882
 30
0.0
 11
74.61171700716912
 21
-12.20588402270882
 31
0.0
  0
LINE
  5
1C3
330
1B5
100
AcDbEntity
  8
0
  6
Continuous
 62
     7
100
AcDbLine
 10
58.66686121981691
 20
-21.20588402270883
 30
0.0
 11
74.61171700716912
 21
-21.20588402270883
 31
0.0
  0
LINE
  5
1C4
330
1B5
100
AcDbEntity
  8
0
  6
Continuous
 62
     7
100
AcDbLine
 10
73.44505034050245
 20
-5.855884022708794
 30
0.0
 11
73.44505034050245
 21
-27.55588402270879
 31
0.0
  0
LINE
  5
1C5
330
1B5
100
AcDbEntity
  8
0
  6
Continuous
 62
     7
100
AcDbLine
 10
73.44505034050245
 20
-12.20588402270879
 30
0.0
 11
72.44505034050245
 21
-9.205884022708792
 31
0.0
  0
LINE
  5
1C6
330
1B5
100
AcDbEntity
  8
0
  6
Continuous
 62
     7
100
AcDbLine
 10
73.44505034050245
 20
-12.20588402270879
 30
0.0
 11
74.44505034050245
 21
-9.205884022708792
 31
0.0
  0
LINE
  5
1C7
330
1B5
100
AcDbEntity
  8
0
  6
Continuous
 62
     7
100
AcDbLine
 10
73.44505034050245
 20
-21.20588402270879
 30
0.0
 11
74.44505034050245
 21
-24.20588402270879
 31
0.0
  0
LINE
  5
1C8
330
1B5
100
AcDbEntity
  8
0
  6
Continuous
 62
     7
100
AcDbLine
 10
73.44505034050245
 20
-21.20588402270879
 30
0.0
 11
72.44505034050245
 21
-24.20588402270879
 31
0.0
  0
LINE
  5
1C9
330
1B5
100
AcDbEntity
  8
0
  6
Continuous
 62
     7
100
AcDbLine
 10
73.44505034050245
 20
-21.20588402270879
 30
0.0
 11
73.44505034050245
 21
-34.82872895636987
 31
0.0
  0
ENDBLK
  5
1C1
330
1B5
100
AcDbEntity
  8
0
100
AcDbBlockEnd
  0
BLOCK
  5
1D4
330
1CB
100
AcDbEntity
  8
0
100
AcDbBlockBegin
  2
*D4
 70
     1
 10
0.0
 20
0.0
 30
0.0
  3
*D4
  1

  0
LINE
  5
1CC
330
1CB
100
AcDbEntity
  8
0
 62
     0
370
    -2
100
AcDbLine
 10
23.41686121981691
 20
57.7941159772912
 30
0.0
 11
74.6117170071691
 21
57.79411597729122
 31
0.0
  0
LINE
  5
1CD
330
1CB
100
AcDbEntity
  8
0
 62
     0
370
    -2
100
AcDbLine
 10
73.44505034050243
 20
54.79411597729122
 30
0.0
 11
73.44505034050246
 21
-9.205884022708794
 31
0.0
  0
INSERT
  5
1CE
330
1CB
100
AcDbEntity
  8
0
 62
     0
370
    -2
100
AcDbBlockReference
  2
_OPEN30
 10
73.44505034050243
 20
57.79411597729122
 30
0.0
 41
3.0
 42
3.0
 43
3.0
 50
90.00000000000003
  0
INSERT
  5
1CF
330
1CB
100
AcDbEntity
  8
0
 62
     0
370
    -2
100
AcDbBlockReference
  2
_OPEN30
 10
73.44505034050246
 20
-12.20588402270879
 30
0.0
 41
3.0
 42
3.0
 43
3.0
 50
270.0
  0
MTEXT
  5
1D0
330
1CB
100
AcDbEntity
  8
0
 62
     0
100
AcDbMText
 10
71.34505037626523
 20
22.79411597729118
 30
0.0
 40
2.799999952316284
 41
0.0
 71
     5
 72
     1
  1
70
 11
-4.060244204343428E-16
 21
1.0
 31
0.0
 73
     1
 44
1.0
  0
POINT
  5
1D1
330
1CB
100
AcDbEntity
  8
Defpoints
 62
     0
100
AcDbPoint
 10
20.87686121981691
 20
57.7941159772912
 30
0.0
  0
POINT
  5
1D2
330
1CB
100
AcDbEntity
  8
Defpoints
 62
     0
100
AcDbPoint
 10
20.87686121981691
 20
-12.20588402270882
 30
0.0
  0
POINT
  5
1D3
330
1CB
100
AcDbEntity
  8
Defpoints
 62
     0
100
AcDbPoint
 10
73.44505034050245
 20
-12.2058840227088
 30
0.0
  0
ENDBLK
  5
1D5
330
1CB
100
AcDbEntity
  8
0
100
AcDbBlockEnd
  0
BLOCK
  5
1E1
330
1D7
100
AcDbEntity
  8
0
100
AcDbBlockBegin
  2
*D5
 70
     1
 10
0.0
 20
0.0
 30
0.0
  3
*D5
  1

  0
LINE
  5
1D8
330
1D7
100
AcDbEntity
  8
0
 62
     0
370
    -2
100
AcDbLine
 10
56.66686121981692
 20
65.7941159772912
 30
0.0
 11
93.40796795351443
 21
65.79411597729123
 31
0.0
  0
LINE
  5
1D9
330
1D7
100
AcDbEntity
  8
0
 62
     0
370
    -2
100
AcDbLine
 10
58.66686121981691
 20
-21.20588402270883
 30
0.0
 11
93.40796795351446
 21
-21.20588402270881
 31
0.0
  0
LINE
  5
1DA
330
1D7
100
AcDbEntity
  8
0
 62
     0
370
    -2
100
AcDbLine
 10
92.24130128684776
 20
62.79411597729123
 30
0.0
 11
92.24130128684779
 21
-18.20588402270881
 31
0.0
  0
INSERT
  5
1DB
330
1D7
100
AcDbEntity
  8
0
 62
     0
370
    -2
100
AcDbBlockReference
  2
_OPEN30
 10
92.24130128684776
 20
65.79411597729123
 30
0.0
 41
3.0
 42
3.0
 43
3.0
 50
90.00000000000003
  0
INSERT
  5
1DC
330
1D7
100
AcDbEntity
  8
0
 62
     0
370
    -2
100
AcDbBlockReference
  2
_OPEN30
 10
92.24130128684779
 20
-21.20588402270881
 30
0.0
 41
3.0
 42
3.0
 43
3.0
 50
270.0
  0
MTEXT
  5
1DD
330
1D7
100
AcDbEntity
  8
0
 62
     0
100
AcDbMText
 10
90.14130132261056
 20
22.29411597729118
 30
0.0
 40
2.799999952316284
 41
0.0
 71
     5
 72
     1
  1
87
 11
-3.266863152920000E-16
 21
1.0
 31
0.0
 73
     1
 44
1.0
  0
POINT
  5
1DE
330
1D7
100
AcDbEntity
  8
Defpoints
 62
     0
100
AcDbPoint
 10
54.12686121981692
 20
65.7941159772912
 30
0.0
  0
POINT
  5
1DF
330
1D7
100
AcDbEntity
  8
Defpoints
 62
     0
100
AcDbPoint
 10
56.12686121981691
 20
-21.20588402270883
 30
0.0
  0
POINT
  5
1E0
330
1D7
100
AcDbEntity
  8
Defpoints
 62
     0
100
AcDbPoint
 10
92.24130128684777
 20
-21.20588402270881
 30
0.0
  0
ENDBLK
  5
1E2
330
1D7
100
AcDbEntity
  8
0
100
AcDbBlockEnd
  0
BLOCK
  5
1ED
330
1E4
100
AcDbEntity
  8
0
100
AcDbBlockBegin
  2
*D6
 70
     1
 10
0.0
 20
0.0
 30
0.0
  3
*D6
  1

  0
LINE
  5
1E5
330
1E4
100
AcDbEntity
  8
0
 62
     0
370
    -2
100
AcDbLine
 10
58.41686121981691
 20
103.7941159772912
 30
0.0
 11
93.40796795351443
 21
103.7941159772912
 31
0.0
  0
LINE
  5
1E6
330
1E4
100
AcDbEntity
  8
0
 62
     0
370
    -2
100
AcDbLine
 10
92.24130128684776
 20
100.7941159772912
 30
0.0
 11
92.24130128684779
 21
68.7941159772912
 31
0.0
  0
INSERT
  5
1E7
330
1E4
100
AcDbEntity
  8
0
 62
     0
370
    -2
100
AcDbBlockReference
  2
_OPEN30
 10
92.24130128684776
 20
103.7941159772912
 30
0.0
 41
3.0
 42
3.0
 43
3.0
 50
90.00000000000003
  0
INSERT
  5
1E8
330
1E4
100
AcDbEntity
  8
0
 62
     0
370
    -2
100
AcDbBlockReference
  2
_OPEN30
 10
92.24130128684779
 20
65.7941159772912
 30
0.0
 41
3.0
 42
3.0
 43
3.0
 50
270.0
  0
MTEXT
  5
1E9
330
1E4
100
AcDbEntity
  8
0
 62
     0
100
AcDbMText
 10
90.14130132261056
 20
84.79411597729118
 30
0.0
 40
2.799999952316284
 41
0.0
 71
     5
 72
     1
  1
38
 11
-3.739698609263689E-16
 21
1.0
 31
0.0
 73
     1
 44
1.0
  0
POINT
  5
1EA
330
1E4
100
AcDbEntity
  8
Defpoints
 62
     0
100
AcDbPoint
 10
55.87686121981691
 20
103.7941159772912
 30
0.0
  0
POINT
  5
1EB
330
1E4
100
AcDbEntity
  8
Defpoints
 62
     0
100
AcDbPoint
 10
54.12686121981692
 20
65.7941159772912
 30
0.0
  0
POINT
  5
1EC
330
1E4
100
AcDbEntity
  8
Defpoints
 62
     0
100
AcDbPoint
 10
92.24130128684777
 20
65.79411597729121
 30
0.0
  0
ENDBLK
  5
1EE
330
1E4
100
AcDbEntity
  8
0
100
AcDbBlockEnd
  0
BLOCK
  5
1FA
330
1F0
100
AcDbEntity
  8
0
100
AcDbBlockBegin
  2
*D7
 70
     1
 10
0.0
 20
0.0
 30
0.0
  3
*D7
  1

  0
LINE
  5
1F1
330
1F0
100
AcDbEntity
  8
0
 62
     0
370
    -2
100
AcDbLine
 10
-84.08313878018306
 20
186.8741159772912
 30
0.0
 11
-64.70502969900319
 21
186.8741159772912
 31
0.0
  0
LINE
  5
1F2
330
1F0
100
AcDbEntity
  8
0
 62
     0
370
    -2
100
AcDbLine
 10
-84.08313878018306
 20
96.71411597729117
 30
0.0
 11
-64.70502969900316
 21
96.71411597729117
 31
0.0
  0
LINE
  5
1F3
330
1F0
100
AcDbEntity
  8
0
 62
     0
370
    -2
100
AcDbLine
 10
-65.87169636566986
 20
183.8741159772912
 30
0.0
 11
-65.87169636566983
 21
99.71411597729117
 31
0.0
  0
INSERT
  5
1F4
330
1F0
100
AcDbEntity
  8
0
 62
     0
370
    -2
100
AcDbBlockReference
  2
_OPEN30
 10
-65.87169636566986
 20
186.8741159772912
 30
0.0
 41
3.0
 42
3.0
 43
3.0
 50
90.00000000000003
  0
INSERT
  5
1F5
330
1F0
100
AcDbEntity
  8
0
 62
     0
370
    -2
100
AcDbBlockReference
  2
_OPEN30
 10
-65.87169636566983
 20
96.71411597729117
 30
0.0
 41
3.0
 42
3.0
 43
3.0
 50
270.0
  0
MTEXT
  5
1F6
330
1F0
100
AcDbEntity
  8
0
 62
     0
100
AcDbMText
 10
-67.97169632990706
 20
141.7941159772912
 30
0.0
 40
2.799999952316284
 41
0.0
 71
     5
 72
     1
  1
\U+220590.16
 11
-3.152363512688998E-16
 21
1.0
 31
0.0
 73
     1
 44
1.0
  0
POINT
  5
1F7
330
1F0
100
AcDbEntity
  8
Defpoints
 62
     0
100
AcDbPoint
 10
-86.62313878018307
 20
186.8741159772912
 30
0.0
  0
POINT
  5
1F8
330
1F0
100
AcDbEntity
  8
Defpoints
 62
     0
100
AcDbPoint
 10
-86.62313878018307
 20
96.71411597729117
 30
0.0
  0
POINT
  5
1F9
330
1F0
100
AcDbEntity
  8
Defpoints
 62
     0
100
AcDbPoint
 10
-65.87169636566985
 20
96.71411597729117
 30
0.0
  0
ENDBLK
  5
1FB
330
1F0
100
AcDbEntity
  8
0
100
AcDbBlockEnd
  0
BLOCK
  5
207
330
1FD
100
AcDbEntity
  8
0
100
AcDbBlockBegin
  2
*D8
 70
     1
 10
0.0
 20
0.0
 30
0.0
  3
*D8
  1

  0
LINE
  5
1FE
330
1FD
100
AcDbEntity
  8
0
 62
     0
370
    -2
100
AcDbLine
 10
-89.28313878018307
 20
192.7941159772912
 30
0.0
 11
-48.86451829397258
 21
192.7941159772912
 31
0.0
  0
LINE
  5
1FF
330
1FD
100
AcDbEntity
  8
0
 62
     0
370
    -2
100
AcDbLine
 10
-89.28313878018307
 20
90.79411597729117
 30
0.0
 11
-48.86451829397254
 21
90.79411597729117
 31
0.0
  0
LINE
  5
200
330
1FD
100
AcDbEntity
  8
0
 62
     0
370
    -2
100
AcDbLine
 10
-50.03118496063924
 20
189.7941159772912
 30
0.0
 11
-50.03118496063921
 21
93.79411597729117
 31
0.0
  0
INSERT
  5
201
330
1FD
100
AcDbEntity
  8
0
 62
     0
370
    -2
100
AcDbBlockReference
  2
_OPEN30
 10
-50.03118496063924
 20
192.7941159772912
 30
0.0
 41
3.0
 42
3.0
 43
3.0
 50
90.00000000000003
  0
INSERT
  5
202
330
1FD
100
AcDbEntity
  8
0
 62
     0
370
    -2
100
AcDbBlockReference
  2
_OPEN30
 10
-50.03118496063921
 20
90.79411597729117
 30
0.0
 41
3.0
 42
3.0
 43
3.0
 50
270.0
  0
MTEXT
  5
203
330
1FD
100
AcDbEntity
  8
0
 62
     0
100
AcDbMText
 10
-52.86451824572117
 20
141.7941159772912
 30
0.0
 40
2.799999952316284
 41
0.0
 71
     5
 72
     1
  1
(\U+2205102)
 11
-3.483052626275000E-16
 21
1.0
 31
0.0
 73
     1
 44
1.0
  0
POINT
  5
204
330
1FD
100
AcDbEntity
  8
Defpoints
 62
     0
100
AcDbPoint
 10
-91.82313878018307
 20
192.7941159772912
 30
0.0
  0
POINT
  5
205
330
1FD
100
AcDbEntity
  8
Defpoints
 62
     0
100
AcDbPoint
 10
-91.82313878018307
 20
90.79411597729117
 30
0.0
  0
POINT
  5
206
330
1FD
100
AcDbEntity
  8
Defpoints
 62
     0
100
AcDbPoint
 10
-50.03118496063922
 20
90.79411597729118
 30
0.0
  0
ENDBLK
  5
208
330
1FD
100
AcDbEntity
  8
0
100
AcDbBlockEnd
  0
BLOCK
  5
214
330
20A
100
AcDbEntity
  8
0
100
AcDbBlockBegin
  2
*D9
 70
     1
 10
0.0
 20
0.0
 30
0.0
  3
*D9
  1

  0
LINE
  5
20B
330
20A
100
AcDbEntity
  8
0
 62
     0
370
    -2
100
AcDbLine
 10
-131.6231387801831
 20
156.3341159772912
 30
0.0
 11
-131.6231387801831
 21
202.6421313154959
 31
0.0
  0
LINE
  5
20C
330
20A
100
AcDbEntity
  8
0
 62
     0
370
    -2
100
AcDbLine
 10
-106.6231387801831
 20
157.2341159772912
 30
0.0
 11
-106.6231387801831
 21
202.6421313154959
 31
0.0
  0
LINE
  5
20D
330
20A
100
AcDbEntity
  8
0
 62
     0
370
    -2
100
AcDbLine
 10
-128.6231387801831
 20
201.4754646488292
 30
0.0
 11
-109.6231387801831
 21
201.4754646488292
 31
0.0
  0
INSERT
  5
20E
330
20A
100
AcDbEntity
  8
0
 62
     0
370
    -2
100
AcDbBlockReference
  2
_OPEN30
 10
-131.6231387801831
 20
201.4754646488292
 30
0.0
 41
3.0
 42
3.0
 43
3.0
 50
180.0
  0
INSERT
  5
20F
330
20A
100
AcDbEntity
  8
0
 62
     0
370
    -2
100
AcDbBlockReference
  2
_OPEN30
 10
-106.6231387801831
 20
201.4754646488292
 30
0.0
 41
3.0
 42
3.0
 43
3.0
  0
MTEXT
  5
210
330
20A
100
AcDbEntity
  8
0
 62
     0
100
AcDbMText
 10
-119.1231387801831
 20
203.5754646130664
 30
0.0
 40
2.799999952316284
 41
0.0
 71
     5
 72
     1
  1
25
 73
     1
 44
1.0
  0
POINT
  5
211
330
20A
100
AcDbEntity
  8
Defpoints
 62
     0
100
AcDbPoint
 10
-131.6231387801831
 20
153.7941159772912
 30
0.0
  0
POINT
  5
212
330
20A
100
AcDbEntity
  8
Defpoints
 62
     0
100
AcDbPoint
 10
-106.6231387801831
 20
154.6941159772912
 30
0.0
  0
POINT
  5
213
330
20A
100
AcDbEntity
  8
Defpoints
 62
     0
100
AcDbPoint
 10
-106.6231387801831
 20
201.4754646488292
 30
0.0
  0
ENDBLK
  5
215
330
20A
100
AcDbEntity
  8
0
100
AcDbBlockEnd
  0
BLOCK
  5
221
330
217
100
AcDbEntity
  8
0
100
AcDbBlockBegin
  2
*D10
 70
     1
 10
0.0
 20
0.0
 30
0.0
  3
*D10
  1

  0
LINE
  5
218
330
217
100
AcDbEntity
  8
0
 62
     0
 60
     1
370
    -2
100
AcDbLine
 10
-95.62313878018308
 20
200.3341159772912
 30
0.0
 11
-95.62313878018308
 21
202.6421313154959
 31
0.0
  0
LINE
  5
219
330
217
100
AcDbEntity
  8
0
 62
     0
 60
     1
370
    -2
100
AcDbLine
 10
-95.62313878018308
 20
201.4754646488292
 30
0.0
 11
-83.94290384199661
 21
201.4754646488292
 31
0.0
  0
LINE
  5
21A
330
217
100
AcDbEntity
  8
0
 62
     0
 60
     1
370
    -2
100
AcDbLine
 10
-103.6231387801831
 20
201.4754646488292
 30
0.0
 11
-98.62313878018308
 21
201.4754646488292
 31
0.0
  0
INSERT
  5
21B
330
217
100
AcDbEntity
  8
0
 62
     0
 60
     1
370
    -2
100
AcDbBlockReference
  2
_OPEN30
 10
-106.6231387801831
 20
201.4754646488292
 30
0.0
 41
3.0
 42
3.0
 43
3.0
 50
180.0
  0
INSERT
  5
21C
330
217
100
AcDbEntity
  8
0
 62
     0
 60
     1
370
    -2
100
AcDbBlockReference
  2
_OPEN30
 10
-95.62313878018308
 20
201.4754646488292
 30
0.0
 41
3.0
 42
3.0
 43
3.0
  0
MTEXT
  5
21D
330
217
100
AcDbEntity
  8
0
 62
     0
100
AcDbMText
 10
-86.30957046835918
 20
203.5754646130664
 30
0.0
 40
2.799999952316284
 41
0.0
 71
     5
 72
     1
  1
11
 73
     1
 44
1.0
  0
POINT
  5
21E
330
217
100
AcDbEntity
  8
Defpoints
 62
     0
100
AcDbPoint
 10
-106.6231387801831
 20
154.6941159772912
 30
0.0
  0
POINT
  5
21F
330
217
100
AcDbEntity
  8
Defpoints
 62
     0
100
AcDbPoint
 10
-95.62313878018308
 20
197.7941159772912
 30
0.0
  0
POINT
  5
220
330
217
100
AcDbEntity
  8
Defpoints
 62
     0
100
AcDbPoint
 10
-95.62313878018308
 20
201.4754646488292
 30
0.0
  0
LINE
  5
223
330
217
100
AcDbEntity
  8
0
  6
Continuous
 62
     7
100
AcDbLine
 10
-95.62313878018308
 20
200.3341159772912
 30
0.0
 11
-95.62313878018308
 21
202.6421313154959
 31
0.0
  0
LINE
  5
224
330
217
100
AcDbEntity
  8
0
  6
Continuous
 62
     7
100
AcDbLine
 10
-112.9731387801831
 20
201.4754646488292
 30
0.0
 11
-89.27313878018307
 21
201.4754646488292
 31
0.0
  0
LINE
  5
225
330
217
100
AcDbEntity
  8
0
  6
Continuous
 62
     7
100
AcDbLine
 10
-106.6231387801831
 20
201.4754646488292
 30
0.0
 11
-109.6231387801831
 21
200.4754646488292
 31
0.0
  0
LINE
  5
226
330
217
100
AcDbEntity
  8
0
  6
Continuous
 62
     7
100
AcDbLine
 10
-106.6231387801831
 20
201.4754646488292
 30
0.0
 11
-109.6231387801831
 21
202.4754646488292
 31
0.0
  0
LINE
  5
227
330
217
100
AcDbEntity
  8
0
  6
Continuous
 62
     7
100
AcDbLine
 10
-95.62313878018307
 20
201.4754646488292
 30
0.0
 11
-92.62313878018307
 21
202.4754646488292
 31
0.0
  0
LINE
  5
228
330
217
100
AcDbEntity
  8
0
  6
Continuous
 62
     7
100
AcDbLine
 10
-95.62313878018307
 20
201.4754646488292
 30
0.0
 11
-92.62313878018307
 21
200.4754646488292
 31
0.0
  0
LINE
  5
229
330
217
100
AcDbEntity
  8
0
  6
Continuous
 62
     7
100
AcDbLine
 10
-95.62313878018307
 20
201.4754646488292
 30
0.0
 11
-82.14290380169251
 21
201.4754646488292
 31
0.0
  0
ENDBLK
  5
222
330
217
100
AcDbEntity
  8
0
100
AcDbBlockEnd
  0
BLOCK
  5
235
330
22B
100
AcDbEntity
  8
0
100
AcDbBlockBegin
  2
*D11
 70
     1
 10
0.0
 20
0.0
 30
0.0
  3
*D11
  1

  0
LINE
  5
22C
330
22B
100
AcDbEntity
  8
0
 62
     0
370
    -2
100
AcDbLine
 10
74.41686121981692
 20
141.7941159772912
 30
0.0
 11
112.3324438842929
 21
141.7941159772912
 31
0.0
  0
LINE
  5
22D
330
22B
100
AcDbEntity
  8
0
 62
     0
370
    -2
100
AcDbLine
 10
58.66686121981691
 20
-21.20588402270883
 30
0.0
 11
112.332443884293
 21
-21.20588402270882
 31
0.0
  0
LINE
  5
22E
330
22B
100
AcDbEntity
  8
0
 62
     0
370
    -2
100
AcDbLine
 10
111.1657772176263
 20
138.7941159772912
 30
0.0
 11
111.1657772176263
 21
-18.20588402270882
 31
0.0
  0
INSERT
  5
22F
330
22B
100
AcDbEntity
  8
0
 62
     0
370
    -2
100
AcDbBlockReference
  2
_OPEN30
 10
111.1657772176263
 20
141.7941159772912
 30
0.0
 41
3.0
 42
3.0
 43
3.0
 50
90.00000000000003
  0
INSERT
  5
230
330
22B
100
AcDbEntity
  8
0
 62
     0
370
    -2
100
AcDbBlockReference
  2
_OPEN30
 10
111.1657772176263
 20
-21.20588402270882
 30
0.0
 41
3.0
 42
3.0
 43
3.0
 50
270.0
  0
MTEXT
  5
231
330
22B
100
AcDbEntity
  8
0
 62
     0
100
AcDbMText
 10
109.0657772533891
 20
60.29411597729118
 30
0.0
 40
2.799999952316284
 41
0.0
 71
     5
 72
     1
  1
163
 11
-3.487326310479020E-16
 21
1.0
 31
0.0
 73
     1
 44
1.0
  0
POINT
  5
232
330
22B
100
AcDbEntity
  8
Defpoints
 62
     0
100
AcDbPoint
 10
71.87686121981692
 20
141.7941159772912
 30
0.0
  0
POINT
  5
233
330
22B
100
AcDbEntity
  8
Defpoints
 62
     0
100
AcDbPoint
 10
56.12686121981691
 20
-21.20588402270883
 30
0.0
  0
POINT
  5
234
330
22B
100
AcDbEntity
  8
Defpoints
 62
     0
100
AcDbPoint
 10
111.1657772176263
 20
-21.2058840227088
 30
0.0
  0
ENDBLK
  5
236
330
22B
100
AcDbEntity
  8
0
100
AcDbBlockEnd
  0
BLOCK
  5
244
330
237
100
AcDbEntity
  8
0
100
AcDbBlockBegin
  2
DIM0001
 70
     0
 10
0.0
 20
0.0
 30
0.0
  3
DIM0001
  1

  0
LINE
  5
238
330
237
100
AcDbEntity
  8
0
  6
Continuous
 62
     7
100
AcDbLine
 10
0.0
 20
0.0
 30
0.0
 11
-18.02507089341015
 21
0.0
 31
0.0
  0
LINE
  5
239
330
237
100
AcDbEntity
  8
0
  6
Continuous
 62
     7
100
AcDbLine
 10
-6.349999999999994
 20
0.0
 30
0.0
 11
21.35000000000001
 21
0.0
 31
0.0
  0
LINE
  5
23A
330
237
100
AcDbEntity
  8
0
  6
Continuous
 62
     7
100
AcDbLine
 10
0.0
 20
0.0
 30
0.0
 11
-3.0
 21
-1.0
 31
0.0
  0
LINE
  5
23B
330
237
100
AcDbEntity
  8
0
  6
Continuous
 62
     7
100
AcDbLine
 10
0.0
 20
0.0
 30
0.0
 11
-3.0
 21
1.0
 31
0.0
  0
LINE
  5
23C
330
237
100
AcDbEntity
  8
0
  6
Continuous
 62
     7
100
AcDbLine
 10
15.00000000000001
 20
0.0
 30
0.0
 11
18.00000000000001
 21
1.0
 31
0.0
  0
LINE
  5
23D
330
237
100
AcDbEntity
  8
0
  6
Continuous
 62
     7
100
AcDbLine
 10
15.00000000000001
 20
0.0
 30
0.0
 11
18.00000000000001
 21
-1.0
 31
0.0
  0
MTEXT
  5
23E
330
237
100
AcDbEntity
  8
0
 62
     7
100
AcDbMText
 10
-16.35840422674349
 20
0.699999988079071
 30
0.0
 40
2.799999952316284
 41
0.0
 71
     7
 72
     1
  1
\W0.892857;15
 73
     1
 44
1.0
  0
LINE
  5
23F
330
237
100
AcDbEntity
  8
0
  6
Continuous
 62
     7
100
AcDbLine
 10
0.0
 20
-0.000000000000028
 30
0.0
 11
0.0
 21
7.241170766524018
 31
0.0
  0
LINE
  5
240
330
237
100
AcDbEntity
  8
0
  6
Continuous
 62
     7
100
AcDbLine
 10
0.0
 20
0.0
 30
0.0
 11
25.46000000000002
 21
0.0
 31
0.0
  0
LINE
  5
241
330
237
100
AcDbEntity
  8
0
  6
Continuous
 62
     7
100
AcDbLine
 10
15.00000000000001
 20
-0.000000000000028
 30
0.0
 11
15.00000000000001
 21
2.241170766524018
 31
0.0
  0
LINE
  5
242
330
237
100
AcDbEntity
  8
0
  6
Continuous
 62
     7
100
AcDbLine
 10
15.00000000000001
 20
0.0
 30
0.0
 11
25.46000000000002
 21
0.0
 31
0.0
  0
ENDBLK
  5
245
330
237
100
AcDbEntity
  8
0
100
AcDbBlockEnd
  0
BLOCK
  5
251
330
247
100
AcDbEntity
  8
0
100
AcDbBlockBegin
  2
*D13
 70
     1
 10
0.0
 20
0.0
 30
0.0
  3
*D13
  1

  0
LINE
  5
248
330
247
100
AcDbEntity
  8
0
 62
     0
370
    -2
100
AcDbLine
 10
-134.1231387801831
 20
-23.74588402270879
 30
0.0
 11
-134.1231387801831
 21
-41.93489222242351
 31
0.0
  0
LINE
  5
249
330
247
100
AcDbEntity
  8
0
 62
     0
370
    -2
100
AcDbLine
 10
-106.1231387801831
 20
-23.74588402270879
 30
0.0
 11
-106.1231387801831
 21
-41.93489222242351
 31
0.0
  0
LINE
  5
24A
330
247
100
AcDbEntity
  8
0
 62
     0
370
    -2
100
AcDbLine
 10
-131.1231387801831
 20
-40.76822555575684
 30
0.0
 11
-109.1231387801831
 21
-40.76822555575684
 31
0.0
  0
INSERT
  5
24B
330
247
100
AcDbEntity
  8
0
 62
     0
370
    -2
100
AcDbBlockReference
  2
_OPEN30
 10
-134.1231387801831
 20
-40.76822555575684
 30
0.0
 41
3.0
 42
3.0
 43
3.0
 50
180.0
  0
INSERT
  5
24C
330
247
100
AcDbEntity
  8
0
 62
     0
370
    -2
100
AcDbBlockReference
  2
_OPEN30
 10
-106.1231387801831
 20
-40.76822555575684
 30
0.0
 41
3.0
 42
3.0
 43
3.0
  0
MTEXT
  5
24D
330
247
100
AcDbEntity
  8
0
 62
     0
100
AcDbMText
 10
-120.1231387801831
 20
-38.66822559151962
 30
0.0
 40
2.799999952316284
 41
0.0
 71
     5
 72
     1
  1
28
 73
     1
 44
1.0
  0
POINT
  5
24E
330
247
100
AcDbEntity
  8
Defpoints
 62
     0
100
AcDbPoint
 10
-134.1231387801831
 20
-21.20588402270879
 30
0.0
  0
POINT
  5
24F
330
247
100
AcDbEntity
  8
Defpoints
 62
     0
100
AcDbPoint
 10
-106.1231387801831
 20
-21.20588402270879
 30
0.0
  0
POINT
  5
250
330
247
100
AcDbEntity
  8
Defpoints
 62
     0
100
AcDbPoint
 10
-106.1231387801831
 20
-40.76822555575684
 30
0.0
  0
ENDBLK
  5
252
330
247
100
AcDbEntity
  8
0
100
AcDbBlockEnd
  0
BLOCK
  5
25F
330
253
100
AcDbEntity
  8
0
100
AcDbBlockBegin
  2
DIM0002
 70
     0
 10
0.0
 20
0.0
 30
0.0
  3
DIM0002
  1

  0
LINE
  5
254
330
253
100
AcDbEntity
  8
0
  6
Continuous
 62
     7
100
AcDbLine
 10
0.0
 20
0.0
 30
0.0
 11
38.50000000000001
 21
0.0
 31
0.0
  0
LINE
  5
255
330
253
100
AcDbEntity
  8
0
  6
Continuous
 62
     7
100
AcDbLine
 10
0.0
 20
0.0
 30
0.0
 11
3.0
 21
1.0
 31
0.0
  0
LINE
  5
256
330
253
100
AcDbEntity
  8
0
  6
Continuous
 62
     7
100
AcDbLine
 10
0.0
 20
0.0
 30
0.0
 11
3.0
 21
-1.0
 31
0.0
  0
LINE
  5
257
330
253
100
AcDbEntity
  8
0
  6
Continuous
 62
     7
100
AcDbLine
 10
38.50000000000001
 20
0.0
 30
0.0
 11
35.50000000000001
 21
-1.0
 31
0.0
  0
LINE
  5
258
330
253
100
AcDbEntity
  8
0
  6
Continuous
 62
     7
100
AcDbLine
 10
38.50000000000001
 20
0.0
 30
0.0
 11
35.50000000000001
 21
1.0
 31
0.0
  0
MTEXT
  5
259
330
253
100
AcDbEntity
  8
0
 62
     7
100
AcDbMText
 10
14.25
 20
0.699999988079071
 30
0.0
 40
2.799999952316284
 41
0.0
 71
     7
 72
     1
  1
\W0.892857;38.5
 73
     1
 44
1.0
  0
LINE
  5
25A
330
253
100
AcDbEntity
  8
0
  6
Continuous
 62
     7
100
AcDbLine
 10
0.0
 20
-0.000000000000021
 30
0.0
 11
0.0
 21
26.80351229957204
 31
0.0
  0
LINE
  5
25B
330
253
100
AcDbEntity
  8
0
  6
Continuous
 62
     7
100
AcDbLine
 10
0.0
 20
0.0
 30
0.0
 11
25.46000000000002
 21
0.0
 31
0.0
  0
LINE
  5
25C
330
253
100
AcDbEntity
  8
0
  6
Continuous
 62
     7
100
AcDbLine
 10
38.50000000000001
 20
-0.000000000000021
 30
0.0
 11
38.50000000000001
 21
133.803512299572
 31
0.0
  0
LINE
  5
25D
330
253
100
AcDbEntity
  8
0
  6
Continuous
 62
     7
100
AcDbLine
 10
38.50000000000001
 20
0.0
 30
0.0
 11
30.54000000000003
 21
0.0
 31
0.0
  0
ENDBLK
  5
260
330
253
100
AcDbEntity
  8
0
100
AcDbBlockEnd
  0
BLOCK
  5
26C
330
262
100
AcDbEntity
  8
0
100
AcDbBlockBegin
  2
*D15
 70
     1
 10
0.0
 20
0.0
 30
0.0
  3
*D15
  1

  0
LINE
  5
263
330
262
100
AcDbEntity
  8
0
 62
     0
370
    -2
100
AcDbLine
 10
-134.1231387801831
 20
-23.74588402270879
 30
0.0
 11
-134.1231387801831
 21
-61.49723375547153
 31
0.0
  0
LINE
  5
264
330
262
100
AcDbEntity
  8
0
 62
     0
370
    -2
100
AcDbLine
 10
-77.12313878018308
 20
129.7541159772912
 30
0.0
 11
-77.12313878018323
 21
-61.49723375547153
 31
0.0
  0
LINE
  5
265
330
262
100
AcDbEntity
  8
0
 62
     0
370
    -2
100
AcDbLine
 10
-131.1231387801831
 20
-60.33056708880486
 30
0.0
 11
-80.12313878018323
 21
-60.33056708880486
 31
0.0
  0
INSERT
  5
266
330
262
100
AcDbEntity
  8
0
 62
     0
370
    -2
100
AcDbBlockReference
  2
_OPEN30
 10
-134.1231387801831
 20
-60.33056708880486
 30
0.0
 41
3.0
 42
3.0
 43
3.0
 50
180.0
  0
INSERT
  5
267
330
262
100
AcDbEntity
  8
0
 62
     0
370
    -2
100
AcDbBlockReference
  2
_OPEN30
 10
-77.12313878018323
 20
-60.33056708880486
 30
0.0
 41
3.0
 42
3.0
 43
3.0
 50
360.0
  0
MTEXT
  5
268
330
262
100
AcDbEntity
  8
0
 62
     0
100
AcDbMText
 10
-105.6231387801831
 20
-58.23056712456765
 30
0.0
 40
2.799999952316284
 41
0.0
 71
     5
 72
     1
  1
57
 73
     1
 44
1.0
  0
POINT
  5
269
330
262
100
AcDbEntity
  8
Defpoints
 62
     0
100
AcDbPoint
 10
-134.1231387801831
 20
-21.20588402270879
 30
0.0
  0
POINT
  5
26A
330
262
100
AcDbEntity
  8
Defpoints
 62
     0
100
AcDbPoint
 10
-77.12313878018308
 20
132.2941159772912
 30
0.0
  0
POINT
  5
26B
330
262
100
AcDbEntity
  8
Defpoints
 62
     0
100
AcDbPoint
 10
-77.12313878018311
 20
-60.33056708880486
 30
0.0
  0
ENDBLK
  5
26D
330
262
100
AcDbEntity
  8
0
100
AcDbBlockEnd
  0
BLOCK
  5
279
330
26F
100
AcDbEntity
  8
0
100
AcDbBlockBegin
  2
*D16
 70
     1
 10
0.0
 20
0.0
 30
0.0
  3
*D16
  1

  0
LINE
  5
270
330
26F
100
AcDbEntity
  8
0
 62
     0
370
    -2
100
AcDbLine
 10
-14.3731387801831
 20
-23.74588402270879
 30
0.0
 11
-14.37313878018311
 21
-61.49723375547153
 31
0.0
  0
LINE
  5
271
330
26F
100
AcDbEntity
  8
0
 62
     0
370
    -2
100
AcDbLine
 10
56.12686121981691
 20
-23.74588402270879
 30
0.0
 11
56.1268612198169
 21
-61.49723375547154
 31
0.0
  0
LINE
  5
272
330
26F
100
AcDbEntity
  8
0
 62
     0
370
    -2
100
AcDbLine
 10
-11.37313878018311
 20
-60.33056708880486
 30
0.0
 11
53.1268612198169
 21
-60.33056708880487
 31
0.0
  0
INSERT
  5
273
330
26F
100
AcDbEntity
  8
0
 62
     0
370
    -2
100
AcDbBlockReference
  2
_OPEN30
 10
-14.37313878018311
 20
-60.33056708880486
 30
0.0
 41
3.0
 42
3.0
 43
3.0
 50
180.0
  0
INSERT
  5
274
330
26F
100
AcDbEntity
  8
0
 62
     0
370
    -2
100
AcDbBlockReference
  2
_OPEN30
 10
56.1268612198169
 20
-60.33056708880487
 30
0.0
 41
3.0
 42
3.0
 43
3.0
 50
360.0
  0
MTEXT
  5
275
330
26F
100
AcDbEntity
  8
0
 62
     0
100
AcDbMText
 10
20.87686121981691
 20
-58.23056712456765
 30
0.0
 40
2.799999952316284
 41
0.0
 71
     5
 72
     1
  1
70.5
 73
     1
 44
1.0
  0
POINT
  5
276
330
26F
100
AcDbEntity
  8
Defpoints
 62
     0
100
AcDbPoint
 10
-14.3731387801831
 20
-21.20588402270879
 30
0.0
  0
POINT
  5
277
330
26F
100
AcDbEntity
  8
Defpoints
 62
     0
100
AcDbPoint
 10
56.12686121981691
 20
-21.20588402270879
 30
0.0
  0
POINT
  5
278
330
26F
100
AcDbEntity
  8
Defpoints
 62
     0
100
AcDbPoint
 10
56.1268612198169
 20
-60.33056708880486
 30
0.0
  0
ENDBLK
  5
27A
330
26F
100
AcDbEntity
  8
0
100
AcDbBlockEnd
  0
BLOCK
  5
287
330
27C
100
AcDbEntity
  8
0
100
AcDbBlockBegin
  2
*D17
 70
     1
 10
0.0
 20
0.0
 30
0.0
  3
*D17
  1

  0
LINE
  5
27D
330
27C
100
AcDbEntity
  8
0
 62
     0
 60
     1
370
    -2
100
AcDbLine
 10
14.62686121981691
 20
-8.495884022708793
 30
0.0
 11
14.6268612198169
 21
-41.93489222242351
 31
0.0
  0
LINE
  5
27E
330
27C
100
AcDbEntity
  8
0
 62
     0
 60
     1
370
    -2
100
AcDbLine
 10
27.12686121981691
 20
-8.495884022708793
 30
0.0
 11
27.12686121981691
 21
-41.93489222242351
 31
0.0
  0
LINE
  5
27F
330
27C
100
AcDbEntity
  8
0
 62
     0
 60
     1
370
    -2
100
AcDbLine
 10
27.12686121981691
 20
-40.76822555575684
 30
0.0
 11
44.4521326993064
 21
-40.76822555575684
 31
0.0
  0
LINE
  5
280
330
27C
100
AcDbEntity
  8
0
 62
     0
 60
     1
370
    -2
100
AcDbLine
 10
17.6268612198169
 20
-40.76822555575684
 30
0.0
 11
24.12686121981691
 21
-40.76822555575684
 31
0.0
  0
INSERT
  5
281
330
27C
100
AcDbEntity
  8
0
 62
     0
 60
     1
370
    -2
100
AcDbBlockReference
  2
_OPEN30
 10
14.6268612198169
 20
-40.76822555575684
 30
0.0
 41
3.0
 42
3.0
 43
3.0
 50
180.0
  0
INSERT
  5
282
330
27C
100
AcDbEntity
  8
0
 62
     0
 60
     1
370
    -2
100
AcDbBlockReference
  2
_OPEN30
 10
27.12686121981691
 20
-40.76822555575684
 30
0.0
 41
3.0
 42
3.0
 43
3.0
  0
MTEXT
  5
283
330
27C
100
AcDbEntity
  8
0
 62
     0
100
AcDbMText
 10
39.68546611381559
 20
-38.66822559151963
 30
0.0
 40
2.799999952316284
 41
0.0
 71
     5
 72
     1
  1
12.5
 73
     1
 44
1.0
  0
POINT
  5
284
330
27C
100
AcDbEntity
  8
Defpoints
 62
     0
100
AcDbPoint
 10
14.62686121981691
 20
-5.955884022708793
 30
0.0
  0
POINT
  5
285
330
27C
100
AcDbEntity
  8
Defpoints
 62
     0
100
AcDbPoint
 10
27.12686121981691
 20
-5.955884022708793
 30
0.0
  0
POINT
  5
286
330
27C
100
AcDbEntity
  8
Defpoints
 62
     0
100
AcDbPoint
 10
27.12686121981691
 20
-40.76822555575684
 30
0.0
  0
LINE
  5
289
330
27C
100
AcDbEntity
  8
0
  6
Continuous
 62
     7
100
AcDbLine
 10
14.62686121981691
 20
-8.495884022708793
 30
0.0
 11
14.62686121981691
 21
-41.93489222242351
 31
0.0
  0
LINE
  5
28A
330
27C
100
AcDbEntity
  8
0
  6
Continuous
 62
     7
100
AcDbLine
 10
27.12686121981691
 20
-8.495884022708793
 30
0.0
 11
27.12686121981691
 21
-41.93489222242351
 31
0.0
  0
LINE
  5
28B
330
27C
100
AcDbEntity
  8
0
  6
Continuous
 62
     7
100
AcDbLine
 10
8.276861219816908
 20
-40.76822555575684
 30
0.0
 11
33.47686121981691
 21
-40.76822555575684
 31
0.0
  0
LINE
  5
28C
330
27C
100
AcDbEntity
  8
0
  6
Continuous
 62
     7
100
AcDbLine
 10
14.62686121981691
 20
-40.76822555575684
 30
0.0
 11
11.62686121981691
 21
-41.76822555575684
 31
0.0
  0
LINE
  5
28D
330
27C
100
AcDbEntity
  8
0
  6
Continuous
 62
     7
100
AcDbLine
 10
14.62686121981691
 20
-40.76822555575684
 30
0.0
 11
11.62686121981691
 21
-39.76822555575684
 31
0.0
  0
LINE
  5
28E
330
27C
100
AcDbEntity
  8
0
  6
Continuous
 62
     7
100
AcDbLine
 10
27.12686121981691
 20
-40.76822555575684
 30
0.0
 11
30.12686121981691
 21
-39.76822555575684
 31
0.0
  0
LINE
  5
28F
330
27C
100
AcDbEntity
  8
0
  6
Continuous
 62
     7
100
AcDbLine
 10
27.12686121981691
 20
-40.76822555575684
 30
0.0
 11
30.12686121981691
 21
-41.76822555575684
 31
0.0
  0
LINE
  5
290
330
27C
100
AcDbEntity
  8
0
  6
Continuous
 62
     7
100
AcDbLine
 10
27.12686121981691
 20
-40.76822555575684
 30
0.0
 11
46.97713278048225
 21
-40.76822555575684
 31
0.0
  0
ENDBLK
  5
288
330
27C
100
AcDbEntity
  8
0
100
AcDbBlockEnd
  0
ENDSEC
  0
SECTION
  2
ENTITIES
  0
POINT
  5
D6
330
1F
100
AcDbEntity
  8
VIEW0001
 62
     7
100
AcDbPoint
 10
-77.12313878018308
 20
141.7941159772912
 30
0.0
  0
POINT
  5
D7
330
1F
100
AcDbEntity
  8
VIEW0001
 62
     7
100
AcDbPoint
 10
-139.5547408747583
 20
-60.33056708880486
 30
0.0
  0
POINT
  5
D8
330
1F
100
AcDbEntity
  8
VIEW0001
 62
     7
100
AcDbPoint
 10
-129.5547408747583
 20
-60.33056708880486
 30
0.0
  0
LINE
  5
D9
330
1F
100
AcDbEntity
  8
VIEW0001
  6
CENTER
 62
     7
100
AcDbLine
 10
20.87686121981691
 20
197.7941159772912
 30
0.0
 11
20.87686121981691
 21
-26.20588402270879
 31
0.0
  0
LINE
  5
DA
330
1F
100
AcDbEntity
  8
VIEW0001
  6
Continuous
 62
     7
100
AcDbLine
 10
-14.37313878018309
 20
-21.20588402270883
 30
0.0
 11
56.12686121981691
 21
-21.20588402270883
 31
0.0
  0
LINE
  5
DB
330
1F
100
AcDbEntity
  8
VIEW0001
  6
Continuous
 62
     7
100
AcDbLine
 10
-14.3731387801831
 20
63.79411597729121
 30
0.0
 11
-14.3731387801831
 21
-21.20588402270879
 31
0.0
  0
LINE
  5
DC
330
1F
100
AcDbEntity
  8
VIEW0001
  6
Continuous
 62
     7
100
AcDbLine
 10
56.12686121981691
 20
63.79411597729121
 30
0.0
 11
56.12686121981691
 21
-21.20588402270879
 31
0.0
  0
LINE
  5
DD
330
1F
100
AcDbEntity
  8
VIEW0001
  6
Continuous
 62
     7
100
AcDbLine
 10
-12.37313878018309
 20
65.7941159772912
 30
0.0
 11
54.12686121981692
 21
65.7941159772912
 31
0.0
  0
LINE
  5
DE
330
1F
100
AcDbEntity
  8
VIEW0001
  6
Continuous
 62
     7
100
AcDbLine
 10
14.62686121981691
 20
51.54411597729122
 30
0.0
 11
14.62686121981691
 21
-5.955884022708793
 31
0.0
  0
LINE
  5
DF
330
1F
100
AcDbEntity
  8
VIEW0001
  6
Continuous
 62
     7
100
AcDbLine
 10
27.12686121981691
 20
51.54411597729122
 30
0.0
 11
27.12686121981691
 21
-5.955884022708793
 31
0.0
  0
LINE
  5
E0
330
1F
100
AcDbEntity
  8
VIEW0001
  6
Continuous
 62
     7
100
AcDbLine
 10
-1.62313878018309
 20
-8.20588402270881
 30
0.0
 11
4.87686121981691
 21
-8.20588402270881
 31
0.0
  0
LINE
  5
E1
330
1F
100
AcDbEntity
  8
VIEW0001
  6
Continuous
 62
     7
100
AcDbLine
 10
7.876861219816907
 20
55.79411597729122
 30
0.0
 11
7.876861219816907
 21
-5.205884022708794
 31
0.0
  0
LINE
  5
E2
330
1F
100
AcDbEntity
  8
VIEW0001
  6
Continuous
 62
     7
100
AcDbLine
 10
33.87686121981691
 20
55.79411597729122
 30
0.0
 11
33.87686121981691
 21
-5.205884022708794
 31
0.0
  0
LINE
  5
E3
330
1F
100
AcDbEntity
  8
VIEW0001
  6
Continuous
 62
     7
100
AcDbLine
 10
-1.62313878018309
 20
58.79411597729119
 30
0.0
 11
4.87686121981691
 21
58.79411597729119
 31
0.0
  0
LINE
  5
E4
330
1F
100
AcDbEntity
  8
VIEW0001
  6
Continuous
 62
     7
100
AcDbLine
 10
36.87686121981692
 20
-8.20588402270881
 30
0.0
 11
43.37686121981691
 21
-8.20588402270881
 31
0.0
  0
LINE
  5
E5
330
1F
100
AcDbEntity
  8
VIEW0001
  6
Continuous
 62
     7
100
AcDbLine
 10
36.87686121981692
 20
58.79411597729119
 30
0.0
 11
43.37686121981691
 21
58.79411597729119
 31
0.0
  0
LINE
  5
E6
330
1F
100
AcDbEntity
  8
VIEW0001
  6
Continuous
 62
     7
100
AcDbLine
 10
-14.12313878018309
 20
103.7941159772912
 30
0.0
 11
-7.530889437004364
 21
103.7941159772912
 31
0.0
  0
LINE
  5
E7
330
1F
100
AcDbEntity
  8
VIEW0001
  6
CENTER
 62
     7
100
AcDbLine
 10
43.37686121981691
 20
108.7941159772912
 30
0.0
 11
43.37686121981691
 21
60.79411597729122
 31
0.0
  0
LINE
  5
E8
330
1F
100
AcDbEntity
  8
VIEW0001
  6
CENTER
 62
     7
100
AcDbLine
 10
-1.623138780183095
 20
108.7941159772912
 30
0.0
 11
-1.623138780183095
 21
60.79411597729122
 31
0.0
  0
LINE
  5
E9
330
1F
100
AcDbEntity
  8
VIEW0001
  6
Continuous
 62
     7
100
AcDbLine
 10
4.376861219816908
 20
102.1941159772912
 30
0.0
 11
4.376861219816908
 21
65.79411597729121
 31
0.0
  0
LINE
  5
EA
330
1F
100
AcDbEntity
  8
VIEW0001
  6
Continuous
 62
     7
100
AcDbLine
 10
37.37686121981691
 20
102.1941159772912
 30
0.0
 11
37.37686121981691
 21
65.79411597729121
 31
0.0
  0
LINE
  5
EB
330
1F
100
AcDbEntity
  8
VIEW0001
  6
Continuous
 62
     7
100
AcDbLine
 10
55.87686121981691
 20
115.8396642846892
 30
0.0
 11
55.87686121981691
 21
103.7941159772912
 31
0.0
  0
LINE
  5
EC
330
1F
100
AcDbEntity
  8
VIEW0001
  6
Continuous
 62
     7
100
AcDbLine
 10
-14.1231387801831
 20
115.8396642846892
 30
0.0
 11
-14.1231387801831
 21
103.7941159772912
 31
0.0
  0
LINE
  5
ED
330
1F
100
AcDbEntity
  8
VIEW0001
  6
CENTER
 62
     7
100
AcDbLine
 10
-30.1231387801831
 20
141.7941159772912
 30
0.0
 11
71.87686121981692
 21
141.7941159772912
 31
0.0
  0
LINE
  5
EE
330
1F
100
AcDbEntity
  8
VIEW0001
  6
DASHED
 62
     7
100
AcDbLine
 10
-12.25149432513492
 20
120.9819651621815
 30
0.0
 11
11.68432790238916
 21
149.5075672935297
 31
0.0
  0
LINE
  5
EF
330
1F
100
AcDbEntity
  8
VIEW0001
  6
DASHED
 62
     7
100
AcDbLine
 10
30.06939453724463
 20
149.5075672935297
 30
0.0
 11
54.00521676476872
 21
120.9819651621815
 31
0.0
  0
LINE
  5
F0
330
1F
100
AcDbEntity
  8
VIEW0001
  6
Continuous
 62
     7
100
AcDbLine
 10
12.17082621048596
 20
185.6101936930806
 30
0.0
 11
11.48955988162824
 21
186.9163643872701
 31
0.0
  0
LINE
  5
F1
330
1F
100
AcDbEntity
  8
VIEW0001
  6
Continuous
 62
     7
100
AcDbLine
 10
29.58289622914782
 20
185.6101936930806
 30
0.0
 11
30.26416255800555
 21
186.9163643872701
 31
0.0
  0
LINE
  5
F2
330
1F
100
AcDbEntity
  8
VIEW0001
  6
Continuous
 62
     7
100
AcDbLine
 10
37.24163858522757
 20
183.3613840347464
 30
0.0
 11
37.37469007112026
 21
184.8285251306525
 31
0.0
  0
LINE
  5
F3
330
1F
100
AcDbEntity
  8
VIEW0001
  6
Continuous
 62
     7
100
AcDbLine
 10
51.88960400233078
 20
173.947708266263
 30
0.0
 11
53.16889090012447
 21
174.6782085922919
 31
0.0
  0
LINE
  5
F4
330
1F
100
AcDbEntity
  8
VIEW0001
  6
CENTER
 62
     7
100
AcDbLine
 10
-119.1231387801831
 20
158.7941159772912
 30
0.0
 11
-119.1231387801831
 21
-26.20588402270879
 31
0.0
  0
LINE
  5
F5
330
1F
100
AcDbEntity
  8
VIEW0001
  6
Continuous
 62
     7
100
AcDbLine
 10
11.37686121981691
 20
147.2789435345927
 30
0.0
 11
11.37686121981691
 21
136.3092884199897
 31
0.0
  0
LINE
  5
F6
330
1F
100
AcDbEntity
  8
VIEW0001
  6
Continuous
 62
     7
100
AcDbLine
 10
30.37686121981692
 20
147.2789435345927
 30
0.0
 11
30.37686121981692
 21
136.3092884199898
 31
0.0
  0
LINE
  5
F7
330
1F
100
AcDbEntity
  8
VIEW0001
  6
Continuous
 62
     7
100
AcDbLine
 10
20.87686121981688
 20
130.8244608626883
 30
0.0
 11
30.37686121981688
 21
136.3092884199898
 31
0.0
  0
LINE
  5
F8
330
1F
100
AcDbEntity
  8
VIEW0001
  6
Continuous
 62
     7
100
AcDbLine
 10
11.3768612198169
 20
147.2789435345927
 30
0.0
 11
20.8768612198169
 21
152.7637710918941
 31
0.0
  0
LINE
  5
F9
330
1F
100
AcDbEntity
  8
VIEW0001
  6
Continuous
 62
     7
100
AcDbLine
 10
30.37686121981698
 20
147.2789435345928
 30
0.0
 11
20.87686121981698
 21
152.7637710918942
 31
0.0
  0
LINE
  5
FA
330
1F
100
AcDbEntity
  8
VIEW0001
  6
Continuous
 62
     7
100
AcDbLine
 10
20.87686121981697
 20
130.8244608626884
 30
0.0
 11
11.37686121981696
 21
136.3092884199898
 31
0.0
  0
LINE
  5
FB
330
1F
100
AcDbEntity
  8
VIEW0001
  6
Continuous
 62
     7
100
AcDbLine
 10
-134.1231387801831
 20
-21.20588402270883
 30
0.0
 11
-106.1231387801831
 21
-21.20588402270883
 31
0.0
  0
LINE
  5
FC
330
1F
100
AcDbEntity
  8
VIEW0001
  6
Continuous
 62
     7
100
AcDbLine
 10
-134.1231387801831
 20
65.79411597729121
 30
0.0
 11
-134.1231387801831
 21
-21.20588402270879
 31
0.0
  0
LINE
  5
FD
330
1F
100
AcDbEntity
  8
VIEW0001
  6
Continuous
 62
     7
100
AcDbLine
 10
-106.1231387801831
 20
63.79411597729121
 30
0.0
 11
-106.1231387801831
 21
-21.20588402270879
 31
0.0
  0
LINE
  5
FE
330
1F
100
AcDbEntity
  8
VIEW0001
  6
Continuous
 62
     7
100
AcDbLine
 10
-134.1231387801831
 20
65.79411597729118
 30
0.0
 11
-108.1231387801831
 21
65.79411597729118
 31
0.0
  0
LINE
  5
FF
330
1F
100
AcDbEntity
  8
VIEW0001
  6
Continuous
 62
     7
100
AcDbLine
 10
-125.1231387801831
 20
102.1941159772912
 30
0.0
 11
-125.1231387801831
 21
65.79411597729121
 31
0.0
  0
LINE
  5
100
330
1F
100
AcDbEntity
  8
VIEW0001
  6
Continuous
 62
     7
100
AcDbLine
 10
-113.1231387801831
 20
102.1941159772912
 30
0.0
 11
-113.1231387801831
 21
65.79411597729121
 31
0.0
  0
LINE
  5
101
330
1F
100
AcDbEntity
  8
VIEW0001
  6
Continuous
 62
     7
100
AcDbLine
 10
-131.6231387801831
 20
103.7941159772912
 30
0.0
 11
-106.6231387801831
 21
103.7941159772912
 31
0.0
  0
LINE
  5
102
330
1F
100
AcDbEntity
  8
VIEW0001
  6
Continuous
 62
     7
100
AcDbLine
 10
-131.6231387801831
 20
153.7941159772912
 30
0.0
 11
-106.6231387801831
 21
153.7941159772912
 31
0.0
  0
LINE
  5
103
330
1F
100
AcDbEntity
  8
VIEW0001
  6
Continuous
 62
     7
100
AcDbLine
 10
-131.6231387801831
 20
153.7941159772912
 30
0.0
 11
-131.6231387801831
 21
103.7941159772912
 31
0.0
  0
LINE
  5
104
330
1F
100
AcDbEntity
  8
VIEW0001
  6
Continuous
 62
     7
100
AcDbLine
 10
-106.6231387801831
 20
154.6941159772912
 30
0.0
 11
-106.6231387801831
 21
103.7941159772912
 31
0.0
  0
LINE
  5
105
330
1F
100
AcDbEntity
  8
VIEW0001
  6
Continuous
 62
     7
100
AcDbLine
 10
-106.6231387801831
 20
128.8941159772912
 30
0.0
 11
-102.6231387801831
 21
128.8941159772912
 31
0.0
  0
LINE
  5
106
330
1F
100
AcDbEntity
  8
VIEW0001
  6
Continuous
 62
     7
100
AcDbLine
 10
-106.6231387801831
 20
154.6941159772912
 30
0.0
 11
-102.6231387801831
 21
154.6941159772912
 31
0.0
  0
LINE
  5
107
330
1F
100
AcDbEntity
  8
VIEW0001
  6
Continuous
 62
     7
100
AcDbLine
 10
-104.1231387801831
 20
154.6941159772912
 30
0.0
 11
-104.1231387801831
 21
128.8941159772912
 31
0.0
  0
LINE
  5
108
330
1F
100
AcDbEntity
  8
VIEW0001
  6
Continuous
 62
     7
100
AcDbLine
 10
-102.6231387801831
 20
180.0442140168838
 30
0.0
 11
-102.6231387801831
 21
103.5440179376986
 31
0.0
  0
LINE
  5
109
330
1F
100
AcDbEntity
  8
VIEW0001
  6
Continuous
 62
     7
100
AcDbLine
 10
-99.4231387801831
 20
192.7941159772912
 30
0.0
 11
-91.82313878018307
 21
192.7941159772912
 31
0.0
  0
LINE
  5
10A
330
1F
100
AcDbEntity
  8
VIEW0001
  6
Continuous
 62
     7
100
AcDbLine
 10
-99.4231387801831
 20
90.79411597729117
 30
0.0
 11
-91.82313878018307
 21
90.79411597729117
 31
0.0
  0
LINE
  5
10B
330
1F
100
AcDbEntity
  8
VIEW0001
  6
Continuous
 62
     7
100
AcDbLine
 10
-88.62313878018307
 20
180.0442140168838
 30
0.0
 11
-88.62313878018307
 21
103.5440179376986
 31
0.0
  0
LINE
  5
10C
330
1F
100
AcDbEntity
  8
VIEW0001
  6
CENTER
 62
     7
100
AcDbLine
 10
-137.8681183221439
 20
141.7941159772912
 30
0.0
 11
-73.71534444785402
 21
141.7941159772912
 31
0.0
  0
LINE
  5
10D
330
1F
100
AcDbEntity
  8
VIEW0001
  6
DASHED
 62
     7
100
AcDbLine
 10
-102.6231387801831
 20
178.9341159772912
 30
0.0
 11
-88.62313878018307
 21
178.9341159772912
 31
0.0
  0
LINE
  5
10E
330
1F
100
AcDbEntity
  8
VIEW0001
  6
DASHED
 62
     7
100
AcDbLine
 10
-102.6231387801831
 20
104.6541159772912
 30
0.0
 11
-88.62313878018307
 21
104.6541159772912
 31
0.0
  0
LINE
  5
10F
330
1F
100
AcDbEntity
  8
VIEW0001
  6
CENTER
 62
     7
100
AcDbLine
 10
-104.6231387801831
 20
186.8741159772912
 30
0.0
 11
-86.62313878018307
 21
186.8741159772912
 31
0.0
  0
LINE
  5
110
330
1F
100
AcDbEntity
  8
VIEW0001
  6
CENTER
 62
     7
100
AcDbLine
 10
-104.6231387801831
 20
96.71411597729117
 30
0.0
 11
-86.62313878018307
 21
96.71411597729117
 31
0.0
  0
LINE
  5
111
330
1F
100
AcDbEntity
  8
VIEW0001
  6
CENTER
 62
     7
100
AcDbLine
 10
-95.62313878018308
 20
197.7941159772912
 30
0.0
 11
-95.62313878018308
 21
85.79411597729118
 31
0.0
  0
LINE
  5
112
330
1F
100
AcDbEntity
  8
VIEW0001
  6
Continuous
 62
     7
100
AcDbLine
 10
-87.12313878018308
 20
154.6941159772912
 30
0.0
 11
-87.12313878018308
 21
128.8941159772912
 31
0.0
  0
LINE
  5
113
330
1F
100
AcDbEntity
  8
VIEW0001
  6
Continuous
 62
     7
100
AcDbLine
 10
-84.62313878018308
 20
128.8941159772912
 30
0.0
 11
-88.62313878018307
 21
128.8941159772912
 31
0.0
  0
LINE
  5
114
330
1F
100
AcDbEntity
  8
VIEW0001
  6
Continuous
 62
     7
100
AcDbLine
 10
-84.62313878018308
 20
154.6941159772912
 30
0.0
 11
-88.62313878018307
 21
154.6941159772912
 31
0.0
  0
LINE
  5
115
330
1F
100
AcDbEntity
  8
VIEW0001
  6
Continuous
 62
     7
100
AcDbLine
 10
-84.62313878018308
 20
154.6941159772912
 30
0.0
 11
-84.62313878018308
 21
128.8941159772912
 31
0.0
  0
LINE
  5
116
330
1F
100
AcDbEntity
  8
VIEW0001
  6
Continuous
 62
     7
100
AcDbLine
 10
-77.12313878018308
 20
151.2941159772912
 30
0.0
 11
-77.12313878018308
 21
132.2941159772912
 31
0.0
  0
LINE
  5
117
330
1F
100
AcDbEntity
  8
VIEW0001
  6
Continuous
 62
     7
100
AcDbLine
 10
-84.62313878018308
 20
152.7637710918941
 30
0.0
 11
-77.97164455621495
 21
152.7637710918941
 31
0.0
  0
LINE
  5
118
330
1F
100
AcDbEntity
  8
VIEW0001
  6
Continuous
 62
     7
100
AcDbLine
 10
-84.62313878018308
 20
130.8244608626883
 30
0.0
 11
-77.97164455621495
 21
130.8244608626883
 31
0.0
  0
LINE
  5
119
330
1F
100
AcDbEntity
  8
VIEW0001
  6
Continuous
 62
     7
100
AcDbLine
 10
-84.62313878018308
 20
147.2789435345926
 30
0.0
 11
-77.97164455621498
 21
147.2789435345926
 31
0.0
  0
LINE
  5
11A
330
1F
100
AcDbEntity
  8
VIEW0001
  6
Continuous
 62
     7
100
AcDbLine
 10
-84.62313878018308
 20
136.3092884199897
 30
0.0
 11
-77.97164455621495
 21
136.3092884199897
 31
0.0
  0
LINE
  5
11B
330
1F
100
AcDbEntity
  8
VIEW0001
  6
Continuous
 62
     7
100
AcDbLine
 10
-77.12313878018308
 20
151.2941159772912
 30
0.0
 11
-77.97164455621497
 21
152.7637710918941
 31
0.0
  0
LINE
  5
11C
330
1F
100
AcDbEntity
  8
VIEW0001
  6
Continuous
 62
     7
100
AcDbLine
 10
-77.1231387801832
 20
132.2941159772913
 30
0.0
 11
-77.9716445562151
 21
130.8244608626883
 31
0.0
  0
LINE
  5
11D
330
1F
100
AcDbEntity
  8
VIEW0001
  6
Continuous
 62
     7
100
AcDbLine
 10
4.512083854406004
 20
183.3613840347463
 30
0.0
 11
4.379032368513315
 21
184.8285251306525
 31
0.0
  0
LINE
  5
11E
330
1F
100
AcDbEntity
  8
VIEW0001
  6
Continuous
 62
     7
100
AcDbLine
 10
-10.13588156269715
 20
173.9477082662628
 30
0.0
 11
-11.4151684604908
 21
174.6782085922917
 31
0.0
  0
LINE
  5
11F
330
1F
100
AcDbEntity
  8
VIEW0001
  6
Continuous
 62
     7
100
AcDbLine
 10
-15.36302733480926
 20
167.9152604684514
 30
0.0
 11
-16.2681537287783
 21
169.0775650344475
 31
0.0
  0
LINE
  5
120
330
1F
100
AcDbEntity
  8
VIEW0001
  6
Continuous
 62
     7
100
AcDbLine
 10
-22.59626262800137
 20
152.0766844741234
 30
0.0
 11
-24.06740554369075
 21
151.9995857399461
 31
0.0
  0
LINE
  5
121
330
1F
100
AcDbEntity
  8
VIEW0001
  6
Continuous
 62
     7
100
AcDbLine
 10
-23.73222996674728
 20
144.1758580894006
 30
0.0
 11
-25.122060034025
 21
144.6643026382346
 31
0.0
  0
LINE
  5
122
330
1F
100
AcDbEntity
  8
VIEW0001
  6
Continuous
 62
     7
100
AcDbLine
 10
-21.25423403803825
 20
126.9410178373969
 30
0.0
 11
-22.45015549049112
 21
126.0807983463612
 31
0.0
  0
LINE
  5
123
330
1F
100
AcDbEntity
  8
VIEW0001
  6
Continuous
 62
     7
100
AcDbLine
 10
-17.93836133972778
 20
119.6802694183407
 30
0.0
 11
-19.37163385402351
 21
119.339776256942
 31
0.0
  0
LINE
  5
124
330
1F
100
AcDbEntity
  8
VIEW0001
  6
Continuous
 62
     7
100
AcDbLine
 10
-6.535880387800134
 20
106.5211049131105
 30
0.0
 11
-7.076883765839895
 21
105.1508782755996
 31
0.0
  0
LINE
  5
125
330
1F
100
AcDbEntity
  8
VIEW0001
  6
Continuous
 62
     7
100
AcDbLine
 10
0.179066194690002
 20
102.2056707807742
 30
0.0
 11
-0.842594870354503
 21
101.1443440820772
 31
0.0
  0
LINE
  5
126
330
1F
100
AcDbEntity
  8
VIEW0001
  6
Continuous
 62
     7
100
AcDbLine
 10
16.88582503367973
 20
97.30012377451465
 30
0.0
 11
17.1715044800335
 21
95.85492726637958
 31
0.0
  0
LINE
  5
127
330
1F
100
AcDbEntity
  8
VIEW0001
  6
Continuous
 62
     7
100
AcDbLine
 10
24.86789740595432
 20
97.30012377451469
 30
0.0
 11
24.58221795960055
 21
95.85492726637958
 31
0.0
  0
LINE
  5
128
330
1F
100
AcDbEntity
  8
VIEW0001
  6
Continuous
 62
     7
100
AcDbLine
 10
41.57465624494402
 20
102.2056707807744
 30
0.0
 11
42.59631730998851
 21
101.1443440820774
 31
0.0
  0
LINE
  5
129
330
1F
100
AcDbEntity
  8
VIEW0001
  6
Continuous
 62
     7
100
AcDbLine
 10
48.28960282743419
 20
106.5211049131106
 30
0.0
 11
48.83060620547396
 21
105.1508782755997
 31
0.0
  0
LINE
  5
12A
330
1F
100
AcDbEntity
  8
VIEW0001
  6
Continuous
 62
     7
100
AcDbLine
 10
59.69208377936171
 20
119.6802694183409
 30
0.0
 11
61.12535629365742
 21
119.3397762569422
 31
0.0
  0
LINE
  5
12B
330
1F
100
AcDbEntity
  8
VIEW0001
  6
Continuous
 62
     7
100
AcDbLine
 10
63.00795647767213
 20
126.9410178373973
 30
0.0
 11
64.20387793012503
 21
126.0807983463615
 31
0.0
  0
LINE
  5
12C
330
1F
100
AcDbEntity
  8
VIEW0001
  6
Continuous
 62
     7
100
AcDbLine
 10
65.48595240638099
 20
144.1758580894009
 30
0.0
 11
66.87578247365872
 21
144.6643026382349
 31
0.0
  0
LINE
  5
12D
330
1F
100
AcDbEntity
  8
VIEW0001
  6
Continuous
 62
     7
100
AcDbLine
 10
64.34998506763513
 20
152.0766844741237
 30
0.0
 11
65.82112798332454
 21
151.9995857399464
 31
0.0
  0
LINE
  5
12E
330
1F
100
AcDbEntity
  8
VIEW0001
  6
Continuous
 62
     7
100
AcDbLine
 10
57.11674977444288
 20
167.9152604684515
 30
0.0
 11
58.02187616841191
 21
169.0775650344477
 31
0.0
  0
LINE
  5
12F
330
1F
100
AcDbEntity
  8
VIEW0001
  6
DASHED
 62
     7
100
AcDbLine
 10
-7.530889437004364
 20
103.7941159772912
 30
0.0
 11
1.890783904778936
 21
103.7941159772912
 31
0.0
  0
LINE
  5
130
330
1F
100
AcDbEntity
  8
VIEW0001
  6
Continuous
 62
     7
100
AcDbLine
 10
1.890783904778936
 20
103.7941159772912
 30
0.0
 11
14.14733397096923
 21
103.7941159772912
 31
0.0
  0
LINE
  5
131
330
1F
100
AcDbEntity
  8
VIEW0001
  6
DASHED
 62
     7
100
AcDbLine
 10
14.14733397096923
 20
103.7941159772912
 30
0.0
 11
27.60638846866469
 21
103.7941159772912
 31
0.0
  0
LINE
  5
132
330
1F
100
AcDbEntity
  8
VIEW0001
  6
Continuous
 62
     7
100
AcDbLine
 10
27.60638846866469
 20
103.7941159772912
 30
0.0
 11
39.86293853485508
 21
103.7941159772912
 31
0.0
  0
LINE
  5
133
330
1F
100
AcDbEntity
  8
VIEW0001
  6
DASHED
 62
     7
100
AcDbLine
 10
39.86293853485508
 20
103.7941159772912
 30
0.0
 11
49.28461187663831
 21
103.7941159772912
 31
0.0
  0
LINE
  5
134
330
1F
100
AcDbEntity
  8
VIEW0001
  6
Continuous
 62
     7
100
AcDbLine
 10
49.28461187663831
 20
103.7941159772912
 30
0.0
 11
55.87686121981691
 21
103.7941159772912
 31
0.0
  0
LINE
  5
135
330
1F
100
AcDbEntity
  8
VIEW0001
  6
Continuous
 62
     7
100
AcDbLine
 10
-7.623138780183091
 20
99.50049943767614
 30
0.0
 11
-7.623138780183091
 21
65.79411597729121
 31
0.0
  0
LINE
  5
136
330
1F
100
AcDbEntity
  8
VIEW0001
  6
Continuous
 62
     7
100
AcDbLine
 10
49.37686121981691
 20
99.50049943767614
 30
0.0
 11
49.37686121981691
 21
65.79411597729121
 31
0.0
  0
LINE
  5
137
330
1F
100
AcDbEntity
  8
VIEW0001
  6
Continuous
 62
     7
100
AcDbLine
 10
-129.0231387801831
 20
102.1941159772912
 30
0.0
 11
-109.2231387801831
 21
102.1941159772912
 31
0.0
  0
LINE
  5
138
330
1F
100
AcDbEntity
  8
VIEW0001
  6
Continuous
 62
     7
100
AcDbLine
 10
-129.0231387801831
 20
103.7941159772912
 30
0.0
 11
-129.0231387801831
 21
102.1941159772912
 31
0.0
  0
LINE
  5
139
330
1F
100
AcDbEntity
  8
VIEW0001
  6
Continuous
 62
     7
100
AcDbLine
 10
-109.2231387801831
 20
103.7941159772912
 30
0.0
 11
-109.2231387801831
 21
102.1941159772912
 31
0.0
  0
LINE
  5
13A
330
1F
100
AcDbEntity
  8
VIEW0001
  6
Continuous
 62
     7
100
AcDbLine
 10
8.27686121981692
 20
103.7941159772912
 30
0.0
 11
8.27686121981692
 21
102.1941159772912
 31
0.0
  0
LINE
  5
13B
330
1F
100
AcDbEntity
  8
VIEW0001
  6
Continuous
 62
     7
100
AcDbLine
 10
-11.5231387801831
 20
103.7941159772912
 30
0.0
 11
-11.5231387801831
 21
102.1941159772912
 31
0.0
  0
LINE
  5
13C
330
1F
100
AcDbEntity
  8
VIEW0001
  6
Continuous
 62
     7
100
AcDbLine
 10
-11.52313878018309
 20
102.1941159772912
 30
0.0
 11
-7.870311103451329
 21
102.1941159772912
 31
0.0
  0
LINE
  5
13D
330
1F
100
AcDbEntity
  8
VIEW0001
  6
Continuous
 62
     7
100
AcDbLine
 10
53.27686121981692
 20
103.7941159772912
 30
0.0
 11
53.27686121981692
 21
102.1941159772912
 31
0.0
  0
LINE
  5
13E
330
1F
100
AcDbEntity
  8
VIEW0001
  6
Continuous
 62
     7
100
AcDbLine
 10
33.4768612198169
 20
103.7941159772912
 30
0.0
 11
33.4768612198169
 21
102.1941159772912
 31
0.0
  0
LINE
  5
13F
330
1F
100
AcDbEntity
  8
VIEW0001
  6
DASHED
 62
     7
100
AcDbLine
 10
-7.870311103451329
 20
102.1941159772912
 30
0.0
 11
0.167951845138186
 21
102.1941159772912
 31
0.0
  0
LINE
  5
140
330
1F
100
AcDbEntity
  8
VIEW0001
  6
Continuous
 62
     7
100
AcDbLine
 10
0.167951845138186
 20
102.1941159772912
 30
0.0
 11
8.276861219816922
 21
102.1941159772912
 31
0.0
  0
LINE
  5
141
330
1F
100
AcDbEntity
  8
VIEW0001
  6
Continuous
 62
     7
100
AcDbLine
 10
41.58577059449564
 20
102.1941159772912
 30
0.0
 11
33.4768612198169
 21
102.1941159772912
 31
0.0
  0
LINE
  5
142
330
1F
100
AcDbEntity
  8
VIEW0001
  6
DASHED
 62
     7
100
AcDbLine
 10
49.62403354308515
 20
102.1941159772912
 30
0.0
 11
41.58577059449564
 21
102.1941159772912
 31
0.0
  0
LINE
  5
143
330
1F
100
AcDbEntity
  8
VIEW0001
  6
Continuous
 62
     7
100
AcDbLine
 10
53.27686121981692
 20
102.1941159772912
 30
0.0
 11
49.62403354308515
 21
102.1941159772912
 31
0.0
  0
LINE
  5
144
330
1F
100
AcDbEntity
  8
VIEW0001
  6
Continuous
 62
     7
100
AcDbLine
 10
-124.0883510952139
 20
143.3015501662596
 30
0.0
 11
-124.0883510952139
 21
122.8033883736392
 31
0.0
  0
LINE
  5
145
330
1F
100
AcDbEntity
  8
VIEW0001
  6
Continuous
 62
     7
100
AcDbLine
 10
-114.1579264651523
 20
143.3015501662596
 30
0.0
 11
-114.1579264651523
 21
122.8033883736392
 31
0.0
  0
LINE
  5
146
330
1F
100
AcDbEntity
  8
VIEW0001
  6
Continuous
 62
     7
100
AcDbLine
 10
-124.0883510952139
 20
122.8033883736391
 30
0.0
 11
-114.1579264651523
 21
122.8033883736391
 31
0.0
  0
LINE
  5
147
330
1F
100
AcDbEntity
  8
VIEW0001
  6
Continuous
 62
     7
100
AcDbLine
 10
-124.0883510952139
 20
143.3015501662595
 30
0.0
 11
-114.1579264651523
 21
143.3015501662595
 31
0.0
  0
LINE
  5
148
330
1F
100
AcDbEntity
  8
VIEW0001
  6
Continuous
 62
     7
100
AcDbLine
 10
-124.0883510952139
 20
143.3015501662596
 30
0.0
 11
-129.0535634102447
 21
133.0524692699494
 31
0.0
  0
LINE
  5
149
330
1F
100
AcDbEntity
  8
VIEW0001
  6
Continuous
 62
     7
100
AcDbLine
 10
-129.0535634102447
 20
133.0524692699493
 30
0.0
 11
-124.0883510952139
 21
122.8033883736391
 31
0.0
  0
LINE
  5
14A
330
1F
100
AcDbEntity
  8
VIEW0001
  6
Continuous
 62
     7
100
AcDbLine
 10
-114.1579264651523
 20
143.3015501662595
 30
0.0
 11
-109.1927141501215
 21
133.0524692699493
 31
0.0
  0
LINE
  5
14B
330
1F
100
AcDbEntity
  8
VIEW0001
  6
Continuous
 62
     7
100
AcDbLine
 10
-109.1927141501215
 20
133.0524692699493
 30
0.0
 11
-114.1579264651523
 21
122.8033883736391
 31
0.0
  0
ARC
  5
14C
330
1F
100
AcDbEntity
  8
VIEW0001
  6
Continuous
 62
     7
100
AcDbCircle
 10
-12.37313878018309
 20
63.79411597729119
 30
0.0
 40
2.0
100
AcDbArc
 50
90.00000000000003
 51
180.0
  0
ARC
  5
14D
330
1F
100
AcDbEntity
  8
VIEW0001
  6
Continuous
 62
     7
100
AcDbCircle
 10
54.12686121981692
 20
63.79411597729119
 30
0.0
 40
2.0
100
AcDbArc
 50
0.0
 51
90.00000000000003
  0
ARC
  5
14E
330
1F
100
AcDbEntity
  8
VIEW0001
  6
Continuous
 62
     7
100
AcDbCircle
 10
20.87686121981691
 20
-5.95588402270882
 30
0.0
 40
6.25
100
AcDbArc
 50
180.0
 51
0.0
  0
ARC
  5
14F
330
1F
100
AcDbEntity
  8
VIEW0001
  6
Continuous
 62
     7
100
AcDbCircle
 10
20.87686121981691
 20
51.5441159772912
 30
0.0
 40
6.25
100
AcDbArc
 50
0.0
 51
180.0
  0
ARC
  5
150
330
1F
100
AcDbEntity
  8
VIEW0001
  6
Continuous
 62
     7
100
AcDbCircle
 10
-1.623138780183095
 20
-14.70588402270882
 30
0.0
 40
6.5
100
AcDbArc
 50
90.00000000000003
 51
270.0
  0
ARC
  5
151
330
1F
100
AcDbEntity
  8
VIEW0001
  6
Continuous
 62
     7
100
AcDbCircle
 10
43.37686121981691
 20
-14.70588402270882
 30
0.0
 40
6.5
100
AcDbArc
 50
270.0
 51
90.0
  0
CIRCLE
  5
152
330
1F
100
AcDbEntity
  8
VIEW0001
  6
Continuous
 62
     7
100
AcDbCircle
 10
-1.623138780183095
 20
-14.70588402270882
 30
0.0
 40
2.5
  0
CIRCLE
  5
153
330
1F
100
AcDbEntity
  8
VIEW0001
  6
Continuous
 62
     7
100
AcDbCircle
 10
43.37686121981691
 20
-14.70588402270882
 30
0.0
 40
2.5
  0
ARC
  5
154
330
1F
100
AcDbEntity
  8
VIEW0001
  6
Continuous
 62
     7
100
AcDbCircle
 10
4.876861219816909
 20
-5.205884022708839
 30
0.0
 40
3.0
100
AcDbArc
 50
270.0
 51
0.0
  0
ARC
  5
155
330
1F
100
AcDbEntity
  8
VIEW0001
  6
Continuous
 62
     7
100
AcDbCircle
 10
4.876861219816909
 20
55.79411597729117
 30
0.0
 40
3.0
100
AcDbArc
 50
0.0
 51
90.00000000000003
  0
ARC
  5
156
330
1F
100
AcDbEntity
  8
VIEW0001
  6
Continuous
 62
     7
100
AcDbCircle
 10
36.87686121981692
 20
55.79411597729117
 30
0.0
 40
3.0
100
AcDbArc
 50
90.00000000000003
 51
180.0
  0
ARC
  5
157
330
1F
100
AcDbEntity
  8
VIEW0001
  6
Continuous
 62
     7
100
AcDbCircle
 10
36.87686121981692
 20
-5.205884022708839
 30
0.0
 40
3.0
100
AcDbArc
 50
180.0
 51
270.0
  0
ARC
  5
158
330
1F
100
AcDbEntity
  8
VIEW0001
  6
DASHED
 62
     7
100
AcDbCircle
 10
20.87686121981691
 20
141.7941159772912
 30
0.0
 40
12.0
100
AcDbArc
 50
40.00000000000004
 51
140.0
  0
ARC
  5
159
330
1F
100
AcDbEntity
  8
VIEW0001
  6
DASHED
 62
     7
100
AcDbCircle
 10
-6.123138780183093
 20
115.8396642846892
 30
0.0
 40
8.0
100
AcDbArc
 50
140.0000000000001
 51
146.7246319252626
  0
CIRCLE
  5
15A
330
1F
100
AcDbEntity
  8
VIEW0001
  6
DASHED
 62
     7
100
AcDbCircle
 10
20.87686121981691
 20
141.7941159772912
 30
0.0
 40
45.07824930267844
  0
ARC
  5
15B
330
1F
100
AcDbEntity
  8
VIEW0001
  6
Continuous
 62
     7
100
AcDbCircle
 10
20.87686121981691
 20
186.9500652799696
 30
0.0
 40
8.0177
100
AcDbArc
 50
220.4545454545454
 51
319.5454545454546
  0
ARC
  5
15C
330
1F
100
AcDbEntity
  8
VIEW0001
  6
Continuous
 62
     7
100
AcDbCircle
 10
30.54360593332395
 20
195.1929811866063
 30
0.0
 40
20.7217
100
AcDbArc
 50
207.5454545454545
 51
220.4545454545454
  0
ARC
  5
15D
330
1F
100
AcDbEntity
  8
VIEW0001
  6
Continuous
 62
     7
100
AcDbCircle
 10
11.21011650630987
 20
195.1929811866063
 30
0.0
 40
20.7217
100
AcDbArc
 50
319.5454545454546
 51
332.4545454545454
  0
ARC
  5
15E
330
1F
100
AcDbEntity
  8
VIEW0001
  6
Continuous
 62
     7
100
AcDbCircle
 10
-0.454588080552873
 20
180.6865922221722
 30
0.0
 40
13.47118152841476
100
AcDbArc
 50
27.54545454545455
 51
50.95954982825802
  0
ARC
  5
15F
330
1F
100
AcDbEntity
  8
VIEW0001
  6
Continuous
 62
     7
100
AcDbCircle
 10
42.20831052018669
 20
180.6865922221722
 30
0.0
 40
13.47118152841476
100
AcDbArc
 50
129.040450171742
 51
152.4545454545455
  0
ARC
  5
160
330
1F
100
AcDbEntity
  8
VIEW0001
  6
Continuous
 62
     7
100
AcDbCircle
 10
20.87686121981691
 20
141.7941159772912
 30
0.0
 40
51.00000000000001
100
AcDbArc
 50
104.5893621794286
 51
108.1379105478442
  0
ARC
  5
161
330
1F
100
AcDbEntity
  8
VIEW0001
  6
Continuous
 62
     7
100
AcDbCircle
 10
45.29001056380044
 20
179.7817178565151
 30
0.0
 40
8.0177
100
AcDbArc
 50
187.7272727272727
 51
286.8181818181819
  0
ARC
  5
162
330
1F
100
AcDbEntity
  8
VIEW0001
  6
Continuous
 62
     7
100
AcDbCircle
 10
57.87865049899717
 20
181.4898632197586
 30
0.0
 40
20.7217
100
AcDbArc
 50
174.8181818181818
 51
187.7272727272727
  0
ARC
  5
163
330
1F
100
AcDbEntity
  8
VIEW0001
  6
Continuous
 62
     7
100
AcDbCircle
 10
41.61428421656731
 20
191.9423367478486
 30
0.0
 40
20.7217
100
AcDbArc
 50
286.8181818181819
 51
299.7272727272728
  0
ARC
  5
164
330
1F
100
AcDbEntity
  8
VIEW0001
  6
Continuous
 62
     7
100
AcDbCircle
 10
23.95856428537646
 20
186.0452012061147
 30
0.0
 40
13.47118152841476
100
AcDbArc
 50
354.8181818181819
 51
18.23227710098537
  0
ARC
  5
165
330
1F
100
AcDbEntity
  8
VIEW0001
  6
Continuous
 62
     7
100
AcDbCircle
 10
59.84887845406706
 20
162.9798968315856
 30
0.0
 40
13.47118152841476
100
AcDbArc
 50
96.31317744446937
 51
119.7272727272728
  0
ARC
  5
166
330
1F
100
AcDbEntity
  8
VIEW0001
  6
Continuous
 62
     7
100
AcDbCircle
 10
20.87686121981691
 20
141.7941159772912
 30
0.0
 40
51.00000000000001
100
AcDbArc
 50
71.86208945215593
 51
75.41063782057152
  0
CIRCLE
  5
167
330
1F
100
AcDbEntity
  8
VIEW0001
  6
Continuous
 62
     7
100
AcDbCircle
 10
20.87686121981691
 20
141.7941159772912
 30
0.0
 40
12.9
  0
CIRCLE
  5
168
330
1F
100
AcDbEntity
  8
VIEW0001
  6
Continuous
 62
     7
100
AcDbCircle
 10
20.87686121981691
 20
141.7941159772912
 30
0.0
 40
9.500000000000018
  0
ARC
  5
169
330
1F
100
AcDbEntity
  8
VIEW0001
  6
Continuous
 62
     7
100
AcDbCircle
 10
-108.1231387801831
 20
63.79411597729119
 30
0.0
 40
2.0
100
AcDbArc
 50
0.0
 51
90.00000000000003
  0
ARC
  5
16A
330
1F
100
AcDbEntity
  8
VIEW0001
  6
Continuous
 62
     7
100
AcDbCircle
 10
-75.62313878018308
 20
180.0442140168838
 30
0.0
 40
27.0
100
AcDbArc
 50
151.8215932788433
 51
180.0
  0
ARC
  5
16B
330
1F
100
AcDbEntity
  8
VIEW0001
  6
Continuous
 62
     7
100
AcDbCircle
 10
-115.6231387801831
 20
180.0442140168838
 30
0.0
 40
27.0
100
AcDbArc
 50
0.000000000000051
 51
28.17840672115679
  0
ARC
  5
16C
330
1F
100
AcDbEntity
  8
VIEW0001
  6
Continuous
 62
     7
100
AcDbCircle
 10
-115.6231387801831
 20
103.5440179376985
 30
0.0
 40
27.0
100
AcDbArc
 50
331.8215932788432
 51
0.0
  0
ARC
  5
16D
330
1F
100
AcDbEntity
  8
VIEW0001
  6
Continuous
 62
     7
100
AcDbCircle
 10
-75.62313878018308
 20
103.5440179376985
 30
0.0
 40
27.0
100
AcDbArc
 50
180.0
 51
208.1784067211567
  0
ARC
  5
16E
330
1F
100
AcDbEntity
  8
VIEW0001
  6
Continuous
 62
     7
100
AcDbCircle
 10
-95.27463300415143
 20
141.7941159772911
 30
0.0
 40
18.15149422396836
100
AcDbArc
 50
342.4120462260065
 51
17.58795377399363
  0
ARC
  5
16F
330
1F
100
AcDbEntity
  8
VIEW0001
  6
Continuous
 62
     7
100
AcDbCircle
 10
-81.9792020021889
 20
150.0213573132433
 30
0.0
 40
4.856063222005818
100
AcDbArc
 50
325.6157525319733
 51
25.61575253192338
  0
ARC
  5
170
330
1F
100
AcDbEntity
  8
VIEW0001
  6
Continuous
 62
     7
100
AcDbCircle
 10
-81.9792020021889
 20
133.566874641339
 30
0.0
 40
4.856063222005818
100
AcDbArc
 50
334.3842474680766
 51
34.38424746802674
  0
ARC
  5
171
330
1F
100
AcDbEntity
  8
VIEW0001
  6
Continuous
 62
     7
100
AcDbCircle
 10
20.87686121981691
 20
141.7941159772912
 30
0.0
 40
51.00000000000001
100
AcDbArc
 50
104.5893621794287
 51
108.1379105478443
  0
ARC
  5
172
330
1F
100
AcDbEntity
  8
VIEW0001
  6
Continuous
 62
     7
100
AcDbCircle
 10
20.87686121981691
 20
141.7941159772912
 30
0.0
 40
51.00000000000001
100
AcDbArc
 50
137.3166349067014
 51
140.865183275117
  0
ARC
  5
173
330
1F
100
AcDbEntity
  8
VIEW0001
  6
Continuous
 62
     7
100
AcDbCircle
 10
17.79515815425724
 20
186.0452012061147
 30
0.0
 40
13.47118152841476
100
AcDbArc
 50
161.7677228990148
 51
185.1818181818183
  0
ARC
  5
174
330
1F
100
AcDbEntity
  8
VIEW0001
  6
Continuous
 62
     7
100
AcDbCircle
 10
-18.0951560144333
 20
162.9798968315856
 30
0.0
 40
13.47118152841476
100
AcDbArc
 50
60.27272727272734
 51
83.68682255553082
  0
ARC
  5
175
330
1F
100
AcDbEntity
  8
VIEW0001
  6
Continuous
 62
     7
100
AcDbCircle
 10
-16.12492805936347
 20
181.4898632197585
 30
0.0
 40
20.7217
100
AcDbArc
 50
352.2727272727273
 51
5.181818181818262
  0
ARC
  5
176
330
1F
100
AcDbEntity
  8
VIEW0001
  6
Continuous
 62
     7
100
AcDbCircle
 10
0.139438223066399
 20
191.9423367478485
 30
0.0
 40
20.7217
100
AcDbArc
 50
240.2727272727273
 51
253.1818181818182
  0
ARC
  5
177
330
1F
100
AcDbEntity
  8
VIEW0001
  6
Continuous
 62
     7
100
AcDbCircle
 10
-3.536288124166728
 20
179.7817178565151
 30
0.0
 40
8.0177
100
AcDbArc
 50
253.1818181818182
 51
352.2727272727273
  0
ARC
  5
178
330
1F
100
AcDbEntity
  8
VIEW0001
  6
Continuous
 62
     7
100
AcDbCircle
 10
20.87686121981691
 20
141.7941159772912
 30
0.0
 40
51.00000000000001
100
AcDbArc
 50
170.0439076339741
 51
173.5924560023897
  0
ARC
  5
179
330
1F
100
AcDbEntity
  8
VIEW0001
  6
Continuous
 62
     7
100
AcDbCircle
 10
-5.639575262630298
 20
177.354403293133
 30
0.0
 40
13.47118152841476
100
AcDbArc
 50
194.4949956262875
 51
217.909090909091
  0
ARC
  5
17A
330
1F
100
AcDbEntity
  8
VIEW0001
  6
Continuous
 62
     7
100
AcDbCircle
 10
-23.36238383955462
 20
138.5468657113348
 30
0.0
 40
13.47118152841476
100
AcDbArc
 50
93.00000000000006
 51
116.4140952828035
  0
ARC
  5
17B
330
1F
100
AcDbEntity
  8
VIEW0001
  6
Continuous
 62
     7
100
AcDbCircle
 10
-31.71216597104684
 20
155.1836259801746
 30
0.0
 40
20.7217
100
AcDbArc
 50
25.00000000000004
 51
37.90909090909096
  0
ARC
  5
17C
330
1F
100
AcDbEntity
  8
VIEW0001
  6
Continuous
 62
     7
100
AcDbCircle
 10
-23.68074420935196
 20
172.7699865448349
 30
0.0
 40
20.7217
100
AcDbArc
 50
273.0
 51
285.9090909090909
  0
ARC
  5
17D
330
1F
100
AcDbEntity
  8
VIEW0001
  6
Continuous
 62
     7
100
AcDbCircle
 10
-20.19843504650596
 20
160.5525752439758
 30
0.0
 40
8.0177
100
AcDbArc
 50
285.9090909090909
 51
25.00000000000002
  0
ARC
  5
17E
330
1F
100
AcDbEntity
  8
VIEW0001
  6
Continuous
 62
     7
100
AcDbCircle
 10
20.87686121981691
 20
141.7941159772912
 30
0.0
 40
51.00000000000001
100
AcDbArc
 50
202.7711803612468
 51
206.3197287296624
  0
ARC
  5
17F
330
1F
100
AcDbEntity
  8
VIEW0001
  6
Continuous
 62
     7
100
AcDbCircle
 10
-20.65552745252809
 20
157.3734654143553
 30
0.0
 40
13.47118152841476
100
AcDbArc
 50
227.2222683535603
 51
250.6363636363637
  0
ARC
  5
180
330
1F
100
AcDbEntity
  8
VIEW0001
  6
Continuous
 62
     7
100
AcDbCircle
 10
-14.58396393789423
 20
115.1448136065513
 30
0.0
 40
13.47118152841476
100
AcDbArc
 50
125.7272727272728
 51
149.1413680100763
  0
ARC
  5
181
330
1F
100
AcDbEntity
  8
VIEW0001
  6
Continuous
 62
     7
100
AcDbCircle
 10
-30.60275932594104
 20
124.6263139204321
 30
0.0
 40
20.7217
100
AcDbArc
 50
57.72727272727278
 51
70.63636363636371
  0
ARC
  5
182
330
1F
100
AcDbEntity
  8
VIEW0001
  6
Continuous
 62
     7
100
AcDbCircle
 10
-33.35420174700481
 20
143.7630163016689
 30
0.0
 40
20.7217
100
AcDbArc
 50
305.7272727272727
 51
318.6363636363637
  0
ARC
  5
183
330
1F
100
AcDbEntity
  8
VIEW0001
  6
Continuous
 62
     7
100
AcDbCircle
 10
-23.81946562846254
 20
135.3677543552038
 30
0.0
 40
8.0177
100
AcDbArc
 50
318.6363636363637
 51
57.72727272727278
  0
ARC
  5
184
330
1F
100
AcDbEntity
  8
VIEW0001
  6
Continuous
 62
     7
100
AcDbCircle
 10
20.87686121981691
 20
141.7941159772912
 30
0.0
 40
51.00000000000001
100
AcDbArc
 50
235.4984530885195
 51
239.0470014569351
  0
ARC
  5
185
330
1F
100
AcDbEntity
  8
VIEW0001
  6
Continuous
 62
     7
100
AcDbCircle
 10
-22.4852396927918
 20
132.4461941677326
 30
0.0
 40
13.47118152841476
100
AcDbArc
 50
259.949541080833
 51
283.3636363636365
  0
ARC
  5
186
330
1F
100
AcDbEntity
  8
VIEW0001
  6
Continuous
 62
     7
100
AcDbCircle
 10
5.453017397121794
 20
100.2037267095049
 30
0.0
 40
13.47118152841476
100
AcDbArc
 50
158.4545454545455
 51
181.868640737349
  0
ARC
  5
187
330
1F
100
AcDbEntity
  8
VIEW0001
  6
Continuous
 62
     7
100
AcDbCircle
 10
-13.14893689517443
 20
99.51965771184945
 30
0.0
 40
20.7217
100
AcDbArc
 50
90.45454545454551
 51
103.3636363636364
  0
ARC
  5
188
330
1F
100
AcDbEntity
  8
VIEW0001
  6
Continuous
 62
     7
100
AcDbCircle
 10
-25.80967997107225
 20
114.1309341170979
 30
0.0
 40
20.7217
100
AcDbArc
 50
338.4545454545455
 51
351.3636363636364
  0
ARC
  5
189
330
1F
100
AcDbEntity
  8
VIEW0001
  6
Continuous
 62
     7
100
AcDbCircle
 10
-13.24972824524473
 20
112.223257874943
 30
0.0
 40
8.0177
100
AcDbArc
 50
351.3636363636364
 51
90.4545454545455
  0
ARC
  5
18A
330
1F
100
AcDbEntity
  8
VIEW0001
  6
Continuous
 62
     7
100
AcDbCircle
 10
20.87686121981691
 20
141.7941159772912
 30
0.0
 40
51.00000000000001
100
AcDbArc
 50
268.2257258157923
 51
271.7742741842079
  0
ARC
  5
18B
330
1F
100
AcDbEntity
  8
VIEW0001
  6
Continuous
 62
     7
100
AcDbCircle
 10
-10.54779127526664
 20
110.4868220463855
 30
0.0
 40
13.47118152841476
100
AcDbArc
 50
292.6768138081057
 51
316.0909090909092
  0
ARC
  5
18C
330
1F
100
AcDbEntity
  8
VIEW0001
  6
Continuous
 62
     7
100
AcDbCircle
 10
30.38696016617072
 20
98.46729454133258
 30
0.0
 40
13.47118152841476
100
AcDbArc
 50
191.1818181818182
 51
214.5959134646217
  0
ARC
  5
18D
330
1F
100
AcDbEntity
  8
VIEW0001
  6
Continuous
 62
     7
100
AcDbCircle
 10
15.10783602230083
 20
87.83484330549597
 30
0.0
 40
20.7217
100
AcDbArc
 50
123.1818181818182
 51
136.0909090909092
  0
ARC
  5
18E
330
1F
100
AcDbEntity
  8
VIEW0001
  6
Continuous
 62
     7
100
AcDbCircle
 10
-3.442511238369319
 20
93.2817167144354
 30
0.0
 40
20.7217
100
AcDbArc
 50
11.18181818181819
 51
24.09090909090912
  0
ARC
  5
18F
330
1F
100
AcDbEntity
  8
VIEW0001
  6
Continuous
 62
     7
100
AcDbCircle
 10
8.154960166171398
 20
98.46729990447875
 30
0.0
 40
8.0177
100
AcDbArc
 50
24.09090909090909
 51
123.1818181818182
  0
ARC
  5
190
330
1F
100
AcDbEntity
  8
VIEW0001
  6
Continuous
 62
     7
100
AcDbCircle
 10
20.87686121981691
 20
141.7941159772912
 30
0.0
 40
51.00000000000001
100
AcDbArc
 50
300.952998543065
 51
304.5015469114806
  0
ARC
  5
191
330
1F
100
AcDbEntity
  8
VIEW0001
  6
Continuous
 62
     7
100
AcDbCircle
 10
11.36676227346319
 20
98.46729454133256
 30
0.0
 40
13.47118152841476
100
AcDbArc
 50
325.4040865353785
 51
348.818181818182
  0
ARC
  5
192
330
1F
100
AcDbEntity
  8
VIEW0001
  6
Continuous
 62
     7
100
AcDbCircle
 10
52.30151371490052
 20
110.4868220463856
 30
0.0
 40
13.47118152841476
100
AcDbArc
 50
223.909090909091
 51
247.3231861918944
  0
ARC
  5
193
330
1F
100
AcDbEntity
  8
VIEW0001
  6
Continuous
 62
     7
100
AcDbCircle
 10
45.19623367800327
 20
93.28171671443542
 30
0.0
 40
20.7217
100
AcDbArc
 50
155.909090909091
 51
168.8181818181819
  0
ARC
  5
194
330
1F
100
AcDbEntity
  8
VIEW0001
  6
Continuous
 62
     7
100
AcDbCircle
 10
26.6458864173331
 20
87.83484330549602
 30
0.0
 40
20.7217
100
AcDbArc
 50
43.90909090909093
 51
56.81818181818185
  0
ARC
  5
195
330
1F
100
AcDbEntity
  8
VIEW0001
  6
Continuous
 62
     7
100
AcDbCircle
 10
33.59876227346253
 20
98.46729990447879
 30
0.0
 40
8.0177
100
AcDbArc
 50
56.81818181818185
 51
155.9090909090909
  0
ARC
  5
196
330
1F
100
AcDbEntity
  8
VIEW0001
  6
Continuous
 62
     7
100
AcDbCircle
 10
20.87686121981691
 20
141.7941159772912
 30
0.0
 40
51.00000000000001
100
AcDbArc
 50
333.6802712703378
 51
337.2288196387534
  0
ARC
  5
197
330
1F
100
AcDbEntity
  8
VIEW0001
  6
Continuous
 62
     7
100
AcDbCircle
 10
36.30070504251213
 20
100.2037267095049
 30
0.0
 40
13.47118152841476
100
AcDbArc
 50
358.1313592626512
 51
21.54545454545467
  0
ARC
  5
198
330
1F
100
AcDbEntity
  8
VIEW0001
  6
Continuous
 62
     7
100
AcDbCircle
 10
64.23896213242566
 20
132.4461941677328
 30
0.0
 40
13.47118152841476
100
AcDbArc
 50
256.6363636363637
 51
280.0504589191672
  0
ARC
  5
199
330
1F
100
AcDbEntity
  8
VIEW0001
  6
Continuous
 62
     7
100
AcDbCircle
 10
67.56340241070617
 20
114.130934117098
 30
0.0
 40
20.7217
100
AcDbArc
 50
188.6363636363637
 51
201.5454545454546
  0
ARC
  5
19A
330
1F
100
AcDbEntity
  8
VIEW0001
  6
Continuous
 62
     7
100
AcDbCircle
 10
54.90265933480834
 20
99.51965771184958
 30
0.0
 40
20.7217
100
AcDbArc
 50
76.63636363636367
 51
89.54545454545459
  0
ARC
  5
19B
330
1F
100
AcDbEntity
  8
VIEW0001
  6
Continuous
 62
     7
100
AcDbCircle
 10
55.00345068487863
 20
112.2232578749432
 30
0.0
 40
8.0177
100
AcDbArc
 50
89.5454545454546
 51
188.6363636363637
  0
ARC
  5
19C
330
1F
100
AcDbEntity
  8
VIEW0001
  6
Continuous
 62
     7
100
AcDbCircle
 10
20.87686121981691
 20
141.7941159772912
 30
0.0
 40
51.00000000000001
100
AcDbArc
 50
6.407543997610441
 51
9.956092366026041
  0
ARC
  5
19D
330
1F
100
AcDbEntity
  8
VIEW0001
  6
Continuous
 62
     7
100
AcDbCircle
 10
56.33768637752811
 20
115.1448136065514
 30
0.0
 40
13.47118152841476
100
AcDbArc
 50
30.85863198992389
 51
54.27272727272737
  0
ARC
  5
19E
330
1F
100
AcDbEntity
  8
VIEW0001
  6
Continuous
 62
     7
100
AcDbCircle
 10
62.40924989216188
 20
157.3734654143554
 30
0.0
 40
13.47118152841476
100
AcDbArc
 50
289.3636363636364
 51
312.7777316464399
  0
ARC
  5
19F
330
1F
100
AcDbEntity
  8
VIEW0001
  6
Continuous
 62
     7
100
AcDbCircle
 10
75.10792418663867
 20
143.763016301669
 30
0.0
 40
20.7217
100
AcDbArc
 50
221.3636363636364
 51
234.2727272727273
  0
ARC
  5
1A0
330
1F
100
AcDbEntity
  8
VIEW0001
  6
Continuous
 62
     7
100
AcDbCircle
 10
72.35648176557488
 20
124.6263139204322
 30
0.0
 40
20.7217
100
AcDbArc
 50
109.3636363636364
 51
122.2727272727273
  0
ARC
  5
1A1
330
1F
100
AcDbEntity
  8
VIEW0001
  6
Continuous
 62
     7
100
AcDbCircle
 10
65.57318806809637
 20
135.3677543552039
 30
0.0
 40
8.0177
100
AcDbArc
 50
122.2727272727273
 51
221.3636363636364
  0
ARC
  5
1A2
330
1F
100
AcDbEntity
  8
VIEW0001
  6
Continuous
 62
     7
100
AcDbCircle
 10
20.87686121981691
 20
141.7941159772912
 30
0.0
 40
51.00000000000001
100
AcDbArc
 50
39.13481672488317
 51
42.68336509329877
  0
ARC
  5
1A3
330
1F
100
AcDbEntity
  8
VIEW0001
  6
Continuous
 62
     7
100
AcDbCircle
 10
65.11610627918846
 20
138.5468657113349
 30
0.0
 40
13.47118152841476
100
AcDbArc
 50
63.58590471719661
 51
87.00000000000009
  0
ARC
  5
1A4
330
1F
100
AcDbEntity
  8
VIEW0001
  6
Continuous
 62
     7
100
AcDbCircle
 10
47.39329770226404
 20
177.3544032931331
 30
0.0
 40
13.47118152841476
100
AcDbArc
 50
322.0909090909091
 51
345.5050043737126
  0
ARC
  5
1A5
330
1F
100
AcDbEntity
  8
VIEW0001
  6
Continuous
 62
     7
100
AcDbCircle
 10
65.43446664898573
 20
172.769986544835
 30
0.0
 40
20.7217
100
AcDbArc
 50
254.0909090909091
 51
267.0000000000001
  0
ARC
  5
1A6
330
1F
100
AcDbEntity
  8
VIEW0001
  6
Continuous
 62
     7
100
AcDbCircle
 10
73.46588841068059
 20
155.1836259801747
 30
0.0
 40
20.7217
100
AcDbArc
 50
142.0909090909091
 51
155.0
  0
ARC
  5
1A7
330
1F
100
AcDbEntity
  8
VIEW0001
  6
Continuous
 62
     7
100
AcDbCircle
 10
61.95215748613974
 20
160.5525752439759
 30
0.0
 40
8.0177
100
AcDbArc
 50
155.0
 51
254.0909090909091
  0
ARC
  5
1A8
330
1F
100
AcDbEntity
  8
VIEW0001
  6
Continuous
 62
     7
100
AcDbCircle
 10
-6.123138780183093
 20
115.8396642846892
 30
0.0
 40
8.0
100
AcDbArc
 50
146.7246319252626
 51
180.0
  0
ARC
  5
1A9
330
1F
100
AcDbEntity
  8
VIEW0001
  6
DASHED
 62
     7
100
AcDbCircle
 10
47.87686121981692
 20
115.8396642846892
 30
0.0
 40
8.0
100
AcDbArc
 50
33.27536807473746
 51
39.99999999999998
  0
ARC
  5
1AA
330
1F
100
AcDbEntity
  8
VIEW0001
  6
Continuous
 62
     7
100
AcDbCircle
 10
47.87686121981692
 20
115.8396642846892
 30
0.0
 40
8.0
100
AcDbArc
 50
0.000000000000051
 51
33.27536807473746
  0
CIRCLE
  5
1AB
330
1F
100
AcDbEntity
  8
VIEW0001
  6
PHANTOM
 62
     7
100
AcDbCircle
 10
20.87686121981691
 20
105.7941159772912
 30
0.0
 40
51.00000000000001
  0
CIRCLE
  5
1AC
330
1F
100
AcDbEntity
  8
VIEW0001
  6
Continuous
 62
     7
100
AcDbCircle
 10
20.87686121981691
 20
141.7941159772912
 30
0.0
 40
18.5
  0
DIMENSION
  5
1AD
330
1F
100
AcDbEntity
  8
VIEW0001
 62
     7
100
AcDbDimension
  2
*D3
 10
73.44505034050245
 20
-21.20588402270882
 30
0.0
 11
73.44505034050245
 21
-32.74539562303656
 31
0.0
 70
   160
 71
     5
 42
9.0
  3
ISO-25
100
AcDbAlignedDimension
 13
20.87686121981691
 23
-12.20588402270882
 33
0.0
 14
56.12686121981691
 24
-21.20588402270883
 34
0.0
 50
90.00000000000003
100
AcDbRotatedDimension
1001
ACAD
1000
DSTYLE
1002
{
1070
   278
1070
    46
1070
   147
1040
0.699999988079071
1070
    77
1070
     1
1070
    74
1070
     0
1070
    73
1070
     0
1070
    42
1040
2.54
1070
    44
1040
1.166666666666671
1070
    76
1070
     0
1070
    75
1070
     0
1070
   279
1070
     0
1070
   271
1070
     0
1070
   144
1040
0.999999999999999
1070
   173
1070
     1
1070
    41
1040
3.0
1070
   140
1040
2.799999952316284
1070
   344
1005
1AE
1070
   343
1005
1AE
1002
}
  0
DIMENSION
  5
1CA
330
1F
100
AcDbEntity
  8
VIEW0001
 62
     7
100
AcDbDimension
  2
*D4
 10
73.44505034050246
 20
-12.20588402270879
 30
0.0
 11
73.44505034050245
 21
22.79411597729118
 31
0.0
 70
   160
 71
     5
 42
70.0
  3
ISO-25
100
AcDbAlignedDimension
 13
20.87686121981691
 23
57.7941159772912
 33
0.0
 14
20.87686121981691
 24
-12.20588402270882
 34
0.0
 50
90.00000000000003
100
AcDbRotatedDimension
1001
ACAD
1000
DSTYLE
1002
{
1070
   278
1070
    46
1070
   147
1040
0.699999988079071
1070
    77
1070
     1
1070
    74
1070
     0
1070
    73
1070
     0
1070
    42
1040
2.54
1070
    44
1040
1.166666666666671
1070
    76
1070
     1
1070
    75
1070
     0
1070
   279
1070
     0
1070
   271
1070
     0
1070
   144
1040
1.0
1070
   173
1070
     1
1070
    41
1040
3.0
1070
   140
1040
2.799999952316284
1070
   344
1005
1AE
1070
   343
1005
1AE
1002
}
  0
DIMENSION
  5
1D6
330
1F
100
AcDbEntity
  8
VIEW0001
 62
     7
100
AcDbDimension
  2
*D5
 10
92.24130128684779
 20
-21.20588402270881
 30
0.0
 11
92.24130128684777
 21
22.29411597729118
 31
0.0
 70
   160
 71
     5
 42
87.0
  3
ISO-25
100
AcDbAlignedDimension
 13
54.12686121981692
 23
65.7941159772912
 33
0.0
 14
56.12686121981691
 24
-21.20588402270883
 34
0.0
 50
90.00000000000003
100
AcDbRotatedDimension
1001
ACAD
1000
DSTYLE
1002
{
1070
   278
1070
    46
1070
   147
1040
0.699999988079071
1070
    77
1070
     1
1070
    74
1070
     0
1070
    73
1070
     0
1070
    42
1040
2.54
1070
    44
1040
1.166666666666671
1070
    76
1070
     0
1070
    75
1070
     0
1070
   279
1070
     0
1070
   271
1070
     0
1070
   144
1040
1.0
1070
   173
1070
     1
1070
    41
1040
3.0
1070
   140
1040
2.799999952316284
1070
   344
1005
1AE
1070
   343
1005
1AE
1002
}
  0
DIMENSION
  5
1E3
330
1F
100
AcDbEntity
  8
VIEW0001
 62
     7
100
AcDbDimension
  2
*D6
 10
92.24130128684779
 20
65.7941159772912
 30
0.0
 11
92.24130128684777
 21
84.79411597729118
 31
0.0
 70
   160
 71
     5
 42
38.0
  3
ISO-25
100
AcDbAlignedDimension
 13
55.87686121981691
 23
103.7941159772912
 33
0.0
 14
54.12686121981692
 24
65.7941159772912
 34
0.0
 50
90.00000000000003
100
AcDbRotatedDimension
1001
ACAD
1000
DSTYLE
1002
{
1070
   278
1070
    46
1070
   147
1040
0.699999988079071
1070
    77
1070
     1
1070
    74
1070
     0
1070
    73
1070
     0
1070
    42
1040
2.54
1070
    44
1040
1.166666666666671
1070
    76
1070
     1
1070
    75
1070
     0
1070
   279
1070
     0
1070
   271
1070
     0
1070
   144
1040
1.000000000000001
1070
   173
1070
     1
1070
    41
1040
3.0
1070
   140
1040
2.799999952316284
1070
   344
1005
1AE
1070
   343
1005
1AE
1002
}
  0
DIMENSION
  5
1EF
330
1F
100
AcDbEntity
  8
VIEW0001
 62
     7
100
AcDbDimension
  2
*D7
 10
-65.87169636566983
 20
96.71411597729117
 30
0.0
 11
-65.87169636566985
 21
141.7941159772912
 31
0.0
 70
   160
  1
\U+2205<>
 71
     5
 42
90.15999999999998
  3
ISO-25
100
AcDbAlignedDimension
 13
-86.62313878018307
 23
186.8741159772912
 33
0.0
 14
-86.62313878018307
 24
96.71411597729117
 34
0.0
 50
90.00000000000003
100
AcDbRotatedDimension
1001
ACAD
1000
DSTYLE
1002
{
1070
   278
1070
    46
1070
   147
1040
0.699999988079071
1070
    77
1070
     1
1070
    74
1070
     0
1070
    73
1070
     0
1070
    42
1040
2.54
1070
    44
1040
1.166666666666671
1070
    76
1070
     0
1070
    75
1070
     0
1070
   279
1070
     0
1070
   271
1070
     2
1070
   144
1040
1.0
1070
   173
1070
     1
1070
    41
1040
3.0
1070
   140
1040
2.799999952316284
1070
   344
1005
1AE
1070
   343
1005
1AE
1002
}
  0
DIMENSION
  5
1FC
330
1F
100
AcDbEntity
  8
VIEW0001
 62
     7
100
AcDbDimension
  2
*D8
 10
-50.03118496063921
 20
90.79411597729117
 30
0.0
 11
-50.03118496063922
 21
141.7941159772912
 31
0.0
 70
   160
  1
(\U+2205<>)
 71
     5
 42
102.0000000000001
  3
ISO-25
100
AcDbAlignedDimension
 13
-91.82313878018307
 23
192.7941159772912
 33
0.0
 14
-91.82313878018307
 24
90.79411597729117
 34
0.0
 50
90.00000000000003
100
AcDbRotatedDimension
1001
ACAD
1000
DSTYLE
1002
{
1070
   278
1070
    46
1070
   147
1040
0.699999988079071
1070
    77
1070
     1
1070
    74
1070
     0
1070
    73
1070
     0
1070
    42
1040
2.54
1070
    44
1040
1.166666666666664
1070
    76
1070
     0
1070
    75
1070
     0
1070
   279
1070
     0
1070
   271
1070
     0
1070
   144
1040
1.0
1070
   173
1070
     1
1070
    41
1040
3.0
1070
   140
1040
2.799999952316284
1070
   344
1005
1AE
1070
   343
1005
1AE
1002
}
  0
DIMENSION
  5
209
330
1F
100
AcDbEntity
  8
VIEW0001
 62
     7
100
AcDbDimension
  2
*D9
 10
-106.6231387801831
 20
201.4754646488292
 30
0.0
 11
-119.1231387801831
 21
201.4754646488292
 31
0.0
 70
   160
 71
     5
 42
25.0
  3
ISO-25
100
AcDbAlignedDimension
 13
-131.6231387801831
 23
153.7941159772912
 33
0.0
 14
-106.6231387801831
 24
154.6941159772912
 34
0.0
 50
180.0
100
AcDbRotatedDimension
1001
ACAD
1000
DSTYLE
1002
{
1070
   278
1070
    46
1070
   147
1040
0.699999988079071
1070
    77
1070
     1
1070
    74
1070
     0
1070
    73
1070
     0
1070
    42
1040
2.54
1070
    44
1040
1.166666666666686
1070
    76
1070
     0
1070
    75
1070
     0
1070
   279
1070
     0
1070
   271
1070
     0
1070
   144
1040
0.999999999999999
1070
   173
1070
     1
1070
    41
1040
3.0
1070
   140
1040
2.799999952316284
1070
   344
1005
1AE
1070
   343
1005
1AE
1002
}
  0
DIMENSION
  5
216
330
1F
100
AcDbEntity
  8
VIEW0001
 62
     7
100
AcDbDimension
  2
*D10
 10
-95.62313878018308
 20
201.4754646488292
 30
0.0
 11
-86.30957046835918
 21
201.4754646488292
 31
0.0
 70
   160
 71
     5
 42
11.00000000000001
  3
ISO-25
100
AcDbAlignedDimension
 13
-106.6231387801831
 23
154.6941159772912
 33
0.0
 14
-95.62313878018308
 24
197.7941159772912
 34
0.0
 50
180.0
100
AcDbRotatedDimension
1001
ACAD
1000
DSTYLE
1002
{
1070
   278
1070
    46
1070
   147
1040
0.699999988079071
1070
    77
1070
     1
1070
    74
1070
     0
1070
    73
1070
     0
1070
    42
1040
2.54
1070
    44
1040
1.166666666666686
1070
    76
1070
     0
1070
    75
1070
     1
1070
   279
1070
     0
1070
   271
1070
     0
1070
   144
1040
1.000000000000001
1070
   173
1070
     1
1070
    41
1040
3.0
1070
   140
1040
2.799999952316284
1070
   344
1005
1AE
1070
   343
1005
1AE
1002
}
  0
DIMENSION
  5
22A
330
1F
100
AcDbEntity
  8
VIEW0001
 62
     7
100
AcDbDimension
  2
*D11
 10
111.1657772176263
 20
-21.20588402270882
 30
0.0
 11
111.1657772176263
 21
60.29411597729118
 31
0.0
 70
   160
 71
     5
 42
163.0
  3
ISO-25
100
AcDbAlignedDimension
 13
71.87686121981692
 23
141.7941159772912
 33
0.0
 14
56.12686121981691
 24
-21.20588402270883
 34
0.0
 50
90.00000000000003
100
AcDbRotatedDimension
1001
ACAD
1000
DSTYLE
1002
{
1070
   278
1070
    46
1070
   147
1040
0.699999988079071
1070
    77
1070
     1
1070
    74
1070
     0
1070
    73
1070
     0
1070
    42
1040
2.54
1070
    44
1040
1.166666666666671
1070
    76
1070
     0
1070
    75
1070
     0
1070
   279
1070
     0
1070
   271
1070
     0
1070
   144
1040
1.0
1070
   173
1070
     1
1070
    41
1040
3.0
1070
   140
1040
2.799999952316284
1070
   344
1005
1AE
1070
   343
1005
1AE
1002
}
  0
INSERT
  5
243
330
1F
100
AcDbEntity
  8
VIEW0001
 62
     7
100
AcDbBlockReference
  2
DIM0001
 10
-134.1231387801831
 20
-30.98705478923281
 30
0.0
  0
DIMENSION
  5
246
330
1F
100
AcDbEntity
  8
VIEW0001
 62
     7
100
AcDbDimension
  2
*D13
 10
-106.1231387801831
 20
-40.76822555575684
 30
0.0
 11
-120.1231387801831
 21
-40.76822555575684
 31
0.0
 70
   160
 71
     5
 42
28.00000000000002
  3
ISO-25
100
AcDbAlignedDimension
 13
-134.1231387801831
 23
-21.20588402270879
 33
0.0
 14
-106.1231387801831
 24
-21.20588402270879
 34
0.0
 50
180.0
100
AcDbRotatedDimension
1001
ACAD
1000
DSTYLE
1002
{
1070
   278
1070
    46
1070
   147
1040
0.699999988079071
1070
    77
1070
     1
1070
    74
1070
     0
1070
    73
1070
     0
1070
    42
1040
2.54
1070
    44
1040
1.166666666666679
1070
    76
1070
     0
1070
    75
1070
     0
1070
   279
1070
     0
1070
   271
1070
     0
1070
   144
1040
0.999999999999999
1070
   173
1070
     1
1070
    41
1040
3.0
1070
   140
1040
2.799999952316284
1070
   344
1005
1AE
1070
   343
1005
1AE
1002
}
  0
INSERT
  5
25E
330
1F
100
AcDbEntity
  8
VIEW0001
 62
     7
100
AcDbBlockReference
  2
DIM0002
 10
-134.1231387801831
 20
-50.54939632228083
 30
0.0
  0
DIMENSION
  5
261
330
1F
100
AcDbEntity
  8
VIEW0001
 62
     7
100
AcDbDimension
  2
*D15
 10
-77.12313878018323
 20
-60.33056708880486
 30
0.0
 11
-105.6231387801831
 21
-60.33056708880486
 31
0.0
 70
   160
 71
     5
 42
56.99999999999999
  3
ISO-25
100
AcDbAlignedDimension
 13
-134.1231387801831
 23
-21.20588402270879
 33
0.0
 14
-77.12313878018308
 24
132.2941159772912
 34
0.0
 50
180.0
100
AcDbRotatedDimension
1001
ACAD
1000
DSTYLE
1002
{
1070
   278
1070
    46
1070
   147
1040
0.699999988079071
1070
    77
1070
     1
1070
    74
1070
     0
1070
    73
1070
     0
1070
    42
1040
2.54
1070
    44
1040
1.166666666666671
1070
    76
1070
     0
1070
    75
1070
     0
1070
   279
1070
     0
1070
   271
1070
     0
1070
   144
1040
1.0
1070
   173
1070
     1
1070
    41
1040
3.0
1070
   140
1040
2.799999952316284
1070
   344
1005
1AE
1070
   343
1005
1AE
1002
}
  0
DIMENSION
  5
26E
330
1F
100
AcDbEntity
  8
VIEW0001
 62
     7
100
AcDbDimension
  2
*D16
 10
56.1268612198169
 20
-60.33056708880487
 30
0.0
 11
20.87686121981691
 21
-60.33056708880486
 31
0.0
 70
   160
 71
     5
 42
70.5
  3
ISO-25
100
AcDbAlignedDimension
 13
-14.3731387801831
 23
-21.20588402270879
 33
0.0
 14
56.12686121981691
 24
-21.20588402270879
 34
0.0
 50
180.0
100
AcDbRotatedDimension
1001
ACAD
1000
DSTYLE
1002
{
1070
   278
1070
    46
1070
   147
1040
0.699999988079071
1070
    77
1070
     1
1070
    74
1070
     0
1070
    73
1070
     0
1070
    42
1040
2.54
1070
    44
1040
1.166666666666671
1070
    76
1070
     0
1070
    75
1070
     0
1070
   279
1070
     0
1070
   271
1070
     1
1070
   144
1040
1.0
1070
   173
1070
     1
1070
    41
1040
3.0
1070
   140
1040
2.799999952316284
1070
   344
1005
1AE
1070
   343
1005
1AE
1002
}
  0
DIMENSION
  5
27B
330
1F
100
AcDbEntity
  8
VIEW0001
 62
     7
100
AcDbDimension
  2
*D17
 10
27.12686121981691
 20
-40.76822555575684
 30
0.0
 11
39.68546611381559
 21
-40.76822555575684
 31
0.0
 70
   160
 71
     5
 42
12.5
  3
ISO-25
100
AcDbAlignedDimension
 13
14.62686121981691
 23
-5.955884022708793
 33
0.0
 14
27.12686121981691
 24
-5.955884022708793
 34
0.0
 50
180.0
100
AcDbRotatedDimension
1001
ACAD
1000
DSTYLE
1002
{
1070
   278
1070
    46
1070
   147
1040
0.699999988079071
1070
    77
1070
     1
1070
    74
1070
     0
1070
    73
1070
     0
1070
    42
1040
2.54
1070
    44
1040
1.166666666666671
1070
    76
1070
     0
1070
    75
1070
     0
1070
   279
1070
     0
1070
   271
1070
     1
1070
   144
1040
1.0
1070
   173
1070
     1
1070
    41
1040
3.0
1070
   140
1040
2.799999952316284
1070
   344
1005
1AE
1070
   343
1005
1AE
1002
}
  0
ENDSEC
  0
SECTION
  2
OBJECTS
  0
DICTIONARY
  5
C
330
0
100
AcDbDictionary
281
     1
  3
ACAD_GROUP
350
D
  3
ACAD_LAYOUT
350
1A
  3
ACAD_MLEADERSTYLE
350
294
  3
ACAD_MLINESTYLE
350
17
  3
ACAD_PLOTSETTINGS
350
19
  3
ACAD_PLOTSTYLENAME
350
E
  3
ACAD_SCALELIST
350
7F
  3
ACAD_VISUALSTYLE
350
2A
  3
AcDbVariableDictionary
350
292
  0
DICTIONARY
  5
D
102
{ACAD_REACTORS
330
C
102
}
330
C
100
AcDbDictionary
281
     1
  0
DICTIONARY
  5
1A
102
{ACAD_REACTORS
330
C
102
}
330
C
100
AcDbDictionary
281
     1
  3
Layout1
350
1E
  3
Layout2
350
26
  3
Model
350
22
  0
DICTIONARY
  5
294
102
{ACAD_REACTORS
330
C
102
}
330
C
100
AcDbDictionary
281
     1
  0
DICTIONARY
  5
17
102
{ACAD_REACTORS
330
C
102
}
330
C
100
AcDbDictionary
281
     1
  3
Standard
350
18
  0
DICTIONARY
  5
19
102
{ACAD_REACTORS
330
C
102
}
330
C
100
AcDbDictionary
281
     1
  0
ACDBDICTIONARYWDFLT
  5
E
102
{ACAD_REACTORS
330
C
102
}
330
C
100
AcDbDictionary
281
     1
  3
Normal
350
F
100
AcDbDictionaryWithDefault
340
F
  0
DICTIONARY
  5
7F
102
{ACAD_REACTORS
330
C
102
}
330
C
100
AcDbDictionary
281
     1
  3
A0
350
80
  3
A1
350
81
  3
A2
350
82
  3
A3
350
83
  3
A4
350
84
  3
A5
350
85
  3
A6
350
86
  3
A7
350
87
  3
A8
350
88
  3
A9
350
89
  3
B0
350
8A
  3
B1
350
8B
  3
B2
350
8C
  3
B3
350
8D
  3
B4
350
8E
  3
B5
350
8F
  3
B6
350
90
  3
B7
350
91
  3
B8
350
92
  3
B9
350
93
  3
C0
350
94
  3
C1
350
95
  3
C2
350
96
  3
C3
350
97
  3
C4
350
98
  3
C5
350
99
  3
C6
350
9A
  3
C7
350
9B
  3
C8
350
9C
  3
C9
350
9D
  3
D0
350
9E
  3
D1
350
9F
  3
D2
350
A0
  0
DICTIONARY
  5
2A
102
{ACAD_REACTORS
330
C
102
}
330
C
100
AcDbDictionary
281
     1
  3
2dWireframe
350
2F
  3
3D Hidden
350
31
  3
3dWireframe
350
30
  3
Basic
350
32
  3
Brighten
350
36
  3
ColorChange
350
3A
  3
Conceptual
350
34
  3
Dim
350
35
  3
Facepattern
350
39
  3
Flat
350
2B
  3
FlatWithEdges
350
2C
  3
Gouraud
350
2D
  3
GouraudWithEdges
350
2E
  3
Linepattern
350
38
  3
Realistic
350
33
  3
Thicken
350
37
  0
DICTIONARY
  5
292
102
{ACAD_REACTORS
330
C
102
}
330
C
100
AcDbDictionary
281
     1
  3
CANNOSCALE
350
297
  3
PSOLHEIGHT
350
296
  3
PSOLWIDTH
350
295
  0
LAYOUT
  5
1E
102
{ACAD_REACTORS
330
1A
102
}
330
1A
100
AcDbPlotSettings
  1

  2
none_device
  4

  6

 40
0.0
 41
0.0
 42
0.0
 43
0.0
 44
0.0
 45
0.0
 46
0.0
 47
0.0
 48
0.0
 49
0.0
140
0.0
141
0.0
142
1.0
143
1.0
 70
   688
 72
     0
 73
     0
 74
     5
  7

 75
    16
147
1.0
148
0.0
149
0.0
100
AcDbLayout
  1
Layout1
 70
     1
 71
     1
 10
-152.1482096735932
 20
-61.49723375547153
 11
112.332443884293
 21
205.5354645796878
 12
0.0
 22
0.0
 32
0.0
 14
1.000000000000000E+20
 24
1.000000000000000E+20
 34
1.000000000000000E+20
 15
-1.000000000000000E+20
 25
-1.000000000000000E+20
 35
-1.000000000000000E+20
146
0.0
 13
0.0
 23
0.0
 33
0.0
 16
1.0
 26
0.0
 36
0.0
 17
0.0
 27
1.0
 37
0.0
 76
     0
330
1B
  0
LAYOUT
  5
26
102
{ACAD_REACTORS
330
1A
102
}
330
1A
100
AcDbPlotSettings
  1

  2
none_device
  4

  6

 40
0.0
 41
0.0
 42
0.0
 43
0.0
 44
0.0
 45
0.0
 46
0.0
 47
0.0
 48
0.0
 49
0.0
140
0.0
141
0.0
142
1.0
143
1.0
 70
   688
 72
     0
 73
     0
 74
     5
  7

 75
    16
147
1.0
148
0.0
149
0.0
100
AcDbLayout
  1
Layout2
 70
     1
 71
     2
 10
0.0
 20
0.0
 11
0.0
 21
0.0
 12
0.0
 22
0.0
 32
0.0
 14
0.0
 24
0.0
 34
0.0
 15
0.0
 25
0.0
 35
0.0
146
0.0
 13
0.0
 23
0.0
 33
0.0
 16
1.0
 26
0.0
 36
0.0
 17
0.0
 27
1.0
 37
0.0
 76
     0
330
23
  0
LAYOUT
  5
22
102
{ACAD_REACTORS
330
1A
102
}
330
1A
100
AcDbPlotSettings
  1

  2
none_device
  4

  6

 40
0.0
 41
0.0
 42
0.0
 43
0.0
 44
0.0
 45
0.0
 46
0.0
 47
0.0
 48
0.0
 49
0.0
140
0.0
141
0.0
142
1.0
143
1.0
 70
  1712
 72
     0
 73
     0
 74
     0
  7

 75
     0
147
1.0
148
0.0
149
0.0
100
AcDbLayout
  1
Model
 70
     1
 71
     0
 10
-152.1482096735932
 20
-61.49723375547153
 11
112.332443884293
 21
205.5354645796878
 12
0.0
 22
0.0
 32
0.0
 14
-152.1482096735932
 24
-61.49723375547153
 34
0.0
 15
112.332443884293
 25
205.5354645796878
 35
0.0
146
0.0
 13
0.0
 23
0.0
 33
0.0
 16
1.0
 26
0.0
 36
0.0
 17
0.0
 27
1.0
 37
0.0
 76
     0
330
1F
331
29
  0
MLINESTYLE
  5
18
102
{ACAD_REACTORS
330
17
102
}
330
17
100
AcDbMlineStyle
  2
Standard
 70
     0
  3

 62
   256
 51
90.0
 52
90.0
 71
     2
 49
0.5
 62
   256
  6
BYLAYER
 49
-0.5
 62
   256
  6
BYLAYER
  0
ACDBPLACEHOLDER
  5
F
102
{ACAD_REACTORS
330
E
102
}
330
E
  0
SCALE
  5
80
102
{ACAD_REACTORS
330
7F
102
}
330
7F
100
AcDbScale
 70
     0
300
1:1
140
1.0
141
1.0
290
     1
  0
SCALE
  5
81
102
{ACAD_REACTORS
330
7F
102
}
330
7F
100
AcDbScale
 70
     0
300
1:2
140
1.0
141
2.0
290
     0
  0
SCALE
  5
82
102
{ACAD_REACTORS
330
7F
102
}
330
7F
100
AcDbScale
 70
     0
300
1:4
140
1.0
141
4.0
290
     0
  0
SCALE
  5
83
102
{ACAD_REACTORS
330
7F
102
}
330
7F
100
AcDbScale
 70
     0
300
1:5
140
1.0
141
5.0
290
     0
  0
SCALE
  5
84
102
{ACAD_REACTORS
330
7F
102
}
330
7F
100
AcDbScale
 70
     0
300
1:8
140
1.0
141
8.0
290
     0
  0
SCALE
  5
85
102
{ACAD_REACTORS
330
7F
102
}
330
7F
100
AcDbScale
 70
     0
300
1:10
140
1.0
141
10.0
290
     0
  0
SCALE
  5
86
102
{ACAD_REACTORS
330
7F
102
}
330
7F
100
AcDbScale
 70
     0
300
1:16
140
1.0
141
16.0
290
     0
  0
SCALE
  5
87
102
{ACAD_REACTORS
330
7F
102
}
330
7F
100
AcDbScale
 70
     0
300
1:20
140
1.0
141
20.0
290
     0
  0
SCALE
  5
88
102
{ACAD_REACTORS
330
7F
102
}
330
7F
100
AcDbScale
 70
     0
300
1:30
140
1.0
141
30.0
290
     0
  0
SCALE
  5
89
102
{ACAD_REACTORS
330
7F
102
}
330
7F
100
AcDbScale
 70
     0
300
1:40
140
1.0
141
40.0
290
     0
  0
SCALE
  5
8A
102
{ACAD_REACTORS
330
7F
102
}
330
7F
100
AcDbScale
 70
     0
300
1:50
140
1.0
141
50.0
290
     0
  0
SCALE
  5
8B
102
{ACAD_REACTORS
330
7F
102
}
330
7F
100
AcDbScale
 70
     0
300
1:100
140
1.0
141
100.0
290
     0
  0
SCALE
  5
8C
102
{ACAD_REACTORS
330
7F
102
}
330
7F
100
AcDbScale
 70
     0
300
2:1
140
2.0
141
1.0
290
     0
  0
SCALE
  5
8D
102
{ACAD_REACTORS
330
7F
102
}
330
7F
100
AcDbScale
 70
     0
300
4:1
140
4.0
141
1.0
290
     0
  0
SCALE
  5
8E
102
{ACAD_REACTORS
330
7F
102
}
330
7F
100
AcDbScale
 70
     0
300
8:1
140
8.0
141
1.0
290
     0
  0
SCALE
  5
8F
102
{ACAD_REACTORS
330
7F
102
}
330
7F
100
AcDbScale
 70
     0
300
10:1
140
10.0
141
1.0
290
     0
  0
SCALE
  5
90
102
{ACAD_REACTORS
330
7F
102
}
330
7F
100
AcDbScale
 70
     0
300
100:1
140
100.0
141
1.0
290
     0
  0
SCALE
  5
91
102
{ACAD_REACTORS
330
7F
102
}
330
7F
100
AcDbScale
 70
     0
300
1/128" = 1'-0"
140
0.0078125
141
12.0
290
     0
  0
SCALE
  5
92
102
{ACAD_REACTORS
330
7F
102
}
330
7F
100
AcDbScale
 70
     0
300
1/64" = 1'-0"
140
0.015625
141
12.0
290
     0
  0
SCALE
  5
93
102
{ACAD_REACTORS
330
7F
102
}
330
7F
100
AcDbScale
 70
     0
300
1/32" = 1'-0"
140
0.03125
141
12.0
290
     0
  0
SCALE
  5
94
102
{ACAD_REACTORS
330
7F
102
}
330
7F
100
AcDbScale
 70
     0
300
1/16" = 1'-0"
140
0.0625
141
12.0
290
     0
  0
SCALE
  5
95
102
{ACAD_REACTORS
330
7F
102
}
330
7F
100
AcDbScale
 70
     0
300
3/32" = 1'-0"
140
0.09375
141
12.0
290
     0
  0
SCALE
  5
96
102
{ACAD_REACTORS
330
7F
102
}
330
7F
100
AcDbScale
 70
     0
300
1/8" = 1'-0"
140
0.125
141
12.0
290
     0
  0
SCALE
  5
97
102
{ACAD_REACTORS
330
7F
102
}
330
7F
100
AcDbScale
 70
     0
300
3/16" = 1'-0"
140
0.1875
141
12.0
290
     0
  0
SCALE
  5
98
102
{ACAD_REACTORS
330
7F
102
}
330
7F
100
AcDbScale
 70
     0
300
1/4" = 1'-0"
140
0.25
141
12.0
290
     0
  0
SCALE
  5
99
102
{ACAD_REACTORS
330
7F
102
}
330
7F
100
AcDbScale
 70
     0
300
3/8" = 1'-0"
140
0.375
141
12.0
290
     0
  0
SCALE
  5
9A
102
{ACAD_REACTORS
330
7F
102
}
330
7F
100
AcDbScale
 70
     0
300
1/2" = 1'-0"
140
0.5
141
12.0
290
     0
  0
SCALE
  5
9B
102
{ACAD_REACTORS
330
7F
102
}
330
7F
100
AcDbScale
 70
     0
300
3/4" = 1'-0"
140
0.75
141
12.0
290
     0
  0
SCALE
  5
9C
102
{ACAD_REACTORS
330
7F
102
}
330
7F
100
AcDbScale
 70
     0
300
1" = 1'-0"
140
1.0
141
12.0
290
     0
  0
SCALE
  5
9D
102
{ACAD_REACTORS
330
7F
102
}
330
7F
100
AcDbScale
 70
     0
300
1-1/2" = 1'-0"
140
1.5
141
12.0
290
     0
  0
SCALE
  5
9E
102
{ACAD_REACTORS
330
7F
102
}
330
7F
100
AcDbScale
 70
     0
300
3" = 1'-0"
140
3.0
141
12.0
290
     0
  0
SCALE
  5
9F
102
{ACAD_REACTORS
330
7F
102
}
330
7F
100
AcDbScale
 70
     0
300
6" = 1'-0"
140
6.0
141
12.0
290
     0
  0
SCALE
  5
A0
102
{ACAD_REACTORS
330
7F
102
}
330
7F
100
AcDbScale
 70
     0
300
1'-0" = 1'-0"
140
12.0
141
12.0
290
     0
  0
VISUALSTYLE
  5
2F
102
{ACAD_REACTORS
330
2A
102
}
330
2A
100
AcDbVisualStyle
  2
2dWireframe
 70
     4
 71
     0
 72
     2
 73
     0
 90
        0
 40
-0.6
 41
-30.0
 62
     5
 63
     7
 74
     1
 91
        4
 64
     7
 65
   257
 75
     1
175
     1
 42
1.0
 92
        0
 66
   257
 43
1.0
 76
     1
 77
     6
 78
     2
 67
     7
 79
     5
170
     0
171
     0
290
     0
174
     0
 93
        1
 44
0.0
173
     0
291
     0
 45
0.0
1001
ACAD
1000
AcDbSavedByObjectVersion
1070
     0
  0
VISUALSTYLE
  5
31
102
{ACAD_REACTORS
330
2A
102
}
330
2A
100
AcDbVisualStyle
  2
3D Hidden
 70
     6
 71
     1
 72
     2
 73
     2
 90
        0
 40
-0.6
 41
-30.0
 62
     5
 63
     7
 74
     2
 91
        2
 64
     7
 65
   257
 75
     2
175
     1
 42
40.0
 92
        0
 66
   257
 43
1.0
 76
     1
 77
     6
 78
     2
 67
     7
 79
     3
170
     0
171
     0
290
     0
174
     0
 93
        1
 44
0.0
173
     0
291
     0
 45
0.0
1001
ACAD
1000
AcDbSavedByObjectVersion
1070
     0
  0
VISUALSTYLE
  5
30
102
{ACAD_REACTORS
330
2A
102
}
330
2A
100
AcDbVisualStyle
  2
3dWireframe
 70
     5
 71
     0
 72
     2
 73
     0
 90
        0
 40
-0.6
 41
-30.0
 62
     5
 63
     7
 74
     1
 91
        4
 64
     7
 65
   257
 75
     1
175
     1
 42
1.0
 92
        0
 66
   257
 43
1.0
 76
     1
 77
     6
 78
     2
 67
     7
 79
     5
170
     0
171
     0
290
     0
174
     0
 93
        1
 44
0.0
173
     0
291
     0
 45
0.0
1001
ACAD
1000
AcDbSavedByObjectVersion
1070
     0
  0
VISUALSTYLE
  5
32
102
{ACAD_REACTORS
330
2A
102
}
330
2A
100
AcDbVisualStyle
  2
Basic
 70
     7
 71
     1
 72
     0
 73
     1
 90
        0
 40
-0.6
 41
-30.0
 62
     5
 63
     7
 74
     0
 91
        4
 64
     7
 65
   257
 75
     1
175
     1
 42
1.0
 92
        8
 66
     7
 43
1.0
 76
     1
 77
     6
 78
     2
 67
     7
 79
     5
170
     0
171
     0
290
     0
174
     0
 93
        1
 44
0.0
173
     0
291
     1
 45
0.0
1001
ACAD
1000
AcDbSavedByObjectVersion
1070
     0
  0
VISUALSTYLE
  5
36
102
{ACAD_REACTORS
330
2A
102
}
330
2A
100
AcDbVisualStyle
  2
Brighten
 70
    12
 71
     2
 72
     2
 73
     0
 90
        0
 40
-0.6
 41
-30.0
 62
     5
 63
     7
 74
     1
 91
        4
 64
     7
 65
   257
 75
     1
175
     1
 42
1.0
 92
        8
 66
     7
 43
1.0
 76
     1
 77
     6
 78
     2
 67
     7
 79
     5
170
     0
171
     0
290
     0
174
     0
 93
        1
 44
50.0
173
     0
291
     1
 45
0.0
1001
ACAD
1000
AcDbSavedByObjectVersion
1070
     0
  0
VISUALSTYLE
  5
3A
102
{ACAD_REACTORS
330
2A
102
}
330
2A
100
AcDbVisualStyle
  2
ColorChange
 70
    16
 71
     2
 72
     2
 73
     3
 90
        0
 40
-0.6
 41
-30.0
 62
     5
 63
     8
 74
     1
 91
        4
 64
     7
 65
   257
 75
     1
175
     1
 42
1.0
 92
        8
 66
     8
 43
1.0
 76
     1
 77
     6
 78
     2
 67
     7
 79
     5
170
     0
171
     0
290
     0
174
     0
 93
        1
 44
0.0
173
     0
291
     1
 45
0.0
1001
ACAD
1000
AcDbSavedByObjectVersion
1070
     0
  0
VISUALSTYLE
  5
34
102
{ACAD_REACTORS
330
2A
102
}
330
2A
100
AcDbVisualStyle
  2
Conceptual
 70
     9
 71
     3
 72
     2
 73
     0
 90
        0
 40
-0.6
 41
-30.0
 62
     5
 63
     7
 74
     2
 91
        2
 64
     7
 65
   257
 75
     1
175
     1
 42
40.0
 92
        8
 66
     7
 43
1.0
 76
     1
 77
     6
 78
     2
 67
     7
 79
     3
170
     0
171
     0
290
     0
174
     0
 93
        1
 44
0.0
173
     0
291
     0
 45
0.0
1001
ACAD
1000
AcDbSavedByObjectVersion
1070
     0
  0
VISUALSTYLE
  5
35
102
{ACAD_REACTORS
330
2A
102
}
330
2A
100
AcDbVisualStyle
  2
Dim
 70
    11
 71
     2
 72
     2
 73
     0
 90
        0
 40
-0.6
 41
-30.0
 62
     5
 63
     7
 74
     1
 91
        4
 64
     7
 65
   257
 75
     1
175
     1
 42
1.0
 92
        8
 66
     7
 43
1.0
 76
     1
 77
     6
 78
     2
 67
     7
 79
     5
170
     0
171
     0
290
     0
174
     0
 93
        1
 44
-50.0
173
     0
291
     1
 45
0.0
1001
ACAD
1000
AcDbSavedByObjectVersion
1070
     0
  0
VISUALSTYLE
  5
39
102
{ACAD_REACTORS
330
2A
102
}
330
2A
100
AcDbVisualStyle
  2
Facepattern
 70
    15
 71
     2
 72
     2
 73
     0
 90
        0
 40
-0.6
 41
-30.0
 62
     5
 63
     7
 74
     1
 91
        4
 64
     7
 65
   257
 75
     1
175
     1
 42
1.0
 92
        8
 66
     7
 43
1.0
 76
     1
 77
     6
 78
     2
 67
     7
 79
     5
170
     0
171
     0
290
     0
174
     0
 93
        1
 44
0.0
173
     0
291
     1
 45
0.0
1001
ACAD
1000
AcDbSavedByObjectVersion
1070
     0
  0
VISUALSTYLE
  5
2B
102
{ACAD_REACTORS
330
2A
102
}
330
2A
100
AcDbVisualStyle
  2
Flat
 70
     0
 71
     2
 72
     1
 73
     1
 90
        2
 40
-0.6
 41
30.0
 62
     5
 63
     7
 74
     0
 91
        4
 64
     7
 65
   257
 75
     1
175
     1
 42
1.0
 92
        8
 66
     7
 43
1.0
 76
     1
 77
     6
 78
     2
 67
     7
 79
     5
170
     0
171
     0
290
     0
174
     0
 93
       13
 44
0.0
173
     0
291
     1
 45
0.0
1001
ACAD
1000
AcDbSavedByObjectVersion
1070
     0
  0
VISUALSTYLE
  5
2C
102
{ACAD_REACTORS
330
2A
102
}
330
2A
100
AcDbVisualStyle
  2
FlatWithEdges
 70
     1
 71
     2
 72
     1
 73
     1
 90
        2
 40
-0.6
 41
30.0
 62
     5
 63
     7
 74
     1
 91
        4
 64
     7
 65
   257
 75
     1
175
     1
 42
1.0
 92
        0
 66
   257
 43
1.0
 76
     1
 77
     6
 78
     2
 67
     7
 79
     5
170
     0
171
     0
290
     0
174
     0
 93
       13
 44
0.0
173
     0
291
     1
 45
0.0
1001
ACAD
1000
AcDbSavedByObjectVersion
1070
     0
  0
VISUALSTYLE
  5
2D
102
{ACAD_REACTORS
330
2A
102
}
330
2A
100
AcDbVisualStyle
  2
Gouraud
 70
     2
 71
     2
 72
     2
 73
     1
 90
        2
 40
-0.6
 41
30.0
 62
     5
 63
     7
 74
     0
 91
        4
 64
     7
 65
   257
 75
     1
175
     1
 42
1.0
 92
        0
 66
     7
 43
1.0
 76
     1
 77
     6
 78
     2
 67
     7
 79
     5
170
     0
171
     0
290
     0
174
     0
 93
       13
 44
0.0
173
     0
291
     1
 45
0.0
1001
ACAD
1000
AcDbSavedByObjectVersion
1070
     0
  0
VISUALSTYLE
  5
2E
102
{ACAD_REACTORS
330
2A
102
}
330
2A
100
AcDbVisualStyle
  2
GouraudWithEdges
 70
     3
 71
     2
 72
     2
 73
     1
 90
        2
 40
-0.6
 41
30.0
 62
     5
 63
     7
 74
     1
 91
        4
 64
     7
 65
   257
 75
     1
175
     1
 42
1.0
 92
        0
 66
   257
 43
1.0
 76
     1
 77
     6
 78
     2
 67
     7
 79
     5
170
     0
171
     0
290
     0
174
     0
 93
       13
 44
0.0
173
     0
291
     1
 45
0.0
1001
ACAD
1000
AcDbSavedByObjectVersion
1070
     0
  0
VISUALSTYLE
  5
38
102
{ACAD_REACTORS
330
2A
102
}
330
2A
100
AcDbVisualStyle
  2
Linepattern
 70
    14
 71
     2
 72
     2
 73
     0
 90
        0
 40
-0.6
 41
-30.0
 62
     5
 63
     7
 74
     1
 91
        4
 64
     7
 65
   257
 75
     7
175
     7
 42
1.0
 92
        8
 66
     7
 43
1.0
 76
     1
 77
     6
 78
     2
 67
     7
 79
     5
170
     0
171
     0
290
     0
174
     0
 93
        1
 44
0.0
173
     0
291
     1
 45
0.0
1001
ACAD
1000
AcDbSavedByObjectVersion
1070
     0
  0
VISUALSTYLE
  5
33
102
{ACAD_REACTORS
330
2A
102
}
330
2A
100
AcDbVisualStyle
  2
Realistic
 70
     8
 71
     2
 72
     2
 73
     0
 90
        0
 40
-0.6
 41
-30.0
 62
     5
 63
     7
 74
     1
 91
        0
 64
     7
 65
   257
 75
     1
175
     1
 42
1.0
 92
        8
 66
     8
 43
1.0
 76
     1
 77
     6
 78
     2
 67
     7
 79
     5
170
     0
171
     0
290
     0
174
     0
 93
       13
 44
0.0
173
     0
291
     0
 45
0.0
1001
ACAD
1000
AcDbSavedByObjectVersion
1070
     0
  0
VISUALSTYLE
  5
37
102
{ACAD_REACTORS
330
2A
102
}
330
2A
100
AcDbVisualStyle
  2
Thicken
 70
    13
 71
     2
 72
     2
 73
     0
 90
        0
 40
-0.6
 41
-30.0
 62
     5
 63
     7
 74
     1
 91
        4
 64
     7
 65
   257
 75
     1
175
     1
 42
1.0
 92
       12
 66
     7
 43
1.0
 76
     1
 77
     6
 78
     2
 67
     7
 79
     5
170
     0
171
     0
290
     0
174
     0
 93
        1
 44
0.0
173
     0
291
     1
 45
0.0
1001
ACAD
1000
AcDbSavedByObjectVersion
1070
     0
  0
DICTIONARYVAR
  5
297
102
{ACAD_REACTORS
330
292
102
}
330
292
100
DictionaryVariables
280
     0
  1
1:1
  0
DICTIONARYVAR
  5
296
102
{ACAD_REACTORS
330
292
102
}
330
292
100
DictionaryVariables
280
     0
  1
80.000000
  0
DICTIONARYVAR
  5
295
102
{ACAD_REACTORS
330
292
102
}
330
292
100
DictionaryVariables
280
     0
  1
5.000000
  0
ENDSEC
  0
EOF
