  0
SECTION
  2
HEADER
  9
$ACADVER
  1
AC1015
  9
$ACADMAINTVER
 70
     6
  9
$DWGCODEPAGE
  3
ANSI_932
  9
$INSBASE
 10
0.0
 20
0.0
 30
0.0
  9
$EXTMIN
 10
-124.8662862848134
 20
-48.51826927132163
 30
0.0
  9
$EXTMAX
 10
73.38877902195436
 20
162.0879122898001
 30
0.0
  9
$LIMMIN
 10
-124.8662862848134
 20
-48.51826927132163
  9
$LIMMAX
 10
73.38877902195436
 20
162.0879122898001
  9
$ORTHOMODE
 70
     0
  9
$REGENMODE
 70
     1
  9
$FILLMODE
 70
     1
  9
$QTEXTMODE
 70
     0
  9
$MIRRTEXT
 70
     1
  9
$LTSCALE
 40
1.0
  9
$ATTMODE
 70
     1
  9
$TEXTSIZE
 40
2.5
  9
$TRACEWID
 40
1.0
  9
$TEXTSTYLE
  7
Standard
  9
$CLAYER
  8
0
  9
$CELTYPE
  6
ByLayer
  9
$CECOLOR
 62
   256
  9
$CELTSCALE
 40
1.0
  9
$DISPSILH
 70
     0
  9
$DIMSCALE
 40
1.0
  9
$DIMASZ
 40
2.5
  9
$DIMEXO
 40
0.625
  9
$DIMDLI
 40
3.75
  9
$DIMRND
 40
0.0
  9
$DIMDLE
 40
0.0
  9
$DIMEXE
 40
1.25
  9
$DIMTP
 40
0.0
  9
$DIMTM
 40
0.0
  9
$DIMTXT
 40
2.5
  9
$DIMCEN
 40
2.5
  9
$DIMTSZ
 40
0.0
  9
$DIMTOL
 70
     0
  9
$DIMLIM
 70
     0
  9
$DIMTIH
 70
     0
  9
$DIMTOH
 70
     0
  9
$DIMSE1
 70
     0
  9
$DIMSE2
 70
     0
  9
$DIMTAD
 70
     1
  9
$DIMZIN
 70
     8
  9
$DIMBLK
  1

  9
$DIMASO
 70
     1
  9
$DIMSHO
 70
     1
  9
$DIMPOST
  1

  9
$DIMAPOST
  1

  9
$DIMALT
 70
     0
  9
$DIMALTD
 70
     3
  9
$DIMALTF
 40
0.03937007874016
  9
$DIMLFAC
 40
1.0
  9
$DIMTOFL
 70
     1
  9
$DIMTVP
 40
0.0
  9
$DIMTIX
 70
     0
  9
$DIMSOXD
 70
     0
  9
$DIMSAH
 70
     0
  9
$DIMBLK1
  1

  9
$DIMBLK2
  1

  9
$DIMSTYLE
  2
ISO-25
  9
$DIMCLRD
 70
     0
  9
$DIMCLRE
 70
     0
  9
$DIMCLRT
 70
     0
  9
$DIMTFAC
 40
1.0
  9
$DIMGAP
 40
0.625
  9
$DIMJUST
 70
     0
  9
$DIMSD1
 70
     0
  9
$DIMSD2
 70
     0
  9
$DIMTOLJ
 70
     0
  9
$DIMTZIN
 70
     8
  9
$DIMALTZ
 70
     0
  9
$DIMALTTZ
 70
     0
  9
$DIMUPT
 70
     0
  9
$DIMDEC
 70
     2
  9
$DIMTDEC
 70
     2
  9
$DIMALTU
 70
     2
  9
$DIMALTTD
 70
     3
  9
$DIMTXSTY
  7
Standard
  9
$DIMAUNIT
 70
     0
  9
$DIMADEC
 70
     0
  9
$DIMALTRND
 40
0.0
  9
$DIMAZIN
 70
     0
  9
$DIMDSEP
 70
    44
  9
$DIMATFIT
 70
     3
  9
$DIMFRAC
 70
     0
  9
$DIMLDRBLK
  1

  9
$DIMLUNIT
 70
     2
  9
$DIMLWD
 70
    -2
  9
$DIMLWE
 70
    -2
  9
$DIMTMOVE
 70
     0
  9
$LUNITS
 70
     2
  9
$LUPREC
 70
     4
  9
$SKETCHINC
 40
1.0
  9
$FILLETRAD
 40
10.0
  9
$AUNITS
 70
     0
  9
$AUPREC
 70
     0
  9
$MENU
  1
.
  9
$ELEVATION
 40
0.0
  9
$PELEVATION
 40
0.0
  9
$THICKNESS
 40
0.0
  9
$LIMCHECK
 70
     0
  9
$CHAMFERA
 40
10.0
  9
$CHAMFERB
 40
10.0
  9
$CHAMFERC
 40
20.0
  9
$CHAMFERD
 40
0.0
  9
$SKPOLY
 70
     0
  9
$TDCREATE
 40
2456484.295050058
  9
$TDUCREATE
 40
2456483.920050058
  9
$TDUPDATE
 40
2456484.295050069
  9
$TDUUPDATE
 40
2456483.920050069
  9
$TDINDWG
 40
0.0000000116
  9
$TDUSRTIMER
 40
0.0000000116
  9
$USRTIMER
 70
     1
  9
$ANGBASE
 50
0.0
  9
$ANGDIR
 70
     0
  9
$PDMODE
 70
     0
  9
$PDSIZE
 40
0.0
  9
$PLINEWID
 40
0.0
  9
$SPLFRAME
 70
     0
  9
$SPLINETYPE
 70
     6
  9
$SPLINESEGS
 70
     8
  9
$HANDSEED
  5
299
  9
$SURFTAB1
 70
     6
  9
$SURFTAB2
 70
     6
  9
$SURFTYPE
 70
     6
  9
$SURFU
 70
     6
  9
$SURFV
 70
     6
  9
$UCSBASE
  2

  9
$UCSNAME
  2

  9
$UCSORG
 10
0.0
 20
0.0
 30
0.0
  9
$UCSXDIR
 10
1.0
 20
0.0
 30
0.0
  9
$UCSYDIR
 10
0.0
 20
1.0
 30
0.0
  9
$UCSORTHOREF
  2

  9
$UCSORTHOVIEW
 70
     0
  9
$UCSORGTOP
 10
0.0
 20
0.0
 30
0.0
  9
$UCSORGBOTTOM
 10
0.0
 20
0.0
 30
0.0
  9
$UCSORGLEFT
 10
0.0
 20
0.0
 30
0.0
  9
$UCSORGRIGHT
 10
0.0
 20
0.0
 30
0.0
  9
$UCSORGFRONT
 10
0.0
 20
0.0
 30
0.0
  9
$UCSORGBACK
 10
0.0
 20
0.0
 30
0.0
  9
$PUCSBASE
  2

  9
$PUCSNAME
  2

  9
$PUCSORG
 10
0.0
 20
0.0
 30
0.0
  9
$PUCSXDIR
 10
1.0
 20
0.0
 30
0.0
  9
$PUCSYDIR
 10
0.0
 20
1.0
 30
0.0
  9
$PUCSORTHOREF
  2

  9
$PUCSORTHOVIEW
 70
     0
  9
$PUCSORGTOP
 10
0.0
 20
0.0
 30
0.0
  9
$PUCSORGBOTTOM
 10
0.0
 20
0.0
 30
0.0
  9
$PUCSORGLEFT
 10
0.0
 20
0.0
 30
0.0
  9
$PUCSORGRIGHT
 10
0.0
 20
0.0
 30
0.0
  9
$PUCSORGFRONT
 10
0.0
 20
0.0
 30
0.0
  9
$PUCSORGBACK
 10
0.0
 20
0.0
 30
0.0
  9
$USERI1
 70
     0
  9
$USERI2
 70
     0
  9
$USERI3
 70
     0
  9
$USERI4
 70
     0
  9
$USERI5
 70
     0
  9
$USERR1
 40
0.0
  9
$USERR2
 40
0.0
  9
$USERR3
 40
0.0
  9
$USERR4
 40
0.0
  9
$USERR5
 40
0.0
  9
$WORLDVIEW
 70
     1
  9
$SHADEDGE
 70
     3
  9
$SHADEDIF
 70
    70
  9
$TILEMODE
 70
     1
  9
$MAXACTVP
 70
    64
  9
$PINSBASE
 10
0.0
 20
0.0
 30
0.0
  9
$PLIMCHECK
 70
     0
  9
$PEXTMIN
 10
1.000000000000000E+20
 20
1.000000000000000E+20
 30
1.000000000000000E+20
  9
$PEXTMAX
 10
-1.000000000000000E+20
 20
-1.000000000000000E+20
 30
-1.000000000000000E+20
  9
$PLIMMIN
 10
-124.8662862848134
 20
-48.51826927132163
  9
$PLIMMAX
 10
73.38877902195436
 20
162.0879122898001
  9
$UNITMODE
 70
     0
  9
$VISRETAIN
 70
     1
  9
$PLINEGEN
 70
     0
  9
$PSLTSCALE
 70
     1
  9
$TREEDEPTH
 70
  3020
  9
$CMLSTYLE
  2
Standard
  9
$CMLJUST
 70
     0
  9
$CMLSCALE
 40
20.0
  9
$PROXYGRAPHICS
 70
     1
  9
$MEASUREMENT
 70
     1
  9
$CELWEIGHT
370
    -1
  9
$ENDCAPS
280
     0
  9
$JOINSTYLE
280
     0
  9
$LWDISPLAY
290
     0
  9
$INSUNITS
 70
     4
  9
$HYPERLINKBASE
  1

  9
$STYLESHEET
  1

  9
$XEDIT
290
     1
  9
$CEPSNTYPE
380
     0
  9
$PSTYLEMODE
290
     1
  9
$FINGERPRINTGUID
  2
{68F52819-1D19-417F-86B6-56380D271F15}
  9
$VERSIONGUID
  2
{FAEB1C32-E019-11D5-929B-00C0DF256EC4}
  9
$EXTNAMES
290
     1
  9
$PSVPSCALE
 40
0.0
  9
$OLESTARTUP
290
     0
  0
ENDSEC
  0
SECTION
  2
CLASSES
  0
CLASS
  1
ACDBDICTIONARYWDFLT
  2
AcDbDictionaryWithDefault
  3
ObjectDBX Classes
 90
        0
280
     0
281
     0
  0
CLASS
  1
VISUALSTYLE
  2
AcDbVisualStyle
  3
ObjectDBX Classes
 90
     4095
280
     0
281
     0
  0
CLASS
  1
SCALE
  2
AcDbScale
  3
ObjectDBX Classes
 90
     1153
280
     0
281
     0
  0
CLASS
  1
DICTIONARYVAR
  2
AcDbDictionaryVar
  3
ObjectDBX Classes
 90
        0
280
     0
281
     0
  0
CLASS
  1
ACDBPLACEHOLDER
  2
AcDbPlaceHolder
  3
ObjectDBX Classes
 90
        0
280
     0
281
     0
  0
CLASS
  1
LAYOUT
  2
AcDbLayout
  3
ObjectDBX Classes
 90
        0
280
     0
281
     0
  0
ENDSEC
  0
SECTION
  2
TABLES
  0
TABLE
  2
VPORT
  5
8
330
0
100
AcDbSymbolTable
 70
     1
  0
VPORT
  5
29
330
8
100
AcDbSymbolTableRecord
100
AcDbViewportTableRecord
  2
*Active
 70
     0
 10
0.0
 20
0.0
 11
1.0
 21
1.0
 12
344.1869158878504
 22
148.5
 13
0.0
 23
0.0
 14
10.0
 24
10.0
 15
10.0
 25
10.0
 16
0.0
 26
0.0
 36
1.0
 17
0.0
 27
0.0
 37
0.0
 40
297.0
 41
1.972972972850329
 42
50.0
 43
0.0
 44
0.0
 50
0.0
 51
0.0
 71
     0
 72
   100
 73
     1
 74
     3
 75
     0
 76
     0
 77
     0
 78
     0
281
     0
 65
     1
110
0.0
120
0.0
130
0.0
111
1.0
121
0.0
131
0.0
112
0.0
122
1.0
132
0.0
 79
     0
146
0.0
  0
ENDTAB
  0
TABLE
  2
LTYPE
  5
5
330
0
100
AcDbSymbolTable
 70
     5
  0
LTYPE
  5
14
330
5
100
AcDbSymbolTableRecord
100
AcDbLinetypeTableRecord
  2
ByBlock
 70
     0
  3

 72
    65
 73
     0
 40
0.0
  0
LTYPE
  5
15
330
5
100
AcDbSymbolTableRecord
100
AcDbLinetypeTableRecord
  2
ByLayer
 70
     0
  3

 72
    65
 73
     0
 40
0.0
  0
LTYPE
  5
16
330
5
100
AcDbSymbolTableRecord
100
AcDbLinetypeTableRecord
  2
Continuous
 70
     0
  3
Solid line
 72
    65
 73
     0
 40
0.0
  0
LTYPE
  5
3B
330
5
100
AcDbSymbolTableRecord
100
AcDbLinetypeTableRecord
  2
CONTINOUS
 70
     0
  3
______________________________
 72
    65
 73
     0
 40
0.0
  0
LTYPE
  5
3C
330
5
100
AcDbSymbolTableRecord
100
AcDbLinetypeTableRecord
  2
DASHED
 70
     0
  3
__ __ __ __ __ __ __ __ __ __ __ __ __ __ __ __
 72
    65
 73
     2
 40
4.5
 49
3.0
 74
     0
 49
-1.5
 74
     0
  0
LTYPE
  5
3D
330
5
100
AcDbSymbolTableRecord
100
AcDbLinetypeTableRecord
  2
PHANTOM
 70
     0
  3
______  __  __  ______  __  __  _____
 72
    65
 73
     6
 40
15.0
 49
7.5
 74
     0
 49
-1.5
 74
     0
 49
1.5
 74
     0
 49
-1.5
 74
     0
 49
1.5
 74
     0
 49
-1.5
 74
     0
  0
LTYPE
  5
3E
330
5
100
AcDbSymbolTableRecord
100
AcDbLinetypeTableRecord
  2
CENTER
 70
     0
  3
____ _ ____ _ ____ _ ____ _ ____ _ ____
 72
    65
 73
     4
 40
12.0
 49
7.5
 74
     0
 49
-1.5
 74
     0
 49
1.5
 74
     0
 49
-1.5
 74
     0
  0
ENDTAB
  0
TABLE
  2
LAYER
  5
2
330
0
100
AcDbSymbolTable
 70
     3
  0
LAYER
  5
10
330
2
100
AcDbSymbolTableRecord
100
AcDbLayerTableRecord
  2
0
 70
     0
 62
     7
  6
Continuous
370
    -3
390
F
  0
LAYER
  5
3F
330
2
100
AcDbSymbolTableRecord
100
AcDbLayerTableRecord
  2
VIEW0001
 70
     0
 62
     7
  6
Continuous
370
    -3
390
F
  0
LAYER
  5
1AA
330
2
100
AcDbSymbolTableRecord
100
AcDbLayerTableRecord
  2
Defpoints
 70
     0
 62
     7
  6
Continuous
290
     0
370
    -3
390
F
  0
ENDTAB
  0
TABLE
  2
STYLE
  5
3
330
0
100
AcDbSymbolTable
 70
     1
  0
STYLE
  5
11
330
3
100
AcDbSymbolTableRecord
100
AcDbTextStyleTableRecord
  2
Standard
 70
     0
 40
0.0
 41
1.0
 50
0.0
 71
     0
 42
2.5
  3
ROMANS
  4
EXTFONT
  0
ENDTAB
  0
TABLE
  2
VIEW
  5
6
330
0
100
AcDbSymbolTable
 70
     0
  0
ENDTAB
  0
TABLE
  2
UCS
  5
7
330
0
100
AcDbSymbolTable
 70
     0
  0
ENDTAB
  0
TABLE
  2
APPID
  5
9
330
0
100
AcDbSymbolTable
 70
     1
  0
APPID
  5
12
330
9
100
AcDbSymbolTableRecord
100
AcDbRegAppTableRecord
  2
ACAD
 70
     0
  0
ENDTAB
  0
TABLE
  2
DIMSTYLE
  5
A
330
0
100
AcDbSymbolTable
 70
     1
100
AcDbDimStyleTable
  0
DIMSTYLE
105
27
102
{ACAD_REACTORS
330
181
330
1B7
330
1CF
330
1DC
330
1E9
330
1F6
330
20C
330
219
330
226
330
23C
330
249
330
256
330
263
330
279
330
286
102
}
330
A
100
AcDbSymbolTableRecord
100
AcDbDimStyleTableRecord
  2
ISO-25
 70
     0
 41
2.5
 42
0.625
 43
3.75
 44
1.25
 73
     0
 74
     0
 77
     1
 78
     8
140
2.5
141
2.5
143
0.03937007874016
147
0.625
171
     3
172
     1
271
     2
272
     2
274
     3
278
    44
283
     0
284
     8
340
11
  0
ENDTAB
  0
TABLE
  2
BLOCK_RECORD
  5
1
330
0
100
AcDbSymbolTable
 70
    17
  0
BLOCK_RECORD
  5
1F
330
1
100
AcDbSymbolTableRecord
100
AcDbBlockTableRecord
  2
*Model_Space
340
22
  0
BLOCK_RECORD
  5
1B
330
1
100
AcDbSymbolTableRecord
100
AcDbBlockTableRecord
  2
*Paper_Space
340
1E
  0
BLOCK_RECORD
  5
23
330
1
100
AcDbSymbolTableRecord
100
AcDbBlockTableRecord
  2
*Paper_Space0
340
26
  0
BLOCK_RECORD
  5
1A4
330
1
100
AcDbSymbolTableRecord
100
AcDbBlockTableRecord
  2
_OPEN30
340
0
102
{BLKREFS
331
1B0
331
1AF
331
1C0
331
1BF
331
1D5
331
1D4
331
1E2
331
1E1
331
1EF
331
1EE
331
1FE
331
1FD
331
212
331
211
331
21F
331
21E
331
22D
331
22C
331
242
331
241
331
24F
331
24E
331
25C
331
25B
331
26A
331
269
331
27F
331
27E
331
28C
331
28B
102
}
  0
BLOCK_RECORD
  5
1AB
330
1
100
AcDbSymbolTableRecord
100
AcDbBlockTableRecord
  2
*D2
340
0
  0
BLOCK_RECORD
  5
1B8
330
1
100
AcDbSymbolTableRecord
100
AcDbBlockTableRecord
  2
*D3
340
0
  0
BLOCK_RECORD
  5
1D0
330
1
100
AcDbSymbolTableRecord
100
AcDbBlockTableRecord
  2
*D4
340
0
  0
BLOCK_RECORD
  5
1DD
330
1
100
AcDbSymbolTableRecord
100
AcDbBlockTableRecord
  2
*D5
340
0
  0
BLOCK_RECORD
  5
1EA
330
1
100
AcDbSymbolTableRecord
100
AcDbBlockTableRecord
  2
*D6
340
0
  0
BLOCK_RECORD
  5
1F7
330
1
100
AcDbSymbolTableRecord
100
AcDbBlockTableRecord
  2
*D7
340
0
  0
BLOCK_RECORD
  5
20D
330
1
100
AcDbSymbolTableRecord
100
AcDbBlockTableRecord
  2
*D8
340
0
  0
BLOCK_RECORD
  5
21A
330
1
100
AcDbSymbolTableRecord
100
AcDbBlockTableRecord
  2
*D9
340
0
  0
BLOCK_RECORD
  5
227
330
1
100
AcDbSymbolTableRecord
100
AcDbBlockTableRecord
  2
*D10
340
0
  0
BLOCK_RECORD
  5
23D
330
1
100
AcDbSymbolTableRecord
100
AcDbBlockTableRecord
  2
*D11
340
0
  0
BLOCK_RECORD
  5
24A
330
1
100
AcDbSymbolTableRecord
100
AcDbBlockTableRecord
  2
*D12
340
0
  0
BLOCK_RECORD
  5
257
330
1
100
AcDbSymbolTableRecord
100
AcDbBlockTableRecord
  2
*D13
340
0
  0
BLOCK_RECORD
  5
264
330
1
100
AcDbSymbolTableRecord
100
AcDbBlockTableRecord
  2
*D14
340
0
  0
BLOCK_RECORD
  5
27A
330
1
100
AcDbSymbolTableRecord
100
AcDbBlockTableRecord
  2
*D15
340
0
  0
BLOCK_RECORD
  5
287
330
1
100
AcDbSymbolTableRecord
100
AcDbBlockTableRecord
  2
*D16
340
0
  0
ENDTAB
  0
ENDSEC
  0
SECTION
  2
BLOCKS
  0
BLOCK
  5
20
330
1F
100
AcDbEntity
  8
0
100
AcDbBlockBegin
  2
*Model_Space
 70
     0
 10
0.0
 20
0.0
 30
0.0
  3
*Model_Space
  1

  0
ENDBLK
  5
21
330
1F
100
AcDbEntity
  8
0
100
AcDbBlockEnd
  0
BLOCK
  5
1C
330
1B
100
AcDbEntity
 67
     1
  8
0
100
AcDbBlockBegin
  2
*Paper_Space
 70
     0
 10
0.0
 20
0.0
 30
0.0
  3
*Paper_Space
  1

  0
ENDBLK
  5
1D
330
1B
100
AcDbEntity
 67
     1
  8
0
100
AcDbBlockEnd
  0
BLOCK
  5
24
330
23
100
AcDbEntity
  8
0
100
AcDbBlockBegin
  2
*Paper_Space0
 70
     0
 10
0.0
 20
0.0
 30
0.0
  3
*Paper_Space0
  1

  0
ENDBLK
  5
25
330
23
100
AcDbEntity
  8
0
100
AcDbBlockEnd
  0
BLOCK
  5
1A5
330
1A4
100
AcDbEntity
  8
0
100
AcDbBlockBegin
  2
_OPEN30
 70
     0
 10
0.0
 20
0.0
 30
0.0
  3
_OPEN30
  1

  0
LINE
  5
1A7
330
1A4
100
AcDbEntity
  8
0
  6
ByBlock
 62
     0
370
    -2
100
AcDbLine
 10
-1.0
 20
0.267949
 30
0.0
 11
0.0
 21
0.0
 31
0.0
  0
LINE
  5
1A8
330
1A4
100
AcDbEntity
  8
0
  6
ByBlock
 62
     0
370
    -2
100
AcDbLine
 10
0.0
 20
0.0
 30
0.0
 11
-1.0
 21
-0.267949
 31
0.0
  0
LINE
  5
1A9
330
1A4
100
AcDbEntity
  8
0
  6
ByBlock
 62
     0
370
    -2
100
AcDbLine
 10
0.0
 20
0.0
 30
0.0
 11
-1.0
 21
0.0
 31
0.0
  0
ENDBLK
  5
1A6
330
1A4
100
AcDbEntity
  8
0
100
AcDbBlockEnd
  0
BLOCK
  5
1B5
330
1AB
100
AcDbEntity
  8
0
100
AcDbBlockBegin
  2
*D2
 70
     1
 10
0.0
 20
0.0
 30
0.0
  3
*D2
  1

  0
LINE
  5
1AC
330
1AB
100
AcDbEntity
  8
0
 62
     0
370
    -2
100
AcDbLine
 10
10.86378734337773
 20
44.90007900656929
 30
0.0
 11
47.82135300752788
 21
44.90007900656931
 31
0.0
  0
LINE
  5
1AD
330
1AB
100
AcDbEntity
  8
0
 62
     0
370
    -2
100
AcDbLine
 10
10.86378734337773
 20
-13.09992099343071
 30
0.0
 11
47.8213530075279
 21
-13.09992099343069
 31
0.0
  0
LINE
  5
1AE
330
1AB
100
AcDbEntity
  8
0
 62
     0
370
    -2
100
AcDbLine
 10
46.88801967419455
 20
41.90007900656931
 30
0.0
 11
46.88801967419457
 21
-10.09992099343069
 31
0.0
  0
INSERT
  5
1AF
330
1AB
100
AcDbEntity
  8
0
 62
     0
370
    -2
100
AcDbBlockReference
  2
_OPEN30
 10
46.88801967419455
 20
44.90007900656931
 30
0.0
 41
3.0
 42
3.0
 43
3.0
 50
90.00000000000003
  0
INSERT
  5
1B0
330
1AB
100
AcDbEntity
  8
0
 62
     0
370
    -2
100
AcDbBlockReference
  2
_OPEN30
 10
46.88801967419457
 20
-13.09992099343069
 30
0.0
 41
3.0
 42
3.0
 43
3.0
 50
270.0
  0
MTEXT
  5
1B1
330
1AB
100
AcDbEntity
  8
0
 62
     0
100
AcDbMText
 10
44.78801970995735
 20
15.90007900656928
 30
0.0
 40
2.799999952316284
 41
0.0
 71
     5
 72
     1
  1
58
 11
-3.675221047035000E-16
 21
1.0
 31
0.0
 73
     1
 44
1.0
  0
POINT
  5
1B2
330
1AB
100
AcDbEntity
  8
Defpoints
 62
     0
100
AcDbPoint
 10
8.323787343377733
 20
44.90007900656929
 30
0.0
  0
POINT
  5
1B3
330
1AB
100
AcDbEntity
  8
Defpoints
 62
     0
100
AcDbPoint
 10
8.323787343377733
 20
-13.09992099343071
 30
0.0
  0
POINT
  5
1B4
330
1AB
100
AcDbEntity
  8
Defpoints
 62
     0
100
AcDbPoint
 10
46.88801967419457
 20
-13.0999209934307
 30
0.0
  0
ENDBLK
  5
1B6
330
1AB
100
AcDbEntity
  8
0
100
AcDbBlockEnd
  0
BLOCK
  5
1C5
330
1B8
100
AcDbEntity
  8
0
100
AcDbBlockBegin
  2
*D3
 70
     1
 10
0.0
 20
0.0
 30
0.0
  3
*D3
  1

  0
LINE
  5
1B9
330
1B8
100
AcDbEntity
  8
0
 62
     0
 60
     1
370
    -2
100
AcDbLine
 10
10.86378734337773
 20
-13.09992099343071
 30
0.0
 11
47.8213530075279
 21
-13.0999209934307
 31
0.0
  0
LINE
  5
1BA
330
1B8
100
AcDbEntity
  8
0
 62
     0
 60
     1
370
    -2
100
AcDbLine
 10
10.86378734337773
 20
-20.09992099343071
 30
0.0
 11
47.8213530075279
 21
-20.0999209934307
 31
0.0
  0
LINE
  5
1BB
330
1B8
100
AcDbEntity
  8
0
 62
     0
 60
     1
370
    -2
100
AcDbLine
 10
46.88801967419457
 20
-20.0999209934307
 30
0.0
 11
46.88801967419457
 21
-27.30061823054031
 31
0.0
  0
LINE
  5
1BC
330
1B8
100
AcDbEntity
  8
0
 62
     0
 60
     1
370
    -2
100
AcDbLine
 10
46.88801967419457
 20
-13.0999209934307
 30
0.0
 11
46.88801967419457
 21
-20.0999209934307
 31
0.0
  0
LINE
  5
1BD
330
1B8
100
AcDbEntity
  8
0
 62
     0
 60
     1
370
    -2
100
AcDbLine
 10
46.88801967419457
 20
-10.0999209934307
 30
0.0
 11
46.88801967419457
 21
-7.099920993430697
 31
0.0
  0
LINE
  5
1BE
330
1B8
100
AcDbEntity
  8
0
 62
     0
 60
     1
370
    -2
100
AcDbLine
 10
46.88801967419457
 20
-23.0999209934307
 30
0.0
 11
46.88801967419457
 21
-26.0999209934307
 31
0.0
  0
INSERT
  5
1BF
330
1B8
100
AcDbEntity
  8
0
 62
     0
 60
     1
370
    -2
100
AcDbBlockReference
  2
_OPEN30
 10
46.88801967419457
 20
-13.0999209934307
 30
0.0
 41
3.0
 42
3.0
 43
3.0
 50
270.0
  0
INSERT
  5
1C0
330
1B8
100
AcDbEntity
  8
0
 62
     0
 60
     1
370
    -2
100
AcDbBlockReference
  2
_OPEN30
 10
46.88801967419457
 20
-20.0999209934307
 30
0.0
 41
3.0
 42
3.0
 43
3.0
 50
90.0
  0
MTEXT
  5
1C1
330
1B8
100
AcDbEntity
  8
0
 62
     0
100
AcDbMText
 10
44.78801970995735
 20
-25.66728492502248
 30
0.0
 40
2.799999952316284
 41
0.0
 71
     5
 72
     1
  1
7
 11
0.0
 21
1.0
 31
0.0
 73
     1
 44
1.0
  0
POINT
  5
1C2
330
1B8
100
AcDbEntity
  8
Defpoints
 62
     0
100
AcDbPoint
 10
8.323787343377733
 20
-13.09992099343071
 30
0.0
  0
POINT
  5
1C3
330
1B8
100
AcDbEntity
  8
Defpoints
 62
     0
100
AcDbPoint
 10
8.323787343377733
 20
-20.09992099343071
 30
0.0
  0
POINT
  5
1C4
330
1B8
100
AcDbEntity
  8
Defpoints
 62
     0
100
AcDbPoint
 10
46.88801967419457
 20
-20.0999209934307
 30
0.0
  0
LINE
  5
1C7
330
1B8
100
AcDbEntity
  8
0
  6
Continuous
 62
     7
100
AcDbLine
 10
10.86378734337773
 20
-13.09992099343071
 30
0.0
 11
47.8213530075279
 21
-13.09992099343071
 31
0.0
  0
LINE
  5
1C8
330
1B8
100
AcDbEntity
  8
0
  6
Continuous
 62
     7
100
AcDbLine
 10
10.86378734337773
 20
-20.09992099343071
 30
0.0
 11
47.8213530075279
 21
-20.09992099343071
 31
0.0
  0
LINE
  5
1C9
330
1B8
100
AcDbEntity
  8
0
  6
Continuous
 62
     7
100
AcDbLine
 10
46.88801967419457
 20
-6.749920993430711
 30
0.0
 11
46.88801967419457
 21
-26.44992099343071
 31
0.0
  0
LINE
  5
1CA
330
1B8
100
AcDbEntity
  8
0
  6
Continuous
 62
     7
100
AcDbLine
 10
46.88801967419457
 20
-13.09992099343071
 30
0.0
 11
45.88801967419457
 21
-10.09992099343071
 31
0.0
  0
LINE
  5
1CB
330
1B8
100
AcDbEntity
  8
0
  6
Continuous
 62
     7
100
AcDbLine
 10
46.88801967419457
 20
-13.09992099343071
 30
0.0
 11
47.88801967419457
 21
-10.09992099343071
 31
0.0
  0
LINE
  5
1CC
330
1B8
100
AcDbEntity
  8
0
  6
Continuous
 62
     7
100
AcDbLine
 10
46.88801967419457
 20
-20.09992099343071
 30
0.0
 11
47.88801967419457
 21
-23.09992099343071
 31
0.0
  0
LINE
  5
1CD
330
1B8
100
AcDbEntity
  8
0
  6
Continuous
 62
     7
100
AcDbLine
 10
46.88801967419457
 20
-20.09992099343071
 30
0.0
 11
45.88801967419457
 21
-23.09992099343071
 31
0.0
  0
LINE
  5
1CE
330
1B8
100
AcDbEntity
  8
0
  6
Continuous
 62
     7
100
AcDbLine
 10
46.88801967419457
 20
-20.09992099343071
 30
0.0
 11
46.88801967419457
 21
-27.33395159168915
 31
0.0
  0
ENDBLK
  5
1C6
330
1B8
100
AcDbEntity
  8
0
100
AcDbBlockEnd
  0
BLOCK
  5
1DA
330
1D0
100
AcDbEntity
  8
0
100
AcDbBlockBegin
  2
*D4
 70
     1
 10
0.0
 20
0.0
 30
0.0
  3
*D4
  1

  0
LINE
  5
1D1
330
1D0
100
AcDbEntity
  8
0
 62
     0
370
    -2
100
AcDbLine
 10
38.96378734337772
 20
53.90007900656929
 30
0.0
 11
59.57808505814629
 21
53.90007900656929
 31
0.0
  0
LINE
  5
1D2
330
1D0
100
AcDbEntity
  8
0
 62
     0
370
    -2
100
AcDbLine
 10
38.96378734337772
 20
-20.09992099343071
 30
0.0
 11
59.57808505814632
 21
-20.09992099343071
 31
0.0
  0
LINE
  5
1D3
330
1D0
100
AcDbEntity
  8
0
 62
     0
370
    -2
100
AcDbLine
 10
58.64475172481297
 20
50.90007900656929
 30
0.0
 11
58.644751724813
 21
-17.09992099343071
 31
0.0
  0
INSERT
  5
1D4
330
1D0
100
AcDbEntity
  8
0
 62
     0
370
    -2
100
AcDbBlockReference
  2
_OPEN30
 10
58.64475172481297
 20
53.90007900656929
 30
0.0
 41
3.0
 42
3.0
 43
3.0
 50
90.00000000000003
  0
INSERT
  5
1D5
330
1D0
100
AcDbEntity
  8
0
 62
     0
370
    -2
100
AcDbBlockReference
  2
_OPEN30
 10
58.644751724813
 20
-20.09992099343071
 30
0.0
 41
3.0
 42
3.0
 43
3.0
 50
270.0
  0
MTEXT
  5
1D6
330
1D0
100
AcDbEntity
  8
0
 62
     0
100
AcDbMText
 10
56.54475176057577
 20
16.90007900656928
 30
0.0
 40
2.799999952316284
 41
0.0
 71
     5
 72
     1
  1
74
 11
-3.840771544649191E-16
 21
1.0
 31
0.0
 73
     1
 44
1.0
  0
POINT
  5
1D7
330
1D0
100
AcDbEntity
  8
Defpoints
 62
     0
100
AcDbPoint
 10
36.42378734337773
 20
53.90007900656929
 30
0.0
  0
POINT
  5
1D8
330
1D0
100
AcDbEntity
  8
Defpoints
 62
     0
100
AcDbPoint
 10
36.42378734337773
 20
-20.09992099343071
 30
0.0
  0
POINT
  5
1D9
330
1D0
100
AcDbEntity
  8
Defpoints
 62
     0
100
AcDbPoint
 10
58.64475172481298
 20
-20.0999209934307
 30
0.0
  0
ENDBLK
  5
1DB
330
1D0
100
AcDbEntity
  8
0
100
AcDbBlockEnd
  0
BLOCK
  5
1E7
330
1DD
100
AcDbEntity
  8
0
100
AcDbBlockBegin
  2
*D5
 70
     1
 10
0.0
 20
0.0
 30
0.0
  3
*D5
  1

  0
LINE
  5
1DE
330
1DD
100
AcDbEntity
  8
0
 62
     0
370
    -2
100
AcDbLine
 10
38.36378734337773
 20
83.90007900656929
 30
0.0
 11
59.5780850581463
 21
83.90007900656929
 31
0.0
  0
LINE
  5
1DF
330
1DD
100
AcDbEntity
  8
0
 62
     0
370
    -2
100
AcDbLine
 10
38.96378734337772
 20
53.90007900656929
 30
0.0
 11
59.57808505814631
 21
53.90007900656929
 31
0.0
  0
LINE
  5
1E0
330
1DD
100
AcDbEntity
  8
0
 62
     0
370
    -2
100
AcDbLine
 10
58.64475172481298
 20
80.90007900656929
 30
0.0
 11
58.64475172481299
 21
56.90007900656929
 31
0.0
  0
INSERT
  5
1E1
330
1DD
100
AcDbEntity
  8
0
 62
     0
370
    -2
100
AcDbBlockReference
  2
_OPEN30
 10
58.64475172481298
 20
83.90007900656929
 30
0.0
 41
3.0
 42
3.0
 43
3.0
 50
90.00000000000003
  0
INSERT
  5
1E2
330
1DD
100
AcDbEntity
  8
0
 62
     0
370
    -2
100
AcDbBlockReference
  2
_OPEN30
 10
58.64475172481299
 20
53.90007900656929
 30
0.0
 41
3.0
 42
3.0
 43
3.0
 50
270.0
  0
MTEXT
  5
1E3
330
1DD
100
AcDbEntity
  8
0
 62
     0
100
AcDbMText
 10
56.54475176057577
 20
68.9000790065693
 30
0.0
 40
2.799999952316284
 41
0.0
 71
     5
 72
     1
  1
30
 11
-4.736951571734002E-16
 21
1.0
 31
0.0
 73
     1
 44
1.0
  0
POINT
  5
1E4
330
1DD
100
AcDbEntity
  8
Defpoints
 62
     0
100
AcDbPoint
 10
35.82378734337773
 20
83.90007900656929
 30
0.0
  0
POINT
  5
1E5
330
1DD
100
AcDbEntity
  8
Defpoints
 62
     0
100
AcDbPoint
 10
36.42378734337773
 20
53.90007900656929
 30
0.0
  0
POINT
  5
1E6
330
1DD
100
AcDbEntity
  8
Defpoints
 62
     0
100
AcDbPoint
 10
58.64475172481298
 20
53.90007900656929
 30
0.0
  0
ENDBLK
  5
1E8
330
1DD
100
AcDbEntity
  8
0
100
AcDbBlockEnd
  0
BLOCK
  5
1F4
330
1EA
100
AcDbEntity
  8
0
100
AcDbBlockBegin
  2
*D6
 70
     1
 10
0.0
 20
0.0
 30
0.0
  3
*D6
  1

  0
LINE
  5
1EB
330
1EA
100
AcDbEntity
  8
0
 62
     0
370
    -2
100
AcDbLine
 10
-105.5380475190075
 20
121.4400790065693
 30
0.0
 11
-105.5380475190075
 21
158.9612456922748
 31
0.0
  0
LINE
  5
1EC
330
1EA
100
AcDbEntity
  8
0
 62
     0
370
    -2
100
AcDbLine
 10
-85.53804751900755
 20
121.9400790065693
 30
0.0
 11
-85.53804751900755
 21
158.9612456922748
 31
0.0
  0
LINE
  5
1ED
330
1EA
100
AcDbEntity
  8
0
 62
     0
370
    -2
100
AcDbLine
 10
-102.5380475190075
 20
158.0279123589415
 30
0.0
 11
-88.53804751900755
 21
158.0279123589415
 31
0.0
  0
INSERT
  5
1EE
330
1EA
100
AcDbEntity
  8
0
 62
     0
370
    -2
100
AcDbBlockReference
  2
_OPEN30
 10
-105.5380475190075
 20
158.0279123589415
 30
0.0
 41
3.0
 42
3.0
 43
3.0
 50
180.0
  0
INSERT
  5
1EF
330
1EA
100
AcDbEntity
  8
0
 62
     0
370
    -2
100
AcDbBlockReference
  2
_OPEN30
 10
-85.53804751900755
 20
158.0279123589415
 30
0.0
 41
3.0
 42
3.0
 43
3.0
  0
MTEXT
  5
1F0
330
1EA
100
AcDbEntity
  8
0
 62
     0
100
AcDbMText
 10
-95.53804751900755
 20
160.1279123231787
 30
0.0
 40
2.799999952316284
 41
0.0
 71
     5
 72
     1
  1
20
 73
     1
 44
1.0
  0
POINT
  5
1F1
330
1EA
100
AcDbEntity
  8
Defpoints
 62
     0
100
AcDbPoint
 10
-105.5380475190075
 20
118.9000790065693
 30
0.0
  0
POINT
  5
1F2
330
1EA
100
AcDbEntity
  8
Defpoints
 62
     0
100
AcDbPoint
 10
-85.53804751900755
 20
119.4000790065693
 30
0.0
  0
POINT
  5
1F3
330
1EA
100
AcDbEntity
  8
Defpoints
 62
     0
100
AcDbPoint
 10
-85.53804751900755
 20
158.0279123589415
 30
0.0
  0
ENDBLK
  5
1F5
330
1EA
100
AcDbEntity
  8
0
100
AcDbBlockEnd
  0
BLOCK
  5
203
330
1F7
100
AcDbEntity
  8
0
100
AcDbBlockBegin
  2
*D7
 70
     1
 10
0.0
 20
0.0
 30
0.0
  3
*D7
  1

  0
LINE
  5
1F8
330
1F7
100
AcDbEntity
  8
0
 62
     0
 60
     1
370
    -2
100
AcDbLine
 10
-79.03804751900755
 20
156.0796814898552
 30
0.0
 11
-79.03804751900755
 21
158.9612456922748
 31
0.0
  0
LINE
  5
1F9
330
1F7
100
AcDbEntity
  8
0
 62
     0
 60
     1
370
    -2
100
AcDbLine
 10
-79.03804751900755
 20
158.0279123589415
 30
0.0
 11
-67.13436007672162
 21
158.0279123589415
 31
0.0
  0
LINE
  5
1FA
330
1F7
100
AcDbEntity
  8
0
 62
     0
 60
     1
370
    -2
100
AcDbLine
 10
-85.53804751900755
 20
158.0279123589415
 30
0.0
 11
-79.03804751900755
 21
158.0279123589415
 31
0.0
  0
LINE
  5
1FB
330
1F7
100
AcDbEntity
  8
0
 62
     0
 60
     1
370
    -2
100
AcDbLine
 10
-88.53804751900755
 20
158.0279123589415
 30
0.0
 11
-91.53804751900755
 21
158.0279123589415
 31
0.0
  0
LINE
  5
1FC
330
1F7
100
AcDbEntity
  8
0
 62
     0
 60
     1
370
    -2
100
AcDbLine
 10
-76.03804751900755
 20
158.0279123589415
 30
0.0
 11
-73.03804751900755
 21
158.0279123589415
 31
0.0
  0
INSERT
  5
1FD
330
1F7
100
AcDbEntity
  8
0
 62
     0
 60
     1
370
    -2
100
AcDbBlockReference
  2
_OPEN30
 10
-85.53804751900755
 20
158.0279123589415
 30
0.0
 41
3.0
 42
3.0
 43
3.0
  0
INSERT
  5
1FE
330
1F7
100
AcDbEntity
  8
0
 62
     0
 60
     1
370
    -2
100
AcDbBlockReference
  2
_OPEN30
 10
-79.03804751900755
 20
158.0279123589415
 30
0.0
 41
3.0
 42
3.0
 43
3.0
 50
180.0
  0
MTEXT
  5
1FF
330
1F7
100
AcDbEntity
  8
0
 62
     0
100
AcDbMText
 10
-70.70102668264832
 20
160.1279123231787
 30
0.0
 40
2.799999952316284
 41
0.0
 71
     5
 72
     1
  1
6.5
 73
     1
 44
1.0
  0
POINT
  5
200
330
1F7
100
AcDbEntity
  8
Defpoints
 62
     0
100
AcDbPoint
 10
-85.53804751900755
 20
119.4000790065693
 30
0.0
  0
POINT
  5
201
330
1F7
100
AcDbEntity
  8
Defpoints
 62
     0
100
AcDbPoint
 10
-79.03804751900755
 20
153.5396814898552
 30
0.0
  0
POINT
  5
202
330
1F7
100
AcDbEntity
  8
Defpoints
 62
     0
100
AcDbPoint
 10
-79.03804751900755
 20
158.0279123589415
 30
0.0
  0
LINE
  5
205
330
1F7
100
AcDbEntity
  8
0
  6
Continuous
 62
     7
100
AcDbLine
 10
-79.03804751900755
 20
156.0796814898552
 30
0.0
 11
-79.03804751900755
 21
158.9612456922748
 31
0.0
  0
LINE
  5
206
330
1F7
100
AcDbEntity
  8
0
  6
Continuous
 62
     7
100
AcDbLine
 10
-91.88804751900754
 20
158.0279123589415
 30
0.0
 11
-72.68804751900755
 21
158.0279123589415
 31
0.0
  0
LINE
  5
207
330
1F7
100
AcDbEntity
  8
0
  6
Continuous
 62
     7
100
AcDbLine
 10
-85.53804751900755
 20
158.0279123589415
 30
0.0
 11
-88.53804751900755
 21
157.0279123589415
 31
0.0
  0
LINE
  5
208
330
1F7
100
AcDbEntity
  8
0
  6
Continuous
 62
     7
100
AcDbLine
 10
-85.53804751900755
 20
158.0279123589415
 30
0.0
 11
-88.53804751900755
 21
159.0279123589415
 31
0.0
  0
LINE
  5
209
330
1F7
100
AcDbEntity
  8
0
  6
Continuous
 62
     7
100
AcDbLine
 10
-79.03804751900755
 20
158.0279123589415
 30
0.0
 11
-76.03804751900755
 21
159.0279123589415
 31
0.0
  0
LINE
  5
20A
330
1F7
100
AcDbEntity
  8
0
  6
Continuous
 62
     7
100
AcDbLine
 10
-79.03804751900755
 20
158.0279123589415
 30
0.0
 11
-76.03804751900755
 21
157.0279123589415
 31
0.0
  0
LINE
  5
20B
330
1F7
100
AcDbEntity
  8
0
  6
Continuous
 62
     7
100
AcDbLine
 10
-79.03804751900755
 20
158.0279123589415
 30
0.0
 11
-66.53436001598165
 21
158.0279123589415
 31
0.0
  0
ENDBLK
  5
204
330
1F7
100
AcDbEntity
  8
0
100
AcDbBlockEnd
  0
BLOCK
  5
217
330
20D
100
AcDbEntity
  8
0
100
AcDbBlockBegin
  2
*D8
 70
     1
 10
0.0
 20
0.0
 30
0.0
  3
*D8
  1

  0
LINE
  5
20E
330
20D
100
AcDbEntity
  8
0
 62
     0
370
    -2
100
AcDbLine
 10
-73.86150050147548
 20
150.9000790065693
 30
0.0
 11
-47.35743531042581
 21
150.9000790065693
 31
0.0
  0
LINE
  5
20F
330
20D
100
AcDbEntity
  8
0
 62
     0
370
    -2
100
AcDbLine
 10
-73.86150050147548
 20
66.90007900656929
 30
0.0
 11
-47.35743531042578
 21
66.90007900656931
 31
0.0
  0
LINE
  5
210
330
20D
100
AcDbEntity
  8
0
 62
     0
370
    -2
100
AcDbLine
 10
-48.29076864375915
 20
147.9000790065693
 30
0.0
 11
-48.29076864375912
 21
69.90007900656931
 31
0.0
  0
INSERT
  5
211
330
20D
100
AcDbEntity
  8
0
 62
     0
370
    -2
100
AcDbBlockReference
  2
_OPEN30
 10
-48.29076864375915
 20
150.9000790065693
 30
0.0
 41
3.0
 42
3.0
 43
3.0
 50
90.00000000000003
  0
INSERT
  5
212
330
20D
100
AcDbEntity
  8
0
 62
     0
370
    -2
100
AcDbBlockReference
  2
_OPEN30
 10
-48.29076864375912
 20
66.90007900656931
 30
0.0
 41
3.0
 42
3.0
 43
3.0
 50
270.0
  0
MTEXT
  5
213
330
20D
100
AcDbEntity
  8
0
 62
     0
100
AcDbMText
 10
-51.12410192884108
 20
108.9000790065693
 30
0.0
 40
2.799999952316284
 41
0.0
 71
     5
 72
     1
  1
(\U+220584)
 11
-4.229421046191073E-16
 21
1.0
 31
0.0
 73
     1
 44
1.0
  0
POINT
  5
214
330
20D
100
AcDbEntity
  8
Defpoints
 62
     0
100
AcDbPoint
 10
-76.40150050147548
 20
150.9000790065693
 30
0.0
  0
POINT
  5
215
330
20D
100
AcDbEntity
  8
Defpoints
 62
     0
100
AcDbPoint
 10
-76.40150050147548
 20
66.90007900656929
 30
0.0
  0
POINT
  5
216
330
20D
100
AcDbEntity
  8
Defpoints
 62
     0
100
AcDbPoint
 10
-48.29076864375913
 20
66.9000790065693
 30
0.0
  0
ENDBLK
  5
218
330
20D
100
AcDbEntity
  8
0
100
AcDbBlockEnd
  0
BLOCK
  5
224
330
21A
100
AcDbEntity
  8
0
100
AcDbBlockBegin
  2
*D9
 70
     1
 10
0.0
 20
0.0
 30
0.0
  3
*D9
  1

  0
LINE
  5
21B
330
21A
100
AcDbEntity
  8
0
 62
     0
370
    -2
100
AcDbLine
 10
-69.06472070732669
 20
147.0750790065693
 30
0.0
 11
-55.47293023664351
 21
147.0750790065693
 31
0.0
  0
LINE
  5
21C
330
21A
100
AcDbEntity
  8
0
 62
     0
370
    -2
100
AcDbLine
 10
-69.06472070732669
 20
70.72507900656925
 30
0.0
 11
-55.47293023664348
 21
70.72507900656925
 31
0.0
  0
LINE
  5
21D
330
21A
100
AcDbEntity
  8
0
 62
     0
370
    -2
100
AcDbLine
 10
-56.40626356997684
 20
144.0750790065693
 30
0.0
 11
-56.40626356997682
 21
73.72507900656925
 31
0.0
  0
INSERT
  5
21E
330
21A
100
AcDbEntity
  8
0
 62
     0
370
    -2
100
AcDbBlockReference
  2
_OPEN30
 10
-56.40626356997684
 20
147.0750790065693
 30
0.0
 41
3.0
 42
3.0
 43
3.0
 50
90.00000000000003
  0
INSERT
  5
21F
330
21A
100
AcDbEntity
  8
0
 62
     0
370
    -2
100
AcDbBlockReference
  2
_OPEN30
 10
-56.40626356997682
 20
70.72507900656925
 30
0.0
 41
3.0
 42
3.0
 43
3.0
 50
270.0
  0
MTEXT
  5
220
330
21A
100
AcDbEntity
  8
0
 62
     0
100
AcDbMText
 10
-58.50626353421404
 20
108.9000790065693
 30
0.0
 40
2.799999952316284
 41
0.0
 71
     5
 72
     1
  1
\U+220576.35
 11
-3.722555262659329E-16
 21
1.0
 31
0.0
 73
     1
 44
1.0
  0
POINT
  5
221
330
21A
100
AcDbEntity
  8
Defpoints
 62
     0
100
AcDbPoint
 10
-71.60472070732669
 20
147.0750790065693
 30
0.0
  0
POINT
  5
222
330
21A
100
AcDbEntity
  8
Defpoints
 62
     0
100
AcDbPoint
 10
-71.60472070732669
 20
70.72507900656925
 30
0.0
  0
POINT
  5
223
330
21A
100
AcDbEntity
  8
Defpoints
 62
     0
100
AcDbPoint
 10
-56.40626356997683
 20
70.72507900656925
 30
0.0
  0
ENDBLK
  5
225
330
21A
100
AcDbEntity
  8
0
100
AcDbBlockEnd
  0
BLOCK
  5
232
330
227
100
AcDbEntity
  8
0
100
AcDbBlockBegin
  2
*D10
 70
     1
 10
0.0
 20
0.0
 30
0.0
  3
*D10
  1

  0
LINE
  5
228
330
227
100
AcDbEntity
  8
0
 62
     0
 60
     1
370
    -2
100
AcDbLine
 10
-108.0380475190075
 20
-22.63992099343071
 30
0.0
 11
-108.0380475190075
 21
-27.90450806290344
 31
0.0
  0
LINE
  5
229
330
227
100
AcDbEntity
  8
0
 62
     0
 60
     1
370
    -2
100
AcDbLine
 10
-95.53804751900755
 20
-26.66673593225023
 30
0.0
 11
-95.53804751900755
 21
-27.90450806290344
 31
0.0
  0
LINE
  5
22A
330
227
100
AcDbEntity
  8
0
 62
     0
 60
     1
370
    -2
100
AcDbLine
 10
-108.0380475190075
 20
-26.97117472957011
 30
0.0
 11
-123.7996195369709
 21
-26.97117472957011
 31
0.0
  0
LINE
  5
22B
330
227
100
AcDbEntity
  8
0
 62
     0
 60
     1
370
    -2
100
AcDbLine
 10
-105.0380475190075
 20
-26.97117472957011
 30
0.0
 11
-98.53804751900755
 21
-26.97117472957011
 31
0.0
  0
INSERT
  5
22C
330
227
100
AcDbEntity
  8
0
 62
     0
 60
     1
370
    -2
100
AcDbBlockReference
  2
_OPEN30
 10
-108.0380475190075
 20
-26.97117472957011
 30
0.0
 41
3.0
 42
3.0
 43
3.0
 50
180.0
  0
INSERT
  5
22D
330
227
100
AcDbEntity
  8
0
 62
     0
 60
     1
370
    -2
100
AcDbBlockReference
  2
_OPEN30
 10
-95.53804751900755
 20
-26.97117472957011
 30
0.0
 41
3.0
 42
3.0
 43
3.0
  0
MTEXT
  5
22E
330
227
100
AcDbEntity
  8
0
 62
     0
100
AcDbMText
 10
-119.03295295148
 20
-24.8711747653329
 30
0.0
 40
2.799999952316284
 41
0.0
 71
     5
 72
     1
  1
12.5
 73
     1
 44
1.0
  0
POINT
  5
22F
330
227
100
AcDbEntity
  8
Defpoints
 62
     0
100
AcDbPoint
 10
-108.0380475190075
 20
-20.09992099343071
 30
0.0
  0
POINT
  5
230
330
227
100
AcDbEntity
  8
Defpoints
 62
     0
100
AcDbPoint
 10
-95.53804751900755
 20
-24.12673593225023
 30
0.0
  0
POINT
  5
231
330
227
100
AcDbEntity
  8
Defpoints
 62
     0
100
AcDbPoint
 10
-95.53804751900755
 20
-26.97117472957011
 30
0.0
  0
LINE
  5
234
330
227
100
AcDbEntity
  8
0
  6
Continuous
 62
     7
100
AcDbLine
 10
-108.0380475190075
 20
-22.63992099343071
 30
0.0
 11
-108.0380475190075
 21
-27.90450806290344
 31
0.0
  0
LINE
  5
235
330
227
100
AcDbEntity
  8
0
  6
Continuous
 62
     7
100
AcDbLine
 10
-95.53804751900755
 20
-26.66673593225023
 30
0.0
 11
-95.53804751900755
 21
-27.90450806290344
 31
0.0
  0
LINE
  5
236
330
227
100
AcDbEntity
  8
0
  6
Continuous
 62
     7
100
AcDbLine
 10
-114.3880475190075
 20
-26.97117472957011
 30
0.0
 11
-89.18804751900755
 21
-26.97117472957011
 31
0.0
  0
LINE
  5
237
330
227
100
AcDbEntity
  8
0
  6
Continuous
 62
     7
100
AcDbLine
 10
-108.0380475190075
 20
-26.97117472957011
 30
0.0
 11
-111.0380475190075
 21
-27.97117472957011
 31
0.0
  0
LINE
  5
238
330
227
100
AcDbEntity
  8
0
  6
Continuous
 62
     7
100
AcDbLine
 10
-108.0380475190075
 20
-26.97117472957011
 30
0.0
 11
-111.0380475190075
 21
-25.97117472957011
 31
0.0
  0
LINE
  5
239
330
227
100
AcDbEntity
  8
0
  6
Continuous
 62
     7
100
AcDbLine
 10
-95.53804751900755
 20
-26.97117472957011
 30
0.0
 11
-92.53804751900755
 21
-25.97117472957011
 31
0.0
  0
LINE
  5
23A
330
227
100
AcDbEntity
  8
0
  6
Continuous
 62
     7
100
AcDbLine
 10
-95.53804751900755
 20
-26.97117472957011
 30
0.0
 11
-92.53804751900755
 21
-27.97117472957011
 31
0.0
  0
LINE
  5
23B
330
227
100
AcDbEntity
  8
0
  6
Continuous
 62
     7
100
AcDbLine
 10
-108.0380475190075
 20
-26.97117472957011
 30
0.0
 11
-124.8662862848134
 21
-26.97117472957011
 31
0.0
  0
ENDBLK
  5
233
330
227
100
AcDbEntity
  8
0
100
AcDbBlockEnd
  0
BLOCK
  5
247
330
23D
100
AcDbEntity
  8
0
100
AcDbBlockBegin
  2
*D11
 70
     1
 10
0.0
 20
0.0
 30
0.0
  3
*D11
  1

  0
LINE
  5
23E
330
23D
100
AcDbEntity
  8
0
 62
     0
370
    -2
100
AcDbLine
 10
-108.0380475190075
 20
-22.63992099343071
 30
0.0
 11
-108.0380475190075
 21
-34.77576179904283
 31
0.0
  0
LINE
  5
23F
330
23D
100
AcDbEntity
  8
0
 62
     0
370
    -2
100
AcDbLine
 10
-85.03804751900755
 20
-22.63992099343071
 30
0.0
 11
-85.03804751900755
 21
-34.77576179904283
 31
0.0
  0
LINE
  5
240
330
23D
100
AcDbEntity
  8
0
 62
     0
370
    -2
100
AcDbLine
 10
-105.0380475190075
 20
-33.8424284657095
 30
0.0
 11
-88.03804751900755
 21
-33.8424284657095
 31
0.0
  0
INSERT
  5
241
330
23D
100
AcDbEntity
  8
0
 62
     0
370
    -2
100
AcDbBlockReference
  2
_OPEN30
 10
-108.0380475190075
 20
-33.8424284657095
 30
0.0
 41
3.0
 42
3.0
 43
3.0
 50
180.0
  0
INSERT
  5
242
330
23D
100
AcDbEntity
  8
0
 62
     0
370
    -2
100
AcDbBlockReference
  2
_OPEN30
 10
-85.03804751900755
 20
-33.8424284657095
 30
0.0
 41
3.0
 42
3.0
 43
3.0
  0
MTEXT
  5
243
330
23D
100
AcDbEntity
  8
0
 62
     0
100
AcDbMText
 10
-96.53804751900755
 20
-31.74242850147229
 30
0.0
 40
2.799999952316284
 41
0.0
 71
     5
 72
     1
  1
23
 73
     1
 44
1.0
  0
POINT
  5
244
330
23D
100
AcDbEntity
  8
Defpoints
 62
     0
100
AcDbPoint
 10
-108.0380475190075
 20
-20.09992099343071
 30
0.0
  0
POINT
  5
245
330
23D
100
AcDbEntity
  8
Defpoints
 62
     0
100
AcDbPoint
 10
-85.03804751900755
 20
-20.09992099343071
 30
0.0
  0
POINT
  5
246
330
23D
100
AcDbEntity
  8
Defpoints
 62
     0
100
AcDbPoint
 10
-85.03804751900755
 20
-33.8424284657095
 30
0.0
  0
ENDBLK
  5
248
330
23D
100
AcDbEntity
  8
0
100
AcDbBlockEnd
  0
BLOCK
  5
254
330
24A
100
AcDbEntity
  8
0
100
AcDbBlockBegin
  2
*D12
 70
     1
 10
0.0
 20
0.0
 30
0.0
  3
*D12
  1

  0
LINE
  5
24B
330
24A
100
AcDbEntity
  8
0
 62
     0
370
    -2
100
AcDbLine
 10
-79.03804751900755
 20
61.49384586417519
 30
0.0
 11
-79.03804751900755
 21
-41.64701553518223
 31
0.0
  0
LINE
  5
24C
330
24A
100
AcDbEntity
  8
0
 62
     0
370
    -2
100
AcDbLine
 10
-108.0380475190075
 20
-22.63992099343071
 30
0.0
 11
-108.0380475190075
 21
-41.64701553518223
 31
0.0
  0
LINE
  5
24D
330
24A
100
AcDbEntity
  8
0
 62
     0
370
    -2
100
AcDbLine
 10
-82.03804751900755
 20
-40.71368220184889
 30
0.0
 11
-105.0380475190075
 21
-40.71368220184889
 31
0.0
  0
INSERT
  5
24E
330
24A
100
AcDbEntity
  8
0
 62
     0
370
    -2
100
AcDbBlockReference
  2
_OPEN30
 10
-79.03804751900755
 20
-40.71368220184889
 30
0.0
 41
3.0
 42
3.0
 43
3.0
  0
INSERT
  5
24F
330
24A
100
AcDbEntity
  8
0
 62
     0
370
    -2
100
AcDbBlockReference
  2
_OPEN30
 10
-108.0380475190075
 20
-40.71368220184889
 30
0.0
 41
3.0
 42
3.0
 43
3.0
 50
180.0
  0
MTEXT
  5
250
330
24A
100
AcDbEntity
  8
0
 62
     0
100
AcDbMText
 10
-93.53804751900755
 20
-38.61368223761168
 30
0.0
 40
2.799999952316284
 41
0.0
 71
     5
 72
     1
  1
29
 73
     1
 44
1.0
  0
POINT
  5
251
330
24A
100
AcDbEntity
  8
Defpoints
 62
     0
100
AcDbPoint
 10
-79.03804751900755
 20
64.03384586417519
 30
0.0
  0
POINT
  5
252
330
24A
100
AcDbEntity
  8
Defpoints
 62
     0
100
AcDbPoint
 10
-108.0380475190075
 20
-20.09992099343071
 30
0.0
  0
POINT
  5
253
330
24A
100
AcDbEntity
  8
Defpoints
 62
     0
100
AcDbPoint
 10
-108.0380475190075
 20
-40.71368220184889
 30
0.0
  0
ENDBLK
  5
255
330
24A
100
AcDbEntity
  8
0
100
AcDbBlockEnd
  0
BLOCK
  5
261
330
257
100
AcDbEntity
  8
0
100
AcDbBlockBegin
  2
*D13
 70
     1
 10
0.0
 20
0.0
 30
0.0
  3
*D13
  1

  0
LINE
  5
258
330
257
100
AcDbEntity
  8
0
 62
     0
370
    -2
100
AcDbLine
 10
-108.0380475190075
 20
-22.63992099343071
 30
0.0
 11
-108.0380475190075
 21
-48.5182692713216
 31
0.0
  0
LINE
  5
259
330
257
100
AcDbEntity
  8
0
 62
     0
370
    -2
100
AcDbLine
 10
-66.03804751900756
 20
97.87303004948174
 30
0.0
 11
-66.03804751900756
 21
-48.51826927132161
 31
0.0
  0
LINE
  5
25A
330
257
100
AcDbEntity
  8
0
 62
     0
370
    -2
100
AcDbLine
 10
-105.0380475190075
 20
-47.58493593798828
 30
0.0
 11
-69.03804751900756
 21
-47.58493593798829
 31
0.0
  0
INSERT
  5
25B
330
257
100
AcDbEntity
  8
0
 62
     0
370
    -2
100
AcDbBlockReference
  2
_OPEN30
 10
-108.0380475190075
 20
-47.58493593798828
 30
0.0
 41
3.0
 42
3.0
 43
3.0
 50
180.0
  0
INSERT
  5
25C
330
257
100
AcDbEntity
  8
0
 62
     0
370
    -2
100
AcDbBlockReference
  2
_OPEN30
 10
-66.03804751900756
 20
-47.58493593798829
 30
0.0
 41
3.0
 42
3.0
 43
3.0
 50
360.0
  0
MTEXT
  5
25D
330
257
100
AcDbEntity
  8
0
 62
     0
100
AcDbMText
 10
-87.03804751900755
 20
-45.48493597375107
 30
0.0
 40
2.799999952316284
 41
0.0
 71
     5
 72
     1
  1
42
 73
     1
 44
1.0
  0
POINT
  5
25E
330
257
100
AcDbEntity
  8
Defpoints
 62
     0
100
AcDbPoint
 10
-108.0380475190075
 20
-20.09992099343071
 30
0.0
  0
POINT
  5
25F
330
257
100
AcDbEntity
  8
Defpoints
 62
     0
100
AcDbPoint
 10
-66.03804751900756
 20
100.4130300494817
 30
0.0
  0
POINT
  5
260
330
257
100
AcDbEntity
  8
Defpoints
 62
     0
100
AcDbPoint
 10
-66.03804751900758
 20
-47.58493593798829
 30
0.0
  0
ENDBLK
  5
262
330
257
100
AcDbEntity
  8
0
100
AcDbBlockEnd
  0
BLOCK
  5
26F
330
264
100
AcDbEntity
  8
0
100
AcDbBlockBegin
  2
*D14
 70
     1
 10
0.0
 20
0.0
 30
0.0
  3
*D14
  1

  0
LINE
  5
265
330
264
100
AcDbEntity
  8
0
 62
     0
 60
     1
370
    -2
100
AcDbLine
 10
2.823787343377735
 20
-10.13992099343071
 30
0.0
 11
2.823787343377731
 21
-34.77576179904284
 31
0.0
  0
LINE
  5
266
330
264
100
AcDbEntity
  8
0
 62
     0
 60
     1
370
    -2
100
AcDbLine
 10
13.82378734337773
 20
-10.13992099343071
 30
0.0
 11
13.82378734337773
 21
-34.77576179904284
 31
0.0
  0
LINE
  5
267
330
264
100
AcDbEntity
  8
0
 62
     0
 60
     1
370
    -2
100
AcDbLine
 10
13.82378734337773
 20
-33.8424284657095
 30
0.0
 11
24.46696025752319
 21
-33.8424284657095
 31
0.0
  0
LINE
  5
268
330
264
100
AcDbEntity
  8
0
 62
     0
 60
     1
370
    -2
100
AcDbLine
 10
5.823787343377731
 20
-33.8424284657095
 30
0.0
 11
10.82378734337773
 21
-33.8424284657095
 31
0.0
  0
INSERT
  5
269
330
264
100
AcDbEntity
  8
0
 62
     0
 60
     1
370
    -2
100
AcDbBlockReference
  2
_OPEN30
 10
2.823787343377731
 20
-33.8424284657095
 30
0.0
 41
3.0
 42
3.0
 43
3.0
 50
180.0
  0
INSERT
  5
26A
330
264
100
AcDbEntity
  8
0
 62
     0
 60
     1
370
    -2
100
AcDbBlockReference
  2
_OPEN30
 10
13.82378734337773
 20
-33.8424284657095
 30
0.0
 41
3.0
 42
3.0
 43
3.0
  0
MTEXT
  5
26B
330
264
100
AcDbEntity
  8
0
 62
     0
100
AcDbMText
 10
22.10029363116061
 20
-31.74242850147229
 30
0.0
 40
2.799999952316284
 41
0.0
 71
     5
 72
     1
  1
11
 73
     1
 44
1.0
  0
POINT
  5
26C
330
264
100
AcDbEntity
  8
Defpoints
 62
     0
100
AcDbPoint
 10
2.823787343377735
 20
-7.59992099343071
 30
0.0
  0
POINT
  5
26D
330
264
100
AcDbEntity
  8
Defpoints
 62
     0
100
AcDbPoint
 10
13.82378734337773
 20
-7.59992099343071
 30
0.0
  0
POINT
  5
26E
330
264
100
AcDbEntity
  8
Defpoints
 62
     0
100
AcDbPoint
 10
13.82378734337773
 20
-33.8424284657095
 30
0.0
  0
LINE
  5
271
330
264
100
AcDbEntity
  8
0
  6
Continuous
 62
     7
100
AcDbLine
 10
2.823787343377735
 20
-10.13992099343071
 30
0.0
 11
2.823787343377735
 21
-34.77576179904284
 31
0.0
  0
LINE
  5
272
330
264
100
AcDbEntity
  8
0
  6
Continuous
 62
     7
100
AcDbLine
 10
13.82378734337773
 20
-10.13992099343071
 30
0.0
 11
13.82378734337773
 21
-34.77576179904284
 31
0.0
  0
LINE
  5
273
330
264
100
AcDbEntity
  8
0
  6
Continuous
 62
     7
100
AcDbLine
 10
-3.526212656622264
 20
-33.8424284657095
 30
0.0
 11
20.17378734337773
 21
-33.8424284657095
 31
0.0
  0
LINE
  5
274
330
264
100
AcDbEntity
  8
0
  6
Continuous
 62
     7
100
AcDbLine
 10
2.823787343377735
 20
-33.8424284657095
 30
0.0
 11
-0.176212656622265
 21
-34.8424284657095
 31
0.0
  0
LINE
  5
275
330
264
100
AcDbEntity
  8
0
  6
Continuous
 62
     7
100
AcDbLine
 10
2.823787343377735
 20
-33.8424284657095
 30
0.0
 11
-0.176212656622265
 21
-32.8424284657095
 31
0.0
  0
LINE
  5
276
330
264
100
AcDbEntity
  8
0
  6
Continuous
 62
     7
100
AcDbLine
 10
13.82378734337773
 20
-33.8424284657095
 30
0.0
 11
16.82378734337773
 21
-32.8424284657095
 31
0.0
  0
LINE
  5
277
330
264
100
AcDbEntity
  8
0
  6
Continuous
 62
     7
100
AcDbLine
 10
13.82378734337773
 20
-33.8424284657095
 30
0.0
 11
16.82378734337773
 21
-34.8424284657095
 31
0.0
  0
LINE
  5
278
330
264
100
AcDbEntity
  8
0
  6
Continuous
 62
     7
100
AcDbLine
 10
13.82378734337773
 20
-33.8424284657095
 30
0.0
 11
25.43362696449395
 21
-33.8424284657095
 31
0.0
  0
ENDBLK
  5
270
330
264
100
AcDbEntity
  8
0
100
AcDbBlockEnd
  0
BLOCK
  5
284
330
27A
100
AcDbEntity
  8
0
100
AcDbBlockBegin
  2
*D15
 70
     1
 10
0.0
 20
0.0
 30
0.0
  3
*D15
  1

  0
LINE
  5
27B
330
27A
100
AcDbEntity
  8
0
 62
     0
370
    -2
100
AcDbLine
 10
-19.77621265662225
 20
-22.63992099343071
 30
0.0
 11
-19.77621265662226
 21
-48.51826927132163
 31
0.0
  0
LINE
  5
27C
330
27A
100
AcDbEntity
  8
0
 62
     0
370
    -2
100
AcDbLine
 10
36.42378734337773
 20
-22.63992099343071
 30
0.0
 11
36.42378734337773
 21
-48.51826927132163
 31
0.0
  0
LINE
  5
27D
330
27A
100
AcDbEntity
  8
0
 62
     0
370
    -2
100
AcDbLine
 10
-16.77621265662226
 20
-47.58493593798829
 30
0.0
 11
33.42378734337773
 21
-47.58493593798829
 31
0.0
  0
INSERT
  5
27E
330
27A
100
AcDbEntity
  8
0
 62
     0
370
    -2
100
AcDbBlockReference
  2
_OPEN30
 10
-19.77621265662226
 20
-47.58493593798829
 30
0.0
 41
3.0
 42
3.0
 43
3.0
 50
180.0
  0
INSERT
  5
27F
330
27A
100
AcDbEntity
  8
0
 62
     0
370
    -2
100
AcDbBlockReference
  2
_OPEN30
 10
36.42378734337773
 20
-47.58493593798829
 30
0.0
 41
3.0
 42
3.0
 43
3.0
 50
360.0
  0
MTEXT
  5
280
330
27A
100
AcDbEntity
  8
0
 62
     0
100
AcDbMText
 10
8.323787343377738
 20
-45.48493597375108
 30
0.0
 40
2.799999952316284
 41
0.0
 71
     5
 72
     1
  1
56.2
 73
     1
 44
1.0
  0
POINT
  5
281
330
27A
100
AcDbEntity
  8
Defpoints
 62
     0
100
AcDbPoint
 10
-19.77621265662225
 20
-20.09992099343071
 30
0.0
  0
POINT
  5
282
330
27A
100
AcDbEntity
  8
Defpoints
 62
     0
100
AcDbPoint
 10
36.42378734337773
 20
-20.09992099343071
 30
0.0
  0
POINT
  5
283
330
27A
100
AcDbEntity
  8
Defpoints
 62
     0
100
AcDbPoint
 10
36.42378734337773
 20
-47.58493593798829
 30
0.0
  0
ENDBLK
  5
285
330
27A
100
AcDbEntity
  8
0
100
AcDbBlockEnd
  0
BLOCK
  5
291
330
287
100
AcDbEntity
  8
0
100
AcDbBlockBegin
  2
*D16
 70
     1
 10
0.0
 20
0.0
 30
0.0
  3
*D16
  1

  0
LINE
  5
288
330
287
100
AcDbEntity
  8
0
 62
     0
370
    -2
100
AcDbLine
 10
52.86378734337772
 20
108.9000790065693
 30
0.0
 11
73.38877902195435
 21
108.9000790065693
 31
0.0
  0
LINE
  5
289
330
287
100
AcDbEntity
  8
0
 62
     0
370
    -2
100
AcDbLine
 10
50.3613530075279
 20
-20.09992099343071
 30
0.0
 11
73.38877902195438
 21
-20.09992099343071
 31
0.0
  0
LINE
  5
28A
330
287
100
AcDbEntity
  8
0
 62
     0
370
    -2
100
AcDbLine
 10
72.45544568862101
 20
105.9000790065693
 30
0.0
 11
72.45544568862104
 21
-17.09992099343071
 31
0.0
  0
INSERT
  5
28B
330
287
100
AcDbEntity
  8
0
 62
     0
370
    -2
100
AcDbBlockReference
  2
_OPEN30
 10
72.45544568862101
 20
108.9000790065693
 30
0.0
 41
3.0
 42
3.0
 43
3.0
 50
90.00000000000003
  0
INSERT
  5
28C
330
287
100
AcDbEntity
  8
0
 62
     0
370
    -2
100
AcDbBlockReference
  2
_OPEN30
 10
72.45544568862104
 20
-20.09992099343071
 30
0.0
 41
3.0
 42
3.0
 43
3.0
 50
270.0
  0
MTEXT
  5
28D
330
287
100
AcDbEntity
  8
0
 62
     0
100
AcDbMText
 10
70.35544572438381
 20
44.40007900656929
 30
0.0
 40
2.799999952316284
 41
0.0
 71
     5
 72
     1
  1
129
 11
-3.304849933767908E-16
 21
1.0
 31
0.0
 73
     1
 44
1.0
  0
POINT
  5
28E
330
287
100
AcDbEntity
  8
Defpoints
 62
     0
100
AcDbPoint
 10
50.32378734337772
 20
108.9000790065693
 30
0.0
  0
POINT
  5
28F
330
287
100
AcDbEntity
  8
Defpoints
 62
     0
100
AcDbPoint
 10
47.8213530075279
 20
-20.09992099343071
 30
0.0
  0
POINT
  5
290
330
287
100
AcDbEntity
  8
Defpoints
 62
     0
100
AcDbPoint
 10
72.45544568862103
 20
-20.0999209934307
 30
0.0
  0
ENDBLK
  5
292
330
287
100
AcDbEntity
  8
0
100
AcDbBlockEnd
  0
ENDSEC
  0
SECTION
  2
ENTITIES
  0
POINT
  5
40
330
1F
100
AcDbEntity
  8
VIEW0001
 62
     7
100
AcDbPoint
 10
-19.77621265662225
 20
-20.09992099343071
 30
0.0
  0
POINT
  5
41
330
1F
100
AcDbEntity
  8
VIEW0001
 62
     7
100
AcDbPoint
 10
-19.77621265662225
 20
53.90007900656929
 30
0.0
  0
POINT
  5
42
330
1F
100
AcDbEntity
  8
VIEW0001
 62
     7
100
AcDbPoint
 10
36.42378734337773
 20
53.90007900656929
 30
0.0
  0
POINT
  5
43
330
1F
100
AcDbEntity
  8
VIEW0001
 62
     7
100
AcDbPoint
 10
36.42378734337773
 20
-20.09992099343071
 30
0.0
  0
POINT
  5
44
330
1F
100
AcDbEntity
  8
VIEW0001
 62
     7
100
AcDbPoint
 10
8.323787343377735
 20
-13.09992099343071
 30
0.0
  0
POINT
  5
45
330
1F
100
AcDbEntity
  8
VIEW0001
 62
     7
100
AcDbPoint
 10
8.323787343377735
 20
-7.599920993430713
 30
0.0
  0
POINT
  5
46
330
1F
100
AcDbEntity
  8
VIEW0001
 62
     7
100
AcDbPoint
 10
8.323787343377735
 20
44.90007900656929
 30
0.0
  0
POINT
  5
47
330
1F
100
AcDbEntity
  8
VIEW0001
 62
     7
100
AcDbPoint
 10
8.323787343377735
 20
39.40007900656929
 30
0.0
  0
POINT
  5
48
330
1F
100
AcDbEntity
  8
VIEW0001
 62
     7
100
AcDbPoint
 10
25.82378734337773
 20
53.90007900656929
 30
0.0
  0
POINT
  5
49
330
1F
100
AcDbEntity
  8
VIEW0001
 62
     7
100
AcDbPoint
 10
29.92378734337773
 20
71.88524228149655
 30
0.0
  0
POINT
  5
4A
330
1F
100
AcDbEntity
  8
VIEW0001
 62
     7
100
AcDbPoint
 10
29.92378734337773
 20
53.90007900656929
 30
0.0
  0
POINT
  5
4B
330
1F
100
AcDbEntity
  8
VIEW0001
 62
     7
100
AcDbPoint
 10
29.92378734337773
 20
83.90007900656929
 30
0.0
  0
POINT
  5
4C
330
1F
100
AcDbEntity
  8
VIEW0001
 62
     7
100
AcDbPoint
 10
8.323787343377735
 20
118.9000790065693
 30
0.0
  0
POINT
  5
4D
330
1F
100
AcDbEntity
  8
VIEW0001
 62
     7
100
AcDbPoint
 10
8.323787343377735
 20
108.9000790065693
 30
0.0
  0
POINT
  5
4E
330
1F
100
AcDbEntity
  8
VIEW0001
 62
     7
100
AcDbPoint
 10
35.82378734337773
 20
83.90007900656929
 30
0.0
  0
POINT
  5
4F
330
1F
100
AcDbEntity
  8
VIEW0001
 62
     7
100
AcDbPoint
 10
35.82378734337773
 20
91.90007900656929
 30
0.0
  0
POINT
  5
50
330
1F
100
AcDbEntity
  8
VIEW0001
 62
     7
100
AcDbPoint
 10
29.82378734337773
 20
91.90007900656929
 30
0.0
  0
POINT
  5
51
330
1F
100
AcDbEntity
  8
VIEW0001
 62
     7
100
AcDbPoint
 10
8.323787343377735
 20
78.90007900656929
 30
0.0
  0
POINT
  5
52
330
1F
100
AcDbEntity
  8
VIEW0001
 62
     7
100
AcDbPoint
 10
-108.0380475190075
 20
-20.09992099343071
 30
0.0
  0
POINT
  5
53
330
1F
100
AcDbEntity
  8
VIEW0001
 62
     7
100
AcDbPoint
 10
-108.0380475190075
 20
53.90007900656929
 30
0.0
  0
POINT
  5
54
330
1F
100
AcDbEntity
  8
VIEW0001
 62
     7
100
AcDbPoint
 10
-85.03804751900755
 20
53.90007900656929
 30
0.0
  0
POINT
  5
55
330
1F
100
AcDbEntity
  8
VIEW0001
 62
     7
100
AcDbPoint
 10
-85.03804751900755
 20
-20.09992099343071
 30
0.0
  0
POINT
  5
56
330
1F
100
AcDbEntity
  8
VIEW0001
 62
     7
100
AcDbPoint
 10
-99.63804751900756
 20
53.90007900656929
 30
0.0
  0
POINT
  5
57
330
1F
100
AcDbEntity
  8
VIEW0001
 62
     7
100
AcDbPoint
 10
-99.63804751900756
 20
83.90007900656929
 30
0.0
  0
POINT
  5
58
330
1F
100
AcDbEntity
  8
VIEW0001
 62
     7
100
AcDbPoint
 10
-91.43804751900755
 20
83.90007900656929
 30
0.0
  0
POINT
  5
59
330
1F
100
AcDbEntity
  8
VIEW0001
 62
     7
100
AcDbPoint
 10
-91.43804751900755
 20
53.90007900656929
 30
0.0
  0
POINT
  5
5A
330
1F
100
AcDbEntity
  8
VIEW0001
 62
     7
100
AcDbPoint
 10
-105.5380475190075
 20
83.90007900656929
 30
0.0
  0
POINT
  5
5B
330
1F
100
AcDbEntity
  8
VIEW0001
 62
     7
100
AcDbPoint
 10
-105.5380475190075
 20
118.9000790065693
 30
0.0
  0
POINT
  5
5C
330
1F
100
AcDbEntity
  8
VIEW0001
 62
     7
100
AcDbPoint
 10
-85.53804751900755
 20
118.9000790065693
 30
0.0
  0
POINT
  5
5D
330
1F
100
AcDbEntity
  8
VIEW0001
 62
     7
100
AcDbPoint
 10
-85.53804751900755
 20
83.90007900656929
 30
0.0
  0
POINT
  5
5E
330
1F
100
AcDbEntity
  8
VIEW0001
 62
     7
100
AcDbPoint
 10
-81.37371265662223
 20
146.8084092817986
 30
0.0
  0
POINT
  5
5F
330
1F
100
AcDbEntity
  8
VIEW0001
 62
     7
100
AcDbPoint
 10
-81.37371265662223
 20
62.80840928179866
 30
0.0
  0
POINT
  5
60
330
1F
100
AcDbEntity
  8
VIEW0001
 62
     7
100
AcDbPoint
 10
-77.12371265662223
 20
146.8084092817986
 30
0.0
  0
POINT
  5
61
330
1F
100
AcDbEntity
  8
VIEW0001
 62
     7
100
AcDbPoint
 10
-77.12371265662223
 20
62.80840928179866
 30
0.0
  0
POINT
  5
62
330
1F
100
AcDbEntity
  8
VIEW0001
 62
     7
100
AcDbPoint
 10
-85.62371265662223
 20
62.80840928179866
 30
0.0
  0
POINT
  5
63
330
1F
100
AcDbEntity
  8
VIEW0001
 62
     7
100
AcDbPoint
 10
-85.62371265662223
 20
146.8084092817986
 30
0.0
  0
POINT
  5
64
330
1F
100
AcDbEntity
  8
VIEW0001
 62
     7
100
AcDbPoint
 10
-72.12371265662225
 20
146.8084092817986
 30
0.0
  0
POINT
  5
65
330
1F
100
AcDbEntity
  8
VIEW0001
 62
     7
100
AcDbPoint
 10
-76.87371265662223
 20
108.9000790065693
 30
0.0
  0
POINT
  5
66
330
1F
100
AcDbEntity
  8
VIEW0001
 62
     7
100
AcDbPoint
 10
-76.87371265662223
 20
123.9000790065693
 30
0.0
  0
POINT
  5
67
330
1F
100
AcDbEntity
  8
VIEW0001
 62
     7
100
AcDbPoint
 10
-76.87371265662223
 20
93.90007900656929
 30
0.0
  0
POINT
  5
68
330
1F
100
AcDbEntity
  8
VIEW0001
 62
     7
100
AcDbPoint
 10
-76.87371265662223
 20
93.90007900656929
 30
0.0
  0
POINT
  5
69
330
1F
100
AcDbEntity
  8
VIEW0001
 62
     7
100
AcDbPoint
 10
-74.87371265662223
 20
108.9000790065693
 30
0.0
  0
POINT
  5
6A
330
1F
100
AcDbEntity
  8
VIEW0001
 62
     7
100
AcDbPoint
 10
-74.87371265662223
 20
119.4000790065693
 30
0.0
  0
POINT
  5
6B
330
1F
100
AcDbEntity
  8
VIEW0001
 62
     7
100
AcDbPoint
 10
-105.5380475190075
 20
113.9000790065693
 30
0.0
  0
POINT
  5
6C
330
1F
100
AcDbEntity
  8
VIEW0001
 62
     7
100
AcDbPoint
 10
-107.5380475190075
 20
113.9000790065693
 30
0.0
  0
POINT
  5
6D
330
1F
100
AcDbEntity
  8
VIEW0001
 62
     7
100
AcDbPoint
 10
-107.5380475190075
 20
103.9000790065693
 30
0.0
  0
POINT
  5
6E
330
1F
100
AcDbEntity
  8
VIEW0001
 62
     7
100
AcDbPoint
 10
-65.53804751900756
 20
108.9000790065693
 30
0.0
  0
POINT
  5
6F
330
1F
100
AcDbEntity
  8
VIEW0001
 62
     7
100
AcDbPoint
 10
8.323787343377735
 20
109.1267096656775
 30
0.0
  0
POINT
  5
70
330
1F
100
AcDbEntity
  8
VIEW0001
 62
     7
100
AcDbPoint
 10
-79.03804751900755
 20
150.9000790065693
 30
0.0
  0
POINT
  5
71
330
1F
100
AcDbEntity
  8
VIEW0001
 62
     7
100
AcDbPoint
 10
-72.53804751900756
 20
128.5000790065693
 30
0.0
  0
POINT
  5
72
330
1F
100
AcDbEntity
  8
VIEW0001
 62
     7
100
AcDbPoint
 10
-72.53804751900756
 20
118.7000790065693
 30
0.0
  0
POINT
  5
73
330
1F
100
AcDbEntity
  8
VIEW0001
 62
     7
100
AcDbPoint
 10
8.323787343377735
 20
118.9267096656774
 30
0.0
  0
POINT
  5
74
330
1F
100
AcDbEntity
  8
VIEW0001
 62
     7
100
AcDbPoint
 10
-79.03804751900755
 20
151.1267096656775
 30
0.0
  0
POINT
  5
75
330
1F
100
AcDbEntity
  8
VIEW0001
 62
     7
100
AcDbPoint
 10
-107.5380475190075
 20
113.3767096656775
 30
0.0
  0
POINT
  5
76
330
1F
100
AcDbEntity
  8
VIEW0001
 62
     7
100
AcDbPoint
 10
-107.5380475190075
 20
104.6500790065693
 30
0.0
  0
POINT
  5
77
330
1F
100
AcDbEntity
  8
VIEW0001
 62
     7
100
AcDbPoint
 10
-106.7880475190076
 20
104.1267096656775
 30
0.0
  0
POINT
  5
78
330
1F
100
AcDbEntity
  8
VIEW0001
 62
     7
100
AcDbPoint
 10
-9.176212656622262
 20
-20.09992099343071
 30
0.0
  0
POINT
  5
79
330
1F
100
AcDbEntity
  8
VIEW0001
 62
     7
100
AcDbPoint
 10
-9.176212656622262
 20
-13.59992099343071
 30
0.0
  0
POINT
  5
7A
330
1F
100
AcDbEntity
  8
VIEW0001
 62
     7
100
AcDbPoint
 10
-4.676212656622263
 20
-7.099920993430713
 30
0.0
  0
POINT
  5
7B
330
1F
100
AcDbEntity
  8
VIEW0001
 62
     7
100
AcDbPoint
 10
0.823787343377736
 20
-13.09992099343071
 30
0.0
  0
POINT
  5
7C
330
1F
100
AcDbEntity
  8
VIEW0001
 62
     7
100
AcDbPoint
 10
-6.676212656622263
 20
-7.099920993430713
 30
0.0
  0
POINT
  5
7D
330
1F
100
AcDbEntity
  8
VIEW0001
 62
     7
100
AcDbPoint
 10
-4.676212656622263
 20
-13.09992099343071
 30
0.0
  0
POINT
  5
7E
330
1F
100
AcDbEntity
  8
VIEW0001
 62
     7
100
AcDbPoint
 10
-16.67621265662226
 20
83.90007900656929
 30
0.0
  0
POINT
  5
7F
330
1F
100
AcDbEntity
  8
VIEW0001
 62
     7
100
AcDbPoint
 10
-16.67621265662226
 20
82.90007900656929
 30
0.0
  0
POINT
  5
80
330
1F
100
AcDbEntity
  8
VIEW0001
 62
     7
100
AcDbPoint
 10
8.323787343377735
 20
80.12670966567747
 30
0.0
  0
POINT
  5
81
330
1F
100
AcDbEntity
  8
VIEW0001
 62
     7
100
AcDbPoint
 10
8.323787343377735
 20
108.9000790065693
 30
0.0
  0
POINT
  5
82
330
1F
100
AcDbEntity
  8
VIEW0001
 62
     7
100
AcDbPoint
 10
8.323787343377735
 20
79.90007900656929
 30
0.0
  0
POINT
  5
83
330
1F
100
AcDbEntity
  8
VIEW0001
 62
     7
100
AcDbPoint
 10
8.323787343377735
 20
82.90007900656929
 30
0.0
  0
POINT
  5
84
330
1F
100
AcDbEntity
  8
VIEW0001
 62
     7
100
AcDbPoint
 10
-17.77621265662226
 20
53.90007900656929
 30
0.0
  0
POINT
  5
85
330
1F
100
AcDbEntity
  8
VIEW0001
 62
     7
100
AcDbPoint
 10
-17.77621265662226
 20
51.90007900656929
 30
0.0
  0
POINT
  5
86
330
1F
100
AcDbEntity
  8
VIEW0001
 62
     7
100
AcDbPoint
 10
-87.03804751900755
 20
53.90007900656929
 30
0.0
  0
POINT
  5
87
330
1F
100
AcDbEntity
  8
VIEW0001
 62
     7
100
AcDbPoint
 10
-66.03804751900756
 20
108.9000790065693
 30
0.0
  0
LINE
  5
88
330
1F
100
AcDbEntity
  8
VIEW0001
  6
DASHED
 62
     7
100
AcDbLine
 10
-85.03804751900753
 20
44.90007900656929
 30
0.0
 11
-108.0380475190075
 21
44.90007900656929
 31
0.0
  0
LINE
  5
89
330
1F
100
AcDbEntity
  8
VIEW0001
  6
DASHED
 62
     7
100
AcDbLine
 10
-85.03804751900753
 20
-13.09992099343071
 30
0.0
 11
-108.0380475190075
 21
-13.09992099343071
 31
0.0
  0
LINE
  5
8A
330
1F
100
AcDbEntity
  8
VIEW0001
  6
CENTER
 62
     7
100
AcDbLine
 10
-95.53804751900755
 20
120.528298964601
 30
0.0
 11
-95.53804751900755
 21
-24.12673593225023
 31
0.0
  0
LINE
  5
8B
330
1F
100
AcDbEntity
  8
VIEW0001
  6
CENTER
 62
     7
100
AcDbLine
 10
25.82378734337773
 20
51.49626859166217
 30
0.0
 11
25.82378734337773
 21
92.27421597133088
 31
0.0
  0
LINE
  5
8C
330
1F
100
AcDbEntity
  8
VIEW0001
  6
Continuous
 62
     7
100
AcDbLine
 10
-19.77621265662225
 20
51.90007900656929
 30
0.0
 11
-19.77621265662225
 21
-20.09992099343071
 31
0.0
  0
LINE
  5
8D
330
1F
100
AcDbEntity
  8
VIEW0001
  6
Continuous
 62
     7
100
AcDbLine
 10
36.42378734337773
 20
51.90007900656929
 30
0.0
 11
36.42378734337773
 21
-20.09992099343071
 31
0.0
  0
LINE
  5
8E
330
1F
100
AcDbEntity
  8
VIEW0001
  6
Continuous
 62
     7
100
AcDbLine
 10
36.42378734337773
 20
-20.09992099343071
 30
0.0
 11
-19.77621265662226
 21
-20.09992099343071
 31
0.0
  0
LINE
  5
8F
330
1F
100
AcDbEntity
  8
VIEW0001
  6
Continuous
 62
     7
100
AcDbLine
 10
2.823787343377735
 20
39.40007900656929
 30
0.0
 11
2.823787343377735
 21
-7.59992099343071
 31
0.0
  0
LINE
  5
90
330
1F
100
AcDbEntity
  8
VIEW0001
  6
Continuous
 62
     7
100
AcDbLine
 10
13.82378734337773
 20
39.40007900656929
 30
0.0
 11
13.82378734337773
 21
-7.59992099343071
 31
0.0
  0
LINE
  5
91
330
1F
100
AcDbEntity
  8
VIEW0001
  6
CENTER
 62
     7
100
AcDbLine
 10
-9.176212656622262
 20
51.49626859166217
 30
0.0
 11
-9.176212656622262
 21
92.27421597133088
 31
0.0
  0
LINE
  5
92
330
1F
100
AcDbEntity
  8
VIEW0001
  6
Continuous
 62
     7
100
AcDbLine
 10
8.323787343377733
 20
53.90007900656929
 30
0.0
 11
-9.176212656622262
 21
53.90007900656929
 31
0.0
  0
LINE
  5
93
330
1F
100
AcDbEntity
  8
VIEW0001
  6
Continuous
 62
     7
100
AcDbLine
 10
25.82378734337772
 20
53.90007900656929
 30
0.0
 11
29.92378734337772
 21
53.90007900656929
 31
0.0
  0
LINE
  5
94
330
1F
100
AcDbEntity
  8
VIEW0001
  6
DASHED
 62
     7
100
AcDbLine
 10
21.72378734337773
 20
82.90007900656929
 30
0.0
 11
21.72378734337773
 21
73.2087055694428
 31
0.0
  0
LINE
  5
95
330
1F
100
AcDbEntity
  8
VIEW0001
  6
Continuous
 62
     7
100
AcDbLine
 10
25.82378734337772
 20
53.90007900656929
 30
0.0
 11
21.72378734337773
 21
53.90007900656929
 31
0.0
  0
LINE
  5
96
330
1F
100
AcDbEntity
  8
VIEW0001
  6
DASHED
 62
     7
100
AcDbLine
 10
-5.07621265662226
 20
82.90007900656929
 30
0.0
 11
-5.07621265662226
 21
73.20870556944277
 31
0.0
  0
LINE
  5
97
330
1F
100
AcDbEntity
  8
VIEW0001
  6
DASHED
 62
     7
100
AcDbLine
 10
35.82378734337773
 20
91.90007900656927
 30
0.0
 11
35.82378734337773
 21
83.90007900656929
 31
0.0
  0
LINE
  5
98
330
1F
100
AcDbEntity
  8
VIEW0001
  6
DASHED
 62
     7
100
AcDbLine
 10
15.60449807004009
 20
115.7550955138187
 30
0.0
 11
34.19221377937514
 21
96.01308891091895
 31
0.0
  0
LINE
  5
99
330
1F
100
AcDbEntity
  8
VIEW0001
  6
DASHED
 62
     7
100
AcDbLine
 10
-19.17621265662226
 20
91.90007900656927
 30
0.0
 11
-19.17621265662226
 21
83.90007900656929
 31
0.0
  0
LINE
  5
9A
330
1F
100
AcDbEntity
  8
VIEW0001
  6
DASHED
 62
     7
100
AcDbLine
 10
1.04307661671541
 20
115.7550955138187
 30
0.0
 11
-17.54463909261963
 21
96.01308891091892
 31
0.0
  0
LINE
  5
9B
330
1F
100
AcDbEntity
  8
VIEW0001
  6
DASHED
 62
     7
100
AcDbLine
 10
-19.17621265662226
 20
83.90007900656929
 30
0.0
 11
35.82378734337773
 21
83.90007900656929
 31
0.0
  0
LINE
  5
9C
330
1F
100
AcDbEntity
  8
VIEW0001
  6
Continuous
 62
     7
100
AcDbLine
 10
2.586483593888666
 20
146.7009011837836
 30
0.0
 11
2.112802384944658
 21
147.7291827602583
 31
0.0
  0
LINE
  5
9D
330
1F
100
AcDbEntity
  8
VIEW0001
  6
Continuous
 62
     7
100
AcDbLine
 10
14.0610910928669
 20
146.7009011837835
 30
0.0
 11
14.53477230181092
 21
147.7291827602583
 31
0.0
  0
LINE
  5
9E
330
1F
100
AcDbEntity
  8
VIEW0001
  6
Continuous
 62
     7
100
AcDbLine
 10
-12.29341468986905
 20
141.0990780500925
 30
0.0
 11
-13.14438380322258
 21
141.8457965086447
 31
0.0
  0
LINE
  5
9F
330
1F
100
AcDbEntity
  8
VIEW0001
  6
Continuous
 62
     7
100
AcDbLine
 10
-1.810839130945808
 20
145.7662213848393
 30
0.0
 11
-1.796349610696393
 21
146.8982668530194
 31
0.0
  0
LINE
  5
A0
330
1F
100
AcDbEntity
  8
VIEW0001
  6
Continuous
 62
     7
100
AcDbLine
 10
-23.60841144067799
 20
129.929358094547
 30
0.0
 11
-24.68952816793049
 21
130.2653990299686
 31
0.0
  0
LINE
  5
A1
330
1F
100
AcDbEntity
  8
VIEW0001
  6
Continuous
 62
     7
100
AcDbLine
 10
-15.93040036715686
 20
138.4566532817965
 30
0.0
 11
-16.37760790528634
 21
139.4967216959234
 31
0.0
  0
LINE
  5
A2
330
1F
100
AcDbEntity
  8
VIEW0001
  6
Continuous
 62
     7
100
AcDbLine
 10
-29.40204092680494
 20
115.1230873711804
 30
0.0
 11
-30.52637036417733
 21
114.990346252901
 31
0.0
  0
LINE
  5
A3
330
1F
100
AcDbEntity
  8
VIEW0001
  6
Continuous
 62
     7
100
AcDbLine
 10
-25.8561922058384
 20
126.0360876050129
 30
0.0
 11
-26.68777055625128
 21
126.804341687559
 31
0.0
  0
LINE
  5
A4
330
1F
100
AcDbEntity
  8
VIEW0001
  6
Continuous
 62
     7
100
AcDbLine
 10
-28.67253197662691
 20
99.24040459881036
 30
0.0
 11
-29.64566735018522
 21
98.66183357209567
 31
0.0
  0
LINE
  5
A5
330
1F
100
AcDbEntity
  8
VIEW0001
  6
Continuous
 62
     7
100
AcDbLine
 10
-29.87195506509447
 20
110.6521529973013
 30
0.0
 11
-30.94411677635217
 21
111.0157546380253
 31
0.0
  0
LINE
  5
A6
330
1F
100
AcDbEntity
  8
VIEW0001
  6
Continuous
 62
     7
100
AcDbLine
 10
-21.54602331501041
 20
85.0275699184223
 30
0.0
 11
-22.19970067800909
 21
84.10320916994404
 31
0.0
  0
LINE
  5
A7
330
1F
100
AcDbEntity
  8
VIEW0001
  6
Continuous
 62
     7
100
AcDbLine
 10
-27.28332706449949
 20
94.96487151099325
 30
0.0
 11
-28.41068563644221
 21
94.86095068299669
 31
0.0
  0
LINE
  5
A8
330
1F
100
AcDbEntity
  8
VIEW0001
  6
Continuous
 62
     7
100
AcDbLine
 10
-9.25475303184771
 20
74.9421115658052
 30
0.0
 11
-9.47594562975187
 21
73.83179146652905
 31
0.0
  0
LINE
  5
A9
330
1F
100
AcDbEntity
  8
VIEW0001
  6
Continuous
 62
     7
100
AcDbLine
 10
-18.53790550230333
 20
81.6867166295495
 30
0.0
 11
-19.52553039611108
 21
81.13324218808407
 31
0.0
  0
LINE
  5
AA
330
1F
100
AcDbEntity
  8
VIEW0001
  6
Continuous
 62
     7
100
AcDbLine
 10
6.076006578217422
 20
70.72789691363911
 30
0.0
 11
6.325544955057081
 21
69.62360189567136
 31
0.0
  0
LINE
  5
AB
330
1F
100
AcDbEntity
  8
VIEW0001
  6
Continuous
 62
     7
100
AcDbLine
 10
-5.147853216270441
 20
73.11360196022197
 30
0.0
 11
-5.824975115513354
 21
72.20627466437452
 31
0.0
  0
LINE
  5
AC
330
1F
100
AcDbEntity
  8
VIEW0001
  6
Continuous
 62
     7
100
AcDbLine
 10
21.79542790302596
 20
73.1136019602219
 30
0.0
 11
22.47254980226888
 21
72.20627466437442
 31
0.0
  0
LINE
  5
AD
330
1F
100
AcDbEntity
  8
VIEW0001
  6
Continuous
 62
     7
100
AcDbLine
 10
10.57156810853805
 20
70.72789691363923
 30
0.0
 11
10.32202973169839
 21
69.62360189567144
 31
0.0
  0
LINE
  5
AE
330
1F
100
AcDbEntity
  8
VIEW0001
  6
Continuous
 62
     7
100
AcDbLine
 10
35.18548018905868
 20
81.68671662954904
 30
0.0
 11
36.17310508286641
 21
81.13324218808363
 31
0.0
  0
LINE
  5
AF
330
1F
100
AcDbEntity
  8
VIEW0001
  6
Continuous
 62
     7
100
AcDbLine
 10
25.90232771860299
 20
74.94211156580523
 30
0.0
 11
26.12352031650715
 21
73.83179146652907
 31
0.0
  0
LINE
  5
B0
330
1F
100
AcDbEntity
  8
VIEW0001
  6
Continuous
 62
     7
100
AcDbLine
 10
43.93090175125502
 20
94.96487151099312
 30
0.0
 11
45.05826032319773
 21
94.86095068299656
 31
0.0
  0
LINE
  5
B1
330
1F
100
AcDbEntity
  8
VIEW0001
  6
Continuous
 62
     7
100
AcDbLine
 10
38.19359800176579
 20
85.02756991842237
 30
0.0
 11
38.84727536476447
 21
84.10320916994412
 31
0.0
  0
LINE
  5
B2
330
1F
100
AcDbEntity
  8
VIEW0001
  6
Continuous
 62
     7
100
AcDbLine
 10
46.51952975185007
 20
110.6521529973011
 30
0.0
 11
47.59169146310774
 21
111.0157546380251
 31
0.0
  0
LINE
  5
B3
330
1F
100
AcDbEntity
  8
VIEW0001
  6
Continuous
 62
     7
100
AcDbLine
 10
45.32010666338221
 20
99.24040459881027
 30
0.0
 11
46.29324203694054
 21
98.66183357209556
 31
0.0
  0
LINE
  5
B4
330
1F
100
AcDbEntity
  8
VIEW0001
  6
Continuous
 62
     7
100
AcDbLine
 10
42.5037668925939
 20
126.0360876050131
 30
0.0
 11
43.3353452430067
 21
126.8043416875591
 31
0.0
  0
LINE
  5
B5
330
1F
100
AcDbEntity
  8
VIEW0001
  6
Continuous
 62
     7
100
AcDbLine
 10
46.04961561356033
 20
115.1230873711806
 30
0.0
 11
47.17394505093276
 21
114.9903462529012
 31
0.0
  0
LINE
  5
B6
330
1F
100
AcDbEntity
  8
VIEW0001
  6
Continuous
 62
     7
100
AcDbLine
 10
32.57797505391238
 20
138.4566532817966
 30
0.0
 11
33.02518259204184
 21
139.4967216959234
 31
0.0
  0
LINE
  5
B7
330
1F
100
AcDbEntity
  8
VIEW0001
  6
Continuous
 62
     7
100
AcDbLine
 10
40.2559861274334
 20
129.9293580945468
 30
0.0
 11
41.33710285468592
 21
130.2653990299685
 31
0.0
  0
LINE
  5
B8
330
1F
100
AcDbEntity
  8
VIEW0001
  6
Continuous
 62
     7
100
AcDbLine
 10
18.45841381770133
 20
145.7662213848393
 30
0.0
 11
18.44392429745191
 21
146.8982668530194
 31
0.0
  0
LINE
  5
B9
330
1F
100
AcDbEntity
  8
VIEW0001
  6
Continuous
 62
     7
100
AcDbLine
 10
28.94098937662437
 20
141.0990780500925
 30
0.0
 11
29.79195848997788
 21
141.8457965086446
 31
0.0
  0
LINE
  5
BA
330
1F
100
AcDbEntity
  8
VIEW0001
  6
Continuous
 62
     7
100
AcDbLine
 10
-108.0380475190075
 20
53.90007900656927
 30
0.0
 11
-108.0380475190075
 21
-20.09992099343071
 31
0.0
  0
LINE
  5
BB
330
1F
100
AcDbEntity
  8
VIEW0001
  6
Continuous
 62
     7
100
AcDbLine
 10
-108.0380475190075
 20
53.90007900656929
 30
0.0
 11
-87.03804751900755
 21
53.90007900656929
 31
0.0
  0
LINE
  5
BC
330
1F
100
AcDbEntity
  8
VIEW0001
  6
Continuous
 62
     7
100
AcDbLine
 10
-85.03804751900755
 20
51.90007900656929
 30
0.0
 11
-85.03804751900755
 21
-20.09992099343071
 31
0.0
  0
LINE
  5
BD
330
1F
100
AcDbEntity
  8
VIEW0001
  6
Continuous
 62
     7
100
AcDbLine
 10
-85.03804751900753
 20
-20.09992099343071
 30
0.0
 11
-108.0380475190075
 21
-20.09992099343071
 31
0.0
  0
LINE
  5
BE
330
1F
100
AcDbEntity
  8
VIEW0001
  6
Continuous
 62
     7
100
AcDbLine
 10
-99.63804751900756
 20
82.9000790065693
 30
0.0
 11
-99.63804751900756
 21
53.90007900656927
 31
0.0
  0
LINE
  5
BF
330
1F
100
AcDbEntity
  8
VIEW0001
  6
Continuous
 62
     7
100
AcDbLine
 10
-91.43804751900755
 20
82.9000790065693
 30
0.0
 11
-91.43804751900755
 21
53.90007900656929
 31
0.0
  0
LINE
  5
C0
330
1F
100
AcDbEntity
  8
VIEW0001
  6
Continuous
 62
     7
100
AcDbLine
 10
-105.5380475190075
 20
118.9000790065693
 30
0.0
 11
-105.5380475190075
 21
83.90007900656929
 31
0.0
  0
LINE
  5
C1
330
1F
100
AcDbEntity
  8
VIEW0001
  6
Continuous
 62
     7
100
AcDbLine
 10
-105.5380475190075
 20
118.9000790065693
 30
0.0
 11
-85.53804751900753
 21
118.9000790065693
 31
0.0
  0
LINE
  5
C2
330
1F
100
AcDbEntity
  8
VIEW0001
  6
Continuous
 62
     7
100
AcDbLine
 10
-85.53804751900755
 20
118.9000790065693
 30
0.0
 11
-85.53804751900755
 21
83.90007900656929
 31
0.0
  0
LINE
  5
C3
330
1F
100
AcDbEntity
  8
VIEW0001
  6
Continuous
 62
     7
100
AcDbLine
 10
-85.53804751900753
 20
83.90007900656929
 30
0.0
 11
-105.5380475190075
 21
83.90007900656929
 31
0.0
  0
LINE
  5
C4
330
1F
100
AcDbEntity
  8
VIEW0001
  6
Continuous
 62
     7
100
AcDbLine
 10
-99.34855929565903
 20
111.9110494251399
 30
0.0
 11
-91.72753574235615
 21
111.9110494251399
 31
0.0
  0
LINE
  5
C5
330
1F
100
AcDbEntity
  8
VIEW0001
  6
Continuous
 62
     7
100
AcDbLine
 10
-99.34855929565904
 20
97.89133386496479
 30
0.0
 11
-91.72753574235615
 21
97.89133386496479
 31
0.0
  0
LINE
  5
C6
330
1F
100
AcDbEntity
  8
VIEW0001
  6
Continuous
 62
     7
100
AcDbLine
 10
-99.34855929565907
 20
111.9110494251399
 30
0.0
 11
-99.34855929565907
 21
97.89133386496476
 31
0.0
  0
LINE
  5
C7
330
1F
100
AcDbEntity
  8
VIEW0001
  6
Continuous
 62
     7
100
AcDbLine
 10
-91.72753574235612
 20
111.9110494251399
 30
0.0
 11
-91.72753574235615
 21
97.89133386496476
 31
0.0
  0
LINE
  5
C8
330
1F
100
AcDbEntity
  8
VIEW0001
  6
Continuous
 62
     7
100
AcDbLine
 10
-74.78804751900755
 20
144.5000790065693
 30
0.0
 11
-74.78804751900755
 21
73.30007900656926
 31
0.0
  0
LINE
  5
C9
330
1F
100
AcDbEntity
  8
VIEW0001
  6
Continuous
 62
     7
100
AcDbLine
 10
-83.28804751900755
 20
144.2734483474611
 30
0.0
 11
-83.28804751900755
 21
73.30007900656926
 31
0.0
  0
LINE
  5
CA
330
1F
100
AcDbEntity
  8
VIEW0001
  6
Continuous
 62
     7
100
AcDbLine
 10
-81.67459453653959
 20
150.9000790065693
 30
0.0
 11
-76.40150050147548
 21
150.9000790065693
 31
0.0
  0
LINE
  5
CB
330
1F
100
AcDbEntity
  8
VIEW0001
  6
Continuous
 62
     7
100
AcDbLine
 10
-99.34855929565933
 20
111.9110494251401
 30
0.0
 11
-103.1590710723108
 21
104.9011916450525
 31
0.0
  0
LINE
  5
CC
330
1F
100
AcDbEntity
  8
VIEW0001
  6
Continuous
 62
     7
100
AcDbLine
 10
-103.1590710723106
 20
104.9011916450523
 30
0.0
 11
-99.34855929565913
 21
97.89133386496472
 31
0.0
  0
LINE
  5
CD
330
1F
100
AcDbEntity
  8
VIEW0001
  6
Continuous
 62
     7
100
AcDbLine
 10
-87.91702396570457
 20
104.9011916450524
 30
0.0
 11
-91.72753574235611
 21
97.89133386496484
 31
0.0
  0
LINE
  5
CE
330
1F
100
AcDbEntity
  8
VIEW0001
  6
Continuous
 62
     7
100
AcDbLine
 10
-91.72753574235617
 20
111.9110494251399
 30
0.0
 11
-87.91702396570463
 21
104.9011916450523
 31
0.0
  0
LINE
  5
CF
330
1F
100
AcDbEntity
  8
VIEW0001
  6
DASHED
 62
     7
100
AcDbLine
 10
-83.28804751900753
 20
141.9950790065693
 30
0.0
 11
-74.78804751900755
 21
141.9950790065693
 31
0.0
  0
LINE
  5
D0
330
1F
100
AcDbEntity
  8
VIEW0001
  6
CENTER
 62
     1
100
AcDbLine
 10
-33.67621265662226
 20
108.9000790065693
 30
0.0
 11
50.32378734337772
 21
108.9000790065693
 31
0.0
  0
LINE
  5
D1
330
1F
100
AcDbEntity
  8
VIEW0001
  6
CENTER
 62
     7
100
AcDbLine
 10
8.323787343377735
 20
153.7663121489634
 30
0.0
 11
8.323787343377735
 21
-24.12673593225023
 31
0.0
  0
LINE
  5
D2
330
1F
100
AcDbEntity
  8
VIEW0001
  6
Continuous
 62
     7
100
AcDbLine
 10
-74.78804751900755
 20
123.9000790065693
 30
0.0
 11
-74.53804751900755
 21
123.9000790065693
 31
0.0
  0
LINE
  5
D3
330
1F
100
AcDbEntity
  8
VIEW0001
  6
Continuous
 62
     7
100
AcDbLine
 10
-74.78804751900755
 20
93.90007900656929
 30
0.0
 11
-74.53804751900755
 21
93.90007900656929
 31
0.0
  0
LINE
  5
D4
330
1F
100
AcDbEntity
  8
VIEW0001
  6
Continuous
 62
     7
100
AcDbLine
 10
-74.53804751900755
 20
119.4000790065693
 30
0.0
 11
-72.53804751900755
 21
119.4000790065693
 31
0.0
  0
LINE
  5
D5
330
1F
100
AcDbEntity
  8
VIEW0001
  6
Continuous
 62
     7
100
AcDbLine
 10
-74.53804751900755
 20
98.40007900656929
 30
0.0
 11
-72.53804751900755
 21
98.40007900656929
 31
0.0
  0
LINE
  5
D6
330
1F
100
AcDbEntity
  8
VIEW0001
  6
Continuous
 62
     7
100
AcDbLine
 10
-74.53804751900756
 20
123.9000790065693
 30
0.0
 11
-74.53804751900756
 21
93.90007900656929
 31
0.0
  0
LINE
  5
D7
330
1F
100
AcDbEntity
  8
VIEW0001
  6
Continuous
 62
     7
100
AcDbLine
 10
-72.53804751900756
 20
98.40007900656926
 30
0.0
 11
-72.53804751900756
 21
119.4000790065693
 31
0.0
  0
LINE
  5
D8
330
1F
100
AcDbEntity
  8
VIEW0001
  6
CENTER
 62
     7
100
AcDbLine
 10
-79.03804751900755
 20
64.26047652328336
 30
0.0
 11
-79.03804751900755
 21
153.5396814898552
 31
0.0
  0
LINE
  5
D9
330
1F
100
AcDbEntity
  8
VIEW0001
  6
Continuous
 62
     7
100
AcDbLine
 10
-83.28804751900753
 20
93.90007900656929
 30
0.0
 11
-83.53804751900753
 21
93.90007900656929
 31
0.0
  0
LINE
  5
DA
330
1F
100
AcDbEntity
  8
VIEW0001
  6
Continuous
 62
     7
100
AcDbLine
 10
-83.28804751900753
 20
123.9000790065693
 30
0.0
 11
-83.53804751900753
 21
123.9000790065693
 31
0.0
  0
LINE
  5
DB
330
1F
100
AcDbEntity
  8
VIEW0001
  6
Continuous
 62
     7
100
AcDbLine
 10
-83.53804751900753
 20
119.4000790065693
 30
0.0
 11
-85.53804751900753
 21
119.4000790065693
 31
0.0
  0
LINE
  5
DC
330
1F
100
AcDbEntity
  8
VIEW0001
  6
Continuous
 62
     7
100
AcDbLine
 10
-83.53804751900753
 20
98.40007900656929
 30
0.0
 11
-85.53804751900753
 21
98.40007900656929
 31
0.0
  0
LINE
  5
DD
330
1F
100
AcDbEntity
  8
VIEW0001
  6
Continuous
 62
     7
100
AcDbLine
 10
-85.53804751900755
 20
98.40007900656926
 30
0.0
 11
-85.53804751900755
 21
119.4000790065693
 31
0.0
  0
LINE
  5
DE
330
1F
100
AcDbEntity
  8
VIEW0001
  6
Continuous
 62
     7
100
AcDbLine
 10
-83.53804751900755
 20
123.9000790065693
 30
0.0
 11
-83.53804751900755
 21
93.90007900656929
 31
0.0
  0
LINE
  5
DF
330
1F
100
AcDbEntity
  8
VIEW0001
  6
Continuous
 62
     7
100
AcDbLine
 10
29.92378734337773
 20
82.90007900656929
 30
0.0
 11
29.92378734337773
 21
53.90007900656927
 31
0.0
  0
LINE
  5
E0
330
1F
100
AcDbEntity
  8
VIEW0001
  6
Continuous
 62
     7
100
AcDbLine
 10
21.72378734337773
 20
73.20959861212643
 30
0.0
 11
21.72378734337773
 21
53.90007900656927
 31
0.0
  0
LINE
  5
E1
330
1F
100
AcDbEntity
  8
VIEW0001
  6
Continuous
 62
     7
100
AcDbLine
 10
-5.07621265662226
 20
73.20870556944277
 30
0.0
 11
-5.07621265662226
 21
53.90007900656927
 31
0.0
  0
LINE
  5
E2
330
1F
100
AcDbEntity
  8
VIEW0001
  6
Continuous
 62
     7
100
AcDbLine
 10
-13.27621265662226
 20
82.90007900656929
 30
0.0
 11
-13.27621265662226
 21
53.90007900656927
 31
0.0
  0
LINE
  5
E3
330
1F
100
AcDbEntity
  8
VIEW0001
  6
Continuous
 62
     7
100
AcDbLine
 10
-106.7880475190076
 20
113.9000790065693
 30
0.0
 11
-105.5380475190075
 21
113.9000790065693
 31
0.0
  0
LINE
  5
E4
330
1F
100
AcDbEntity
  8
VIEW0001
  6
Continuous
 62
     7
100
AcDbLine
 10
-107.5380475190075
 20
113.1500790065693
 30
0.0
 11
-107.5380475190075
 21
104.6500790065693
 31
0.0
  0
LINE
  5
E5
330
1F
100
AcDbEntity
  8
VIEW0001
  6
Continuous
 62
     7
100
AcDbLine
 10
-106.7880475190075
 20
103.9000790065693
 30
0.0
 11
-105.5380475190075
 21
103.9000790065693
 31
0.0
  0
LINE
  5
E6
330
1F
100
AcDbEntity
  8
VIEW0001
  6
CENTER
 62
     7
100
AcDbLine
 10
-79.03804751900755
 20
153.7663121489634
 30
0.0
 11
-79.03804751900755
 21
64.48710718239157
 31
0.0
  0
LINE
  5
E7
330
1F
100
AcDbEntity
  8
VIEW0001
  6
CENTER
 62
     7
100
AcDbLine
 10
-79.03804751900755
 20
64.03384586417519
 30
0.0
 11
-79.03804751900755
 21
153.313050830747
 31
0.0
  0
LINE
  5
E8
330
1F
100
AcDbEntity
  8
VIEW0001
  6
Continuous
 62
     7
100
AcDbLine
 10
-72.53804751900756
 20
118.4734483474611
 30
0.0
 11
-72.53804751900756
 21
108.6734483474611
 31
0.0
  0
LINE
  5
E9
330
1F
100
AcDbEntity
  8
VIEW0001
  6
CENTER
 62
     7
100
AcDbLine
 10
-79.03804751900755
 20
153.7663121489634
 30
0.0
 11
-79.03804751900755
 21
64.48710718239157
 31
0.0
  0
LINE
  5
EA
330
1F
100
AcDbEntity
  8
VIEW0001
  6
CENTER
 62
     7
100
AcDbLine
 10
-110.0617102184879
 20
108.9000790065693
 30
0.0
 11
-63.51891524194522
 21
108.9000790065693
 31
0.0
  0
LINE
  5
EB
330
1F
100
AcDbEntity
  8
VIEW0001
  6
CENTER
 62
     7
100
AcDbLine
 10
-79.03804751900755
 20
64.48710718239155
 30
0.0
 11
-79.03804751900755
 21
153.7663121489634
 31
0.0
  0
LINE
  5
EC
330
1F
100
AcDbEntity
  8
VIEW0001
  6
DASHED
 62
     7
100
AcDbLine
 10
-83.28804751900753
 20
75.80507900656924
 30
0.0
 11
-74.78804751900755
 21
75.80507900656924
 31
0.0
  0
LINE
  5
ED
330
1F
100
AcDbEntity
  8
VIEW0001
  6
DASHED
 62
     7
100
AcDbLine
 10
-73.31306309507022
 20
70.72507900656925
 30
0.0
 11
-84.7630319429449
 21
70.72507900656925
 31
0.0
  0
LINE
  5
EE
330
1F
100
AcDbEntity
  8
VIEW0001
  6
Continuous
 62
     7
100
AcDbLine
 10
-81.67459453653959
 20
66.90007900656929
 30
0.0
 11
-76.40150050147548
 21
66.90007900656929
 31
0.0
  0
LINE
  5
EF
330
1F
100
AcDbEntity
  8
VIEW0001
  6
Continuous
 62
     7
100
AcDbLine
 10
-66.03804751900756
 20
117.3871279636568
 30
0.0
 11
-66.03804751900756
 21
100.4130300494817
 31
0.0
  0
LINE
  5
F0
330
1F
100
AcDbEntity
  8
VIEW0001
  6
Continuous
 62
     7
100
AcDbLine
 10
-0.163261613709786
 20
113.8000790065693
 30
0.0
 11
8.323787343377738
 21
118.7000790065693
 31
0.0
  0
LINE
  5
F1
330
1F
100
AcDbEntity
  8
VIEW0001
  6
Continuous
 62
     7
100
AcDbLine
 10
8.323787343377774
 20
118.7000790065694
 30
0.0
 11
16.8108363004653
 21
113.8000790065693
 31
0.0
  0
LINE
  5
F2
330
1F
100
AcDbEntity
  8
VIEW0001
  6
Continuous
 62
     7
100
AcDbLine
 10
16.81083630046528
 20
113.8000790065693
 30
0.0
 11
16.81083630046528
 21
104.0000790065693
 31
0.0
  0
LINE
  5
F3
330
1F
100
AcDbEntity
  8
VIEW0001
  6
Continuous
 62
     7
100
AcDbLine
 10
-0.163261613709778
 20
113.8000790065693
 30
0.0
 11
-0.163261613709778
 21
104.0000790065693
 31
0.0
  0
LINE
  5
F4
330
1F
100
AcDbEntity
  8
VIEW0001
  6
Continuous
 62
     7
100
AcDbLine
 10
-0.163261613709771
 20
104.0000790065693
 30
0.0
 11
8.32378734337776
 21
99.10007900656933
 31
0.0
  0
LINE
  5
F5
330
1F
100
AcDbEntity
  8
VIEW0001
  6
Continuous
 62
     7
100
AcDbLine
 10
8.323787343377774
 20
99.10007900656933
 30
0.0
 11
16.81083630046529
 21
104.0000790065693
 31
0.0
  0
LINE
  5
F6
330
1F
100
AcDbEntity
  8
VIEW0001
  6
Continuous
 62
     7
100
AcDbLine
 10
-66.03804751900758
 20
117.3871279636568
 30
0.0
 11
-66.79608015706592
 21
118.7000790065693
 31
0.0
  0
LINE
  5
F7
330
1F
100
AcDbEntity
  8
VIEW0001
  6
Continuous
 62
     7
100
AcDbLine
 10
-66.03804751900759
 20
100.4130300494818
 30
0.0
 11
-66.7960801570659
 21
99.1000790065693
 31
0.0
  0
LINE
  5
F8
330
1F
100
AcDbEntity
  8
VIEW0001
  6
Continuous
 62
     7
100
AcDbLine
 10
-72.53804751900756
 20
113.8000790065693
 30
0.0
 11
-66.7960801570659
 21
113.8000790065693
 31
0.0
  0
LINE
  5
F9
330
1F
100
AcDbEntity
  8
VIEW0001
  6
Continuous
 62
     7
100
AcDbLine
 10
-72.53804751900756
 20
99.10007900656927
 30
0.0
 11
-66.7960801570659
 21
99.10007900656927
 31
0.0
  0
LINE
  5
FA
330
1F
100
AcDbEntity
  8
VIEW0001
  6
Continuous
 62
     7
100
AcDbLine
 10
-72.53804751900756
 20
118.7000790065693
 30
0.0
 11
-66.7960801570659
 21
118.7000790065693
 31
0.0
  0
LINE
  5
FB
330
1F
100
AcDbEntity
  8
VIEW0001
  6
Continuous
 62
     7
100
AcDbLine
 10
-72.53804751900756
 20
104.0000790065693
 30
0.0
 11
-66.79608015706592
 21
104.0000790065693
 31
0.0
  0
LINE
  5
FC
330
1F
100
AcDbEntity
  8
VIEW0001
  6
Continuous
 62
     7
100
AcDbLine
 10
-107.5380475190075
 20
113.1500790065693
 30
0.0
 11
-105.5380475190075
 21
113.1500790065693
 31
0.0
  0
LINE
  5
FD
330
1F
100
AcDbEntity
  8
VIEW0001
  6
Continuous
 62
     7
100
AcDbLine
 10
-107.5380475190075
 20
104.6500790065693
 30
0.0
 11
-105.5380475190075
 21
104.6500790065693
 31
0.0
  0
LINE
  5
FE
330
1F
100
AcDbEntity
  8
VIEW0001
  6
Continuous
 62
     7
100
AcDbLine
 10
-107.5380475190075
 20
113.1500790065693
 30
0.0
 11
-106.7880475190075
 21
113.9000790065693
 31
0.0
  0
LINE
  5
FF
330
1F
100
AcDbEntity
  8
VIEW0001
  6
Continuous
 62
     7
100
AcDbLine
 10
-107.5380475190075
 20
104.6500790065693
 30
0.0
 11
-106.7880475190075
 21
103.9000790065693
 31
0.0
  0
LINE
  5
100
330
1F
100
AcDbEntity
  8
VIEW0001
  6
Continuous
 62
     7
100
AcDbLine
 10
-106.7880475190076
 20
113.9000790065693
 30
0.0
 11
-106.7880475190076
 21
103.9000790065693
 31
0.0
  0
LINE
  5
101
330
1F
100
AcDbEntity
  8
VIEW0001
  6
DASHED
 62
     7
100
AcDbLine
 10
-16.67621265662226
 20
83.90007900656929
 30
0.0
 11
-16.67621265662226
 21
82.90007900656929
 31
0.0
  0
LINE
  5
102
330
1F
100
AcDbEntity
  8
VIEW0001
  6
DASHED
 62
     7
100
AcDbLine
 10
0.823787343377738
 20
83.90007900656929
 30
0.0
 11
-8.699280935741214
 21
83.90007900656929
 31
0.0
  0
LINE
  5
103
330
1F
100
AcDbEntity
  8
VIEW0001
  6
DASHED
 62
     7
100
AcDbLine
 10
-1.676212656622264
 20
83.90007900656929
 30
0.0
 11
-1.676212656622264
 21
82.90007900656929
 31
0.0
  0
LINE
  5
104
330
1F
100
AcDbEntity
  8
VIEW0001
  6
DASHED
 62
     7
100
AcDbLine
 10
-16.67621265662226
 20
82.90007900656929
 30
0.0
 11
-15.58928371802258
 21
82.90007900656929
 31
0.0
  0
LINE
  5
105
330
1F
100
AcDbEntity
  8
VIEW0001
  6
DASHED
 62
     7
100
AcDbLine
 10
-12.72028434147732
 20
82.90007900656929
 30
0.0
 11
-1.676212656622264
 21
82.90007900656929
 31
0.0
  0
LINE
  5
106
330
1F
100
AcDbEntity
  8
VIEW0001
  6
Continuous
 62
     7
100
AcDbLine
 10
-12.72028434147732
 20
82.90007900656929
 30
0.0
 11
-15.58677777460112
 21
82.90007900656929
 31
0.0
  0
LINE
  5
107
330
1F
100
AcDbEntity
  8
VIEW0001
  6
DASHED
 62
     7
100
AcDbLine
 10
35.82378734337773
 20
83.90007900656929
 30
0.0
 11
-19.17621265662226
 21
83.90007900656929
 31
0.0
  0
LINE
  5
108
330
1F
100
AcDbEntity
  8
VIEW0001
  6
DASHED
 62
     7
100
AcDbLine
 10
33.32378734337773
 20
82.90007900656929
 30
0.0
 11
32.23685840477813
 21
82.90007900656929
 31
0.0
  0
LINE
  5
109
330
1F
100
AcDbEntity
  8
VIEW0001
  6
DASHED
 62
     7
100
AcDbLine
 10
29.36785902823277
 20
82.90007900656929
 30
0.0
 11
18.32378734337773
 21
82.90007900656929
 31
0.0
  0
LINE
  5
10A
330
1F
100
AcDbEntity
  8
VIEW0001
  6
DASHED
 62
     7
100
AcDbLine
 10
18.32378734337773
 20
83.90007900656929
 30
0.0
 11
18.32378734337773
 21
82.90007900656929
 31
0.0
  0
LINE
  5
10B
330
1F
100
AcDbEntity
  8
VIEW0001
  6
Continuous
 62
     7
100
AcDbLine
 10
29.36785902823277
 20
82.90007900656929
 30
0.0
 11
32.23685840477813
 21
82.90007900656929
 31
0.0
  0
LINE
  5
10C
330
1F
100
AcDbEntity
  8
VIEW0001
  6
DASHED
 62
     7
100
AcDbLine
 10
33.32378734337773
 20
83.90007900656929
 30
0.0
 11
33.32378734337773
 21
82.90007900656929
 31
0.0
  0
LINE
  5
10D
330
1F
100
AcDbEntity
  8
VIEW0001
  6
Continuous
 62
     7
100
AcDbLine
 10
-17.77621265662226
 20
53.90007900656929
 30
0.0
 11
34.42378734337773
 21
53.90007900656929
 31
0.0
  0
LINE
  5
10E
330
1F
100
AcDbEntity
  8
VIEW0001
  6
DASHED
 62
     7
100
AcDbLine
 10
-84.7630319429449
 20
147.0750790065693
 30
0.0
 11
-73.31306309507022
 21
147.0750790065693
 31
0.0
  0
LINE
  5
10F
330
1F
100
AcDbEntity
  8
VIEW0001
  6
Continuous
 62
     7
100
AcDbLine
 10
-88.03804751900755
 20
83.90007900656929
 30
0.0
 11
-88.03804751900755
 21
82.90007900656929
 31
0.0
  0
LINE
  5
110
330
1F
100
AcDbEntity
  8
VIEW0001
  6
Continuous
 62
     7
100
AcDbLine
 10
-88.03804751900755
 20
82.9000790065693
 30
0.0
 11
-103.0380475190075
 21
82.9000790065693
 31
0.0
  0
LINE
  5
111
330
1F
100
AcDbEntity
  8
VIEW0001
  6
Continuous
 62
     7
100
AcDbLine
 10
-103.0380475190075
 20
83.90007900656929
 30
0.0
 11
-103.0380475190075
 21
82.90007900656929
 31
0.0
  0
ARC
  5
112
330
1F
100
AcDbEntity
  8
VIEW0001
  6
Continuous
 62
     7
100
AcDbCircle
 10
8.323787343377735
 20
-7.599920993430713
 30
0.0
 40
5.5
100
AcDbArc
 50
180.0
 51
0.00000117082986
  0
ARC
  5
113
330
1F
100
AcDbEntity
  8
VIEW0001
  6
Continuous
 62
     7
100
AcDbCircle
 10
8.323787343377735
 20
39.40007900656929
 30
0.0
 40
5.5
100
AcDbArc
 50
359.9999983441966
 51
180.0
  0
ARC
  5
114
330
1F
100
AcDbEntity
  8
VIEW0001
  6
DASHED
 62
     7
100
AcDbCircle
 10
8.323787343377735
 20
108.9000790065693
 30
0.0
 40
9.999999999999998
100
AcDbArc
 50
43.27507100444443
 51
90.00000000000003
  0
ARC
  5
115
330
1F
100
AcDbEntity
  8
VIEW0001
  6
DASHED
 62
     7
100
AcDbCircle
 10
29.82378734337773
 20
91.90007900656929
 30
0.0
 40
5.999999999999998
100
AcDbArc
 50
359.9999989267392
 51
43.27507298839712
  0
ARC
  5
116
330
1F
100
AcDbEntity
  8
VIEW0001
  6
DASHED
 62
     7
100
AcDbCircle
 10
8.323787343377735
 20
108.9000790065693
 30
0.0
 40
9.999999999999998
100
AcDbArc
 50
89.9999999999999
 51
136.7249289955555
  0
ARC
  5
117
330
1F
100
AcDbEntity
  8
VIEW0001
  6
DASHED
 62
     7
100
AcDbCircle
 10
-13.17621265662226
 20
91.90007900656929
 30
0.0
 40
5.999999999999998
100
AcDbArc
 50
136.7249270116029
 51
180.0000010732608
  0
CIRCLE
  5
118
330
1F
100
AcDbEntity
  8
VIEW0001
  6
DASHED
 62
     7
100
AcDbCircle
 10
8.323787343377735
 20
108.8977808710662
 30
0.0
 40
38.17729813550304
  0
ARC
  5
119
330
1F
100
AcDbEntity
  8
VIEW0001
  6
Continuous
 62
     7
100
AcDbCircle
 10
8.323787343377735
 20
147.1384790065693
 30
0.0
 40
5.143399999999999
100
AcDbArc
 50
219.0
 51
321.0
  0
ARC
  5
11A
330
1F
100
AcDbEntity
  8
VIEW0001
  6
Continuous
 62
     7
100
AcDbCircle
 10
14.64043265900661
 20
152.253591513303
 30
0.0
 40
13.2714
100
AcDbArc
 50
204.7333333333333
 51
219.0
  0
ARC
  5
11B
330
1F
100
AcDbEntity
  8
VIEW0001
  6
Continuous
 62
     7
100
AcDbCircle
 10
2.00714202774886
 20
152.253591513303
 30
0.0
 40
13.2714
100
AcDbArc
 50
321.0
 51
335.2666666666667
  0
ARC
  5
11C
330
1F
100
AcDbEntity
  8
VIEW0001
  6
Continuous
 62
     7
100
AcDbCircle
 10
-5.589384652630115
 20
144.1811455777009
 30
0.0
 40
8.480109256996236
100
AcDbArc
 50
24.73333333333334
 51
44.73902249001401
  0
ARC
  5
11D
330
1F
100
AcDbEntity
  8
VIEW0001
  6
Continuous
 62
     7
100
AcDbCircle
 10
22.23695933938559
 20
144.1811455777009
 30
0.0
 40
8.480109256996236
100
AcDbArc
 50
135.260977509986
 51
155.2666666666667
  0
ARC
  5
11E
330
1F
100
AcDbEntity
  8
VIEW0001
  6
Continuous
 62
     7
100
AcDbCircle
 10
8.323787343377735
 20
108.8977808710662
 30
0.0
 40
41.99999999999999
100
AcDbArc
 50
100.8271743611416
 51
103.1728256388584
  0
ARC
  5
11F
330
1F
100
AcDbEntity
  8
VIEW0001
  6
Continuous
 62
     7
100
AcDbCircle
 10
-7.230105845131787
 20
143.8323969498369
 30
0.0
 40
5.143399999999999
100
AcDbArc
 50
242.9999999999999
 51
345.0
  0
ARC
  5
120
330
1F
100
AcDbEntity
  8
VIEW0001
  6
Continuous
 62
     7
100
AcDbCircle
 10
-3.54006689944354
 20
151.0744958568738
 30
0.0
 40
13.2714
100
AcDbArc
 50
228.7333333333333
 51
242.9999999999999
  0
ARC
  5
121
330
1F
100
AcDbEntity
  8
VIEW0001
  6
Continuous
 62
     7
100
AcDbCircle
 10
-15.08115217070787
 20
145.936073634515
 30
0.0
 40
13.2714
100
AcDbArc
 50
345.0
 51
359.2666666666667
  0
ARC
  5
122
330
1F
100
AcDbEntity
  8
VIEW0001
  6
Continuous
 62
     7
100
AcDbCircle
 10
-18.73756505217122
 20
135.4717415569671
 30
0.0
 40
8.480109256996236
100
AcDbArc
 50
48.73333333333335
 51
68.73902249001401
  0
ARC
  5
123
330
1F
100
AcDbEntity
  8
VIEW0001
  6
Continuous
 62
     7
100
AcDbCircle
 10
6.683065104535215
 20
146.789735301352
 30
0.0
 40
8.480109256996236
100
AcDbArc
 50
159.260977509986
 51
179.2666666666667
  0
ARC
  5
124
330
1F
100
AcDbEntity
  8
VIEW0001
  6
Continuous
 62
     7
100
AcDbCircle
 10
8.323787343377735
 20
108.8977808710662
 30
0.0
 40
41.99999999999999
100
AcDbArc
 50
124.8271743611416
 51
127.1728256388584
  0
ARC
  5
125
330
1F
100
AcDbEntity
  8
VIEW0001
  6
Continuous
 62
     7
100
AcDbCircle
 10
-20.09458959866439
 20
134.4858024020615
 30
0.0
 40
5.143399999999999
100
AcDbArc
 50
267.0
 51
9.0
  0
ARC
  5
126
330
1F
100
AcDbEntity
  8
VIEW0001
  6
Continuous
 62
     7
100
AcDbCircle
 10
-19.66919827957767
 20
142.6026630159716
 30
0.0
 40
13.2714
100
AcDbArc
 50
252.7333333333333
 51
267.0
  0
ARC
  5
127
330
1F
100
AcDbEntity
  8
VIEW0001
  6
Continuous
 62
     7
100
AcDbCircle
 10
-28.12251969997887
 20
133.2142984546004
 30
0.0
 40
13.2714
100
AcDbArc
 50
9.0
 51
23.26666666666667
  0
ARC
  5
128
330
1F
100
AcDbEntity
  8
VIEW0001
  6
Continuous
 62
     7
100
AcDbCircle
 10
-27.20659177785333
 20
122.1674583167872
 30
0.0
 40
8.480109256996236
100
AcDbArc
 50
72.73333333333335
 51
92.73902249001402
  0
ARC
  5
129
330
1F
100
AcDbEntity
  8
VIEW0001
  6
Continuous
 62
     7
100
AcDbCircle
 10
-8.587133349725688
 20
142.8464618664077
 30
0.0
 40
8.480109256996236
100
AcDbArc
 50
183.260977509986
 51
203.2666666666667
  0
ARC
  5
12A
330
1F
100
AcDbEntity
  8
VIEW0001
  6
Continuous
 62
     7
100
AcDbCircle
 10
8.323787343377735
 20
108.8977808710662
 30
0.0
 40
41.99999999999999
100
AcDbArc
 50
148.8271743611416
 51
151.1728256388584
  0
ARC
  5
12B
330
1F
100
AcDbEntity
  8
VIEW0001
  6
Continuous
 62
     7
100
AcDbCircle
 10
-28.04527780606836
 20
120.7148064716991
 30
0.0
 40
5.143399999999999
100
AcDbArc
 50
291.0
 51
32.99999999999999
  0
ARC
  5
12C
330
1F
100
AcDbEntity
  8
VIEW0001
  6
Continuous
 62
     7
100
AcDbCircle
 10
-30.9580881372121
 20
128.3029498529738
 30
0.0
 40
13.2714
100
AcDbArc
 50
276.7333333333333
 51
291.0
  0
ARC
  5
12D
330
1F
100
AcDbEntity
  8
VIEW0001
  6
Continuous
 62
     7
100
AcDbCircle
 10
-34.86198963714855
 20
116.2879764758655
 30
0.0
 40
13.2714
100
AcDbArc
 50
33.00000000000001
 51
47.26666666666667
  0
ARC
  5
12E
330
1F
100
AcDbEntity
  8
VIEW0001
  6
Continuous
 62
     7
100
AcDbCircle
 10
-29.5320931701136
 20
106.5687272950071
 30
0.0
 40
8.480109256996236
100
AcDbArc
 50
96.73333333333336
 51
116.739022490014
  0
ARC
  5
12F
330
1F
100
AcDbEntity
  8
VIEW0001
  6
Continuous
 62
     7
100
AcDbCircle
 10
-20.93327998525754
 20
133.0331530732842
 30
0.0
 40
8.480109256996236
100
AcDbArc
 50
207.260977509986
 51
227.2666666666667
  0
ARC
  5
130
330
1F
100
AcDbEntity
  8
VIEW0001
  6
Continuous
 62
     7
100
AcDbCircle
 10
8.323787343377735
 20
108.8977808710662
 30
0.0
 40
41.99999999999999
100
AcDbArc
 50
172.8271743611416
 51
175.1728256388585
  0
ARC
  5
131
330
1F
100
AcDbEntity
  8
VIEW0001
  6
Continuous
 62
     7
100
AcDbCircle
 10
-29.70742424654874
 20
104.9005394606799
 30
0.0
 40
5.143399999999999
100
AcDbArc
 50
315.0
 51
57.00000000000001
  0
ARC
  5
132
330
1F
100
AcDbEntity
  8
VIEW0001
  6
Continuous
 62
     7
100
AcDbCircle
 10
-35.45478485961706
 20
110.6479066825782
 30
0.0
 40
13.2714
100
AcDbArc
 50
300.7333333333333
 51
315.0
  0
ARC
  5
133
330
1F
100
AcDbEntity
  8
VIEW0001
  6
Continuous
 62
     7
100
AcDbCircle
 10
-34.13424640391803
 20
98.08382253924152
 30
0.0
 40
13.2714
100
AcDbArc
 50
57.00000000000001
 51
71.26666666666668
  0
ARC
  5
134
330
1F
100
AcDbEntity
  8
VIEW0001
  6
Continuous
 62
     7
100
AcDbCircle
 10
-25.31196891171331
 20
91.37271079531506
 30
0.0
 40
8.480109256996236
100
AcDbArc
 50
120.7333333333334
 51
140.739022490014
  0
ARC
  5
135
330
1F
100
AcDbEntity
  8
VIEW0001
  6
Continuous
 62
     7
100
AcDbCircle
 10
-28.22061388755584
 20
119.0466191634241
 30
0.0
 40
8.480109256996236
100
AcDbArc
 50
231.260977509986
 51
251.2666666666667
  0
ARC
  5
136
330
1F
100
AcDbEntity
  8
VIEW0001
  6
Continuous
 62
     7
100
AcDbCircle
 10
8.323787343377735
 20
108.8977808710662
 30
0.0
 40
41.99999999999999
100
AcDbArc
 50
196.8271743611417
 51
199.1728256388585
  0
ARC
  5
137
330
1F
100
AcDbEntity
  8
VIEW0001
  6
Continuous
 62
     7
100
AcDbCircle
 10
-24.79362870042012
 20
89.77743180331474
 30
0.0
 40
5.143399999999999
100
AcDbArc
 50
339.0
 51
81.00000000000006
  0
ARC
  5
138
330
1F
100
AcDbEntity
  8
VIEW0001
  6
Continuous
 62
     7
100
AcDbCircle
 10
-32.38176873228147
 20
92.69025085997843
 30
0.0
 40
13.2714
100
AcDbArc
 50
324.7333333333333
 51
339.0
  0
ARC
  5
139
330
1F
100
AcDbEntity
  8
VIEW0001
  6
Continuous
 62
     7
100
AcDbCircle
 10
-26.0651234166526
 20
81.74950023991728
 30
0.0
 40
13.2714
100
AcDbArc
 50
81.00000000000003
 51
95.2666666666667
  0
ARC
  5
13A
330
1F
100
AcDbEntity
  8
VIEW0001
  6
Continuous
 62
     7
100
AcDbCircle
 10
-15.27591682555518
 20
79.2069381219839
 30
0.0
 40
8.480109256996236
100
AcDbArc
 50
144.7333333333334
 51
164.739022490014
  0
ARC
  5
13B
330
1F
100
AcDbEntity
  8
VIEW0001
  6
Continuous
 62
     7
100
AcDbCircle
 10
-29.18908882156308
 20
103.305258913514
 30
0.0
 40
8.480109256996236
100
AcDbArc
 50
255.2609775099861
 51
275.2666666666667
  0
ARC
  5
13C
330
1F
100
AcDbEntity
  8
VIEW0001
  6
Continuous
 62
     7
100
AcDbCircle
 10
8.323787343377735
 20
108.8977808710662
 30
0.0
 40
41.99999999999999
100
AcDbArc
 50
220.8271743611417
 51
223.1728256388585
  0
ARC
  5
13D
330
1F
100
AcDbEntity
  8
VIEW0001
  6
Continuous
 62
     7
100
AcDbCircle
 10
-14.15353105803922
 20
77.96040620268191
 30
0.0
 40
5.143399999999999
100
AcDbArc
 50
3.000000000000011
 51
105.0
  0
ARC
  5
13E
330
1F
100
AcDbEntity
  8
VIEW0001
  6
Continuous
 62
     7
100
AcDbCircle
 10
-22.27039216109676
 20
77.53502421708349
 30
0.0
 40
13.2714
100
AcDbArc
 50
348.7333333333333
 51
3.000000000000017
  0
ARC
  5
13F
330
1F
100
AcDbEntity
  8
VIEW0001
  6
Continuous
 62
     7
100
AcDbCircle
 10
-12.04984534553143
 20
70.10936229610552
 30
0.0
 40
13.2714
100
AcDbArc
 50
105.0
 51
119.2666666666667
  0
ARC
  5
140
330
1F
100
AcDbEntity
  8
VIEW0001
  6
Continuous
 62
     7
100
AcDbCircle
 10
-1.159261492006844
 20
72.17498189280757
 30
0.0
 40
8.480109256996236
100
AcDbArc
 50
168.7333333333334
 51
188.7390224900141
  0
ARC
  5
141
330
1F
100
AcDbEntity
  8
VIEW0001
  6
Continuous
 62
     7
100
AcDbCircle
 10
-23.67124667287081
 20
88.53089651653166
 30
0.0
 40
8.480109256996236
100
AcDbArc
 50
279.260977509986
 51
299.2666666666667
  0
ARC
  5
142
330
1F
100
AcDbEntity
  8
VIEW0001
  6
Continuous
 62
     7
100
AcDbCircle
 10
8.323787343377735
 20
108.8977808710662
 30
0.0
 40
41.99999999999999
100
AcDbArc
 50
244.8271743611417
 51
247.1728256388585
  0
ARC
  5
143
330
1F
100
AcDbEntity
  8
VIEW0001
  6
Continuous
 62
     7
100
AcDbCircle
 10
0.373099135973784
 20
71.49273373943822
 30
0.0
 40
5.143399999999999
100
AcDbArc
 50
27.00000000000001
 51
129.0
  0
ARC
  5
144
330
1F
100
AcDbEntity
  8
VIEW0001
  6
Continuous
 62
     7
100
AcDbCircle
 10
-6.869004014193136
 20
67.80270312136165
 30
0.0
 40
13.2714
100
AcDbArc
 50
12.73333333333337
 51
27.00000000000001
  0
ARC
  5
145
330
1F
100
AcDbEntity
  8
VIEW0001
  6
Continuous
 62
     7
100
AcDbCircle
 10
5.488218906144518
 20
65.17609430562469
 30
0.0
 40
13.2714
100
AcDbArc
 50
129.0
 51
143.2666666666667
  0
ARC
  5
146
330
1F
100
AcDbEntity
  8
VIEW0001
  6
Continuous
 62
     7
100
AcDbCircle
 10
14.59709913597356
 20
71.49273122312748
 30
0.0
 40
8.480109256996236
100
AcDbArc
 50
192.7333333333334
 51
212.7390224900141
  0
ARC
  5
147
330
1F
100
AcDbEntity
  8
VIEW0001
  6
Continuous
 62
     7
100
AcDbCircle
 10
-12.6211724770102
 20
77.27815345178404
 30
0.0
 40
8.480109256996236
100
AcDbArc
 50
303.260977509986
 51
323.2666666666668
  0
ARC
  5
148
330
1F
100
AcDbEntity
  8
VIEW0001
  6
Continuous
 62
     7
100
AcDbCircle
 10
8.323787343377735
 20
108.8977808710662
 30
0.0
 40
41.99999999999999
100
AcDbArc
 50
268.8271743611417
 51
271.1728256388585
  0
ARC
  5
149
330
1F
100
AcDbEntity
  8
VIEW0001
  6
Continuous
 62
     7
100
AcDbCircle
 10
16.27447555078174
 20
71.49273373943822
 30
0.0
 40
5.143399999999999
100
AcDbArc
 50
51.00000000000002
 51
153.0000000000001
  0
ARC
  5
14A
330
1F
100
AcDbEntity
  8
VIEW0001
  6
Continuous
 62
     7
100
AcDbCircle
 10
11.15935578061099
 20
65.17609430562469
 30
0.0
 40
13.2714
100
AcDbArc
 50
36.73333333333337
 51
51.00000000000002
  0
ARC
  5
14B
330
1F
100
AcDbEntity
  8
VIEW0001
  6
Continuous
 62
     7
100
AcDbCircle
 10
23.51657870094862
 20
67.80270312136166
 30
0.0
 40
13.2714
100
AcDbArc
 50
153.0000000000001
 51
167.2666666666667
  0
ARC
  5
14C
330
1F
100
AcDbEntity
  8
VIEW0001
  6
Continuous
 62
     7
100
AcDbCircle
 10
29.26874716376567
 20
77.27815345178408
 30
0.0
 40
8.480109256996236
100
AcDbArc
 50
216.7333333333334
 51
236.739022490014
  0
ARC
  5
14D
330
1F
100
AcDbEntity
  8
VIEW0001
  6
Continuous
 62
     7
100
AcDbCircle
 10
2.050475550781944
 20
71.49273122312745
 30
0.0
 40
8.480109256996236
100
AcDbArc
 50
327.2609775099861
 51
347.2666666666667
  0
ARC
  5
14E
330
1F
100
AcDbEntity
  8
VIEW0001
  6
Continuous
 62
     7
100
AcDbCircle
 10
8.323787343377735
 20
108.8977808710662
 30
0.0
 40
41.99999999999999
100
AcDbArc
 50
292.8271743611417
 51
295.1728256388585
  0
ARC
  5
14F
330
1F
100
AcDbEntity
  8
VIEW0001
  6
Continuous
 62
     7
100
AcDbCircle
 10
30.80110574479474
 20
77.96040620268194
 30
0.0
 40
5.143399999999999
100
AcDbArc
 50
75.00000000000003
 51
177.0000000000001
  0
ARC
  5
150
330
1F
100
AcDbEntity
  8
VIEW0001
  6
Continuous
 62
     7
100
AcDbCircle
 10
28.69742003228693
 20
70.10936229610553
 30
0.0
 40
13.2714
100
AcDbArc
 50
60.73333333333338
 51
75.00000000000003
  0
ARC
  5
151
330
1F
100
AcDbEntity
  8
VIEW0001
  6
Continuous
 62
     7
100
AcDbCircle
 10
38.91796684785226
 20
77.53502421708352
 30
0.0
 40
13.2714
100
AcDbArc
 50
177.0000000000001
 51
191.2666666666667
  0
ARC
  5
152
330
1F
100
AcDbEntity
  8
VIEW0001
  6
Continuous
 62
     7
100
AcDbCircle
 10
40.3188213596263
 20
88.53089651653168
 30
0.0
 40
8.480109256996236
100
AcDbArc
 50
240.7333333333334
 51
260.7390224900141
  0
ARC
  5
153
330
1F
100
AcDbEntity
  8
VIEW0001
  6
Continuous
 62
     7
100
AcDbCircle
 10
17.80683617876235
 20
72.17498189280754
 30
0.0
 40
8.480109256996236
100
AcDbArc
 50
351.260977509986
 51
11.26666666666676
  0
ARC
  5
154
330
1F
100
AcDbEntity
  8
VIEW0001
  6
Continuous
 62
     7
100
AcDbCircle
 10
8.323787343377735
 20
108.8977808710662
 30
0.0
 40
41.99999999999999
100
AcDbArc
 50
316.8271743611417
 51
319.1728256388585
  0
ARC
  5
155
330
1F
100
AcDbEntity
  8
VIEW0001
  6
Continuous
 62
     7
100
AcDbCircle
 10
41.44120338717563
 20
89.77743180331476
 30
0.0
 40
5.143399999999999
100
AcDbArc
 50
99.00000000000004
 51
201.0000000000001
  0
ARC
  5
156
330
1F
100
AcDbEntity
  8
VIEW0001
  6
Continuous
 62
     7
100
AcDbCircle
 10
42.71269810340807
 20
81.74950023991732
 30
0.0
 40
13.2714
100
AcDbArc
 50
84.73333333333339
 51
99.00000000000004
  0
ARC
  5
157
330
1F
100
AcDbEntity
  8
VIEW0001
  6
Continuous
 62
     7
100
AcDbCircle
 10
49.02934341903694
 20
92.69025085997849
 30
0.0
 40
13.2714
100
AcDbArc
 50
201.0000000000001
 51
215.2666666666667
  0
ARC
  5
158
330
1F
100
AcDbEntity
  8
VIEW0001
  6
Continuous
 62
     7
100
AcDbCircle
 10
45.83666350831854
 20
103.305258913514
 30
0.0
 40
8.480109256996236
100
AcDbArc
 50
264.7333333333334
 51
284.7390224900141
  0
ARC
  5
159
330
1F
100
AcDbEntity
  8
VIEW0001
  6
Continuous
 62
     7
100
AcDbCircle
 10
31.9234915123107
 20
79.2069381219839
 30
0.0
 40
8.480109256996236
100
AcDbArc
 50
15.2609775099861
 51
35.26666666666676
  0
ARC
  5
15A
330
1F
100
AcDbEntity
  8
VIEW0001
  6
Continuous
 62
     7
100
AcDbCircle
 10
8.323787343377735
 20
108.8977808710662
 30
0.0
 40
41.99999999999999
100
AcDbArc
 50
340.8271743611417
 51
343.1728256388585
  0
ARC
  5
15B
330
1F
100
AcDbEntity
  8
VIEW0001
  6
Continuous
 62
     7
100
AcDbCircle
 10
46.35499893330424
 20
104.9005394606799
 30
0.0
 40
5.143399999999999
100
AcDbArc
 50
123.0
 51
225.0000000000001
  0
ARC
  5
15C
330
1F
100
AcDbEntity
  8
VIEW0001
  6
Continuous
 62
     7
100
AcDbCircle
 10
50.7818210906735
 20
98.08382253924154
 30
0.0
 40
13.2714
100
AcDbArc
 50
108.7333333333334
 51
123.0
  0
ARC
  5
15D
330
1F
100
AcDbEntity
  8
VIEW0001
  6
Continuous
 62
     7
100
AcDbCircle
 10
52.1023595463725
 20
110.6479066825783
 30
0.0
 40
13.2714
100
AcDbArc
 50
225.0000000000001
 51
239.2666666666667
  0
ARC
  5
15E
330
1F
100
AcDbEntity
  8
VIEW0001
  6
Continuous
 62
     7
100
AcDbCircle
 10
44.86818857431129
 20
119.0466191634242
 30
0.0
 40
8.480109256996236
100
AcDbArc
 50
288.7333333333335
 51
308.7390224900141
  0
ARC
  5
15F
330
1F
100
AcDbEntity
  8
VIEW0001
  6
Continuous
 62
     7
100
AcDbCircle
 10
41.9595435984688
 20
91.37271079531506
 30
0.0
 40
8.480109256996236
100
AcDbArc
 50
39.2609775099861
 51
59.26666666666677
  0
ARC
  5
160
330
1F
100
AcDbEntity
  8
VIEW0001
  6
Continuous
 62
     7
100
AcDbCircle
 10
8.323787343377735
 20
108.8977808710662
 30
0.0
 40
41.99999999999999
100
AcDbArc
 50
4.827174361141699
 51
7.172825638858509
  0
ARC
  5
161
330
1F
100
AcDbEntity
  8
VIEW0001
  6
Continuous
 62
     7
100
AcDbCircle
 10
44.69285249282385
 20
120.7148064716991
 30
0.0
 40
5.143399999999999
100
AcDbArc
 50
147.0
 51
249.0000000000001
  0
ARC
  5
162
330
1F
100
AcDbEntity
  8
VIEW0001
  6
Continuous
 62
     7
100
AcDbCircle
 10
51.50956432390399
 20
116.2879764758655
 30
0.0
 40
13.2714
100
AcDbArc
 50
132.7333333333334
 51
147.0
  0
ARC
  5
163
330
1F
100
AcDbEntity
  8
VIEW0001
  6
Continuous
 62
     7
100
AcDbCircle
 10
47.60566282396753
 20
128.3029498529738
 30
0.0
 40
13.2714
100
AcDbArc
 50
249.0000000000001
 51
263.2666666666667
  0
ARC
  5
164
330
1F
100
AcDbEntity
  8
VIEW0001
  6
Continuous
 62
     7
100
AcDbCircle
 10
37.58085467201298
 20
133.0331530732842
 30
0.0
 40
8.480109256996236
100
AcDbArc
 50
312.7333333333335
 51
332.7390224900141
  0
ARC
  5
165
330
1F
100
AcDbEntity
  8
VIEW0001
  6
Continuous
 62
     7
100
AcDbCircle
 10
46.17966785686909
 20
106.5687272950071
 30
0.0
 40
8.480109256996236
100
AcDbArc
 50
63.26097750998611
 51
83.26666666666678
  0
ARC
  5
166
330
1F
100
AcDbEntity
  8
VIEW0001
  6
Continuous
 62
     7
100
AcDbCircle
 10
8.323787343377735
 20
108.8977808710662
 30
0.0
 40
41.99999999999999
100
AcDbArc
 50
28.8271743611417
 51
31.17282563885851
  0
ARC
  5
167
330
1F
100
AcDbEntity
  8
VIEW0001
  6
Continuous
 62
     7
100
AcDbCircle
 10
36.74216428541986
 20
134.4858024020615
 30
0.0
 40
5.143399999999999
100
AcDbArc
 50
171.0000000000001
 51
273.0000000000001
  0
ARC
  5
168
330
1F
100
AcDbEntity
  8
VIEW0001
  6
Continuous
 62
     7
100
AcDbCircle
 10
44.77009438673431
 20
133.2142984546004
 30
0.0
 40
13.2714
100
AcDbArc
 50
156.7333333333334
 51
171.0000000000001
  0
ARC
  5
169
330
1F
100
AcDbEntity
  8
VIEW0001
  6
Continuous
 62
     7
100
AcDbCircle
 10
36.3167729663331
 20
142.6026630159716
 30
0.0
 40
13.2714
100
AcDbArc
 50
273.0000000000001
 51
287.2666666666668
  0
ARC
  5
16A
330
1F
100
AcDbEntity
  8
VIEW0001
  6
Continuous
 62
     7
100
AcDbCircle
 10
25.23470803648113
 20
142.8464618664077
 30
0.0
 40
8.480109256996236
100
AcDbArc
 50
336.7333333333334
 51
356.7390224900141
  0
ARC
  5
16B
330
1F
100
AcDbEntity
  8
VIEW0001
  6
Continuous
 62
     7
100
AcDbCircle
 10
43.8541664646088
 20
122.1674583167872
 30
0.0
 40
8.480109256996236
100
AcDbArc
 50
87.26097750998612
 51
107.2666666666668
  0
ARC
  5
16C
330
1F
100
AcDbEntity
  8
VIEW0001
  6
Continuous
 62
     7
100
AcDbCircle
 10
8.323787343377735
 20
108.8977808710662
 30
0.0
 40
41.99999999999999
100
AcDbArc
 50
52.82717436114171
 51
55.17282563885852
  0
ARC
  5
16D
330
1F
100
AcDbEntity
  8
VIEW0001
  6
Continuous
 62
     7
100
AcDbCircle
 10
23.87768053188724
 20
143.832396949837
 30
0.0
 40
5.143399999999999
100
AcDbArc
 50
195.0000000000001
 51
297.0000000000001
  0
ARC
  5
16E
330
1F
100
AcDbEntity
  8
VIEW0001
  6
Continuous
 62
     7
100
AcDbCircle
 10
31.72872685746333
 20
145.936073634515
 30
0.0
 40
13.2714
100
AcDbArc
 50
180.7333333333334
 51
195.0000000000001
  0
ARC
  5
16F
330
1F
100
AcDbEntity
  8
VIEW0001
  6
Continuous
 62
     7
100
AcDbCircle
 10
20.18764158619895
 20
151.0744958568737
 30
0.0
 40
13.2714
100
AcDbArc
 50
297.0000000000001
 51
311.2666666666668
  0
ARC
  5
170
330
1F
100
AcDbEntity
  8
VIEW0001
  6
Continuous
 62
     7
100
AcDbCircle
 10
9.964509582220215
 20
146.789735301352
 30
0.0
 40
8.480109256996236
100
AcDbArc
 50
0.733333333333451
 51
20.73902249001411
  0
ARC
  5
171
330
1F
100
AcDbEntity
  8
VIEW0001
  6
Continuous
 62
     7
100
AcDbCircle
 10
35.3851397389267
 20
135.4717415569671
 30
0.0
 40
8.480109256996236
100
AcDbArc
 50
111.2609775099861
 51
131.2666666666668
  0
ARC
  5
172
330
1F
100
AcDbEntity
  8
VIEW0001
  6
Continuous
 62
     7
100
AcDbCircle
 10
8.323787343377735
 20
108.8977808710662
 30
0.0
 40
41.99999999999999
100
AcDbArc
 50
76.82717436114172
 51
79.17282563885853
  0
ARC
  5
173
330
1F
100
AcDbEntity
  8
VIEW0001
  6
Continuous
 62
     7
100
AcDbCircle
 10
-69.78804751900756
 20
144.5000790065693
 30
0.0
 40
13.5
100
AcDbArc
 50
151.7009198087781
 51
180.0000011684182
  0
ARC
  5
174
330
1F
100
AcDbEntity
  8
VIEW0001
  6
Continuous
 62
     7
100
AcDbCircle
 10
-88.28804751900755
 20
144.5000790065693
 30
0.0
 40
13.5
100
AcDbArc
 50
359.9999988315818
 51
28.29908019122184
  0
ARC
  5
175
330
1F
100
AcDbEntity
  8
VIEW0001
  6
Continuous
 62
     7
100
AcDbCircle
 10
-69.78804751900756
 20
73.30007900656926
 30
0.0
 40
13.5
100
AcDbArc
 50
179.9999988315818
 51
208.2990801912218
  0
ARC
  5
176
330
1F
100
AcDbEntity
  8
VIEW0001
  6
Continuous
 62
     7
100
AcDbCircle
 10
-88.28804751900755
 20
73.30007900656926
 30
0.0
 40
13.5
100
AcDbArc
 50
331.7009198087781
 51
0.000001168418237
  0
CIRCLE
  5
177
330
1F
100
AcDbEntity
  8
VIEW0001
  6
Continuous
 62
     7
100
AcDbCircle
 10
8.323787343377735
 20
108.9000790065693
 30
0.0
 40
8.487048957087511
  0
ARC
  5
178
330
1F
100
AcDbEntity
  8
VIEW0001
  6
Continuous
 62
     7
100
AcDbCircle
 10
-82.25411279512383
 20
108.9000790065693
 30
0.0
 40
16.21606527611629
100
AcDbArc
 50
342.4120462260058
 51
17.58795377399424
  0
ARC
  5
179
330
1F
100
AcDbEntity
  8
VIEW0001
  6
Continuous
 62
     7
100
AcDbCircle
 10
-70.37632607730853
 20
116.2500790065693
 30
0.0
 40
4.338278558300969
100
AcDbArc
 50
325.6157525319573
 51
25.6157525319562
  0
ARC
  5
17A
330
1F
100
AcDbEntity
  8
VIEW0001
  6
Continuous
 62
     7
100
AcDbCircle
 10
-70.37632607730862
 20
101.5500790065692
 30
0.0
 40
4.338278558301061
100
AcDbArc
 50
334.3842474680452
 51
34.38424746804251
  0
CIRCLE
  5
17B
330
1F
100
AcDbEntity
  8
VIEW0001
  6
Continuous
 62
     7
100
AcDbCircle
 10
8.323787343377735
 20
108.9000790065693
 30
0.0
 40
10.5
  0
CIRCLE
  5
17C
330
1F
100
AcDbEntity
  8
VIEW0001
  6
Continuous
 62
     7
100
AcDbCircle
 10
8.323787343377735
 20
108.9000790065693
 30
0.0
 40
15.0
  0
ARC
  5
17D
330
1F
100
AcDbEntity
  8
VIEW0001
  6
Continuous
 62
     7
100
AcDbCircle
 10
-87.03804751900755
 20
51.90007900656929
 30
0.0
 40
2.0
100
AcDbArc
 50
0.0
 51
90.0
  0
ARC
  5
17E
330
1F
100
AcDbEntity
  8
VIEW0001
  6
Continuous
 62
     7
100
AcDbCircle
 10
-17.77621265662226
 20
51.90007900656929
 30
0.0
 40
2.0
100
AcDbArc
 50
90.00000000000006
 51
180.0000000000001
  0
ARC
  5
17F
330
1F
100
AcDbEntity
  8
VIEW0001
  6
Continuous
 62
     7
100
AcDbCircle
 10
34.42378734337773
 20
51.90007900656929
 30
0.0
 40
2.0
100
AcDbArc
 50
0.0
 51
90.0
  0
CIRCLE
  5
180
330
1F
100
AcDbEntity
  8
VIEW0001
  6
PHANTOM
 62
     7
100
AcDbCircle
 10
8.323787343377735
 20
82.9000790065693
 30
0.0
 40
41.99999999999999
  0
DIMENSION
  5
181
330
1F
100
AcDbEntity
  8
VIEW0001
 62
     7
100
AcDbDimension
  2
*D2
 10
46.88801967419457
 20
-13.09992099343069
 30
0.0
 11
46.88801967419457
 21
15.90007900656928
 31
0.0
 70
   160
 71
     5
 42
58.0
  3
ISO-25
100
AcDbAlignedDimension
 13
8.323787343377733
 23
44.90007900656929
 33
0.0
 14
8.323787343377733
 24
-13.09992099343071
 34
0.0
 50
90.00000000000003
100
AcDbRotatedDimension
1001
ACAD
1000
DSTYLE
1002
{
1070
   278
1070
    46
1070
   147
1040
0.699999988079071
1070
    77
1070
     1
1070
    74
1070
     0
1070
    73
1070
     0
1070
    42
1040
2.54
1070
    44
1040
0.93333333333333
1070
    76
1070
     0
1070
    75
1070
     0
1070
   279
1070
     0
1070
   271
1070
     0
1070
   144
1040
1.0
1070
   173
1070
     1
1070
    41
1040
3.0
1070
   140
1040
2.799999952316284
1070
   344
1005
1A4
1070
   343
1005
1A4
1002
}
  0
DIMENSION
  5
1B7
330
1F
100
AcDbEntity
  8
VIEW0001
 62
     7
100
AcDbDimension
  2
*D3
 10
46.88801967419457
 20
-20.0999209934307
 30
0.0
 11
46.88801967419457
 21
-25.66728492502248
 31
0.0
 70
   160
 71
     5
 42
7.0
  3
ISO-25
100
AcDbAlignedDimension
 13
8.323787343377733
 23
-13.09992099343071
 33
0.0
 14
8.323787343377733
 24
-20.09992099343071
 34
0.0
 50
90.00000000000003
100
AcDbRotatedDimension
1001
ACAD
1000
DSTYLE
1002
{
1070
   278
1070
    46
1070
   147
1040
0.699999988079071
1070
    77
1070
     1
1070
    74
1070
     0
1070
    73
1070
     0
1070
    42
1040
2.54
1070
    44
1040
0.93333333333333
1070
    76
1070
     0
1070
    75
1070
     0
1070
   279
1070
     0
1070
   271
1070
     0
1070
   144
1040
1.0
1070
   173
1070
     1
1070
    41
1040
3.0
1070
   140
1040
2.799999952316284
1070
   344
1005
1A4
1070
   343
1005
1A4
1002
}
  0
DIMENSION
  5
1CF
330
1F
100
AcDbEntity
  8
VIEW0001
 62
     7
100
AcDbDimension
  2
*D4
 10
58.644751724813
 20
-20.09992099343071
 30
0.0
 11
58.64475172481298
 21
16.90007900656928
 31
0.0
 70
   160
 71
     5
 42
74.0
  3
ISO-25
100
AcDbAlignedDimension
 13
36.42378734337773
 23
53.90007900656929
 33
0.0
 14
36.42378734337773
 24
-20.09992099343071
 34
0.0
 50
90.00000000000003
100
AcDbRotatedDimension
1001
ACAD
1000
DSTYLE
1002
{
1070
   278
1070
    46
1070
   147
1040
0.699999988079071
1070
    77
1070
     1
1070
    74
1070
     0
1070
    73
1070
     0
1070
    42
1040
2.54
1070
    44
1040
0.933333333333323
1070
    76
1070
     0
1070
    75
1070
     0
1070
   279
1070
     0
1070
   271
1070
     0
1070
   144
1040
1.0
1070
   173
1070
     1
1070
    41
1040
3.0
1070
   140
1040
2.799999952316284
1070
   344
1005
1A4
1070
   343
1005
1A4
1002
}
  0
DIMENSION
  5
1DC
330
1F
100
AcDbEntity
  8
VIEW0001
 62
     7
100
AcDbDimension
  2
*D5
 10
58.64475172481299
 20
53.90007900656929
 30
0.0
 11
58.64475172481298
 21
68.9000790065693
 31
0.0
 70
   160
 71
     5
 42
30.00000000000001
  3
ISO-25
100
AcDbAlignedDimension
 13
35.82378734337773
 23
83.90007900656929
 33
0.0
 14
36.42378734337773
 24
53.90007900656929
 34
0.0
 50
90.00000000000003
100
AcDbRotatedDimension
1001
ACAD
1000
DSTYLE
1002
{
1070
   278
1070
    46
1070
   147
1040
0.699999988079071
1070
    77
1070
     1
1070
    74
1070
     0
1070
    73
1070
     0
1070
    42
1040
2.54
1070
    44
1040
0.933333333333323
1070
    76
1070
     0
1070
    75
1070
     0
1070
   279
1070
     0
1070
   271
1070
     0
1070
   144
1040
1.0
1070
   173
1070
     1
1070
    41
1040
3.0
1070
   140
1040
2.799999952316284
1070
   344
1005
1A4
1070
   343
1005
1A4
1002
}
  0
DIMENSION
  5
1E9
330
1F
100
AcDbEntity
  8
VIEW0001
 62
     7
100
AcDbDimension
  2
*D6
 10
-85.53804751900755
 20
158.0279123589415
 30
0.0
 11
-95.53804751900755
 21
158.0279123589415
 31
0.0
 70
   160
 71
     5
 42
20.0
  3
ISO-25
100
AcDbAlignedDimension
 13
-105.5380475190075
 23
118.9000790065693
 33
0.0
 14
-85.53804751900755
 24
119.4000790065693
 34
0.0
 50
180.0
100
AcDbRotatedDimension
1001
ACAD
1000
DSTYLE
1002
{
1070
   278
1070
    46
1070
   147
1040
0.699999988079071
1070
    77
1070
     1
1070
    74
1070
     0
1070
    73
1070
     0
1070
    42
1040
2.54
1070
    44
1040
0.933333333333337
1070
    76
1070
     0
1070
    75
1070
     0
1070
   279
1070
     0
1070
   271
1070
     0
1070
   144
1040
1.0
1070
   173
1070
     1
1070
    41
1040
3.0
1070
   140
1040
2.799999952316284
1070
   344
1005
1A4
1070
   343
1005
1A4
1002
}
  0
DIMENSION
  5
1F6
330
1F
100
AcDbEntity
  8
VIEW0001
 62
     7
100
AcDbDimension
  2
*D7
 10
-79.03804751900755
 20
158.0279123589415
 30
0.0
 11
-70.70102668264832
 21
158.0279123589415
 31
0.0
 70
   160
 71
     5
 42
6.499999999999999
  3
ISO-25
100
AcDbAlignedDimension
 13
-85.53804751900755
 23
119.4000790065693
 33
0.0
 14
-79.03804751900755
 24
153.5396814898552
 34
0.0
 50
180.0
100
AcDbRotatedDimension
1001
ACAD
1000
DSTYLE
1002
{
1070
   278
1070
    46
1070
   147
1040
0.699999988079071
1070
    77
1070
     1
1070
    74
1070
     0
1070
    73
1070
     0
1070
    42
1040
2.54
1070
    44
1040
0.933333333333337
1070
    76
1070
     0
1070
    75
1070
     1
1070
   279
1070
     0
1070
   271
1070
     1
1070
   144
1040
1.0
1070
   173
1070
     1
1070
    41
1040
3.0
1070
   140
1040
2.799999952316284
1070
   344
1005
1A4
1070
   343
1005
1A4
1002
}
  0
DIMENSION
  5
20C
330
1F
100
AcDbEntity
  8
VIEW0001
 62
     7
100
AcDbDimension
  2
*D8
 10
-48.29076864375912
 20
66.90007900656931
 30
0.0
 11
-48.29076864375913
 21
108.9000790065693
 31
0.0
 70
   160
  1
(\U+2205<>)
 71
     5
 42
84.0
  3
ISO-25
100
AcDbAlignedDimension
 13
-76.40150050147548
 23
150.9000790065693
 33
0.0
 14
-76.40150050147548
 24
66.90007900656929
 34
0.0
 50
90.00000000000003
100
AcDbRotatedDimension
1001
ACAD
1000
DSTYLE
1002
{
1070
   278
1070
    46
1070
   147
1040
0.699999988079071
1070
    77
1070
     1
1070
    74
1070
     0
1070
    73
1070
     0
1070
    42
1040
2.54
1070
    44
1040
0.933333333333337
1070
    76
1070
     0
1070
    75
1070
     0
1070
   279
1070
     0
1070
   271
1070
     0
1070
   144
1040
1.0
1070
   173
1070
     1
1070
    41
1040
3.0
1070
   140
1040
2.799999952316284
1070
   344
1005
1A4
1070
   343
1005
1A4
1002
}
  0
DIMENSION
  5
219
330
1F
100
AcDbEntity
  8
VIEW0001
 62
     7
100
AcDbDimension
  2
*D9
 10
-56.40626356997682
 20
70.72507900656925
 30
0.0
 11
-56.40626356997683
 21
108.9000790065693
 31
0.0
 70
   160
  1
\U+2205<>
 71
     5
 42
76.3500000000001
  3
ISO-25
100
AcDbAlignedDimension
 13
-71.60472070732669
 23
147.0750790065693
 33
0.0
 14
-71.60472070732669
 24
70.72507900656925
 34
0.0
 50
90.00000000000003
100
AcDbRotatedDimension
1001
ACAD
1000
DSTYLE
1002
{
1070
   278
1070
    46
1070
   147
1040
0.699999988079071
1070
    77
1070
     1
1070
    74
1070
     0
1070
    73
1070
     0
1070
    42
1040
2.54
1070
    44
1040
0.933333333333337
1070
    76
1070
     0
1070
    75
1070
     0
1070
   279
1070
     0
1070
   271
1070
     2
1070
   144
1040
1.0
1070
   173
1070
     1
1070
    41
1040
3.0
1070
   140
1040
2.799999952316284
1070
   344
1005
1A4
1070
   343
1005
1A4
1002
}
  0
DIMENSION
  5
226
330
1F
100
AcDbEntity
  8
VIEW0001
 62
     7
100
AcDbDimension
  2
*D10
 10
-95.53804751900755
 20
-26.97117472957011
 30
0.0
 11
-119.03295295148
 21
-26.97117472957011
 31
0.0
 70
   160
 71
     5
 42
12.5
  3
ISO-25
100
AcDbAlignedDimension
 13
-108.0380475190075
 23
-20.09992099343071
 33
0.0
 14
-95.53804751900755
 24
-24.12673593225023
 34
0.0
 50
180.0
100
AcDbRotatedDimension
1001
ACAD
1000
DSTYLE
1002
{
1070
   278
1070
    46
1070
   147
1040
0.699999988079071
1070
    77
1070
     1
1070
    74
1070
     0
1070
    73
1070
     0
1070
    42
1040
2.54
1070
    44
1040
0.93333333333333
1070
    76
1070
     0
1070
    75
1070
     0
1070
   279
1070
     0
1070
   271
1070
     1
1070
   144
1040
1.0
1070
   173
1070
     1
1070
    41
1040
3.0
1070
   140
1040
2.799999952316284
1070
   344
1005
1A4
1070
   343
1005
1A4
1002
}
  0
DIMENSION
  5
23C
330
1F
100
AcDbEntity
  8
VIEW0001
 62
     7
100
AcDbDimension
  2
*D11
 10
-85.03804751900755
 20
-33.8424284657095
 30
0.0
 11
-96.53804751900755
 21
-33.8424284657095
 31
0.0
 70
   160
 71
     5
 42
23.0
  3
ISO-25
100
AcDbAlignedDimension
 13
-108.0380475190075
 23
-20.09992099343071
 33
0.0
 14
-85.03804751900755
 24
-20.09992099343071
 34
0.0
 50
180.0
100
AcDbRotatedDimension
1001
ACAD
1000
DSTYLE
1002
{
1070
   278
1070
    46
1070
   147
1040
0.699999988079071
1070
    77
1070
     1
1070
    74
1070
     0
1070
    73
1070
     0
1070
    42
1040
2.54
1070
    44
1040
0.93333333333333
1070
    76
1070
     0
1070
    75
1070
     0
1070
   279
1070
     0
1070
   271
1070
     0
1070
   144
1040
1.0
1070
   173
1070
     1
1070
    41
1040
3.0
1070
   140
1040
2.799999952316284
1070
   344
1005
1A4
1070
   343
1005
1A4
1002
}
  0
DIMENSION
  5
249
330
1F
100
AcDbEntity
  8
VIEW0001
 62
     7
100
AcDbDimension
  2
*D12
 10
-108.0380475190075
 20
-40.71368220184889
 30
0.0
 11
-93.53804751900755
 21
-40.71368220184889
 31
0.0
 70
   160
 71
     5
 42
29.0
  3
ISO-25
100
AcDbAlignedDimension
 13
-79.03804751900755
 23
64.03384586417519
 33
0.0
 14
-108.0380475190075
 24
-20.09992099343071
 34
0.0
100
AcDbRotatedDimension
1001
ACAD
1000
DSTYLE
1002
{
1070
   278
1070
    46
1070
   147
1040
0.699999988079071
1070
    77
1070
     1
1070
    74
1070
     0
1070
    73
1070
     0
1070
    42
1040
2.54
1070
    44
1040
0.933333333333337
1070
    76
1070
     0
1070
    75
1070
     0
1070
   279
1070
     0
1070
   271
1070
     0
1070
   144
1040
1.0
1070
   173
1070
     1
1070
    41
1040
3.0
1070
   140
1040
2.799999952316284
1070
   344
1005
1A4
1070
   343
1005
1A4
1002
}
  0
DIMENSION
  5
256
330
1F
100
AcDbEntity
  8
VIEW0001
 62
     7
100
AcDbDimension
  2
*D13
 10
-66.03804751900756
 20
-47.58493593798829
 30
0.0
 11
-87.03804751900755
 21
-47.58493593798828
 31
0.0
 70
   160
 71
     5
 42
41.99999999999999
  3
ISO-25
100
AcDbAlignedDimension
 13
-108.0380475190075
 23
-20.09992099343071
 33
0.0
 14
-66.03804751900756
 24
100.4130300494817
 34
0.0
 50
180.0
100
AcDbRotatedDimension
1001
ACAD
1000
DSTYLE
1002
{
1070
   278
1070
    46
1070
   147
1040
0.699999988079071
1070
    77
1070
     1
1070
    74
1070
     0
1070
    73
1070
     0
1070
    42
1040
2.54
1070
    44
1040
0.933333333333323
1070
    76
1070
     0
1070
    75
1070
     0
1070
   279
1070
     0
1070
   271
1070
     0
1070
   144
1040
1.0
1070
   173
1070
     1
1070
    41
1040
3.0
1070
   140
1040
2.799999952316284
1070
   344
1005
1A4
1070
   343
1005
1A4
1002
}
  0
DIMENSION
  5
263
330
1F
100
AcDbEntity
  8
VIEW0001
 62
     7
100
AcDbDimension
  2
*D14
 10
13.82378734337773
 20
-33.8424284657095
 30
0.0
 11
22.10029363116061
 21
-33.8424284657095
 31
0.0
 70
   160
 71
     5
 42
11.0
  3
ISO-25
100
AcDbAlignedDimension
 13
2.823787343377735
 23
-7.59992099343071
 33
0.0
 14
13.82378734337773
 24
-7.59992099343071
 34
0.0
 50
180.0
100
AcDbRotatedDimension
1001
ACAD
1000
DSTYLE
1002
{
1070
   278
1070
    46
1070
   147
1040
0.699999988079071
1070
    77
1070
     1
1070
    74
1070
     0
1070
    73
1070
     0
1070
    42
1040
2.54
1070
    44
1040
0.933333333333337
1070
    76
1070
     0
1070
    75
1070
     0
1070
   279
1070
     0
1070
   271
1070
     0
1070
   144
1040
1.0
1070
   173
1070
     1
1070
    41
1040
3.0
1070
   140
1040
2.799999952316284
1070
   344
1005
1A4
1070
   343
1005
1A4
1002
}
  0
DIMENSION
  5
279
330
1F
100
AcDbEntity
  8
VIEW0001
 62
     7
100
AcDbDimension
  2
*D15
 10
36.42378734337773
 20
-47.58493593798829
 30
0.0
 11
8.323787343377738
 21
-47.58493593798829
 31
0.0
 70
   160
 71
     5
 42
56.19999999999999
  3
ISO-25
100
AcDbAlignedDimension
 13
-19.77621265662225
 23
-20.09992099343071
 33
0.0
 14
36.42378734337773
 24
-20.09992099343071
 34
0.0
 50
180.0
100
AcDbRotatedDimension
1001
ACAD
1000
DSTYLE
1002
{
1070
   278
1070
    46
1070
   147
1040
0.699999988079071
1070
    77
1070
     1
1070
    74
1070
     0
1070
    73
1070
     0
1070
    42
1040
2.54
1070
    44
1040
0.933333333333337
1070
    76
1070
     0
1070
    75
1070
     0
1070
   279
1070
     0
1070
   271
1070
     1
1070
   144
1040
1.0
1070
   173
1070
     1
1070
    41
1040
3.0
1070
   140
1040
2.799999952316284
1070
   344
1005
1A4
1070
   343
1005
1A4
1002
}
  0
DIMENSION
  5
286
330
1F
100
AcDbEntity
  8
VIEW0001
 62
     7
100
AcDbDimension
  2
*D16
 10
72.45544568862104
 20
-20.09992099343071
 30
0.0
 11
72.45544568862103
 21
44.40007900656929
 31
0.0
 70
   160
 71
     5
 42
129.0
  3
ISO-25
100
AcDbAlignedDimension
 13
50.32378734337772
 23
108.9000790065693
 33
0.0
 14
47.8213530075279
 24
-20.09992099343071
 34
0.0
 50
90.00000000000003
100
AcDbRotatedDimension
1001
ACAD
1000
DSTYLE
1002
{
1070
   278
1070
    46
1070
   147
1040
0.699999988079071
1070
    77
1070
     1
1070
    74
1070
     0
1070
    73
1070
     0
1070
    42
1040
2.54
1070
    44
1040
0.933333333333337
1070
    76
1070
     0
1070
    75
1070
     0
1070
   279
1070
     0
1070
   271
1070
     0
1070
   144
1040
1.0
1070
   173
1070
     1
1070
    41
1040
3.0
1070
   140
1040
2.799999952316284
1070
   344
1005
1A4
1070
   343
1005
1A4
1002
}
  0
ENDSEC
  0
SECTION
  2
OBJECTS
  0
DICTIONARY
  5
C
330
0
100
AcDbDictionary
281
     1
  3
ACAD_GROUP
350
D
  3
ACAD_LAYOUT
350
1A
  3
ACAD_MLEADERSTYLE
350
295
  3
ACAD_MLINESTYLE
350
17
  3
ACAD_PLOTSETTINGS
350
19
  3
ACAD_PLOTSTYLENAME
350
E
  3
ACAD_SCALELIST
350
182
  3
ACAD_VISUALSTYLE
350
2A
  3
AcDbVariableDictionary
350
293
  0
DICTIONARY
  5
D
102
{ACAD_REACTORS
330
C
102
}
330
C
100
AcDbDictionary
281
     1
  0
DICTIONARY
  5
1A
102
{ACAD_REACTORS
330
C
102
}
330
C
100
AcDbDictionary
281
     1
  3
Layout1
350
1E
  3
Layout2
350
26
  3
Model
350
22
  0
DICTIONARY
  5
295
102
{ACAD_REACTORS
330
C
102
}
330
C
100
AcDbDictionary
281
     1
  0
DICTIONARY
  5
17
102
{ACAD_REACTORS
330
C
102
}
330
C
100
AcDbDictionary
281
     1
  3
Standard
350
18
  0
DICTIONARY
  5
19
102
{ACAD_REACTORS
330
C
102
}
330
C
100
AcDbDictionary
281
     1
  0
ACDBDICTIONARYWDFLT
  5
E
102
{ACAD_REACTORS
330
C
102
}
330
C
100
AcDbDictionary
281
     1
  3
Normal
350
F
100
AcDbDictionaryWithDefault
340
F
  0
DICTIONARY
  5
182
102
{ACAD_REACTORS
330
C
102
}
330
C
100
AcDbDictionary
281
     1
  3
A0
350
183
  3
A1
350
184
  3
A2
350
185
  3
A3
350
186
  3
A4
350
187
  3
A5
350
188
  3
A6
350
189
  3
A7
350
18A
  3
A8
350
18B
  3
A9
350
18C
  3
B0
350
18D
  3
B1
350
18E
  3
B2
350
18F
  3
B3
350
190
  3
B4
350
191
  3
B5
350
192
  3
B6
350
193
  3
B7
350
194
  3
B8
350
195
  3
B9
350
196
  3
C0
350
197
  3
C1
350
198
  3
C2
350
199
  3
C3
350
19A
  3
C4
350
19B
  3
C5
350
19C
  3
C6
350
19D
  3
C7
350
19E
  3
C8
350
19F
  3
C9
350
1A0
  3
D0
350
1A1
  3
D1
350
1A2
  3
D2
350
1A3
  0
DICTIONARY
  5
2A
102
{ACAD_REACTORS
330
C
102
}
330
C
100
AcDbDictionary
281
     1
  3
2dWireframe
350
2F
  3
3D Hidden
350
31
  3
3dWireframe
350
30
  3
Basic
350
32
  3
Brighten
350
36
  3
ColorChange
350
3A
  3
Conceptual
350
34
  3
Dim
350
35
  3
Facepattern
350
39
  3
Flat
350
2B
  3
FlatWithEdges
350
2C
  3
Gouraud
350
2D
  3
GouraudWithEdges
350
2E
  3
Linepattern
350
38
  3
Realistic
350
33
  3
Thicken
350
37
  0
DICTIONARY
  5
293
102
{ACAD_REACTORS
330
C
102
}
330
C
100
AcDbDictionary
281
     1
  3
CANNOSCALE
350
298
  3
PSOLHEIGHT
350
297
  3
PSOLWIDTH
350
296
  0
LAYOUT
  5
1E
102
{ACAD_REACTORS
330
1A
102
}
330
1A
100
AcDbPlotSettings
  1

  2
none_device
  4

  6

 40
0.0
 41
0.0
 42
0.0
 43
0.0
 44
0.0
 45
0.0
 46
0.0
 47
0.0
 48
0.0
 49
0.0
140
0.0
141
0.0
142
1.0
143
1.0
 70
   688
 72
     0
 73
     0
 74
     5
  7

 75
    16
147
1.0
148
0.0
149
0.0
100
AcDbLayout
  1
Layout1
 70
     1
 71
     1
 10
-124.8662862848134
 20
-48.51826927132163
 11
73.38877902195436
 21
162.0879122898001
 12
0.0
 22
0.0
 32
0.0
 14
1.000000000000000E+20
 24
1.000000000000000E+20
 34
1.000000000000000E+20
 15
-1.000000000000000E+20
 25
-1.000000000000000E+20
 35
-1.000000000000000E+20
146
0.0
 13
0.0
 23
0.0
 33
0.0
 16
1.0
 26
0.0
 36
0.0
 17
0.0
 27
1.0
 37
0.0
 76
     0
330
1B
  0
LAYOUT
  5
26
102
{ACAD_REACTORS
330
1A
102
}
330
1A
100
AcDbPlotSettings
  1

  2
none_device
  4

  6

 40
0.0
 41
0.0
 42
0.0
 43
0.0
 44
0.0
 45
0.0
 46
0.0
 47
0.0
 48
0.0
 49
0.0
140
0.0
141
0.0
142
1.0
143
1.0
 70
   688
 72
     0
 73
     0
 74
     5
  7

 75
    16
147
1.0
148
0.0
149
0.0
100
AcDbLayout
  1
Layout2
 70
     1
 71
     2
 10
0.0
 20
0.0
 11
0.0
 21
0.0
 12
0.0
 22
0.0
 32
0.0
 14
0.0
 24
0.0
 34
0.0
 15
0.0
 25
0.0
 35
0.0
146
0.0
 13
0.0
 23
0.0
 33
0.0
 16
1.0
 26
0.0
 36
0.0
 17
0.0
 27
1.0
 37
0.0
 76
     0
330
23
  0
LAYOUT
  5
22
102
{ACAD_REACTORS
330
1A
102
}
330
1A
100
AcDbPlotSettings
  1

  2
none_device
  4

  6

 40
0.0
 41
0.0
 42
0.0
 43
0.0
 44
0.0
 45
0.0
 46
0.0
 47
0.0
 48
0.0
 49
0.0
140
0.0
141
0.0
142
1.0
143
1.0
 70
  1712
 72
     0
 73
     0
 74
     0
  7

 75
     0
147
1.0
148
0.0
149
0.0
100
AcDbLayout
  1
Model
 70
     1
 71
     0
 10
-124.8662862848134
 20
-48.51826927132163
 11
73.38877902195436
 21
162.0879122898001
 12
0.0
 22
0.0
 32
0.0
 14
-124.8662862848134
 24
-48.51826927132163
 34
0.0
 15
73.38877902195436
 25
162.0879122898001
 35
0.0
146
0.0
 13
0.0
 23
0.0
 33
0.0
 16
1.0
 26
0.0
 36
0.0
 17
0.0
 27
1.0
 37
0.0
 76
     0
330
1F
331
29
  0
MLINESTYLE
  5
18
102
{ACAD_REACTORS
330
17
102
}
330
17
100
AcDbMlineStyle
  2
Standard
 70
     0
  3

 62
   256
 51
90.0
 52
90.0
 71
     2
 49
0.5
 62
   256
  6
BYLAYER
 49
-0.5
 62
   256
  6
BYLAYER
  0
ACDBPLACEHOLDER
  5
F
102
{ACAD_REACTORS
330
E
102
}
330
E
  0
SCALE
  5
183
102
{ACAD_REACTORS
330
182
102
}
330
182
100
AcDbScale
 70
     0
300
1:1
140
1.0
141
1.0
290
     1
  0
SCALE
  5
184
102
{ACAD_REACTORS
330
182
102
}
330
182
100
AcDbScale
 70
     0
300
1:2
140
1.0
141
2.0
290
     0
  0
SCALE
  5
185
102
{ACAD_REACTORS
330
182
102
}
330
182
100
AcDbScale
 70
     0
300
1:4
140
1.0
141
4.0
290
     0
  0
SCALE
  5
186
102
{ACAD_REACTORS
330
182
102
}
330
182
100
AcDbScale
 70
     0
300
1:5
140
1.0
141
5.0
290
     0
  0
SCALE
  5
187
102
{ACAD_REACTORS
330
182
102
}
330
182
100
AcDbScale
 70
     0
300
1:8
140
1.0
141
8.0
290
     0
  0
SCALE
  5
188
102
{ACAD_REACTORS
330
182
102
}
330
182
100
AcDbScale
 70
     0
300
1:10
140
1.0
141
10.0
290
     0
  0
SCALE
  5
189
102
{ACAD_REACTORS
330
182
102
}
330
182
100
AcDbScale
 70
     0
300
1:16
140
1.0
141
16.0
290
     0
  0
SCALE
  5
18A
102
{ACAD_REACTORS
330
182
102
}
330
182
100
AcDbScale
 70
     0
300
1:20
140
1.0
141
20.0
290
     0
  0
SCALE
  5
18B
102
{ACAD_REACTORS
330
182
102
}
330
182
100
AcDbScale
 70
     0
300
1:30
140
1.0
141
30.0
290
     0
  0
SCALE
  5
18C
102
{ACAD_REACTORS
330
182
102
}
330
182
100
AcDbScale
 70
     0
300
1:40
140
1.0
141
40.0
290
     0
  0
SCALE
  5
18D
102
{ACAD_REACTORS
330
182
102
}
330
182
100
AcDbScale
 70
     0
300
1:50
140
1.0
141
50.0
290
     0
  0
SCALE
  5
18E
102
{ACAD_REACTORS
330
182
102
}
330
182
100
AcDbScale
 70
     0
300
1:100
140
1.0
141
100.0
290
     0
  0
SCALE
  5
18F
102
{ACAD_REACTORS
330
182
102
}
330
182
100
AcDbScale
 70
     0
300
2:1
140
2.0
141
1.0
290
     0
  0
SCALE
  5
190
102
{ACAD_REACTORS
330
182
102
}
330
182
100
AcDbScale
 70
     0
300
4:1
140
4.0
141
1.0
290
     0
  0
SCALE
  5
191
102
{ACAD_REACTORS
330
182
102
}
330
182
100
AcDbScale
 70
     0
300
8:1
140
8.0
141
1.0
290
     0
  0
SCALE
  5
192
102
{ACAD_REACTORS
330
182
102
}
330
182
100
AcDbScale
 70
     0
300
10:1
140
10.0
141
1.0
290
     0
  0
SCALE
  5
193
102
{ACAD_REACTORS
330
182
102
}
330
182
100
AcDbScale
 70
     0
300
100:1
140
100.0
141
1.0
290
     0
  0
SCALE
  5
194
102
{ACAD_REACTORS
330
182
102
}
330
182
100
AcDbScale
 70
     0
300
1/128" = 1'-0"
140
0.0078125
141
12.0
290
     0
  0
SCALE
  5
195
102
{ACAD_REACTORS
330
182
102
}
330
182
100
AcDbScale
 70
     0
300
1/64" = 1'-0"
140
0.015625
141
12.0
290
     0
  0
SCALE
  5
196
102
{ACAD_REACTORS
330
182
102
}
330
182
100
AcDbScale
 70
     0
300
1/32" = 1'-0"
140
0.03125
141
12.0
290
     0
  0
SCALE
  5
197
102
{ACAD_REACTORS
330
182
102
}
330
182
100
AcDbScale
 70
     0
300
1/16" = 1'-0"
140
0.0625
141
12.0
290
     0
  0
SCALE
  5
198
102
{ACAD_REACTORS
330
182
102
}
330
182
100
AcDbScale
 70
     0
300
3/32" = 1'-0"
140
0.09375
141
12.0
290
     0
  0
SCALE
  5
199
102
{ACAD_REACTORS
330
182
102
}
330
182
100
AcDbScale
 70
     0
300
1/8" = 1'-0"
140
0.125
141
12.0
290
     0
  0
SCALE
  5
19A
102
{ACAD_REACTORS
330
182
102
}
330
182
100
AcDbScale
 70
     0
300
3/16" = 1'-0"
140
0.1875
141
12.0
290
     0
  0
SCALE
  5
19B
102
{ACAD_REACTORS
330
182
102
}
330
182
100
AcDbScale
 70
     0
300
1/4" = 1'-0"
140
0.25
141
12.0
290
     0
  0
SCALE
  5
19C
102
{ACAD_REACTORS
330
182
102
}
330
182
100
AcDbScale
 70
     0
300
3/8" = 1'-0"
140
0.375
141
12.0
290
     0
  0
SCALE
  5
19D
102
{ACAD_REACTORS
330
182
102
}
330
182
100
AcDbScale
 70
     0
300
1/2" = 1'-0"
140
0.5
141
12.0
290
     0
  0
SCALE
  5
19E
102
{ACAD_REACTORS
330
182
102
}
330
182
100
AcDbScale
 70
     0
300
3/4" = 1'-0"
140
0.75
141
12.0
290
     0
  0
SCALE
  5
19F
102
{ACAD_REACTORS
330
182
102
}
330
182
100
AcDbScale
 70
     0
300
1" = 1'-0"
140
1.0
141
12.0
290
     0
  0
SCALE
  5
1A0
102
{ACAD_REACTORS
330
182
102
}
330
182
100
AcDbScale
 70
     0
300
1-1/2" = 1'-0"
140
1.5
141
12.0
290
     0
  0
SCALE
  5
1A1
102
{ACAD_REACTORS
330
182
102
}
330
182
100
AcDbScale
 70
     0
300
3" = 1'-0"
140
3.0
141
12.0
290
     0
  0
SCALE
  5
1A2
102
{ACAD_REACTORS
330
182
102
}
330
182
100
AcDbScale
 70
     0
300
6" = 1'-0"
140
6.0
141
12.0
290
     0
  0
SCALE
  5
1A3
102
{ACAD_REACTORS
330
182
102
}
330
182
100
AcDbScale
 70
     0
300
1'-0" = 1'-0"
140
12.0
141
12.0
290
     0
  0
VISUALSTYLE
  5
2F
102
{ACAD_REACTORS
330
2A
102
}
330
2A
100
AcDbVisualStyle
  2
2dWireframe
 70
     4
 71
     0
 72
     2
 73
     0
 90
        0
 40
-0.6
 41
-30.0
 62
     5
 63
     7
 74
     1
 91
        4
 64
     7
 65
   257
 75
     1
175
     1
 42
1.0
 92
        0
 66
   257
 43
1.0
 76
     1
 77
     6
 78
     2
 67
     7
 79
     5
170
     0
171
     0
290
     0
174
     0
 93
        1
 44
0.0
173
     0
291
     0
 45
0.0
1001
ACAD
1000
AcDbSavedByObjectVersion
1070
     0
  0
VISUALSTYLE
  5
31
102
{ACAD_REACTORS
330
2A
102
}
330
2A
100
AcDbVisualStyle
  2
3D Hidden
 70
     6
 71
     1
 72
     2
 73
     2
 90
        0
 40
-0.6
 41
-30.0
 62
     5
 63
     7
 74
     2
 91
        2
 64
     7
 65
   257
 75
     2
175
     1
 42
40.0
 92
        0
 66
   257
 43
1.0
 76
     1
 77
     6
 78
     2
 67
     7
 79
     3
170
     0
171
     0
290
     0
174
     0
 93
        1
 44
0.0
173
     0
291
     0
 45
0.0
1001
ACAD
1000
AcDbSavedByObjectVersion
1070
     0
  0
VISUALSTYLE
  5
30
102
{ACAD_REACTORS
330
2A
102
}
330
2A
100
AcDbVisualStyle
  2
3dWireframe
 70
     5
 71
     0
 72
     2
 73
     0
 90
        0
 40
-0.6
 41
-30.0
 62
     5
 63
     7
 74
     1
 91
        4
 64
     7
 65
   257
 75
     1
175
     1
 42
1.0
 92
        0
 66
   257
 43
1.0
 76
     1
 77
     6
 78
     2
 67
     7
 79
     5
170
     0
171
     0
290
     0
174
     0
 93
        1
 44
0.0
173
     0
291
     0
 45
0.0
1001
ACAD
1000
AcDbSavedByObjectVersion
1070
     0
  0
VISUALSTYLE
  5
32
102
{ACAD_REACTORS
330
2A
102
}
330
2A
100
AcDbVisualStyle
  2
Basic
 70
     7
 71
     1
 72
     0
 73
     1
 90
        0
 40
-0.6
 41
-30.0
 62
     5
 63
     7
 74
     0
 91
        4
 64
     7
 65
   257
 75
     1
175
     1
 42
1.0
 92
        8
 66
     7
 43
1.0
 76
     1
 77
     6
 78
     2
 67
     7
 79
     5
170
     0
171
     0
290
     0
174
     0
 93
        1
 44
0.0
173
     0
291
     1
 45
0.0
1001
ACAD
1000
AcDbSavedByObjectVersion
1070
     0
  0
VISUALSTYLE
  5
36
102
{ACAD_REACTORS
330
2A
102
}
330
2A
100
AcDbVisualStyle
  2
Brighten
 70
    12
 71
     2
 72
     2
 73
     0
 90
        0
 40
-0.6
 41
-30.0
 62
     5
 63
     7
 74
     1
 91
        4
 64
     7
 65
   257
 75
     1
175
     1
 42
1.0
 92
        8
 66
     7
 43
1.0
 76
     1
 77
     6
 78
     2
 67
     7
 79
     5
170
     0
171
     0
290
     0
174
     0
 93
        1
 44
50.0
173
     0
291
     1
 45
0.0
1001
ACAD
1000
AcDbSavedByObjectVersion
1070
     0
  0
VISUALSTYLE
  5
3A
102
{ACAD_REACTORS
330
2A
102
}
330
2A
100
AcDbVisualStyle
  2
ColorChange
 70
    16
 71
     2
 72
     2
 73
     3
 90
        0
 40
-0.6
 41
-30.0
 62
     5
 63
     8
 74
     1
 91
        4
 64
     7
 65
   257
 75
     1
175
     1
 42
1.0
 92
        8
 66
     8
 43
1.0
 76
     1
 77
     6
 78
     2
 67
     7
 79
     5
170
     0
171
     0
290
     0
174
     0
 93
        1
 44
0.0
173
     0
291
     1
 45
0.0
1001
ACAD
1000
AcDbSavedByObjectVersion
1070
     0
  0
VISUALSTYLE
  5
34
102
{ACAD_REACTORS
330
2A
102
}
330
2A
100
AcDbVisualStyle
  2
Conceptual
 70
     9
 71
     3
 72
     2
 73
     0
 90
        0
 40
-0.6
 41
-30.0
 62
     5
 63
     7
 74
     2
 91
        2
 64
     7
 65
   257
 75
     1
175
     1
 42
40.0
 92
        8
 66
     7
 43
1.0
 76
     1
 77
     6
 78
     2
 67
     7
 79
     3
170
     0
171
     0
290
     0
174
     0
 93
        1
 44
0.0
173
     0
291
     0
 45
0.0
1001
ACAD
1000
AcDbSavedByObjectVersion
1070
     0
  0
VISUALSTYLE
  5
35
102
{ACAD_REACTORS
330
2A
102
}
330
2A
100
AcDbVisualStyle
  2
Dim
 70
    11
 71
     2
 72
     2
 73
     0
 90
        0
 40
-0.6
 41
-30.0
 62
     5
 63
     7
 74
     1
 91
        4
 64
     7
 65
   257
 75
     1
175
     1
 42
1.0
 92
        8
 66
     7
 43
1.0
 76
     1
 77
     6
 78
     2
 67
     7
 79
     5
170
     0
171
     0
290
     0
174
     0
 93
        1
 44
-50.0
173
     0
291
     1
 45
0.0
1001
ACAD
1000
AcDbSavedByObjectVersion
1070
     0
  0
VISUALSTYLE
  5
39
102
{ACAD_REACTORS
330
2A
102
}
330
2A
100
AcDbVisualStyle
  2
Facepattern
 70
    15
 71
     2
 72
     2
 73
     0
 90
        0
 40
-0.6
 41
-30.0
 62
     5
 63
     7
 74
     1
 91
        4
 64
     7
 65
   257
 75
     1
175
     1
 42
1.0
 92
        8
 66
     7
 43
1.0
 76
     1
 77
     6
 78
     2
 67
     7
 79
     5
170
     0
171
     0
290
     0
174
     0
 93
        1
 44
0.0
173
     0
291
     1
 45
0.0
1001
ACAD
1000
AcDbSavedByObjectVersion
1070
     0
  0
VISUALSTYLE
  5
2B
102
{ACAD_REACTORS
330
2A
102
}
330
2A
100
AcDbVisualStyle
  2
Flat
 70
     0
 71
     2
 72
     1
 73
     1
 90
        2
 40
-0.6
 41
30.0
 62
     5
 63
     7
 74
     0
 91
        4
 64
     7
 65
   257
 75
     1
175
     1
 42
1.0
 92
        8
 66
     7
 43
1.0
 76
     1
 77
     6
 78
     2
 67
     7
 79
     5
170
     0
171
     0
290
     0
174
     0
 93
       13
 44
0.0
173
     0
291
     1
 45
0.0
1001
ACAD
1000
AcDbSavedByObjectVersion
1070
     0
  0
VISUALSTYLE
  5
2C
102
{ACAD_REACTORS
330
2A
102
}
330
2A
100
AcDbVisualStyle
  2
FlatWithEdges
 70
     1
 71
     2
 72
     1
 73
     1
 90
        2
 40
-0.6
 41
30.0
 62
     5
 63
     7
 74
     1
 91
        4
 64
     7
 65
   257
 75
     1
175
     1
 42
1.0
 92
        0
 66
   257
 43
1.0
 76
     1
 77
     6
 78
     2
 67
     7
 79
     5
170
     0
171
     0
290
     0
174
     0
 93
       13
 44
0.0
173
     0
291
     1
 45
0.0
1001
ACAD
1000
AcDbSavedByObjectVersion
1070
     0
  0
VISUALSTYLE
  5
2D
102
{ACAD_REACTORS
330
2A
102
}
330
2A
100
AcDbVisualStyle
  2
Gouraud
 70
     2
 71
     2
 72
     2
 73
     1
 90
        2
 40
-0.6
 41
30.0
 62
     5
 63
     7
 74
     0
 91
        4
 64
     7
 65
   257
 75
     1
175
     1
 42
1.0
 92
        0
 66
     7
 43
1.0
 76
     1
 77
     6
 78
     2
 67
     7
 79
     5
170
     0
171
     0
290
     0
174
     0
 93
       13
 44
0.0
173
     0
291
     1
 45
0.0
1001
ACAD
1000
AcDbSavedByObjectVersion
1070
     0
  0
VISUALSTYLE
  5
2E
102
{ACAD_REACTORS
330
2A
102
}
330
2A
100
AcDbVisualStyle
  2
GouraudWithEdges
 70
     3
 71
     2
 72
     2
 73
     1
 90
        2
 40
-0.6
 41
30.0
 62
     5
 63
     7
 74
     1
 91
        4
 64
     7
 65
   257
 75
     1
175
     1
 42
1.0
 92
        0
 66
   257
 43
1.0
 76
     1
 77
     6
 78
     2
 67
     7
 79
     5
170
     0
171
     0
290
     0
174
     0
 93
       13
 44
0.0
173
     0
291
     1
 45
0.0
1001
ACAD
1000
AcDbSavedByObjectVersion
1070
     0
  0
VISUALSTYLE
  5
38
102
{ACAD_REACTORS
330
2A
102
}
330
2A
100
AcDbVisualStyle
  2
Linepattern
 70
    14
 71
     2
 72
     2
 73
     0
 90
        0
 40
-0.6
 41
-30.0
 62
     5
 63
     7
 74
     1
 91
        4
 64
     7
 65
   257
 75
     7
175
     7
 42
1.0
 92
        8
 66
     7
 43
1.0
 76
     1
 77
     6
 78
     2
 67
     7
 79
     5
170
     0
171
     0
290
     0
174
     0
 93
        1
 44
0.0
173
     0
291
     1
 45
0.0
1001
ACAD
1000
AcDbSavedByObjectVersion
1070
     0
  0
VISUALSTYLE
  5
33
102
{ACAD_REACTORS
330
2A
102
}
330
2A
100
AcDbVisualStyle
  2
Realistic
 70
     8
 71
     2
 72
     2
 73
     0
 90
        0
 40
-0.6
 41
-30.0
 62
     5
 63
     7
 74
     1
 91
        0
 64
     7
 65
   257
 75
     1
175
     1
 42
1.0
 92
        8
 66
     8
 43
1.0
 76
     1
 77
     6
 78
     2
 67
     7
 79
     5
170
     0
171
     0
290
     0
174
     0
 93
       13
 44
0.0
173
     0
291
     0
 45
0.0
1001
ACAD
1000
AcDbSavedByObjectVersion
1070
     0
  0
VISUALSTYLE
  5
37
102
{ACAD_REACTORS
330
2A
102
}
330
2A
100
AcDbVisualStyle
  2
Thicken
 70
    13
 71
     2
 72
     2
 73
     0
 90
        0
 40
-0.6
 41
-30.0
 62
     5
 63
     7
 74
     1
 91
        4
 64
     7
 65
   257
 75
     1
175
     1
 42
1.0
 92
       12
 66
     7
 43
1.0
 76
     1
 77
     6
 78
     2
 67
     7
 79
     5
170
     0
171
     0
290
     0
174
     0
 93
        1
 44
0.0
173
     0
291
     1
 45
0.0
1001
ACAD
1000
AcDbSavedByObjectVersion
1070
     0
  0
DICTIONARYVAR
  5
298
102
{ACAD_REACTORS
330
293
102
}
330
293
100
DictionaryVariables
280
     0
  1
1:1
  0
DICTIONARYVAR
  5
297
102
{ACAD_REACTORS
330
293
102
}
330
293
100
DictionaryVariables
280
     0
  1
80.000000
  0
DICTIONARYVAR
  5
296
102
{ACAD_REACTORS
330
293
102
}
330
293
100
DictionaryVariables
280
     0
  1
5.000000
  0
ENDSEC
  0
EOF
